osu file format v14

[General]
AudioFilename: audio.mp3
AudioLeadIn: 0
PreviewTime: 136615
Countdown: 0
SampleSet: Soft
StackLeniency: 0.7
Mode: 0
LetterboxInBreaks: 0
WidescreenStoryboard: 0

[Editor]
Bookmarks: 3692,18461,33230,47999,77538,136615
DistanceSpacing: 0.1
BeatDivisor: 8
GridSize: 8
TimelineZoom: 1.8

[Metadata]
Title:Soulless 5
TitleUnicode:Soulless 5
Artist:ExileLord
ArtistUnicode:ExileLord
Creator:robicoco101
Version:
Source:
Tags:
BeatmapID:1982264
BeatmapSetID:949276

[Difficulty]
HPDrainRate:5
CircleSize:4
OverallDifficulty:8.6
ApproachRate:9.4
SliderMultiplier:1.4
SliderTickRate:1

[Events]
//Background and Video events
0,0,"Coast_Little_girls_Clouds_532086_3840x2160.jpg",0,0
//Break Periods
//Storyboard Layer 0 (Background)
//Storyboard Layer 1 (Fail)
//Storyboard Layer 2 (Pass)
//Storyboard Layer 3 (Foreground)
//Storyboard Sound Samples

[TimingPoints]
3692,461.538461538462,4,2,0,40,1,0
3692,-125,4,2,0,10,0,0
4615,-166.666666666667,4,2,0,10,0,0
5538,-333.333333333333,4,2,0,10,0,0
6461,-500,4,2,0,10,0,0
7384,-250,4,2,0,10,0,0
8307,-142.857142857143,4,2,0,10,0,0
9230,-125,4,2,0,10,0,0
10153,-142.857142857143,4,2,0,10,0,0
11076,-100,4,2,0,10,0,0
11999,-71.4285714285714,4,2,0,10,0,0
14768,-83.3333333333333,4,2,0,10,0,0
15692,-100,4,2,0,10,0,0
18461,-33.3333333333333,4,2,0,30,0,0
38307,-100,4,2,0,30,0,0
38768,-33.3333333333333,4,2,0,30,0,0
39692,-50,4,2,0,30,0,0

[Colours]
Combo1 : 128,255,255
Combo2 : 255,192,45

[HitObjects]
101,103,3692,6,0,L|160:118,3,56
354,133,4615,6,0,L|311:145,3,41.9999987182618
192,197,5538,6,0,L|213:203,3,20.9999993591309
284,261,6461,6,0,L|270:264,3,14
428,278,7384,6,0,L|430:310,3,28
353,187,8307,6,0,L|349:238,3,48.9999985046387
443,80,9230,6,0,L|446:143,1,56
326,110,9692,1,0,0:0:0:0:
326,110,9922,1,0,0:0:0:0:
183,111,10153,6,0,P|177:156|173:166,1,48.9999985046387
74,215,10615,2,0,P|80:170|84:160,1,48.9999985046387
176,249,11076,6,0,P|168:307|163:319,3,70
34,314,11999,5,0,0:0:0:0:
123,380,12230,1,0,0:0:0:0:
230,384,12461,1,0,0:0:0:0:
319,318,12692,1,0,0:0:0:0:
396,237,12922,6,0,L|404:342,1,97.9999970092774
491,159,13384,2,0,L|483:264,1,97.9999970092774
425,42,13845,5,0,0:0:0:0:
332,128,14076,1,0,0:0:0:0:
300,6,14307,1,0,0:0:0:0:
207,92,14538,1,0,0:0:0:0:
162,0,14768,6,0,B|131:31|131:31|104:71,3,83.9999974365235
88,177,15692,5,0,0:0:0:0:
91,211,15922,1,0,0:0:0:0:
102,322,16153,1,0,0:0:0:0:
99,288,16384,1,0,0:0:0:0:
179,348,16615,5,0,0:0:0:0:
182,314,16846,1,0,0:0:0:0:
196,208,17077,1,0,0:0:0:0:
193,242,17307,1,0,0:0:0:0:
285,175,17538,5,0,0:0:0:0:
290,265,17768,1,0,0:0:0:0:
287,215,17999,1,0,0:0:0:0:
294,318,18230,1,0,0:0:0:0:
382,331,18461,5,0,0:0:0:0:
382,331,18576,1,0,0:0:0:0:
382,331,18692,2,0,L|388:202,1,105.000004005432
453,93,18922,5,0,0:0:0:0:
453,93,19037,1,0,0:0:0:0:
453,93,19153,2,0,L|459:210,1,105.000004005432
273,111,19384,5,0,0:0:0:0:
273,111,19499,1,0,0:0:0:0:
273,111,19615,2,0,L|279:-1,1,105.000004005432
108,116,19845,5,0,0:0:0:0:
108,116,19960,1,0,0:0:0:0:
108,116,20076,2,0,L|109:222,1,105.000004005432
139,308,20307,6,0,L|239:207,1,105.000004005432
373,74,20538,2,0,L|288:158,1,105.000004005432
256,357,20768,2,0,L|256:246,1,105.000004005432
256,26,20999,2,0,L|256:134,1,105.000004005432
372,308,21230,2,0,L|290:226,1,105.000004005432
138,74,21461,2,0,L|219:155,1,105.000004005432
422,192,21692,2,0,L|314:192,1,105.000004005432
91,191,21922,2,0,L|199:192,1,105.000004005432
401,109,22153,5,0,0:0:0:0:
401,109,22268,1,0,0:0:0:0:
401,109,22384,2,0,L|392:253,1,105.000004005432
269,346,22615,5,0,0:0:0:0:
269,346,22730,1,0,0:0:0:0:
269,346,22846,2,0,L|260:202,1,105.000004005432
131,113,23076,5,0,0:0:0:0:
131,113,23191,1,0,0:0:0:0:
131,113,23307,2,0,L|122:257,1,105.000004005432
277,139,23538,5,0,0:0:0:0:
276,122,23653,1,0,0:0:0:0:
275,109,23769,2,0,L|266:-35,1,105.000004005432
438,3,23999,5,0,0:0:0:0:
435,34,24114,1,0,0:0:0:0:
433,61,24230,2,0,L|424:205,1,105.000004005432
465,298,24461,6,0,P|439:273|359:256,1,105.000004005432
218,314,24692,2,0,P|244:339|324:356,1,105.000004005432
167,252,24922,2,0,P|134:325|161:377,1,105.000004005432,0|0,0:3|0:3,0:3:0:0:
251,235,25153,2,0,P|283:161|256:109,1,105.000004005432,0|0,0:3|0:3,0:3:0:0:
200,62,25384,5,0,0:0:0:0:
200,62,25499,1,0,0:0:0:0:
200,62,25615,2,0,L|192:195,1,105.000004005432
344,104,25845,5,0,0:0:0:0:
344,104,25960,1,0,0:0:0:0:
344,104,26076,2,0,L|336:-29,1,105.000004005432
125,0,26307,5,0,0:0:0:0:
125,0,26422,1,0,0:0:0:0:
125,0,26538,2,0,L|117:133,1,105.000004005432
88,269,26768,6,0,P|140:223|198:219,1,105.000004005432
334,254,26999,2,0,P|282:300|224:304,1,105.000004005432
297,186,27230,2,0,P|381:190|415:229,1,105.000004005432
487,341,27461,2,0,P|403:337|369:298,1,105.000004005432
489,157,27692,5,0,0:0:0:0:
489,157,27807,1,0,0:0:0:0:
489,157,27922,2,0,L|481:263,1,105.000004005432
349,125,28153,5,0,0:0:0:0:
349,125,28268,1,0,0:0:0:0:
349,125,28383,2,0,L|341:19,1,105.000004005432
148,74,28615,6,0,P|125:139|150:183,1,105.000004005432
280,186,28845,2,0,P|235:133|184:133,1,105.000004005432
121,252,29076,2,0,P|188:239|214:195,1,105.000004005432
55,201,29307,2,0,P|43:281|72:318,1,105.000004005432
194,384,29538,5,0,0:0:0:0:
194,384,29653,1,0,0:0:0:0:
194,384,29768,2,0,L|186:270,1,105.000004005432
335,220,29999,5,0,0:0:0:0:
335,220,30115,1,0,0:0:0:0:
335,220,30230,2,0,L|327:334,1,105.000004005432
488,275,30461,6,0,P|497:202|473:155,1,105.000004005432
354,100,30692,2,0,P|340:49|352:0,1,105.000004005432
435,114,30922,2,0,P|394:172|348:175,1,105.000004005432
249,95,31153,2,0,P|200:112|178:158,1,105.000004005432
264,253,31384,5,0,0:0:0:0:
255,272,31615,1,0,0:0:0:0:
246,291,31845,1,0,0:0:0:0:
238,310,32076,1,0,0:0:0:0:
230,329,32307,1,0,0:0:0:0:
106,310,32538,5,0,0:0:0:0:
106,310,32595,1,0,0:0:0:0:
106,310,32653,1,0,0:0:0:0:
106,310,32711,1,0,0:0:0:0:
106,310,32768,2,0,P|136:255|123:192,1,105.000004005432
37,140,32999,1,0,0:0:0:0:
37,140,33057,1,0,0:0:0:0:
37,140,33115,1,0,0:0:0:0:
166,126,33230,6,0,P|246:126|280:104,1,105.000004005432
330,30,33461,2,0,P|250:30|216:52,1,105.000004005432
353,167,33692,2,0,P|433:167|467:145,1,105.000004005432
437,8,33922,2,0,P|397:77|399:117,1,105.000004005432,0|0,0:3|0:3,0:3:0:0:
460,321,34153,6,0,L|455:260,1,52.5000020027161
381,192,34268,2,0,L|385:244,1,52.5000020027161
448,338,34384,2,0,L|443:277,1,52.5000020027161
369,209,34499,2,0,L|373:261,1,52.5000020027161
320,364,34615,6,0,L|315:303,1,52.5000020027161
241,235,34730,2,0,L|245:287,1,52.5000020027161
308,381,34846,2,0,L|303:320,1,52.5000020027161
229,252,34961,2,0,L|233:304,1,52.5000020027161
159,369,35076,6,0,L|148:217,1,105.000004005432
122,98,35307,2,0,P|161:163|201:172,1,105.000004005432
292,77,35538,2,0,P|216:78|188:108,1,105.000004005432
226,237,35768,2,0,P|262:170|250:131,1,105.000004005432
142,19,35999,6,0,L|252:9,1,105.000004005432
383,4,36230,2,0,L|370:117,1,105.000004005432
462,162,36461,2,0,L|383:244,1,105.000004005432
397,336,36692,2,0,L|284:352,1,105.000004005432
224,236,36922,6,0,L|221:294,1,52.5000020027161
147,376,37038,2,0,L|150:318,1,52.5000020027161
209,223,37153,2,0,L|206:281,1,52.5000020027161
132,363,37269,2,0,L|135:305,1,52.5000020027161
132,180,37384,6,0,L|129:238,1,52.5000020027161
55,320,37500,2,0,L|58:262,1,52.5000020027161
117,167,37615,2,0,L|114:225,1,52.5000020027161
40,307,37731,2,0,L|43:249,1,52.5000020027161
42,97,37845,6,0,L|40:145,11,35.0000013351441
67,130,38307,6,0,L|112:124,3,35
196,90,38768,6,0,L|192:155,1,52.5000020027161
244,247,38884,2,0,L|247:194,1,52.5000020027161
209,73,38999,2,0,L|205:138,1,52.5000020027161
257,230,39115,2,0,L|260:177,1,52.5000020027161
293,27,39230,6,0,L|289:92,1,52.5000020027161
351,232,39346,2,0,L|354:179,1,52.5000020027161
312,10,39461,2,0,L|308:75,1,52.5000020027161
370,215,39577,2,0,L|373:162,1,52.5000020027161
435,9,39692,6,0,B|439:42|439:42|437:56|437:56|445:62|445:62|450:76|450:76|451:85|451:85|453:109|453:109|463:127,1,105
512,155,39922,2,0,B|492:193|492:193|499:208|499:208|489:225|489:225|491:251|491:251|493:255|498:269|498:269,1,105
497,335,40153,2,0,B|461:325|461:325|449:342|447:338|432:315|431:315|425:328|425:328|415:315|414:314|395:326|395:326|381:324,1,105
339,356,40384,2,0,B|303:351|303:351|297:343|297:343|283:338|283:338|270:357|254:344|254:344|252:344|240:340|235:333,1,105
