osu file format v14

[General]
AudioFilename: audio.mp3
AudioLeadIn: 0
PreviewTime: 245526
Countdown: 0
SampleSet: Normal
StackLeniency: 0.2
Mode: 0
LetterboxInBreaks: 0
WidescreenStoryboard: 1

[Editor]
Bookmarks: 3710,18450,33219,47988,77526,92296,107065,136603,151373,166142,173526,188296,195680,203065,217834,247372,262141,275064,276910,291679,306448,321217,350755,380293,409831,439369,454138,468907,498446,513215,527984,542753,572292,587061,601830,616599,646138,660907,690446,705215,719984,734753,764291,793829,801213,815982,830752,845521,860290,875059,889828,904597,919366,932290,934136,948905,963674,978443,993212,1007981
DistanceSpacing: 4
BeatDivisor: 3
GridSize: 32
TimelineZoom: 2.000005

[Metadata]
Title:Soulless 5
TitleUnicode:Soulless 5
Artist:ExileLord
ArtistUnicode:ExileLord
Creator:minelolpride
Version:Senseless
Source:Clone Hero
Tags:suffering get_smoked my_hand_HURTS
BeatmapID:1731064
BeatmapSetID:825915

[Difficulty]
HPDrainRate:5
CircleSize:4.2
OverallDifficulty:6
ApproachRate:9.5
SliderMultiplier:2.1
SliderTickRate:1

[Events]
//Background and Video events
0,0,"bg.jpg",0,0
//Break Periods
2,48158,76776
2,92265,106540
2,380493,409306
//Storyboard Layer 0 (Background)
//Storyboard Layer 1 (Fail)
//Storyboard Layer 2 (Pass)
//Storyboard Layer 3 (Foreground)
//Storyboard Sound Samples

[TimingPoints]
17,-1E-299,4,1,0,100,1,0
3710,461.538461538462,4,1,0,100,1,0
18450,230.769230769231,4,1,0,100,1,0
83757,-200,4,1,0,100,0,0
83988,-100,4,1,0,100,0,0
87450,-200,4,1,0,100,0,0
87680,-1000,4,1,0,100,0,0
88603,-100,4,1,0,100,0,0
89296,-200,4,1,0,100,0,0
89526,-133.333333333333,4,1,0,100,0,0
90450,-100,4,1,0,100,0,0
91142,-200,4,1,0,100,0,0
91373,-133.333333333333,4,1,0,100,0,0
121373,-50,4,1,0,100,0,0
121603,-100,4,1,0,100,0,0
136142,-50,4,1,0,100,0,0
136373,-100,4,1,0,100,0,0
137065,-200,4,1,0,100,0,0
137526,-66.6666666666667,4,1,0,100,0,0
138911,-200,4,1,0,100,0,0
139373,-66.6666666666667,4,1,0,100,0,0
140757,-100,4,1,0,100,0,0
141219,-66.6666666666667,4,1,0,100,0,0
142603,-100,4,1,0,100,0,0
143065,-66.6666666666667,4,1,0,100,0,0
144450,-200,4,1,0,100,0,0
144911,-66.6666666666667,4,1,0,100,0,0
146296,-200,4,1,0,100,0,0
146757,-66.6666666666667,4,1,0,100,0,0
148142,-100,4,1,0,100,0,0
148603,-66.6666666666667,4,1,0,100,0,0
166603,-200,4,1,0,100,0,0
167065,-66.6666666666667,4,1,0,100,0,0
168450,-200,4,1,0,100,0,0
168911,-66.6666666666667,4,1,0,100,0,0
170296,-200,4,1,0,100,0,0
170757,-66.6666666666667,4,1,0,100,0,0
172142,-66.6666666666667,4,1,0,100,0,0
173526,-100,4,1,0,100,0,0
173988,-66.6666666666667,4,1,0,100,0,0
174911,-50,4,1,0,100,0,0
175373,-100,4,1,0,100,0,0
176065,-66.6666666666667,4,1,0,100,0,0
176296,-55.5555555555556,4,1,0,100,0,0
177219,-100,4,1,0,100,0,0
178603,-76.9230769230769,4,1,0,100,0,0
179065,-66.6666666666667,4,1,0,100,0,0
179988,-83.3333333333333,4,1,0,100,0,0
180911,-66.6666666666667,4,1,0,100,0,0
182757,-80,4,1,0,100,0,0
183680,-200,4,1,0,100,0,0
184603,-100,4,1,0,100,0,0
203065,-400,4,1,0,100,0,0
203296,-90.9090909090909,4,1,0,100,0,0
203526,-400,4,1,0,100,0,0
203757,-90.9090909090909,4,1,0,100,0,0
203988,-400,4,1,0,100,0,0
204219,-90.9090909090909,4,1,0,100,0,0
204449,-400,4,1,0,100,0,0
204680,-90.9090909090909,4,1,0,100,0,0
204911,-400,4,1,0,100,0,0
205142,-90.9090909090909,4,1,0,100,0,0
205373,-400,4,1,0,100,0,0
205603,-90.9090909090909,4,1,0,100,0,0
205834,-400,4,1,0,100,0,0
206065,-90.9090909090909,4,1,0,100,0,0
206296,-400,4,1,0,100,0,0
206526,-90.9090909090909,4,1,0,100,0,0
206757,-400,4,1,0,100,0,0
206988,-90.9090909090909,4,1,0,100,0,0
207219,-400,4,1,0,100,0,0
207450,-90.9090909090909,4,1,0,100,0,0
207680,-400,4,1,0,100,0,0
207911,-90.9090909090909,4,1,0,100,0,0
208142,-400,4,1,0,100,0,0
208373,-90.9090909090909,4,1,0,100,0,0
208603,-400,4,1,0,100,0,0
208834,-90.9090909090909,4,1,0,100,0,0
209065,-400,4,1,0,100,0,0
209296,-90.9090909090909,4,1,0,100,0,0
209526,-400,4,1,0,100,0,0
209757,-90.9090909090909,4,1,0,100,0,0
209988,-400,4,1,0,100,0,0
210219,-90.9090909090909,4,1,0,100,0,0
217834,461.538461538462,4,1,0,100,1,0
243680,-1000,4,1,0,100,0,0
247372,1E-299,4,1,0,100,1,0
247373,230.769230769231,4,1,0,100,1,0
247373,-25,4,1,0,100,0,0
248296,-40,4,1,0,100,0,0
250142,-50,4,1,0,100,0,0
250603,-100,4,1,0,100,0,0
251065,-41.6666666666667,4,1,0,100,0,0
252911,-66.6666666666667,4,1,0,100,0,0
254757,1E-299,4,1,0,100,1,0
254758,230.769230769231,4,1,0,100,1,0
254758,-50,4,1,0,100,0,0
255219,-66.6666666666667,4,1,0,100,0,0
255681,-50,4,1,0,100,0,0
258450,-100,4,1,0,100,0,0
262142,-66.6666666666667,4,1,0,100,0,0
263527,-50,4,1,0,100,0,0
264911,-100,4,1,0,100,0,0
265373,-66.6666666666667,4,1,0,100,0,0
265834,-83.3333333333333,4,1,0,100,0,0
269065,-66.6666666666667,4,1,0,100,0,0
269527,-83.3333333333333,4,1,0,100,0,0
275064,461.538461538462,4,1,0,100,1,0
276910,230.769230769231,4,1,0,100,1,0
279679,-74.0740740740741,4,1,0,100,0,0
280602,-500,4,1,0,100,0,0
282910,-74.0740740740741,4,1,0,100,0,0
284756,-50,4,1,0,100,0,0
286602,-66.6666666666667,4,1,0,100,0,0
287986,-100,4,1,0,100,0,0
290756,-62.5,4,1,0,100,0,0
299063,-500,4,1,0,100,0,0
306448,-90.9090909090909,4,1,0,100,0,0
309217,-200,4,1,0,100,0,0
321217,923.076923076923,4,1,0,100,1,0
321217,-200,4,1,0,100,0,0
350755,-66.6666666666667,4,1,0,100,0,0
359986,-33.3333333333333,4,1,0,100,0,0
360909,-25,4,1,0,100,0,0
363909,-28.5714285714286,4,1,0,100,0,0
364140,-33.3333333333333,4,1,0,100,0,0
365524,-133.333333333333,4,1,0,100,0,0
372909,-100,4,1,0,100,0,0
380293,923.076923076923,4,1,0,100,1,0
409831,461.538461538462,4,1,0,100,1,0
409831,-200,4,1,0,100,0,0
421831,-133.333333333333,4,1,0,100,0,0
443984,-66.6666666666667,4,1,0,100,0,0
444907,-50,4,1,0,100,0,0
450907,-66.6666666666667,4,1,0,100,0,0
451369,-66.6666666666667,4,1,0,100,0,0
452292,-133.333333333333,4,1,0,100,0,0
459677,-100,4,1,0,100,0,0
498446,230.769230769231,4,1,0,100,1,0
734753,923.076923076923,4,1,0,100,1,0
793829,230.769230769231,4,1,0,100,1,0
845521,461.538461538462,4,1,0,100,1,0
860290,230.769230769231,4,1,0,100,1,0
932290,115.384615384615,4,1,0,100,1,0
934136,1846.15384615385,4,1,0,100,1,0
948905,923.076923076923,4,1,0,100,1,0
963674,230.769230769231,4,1,0,100,1,0
1007981,923.076923076923,4,1,0,100,1,0

[HitObjects]
123,95,18450,6,0,L|177:131,1,52.5
337,210,18565,1,0,0:0:0:0:
133,278,18680,1,0,0:0:0:0:
351,192,18796,1,0,0:0:0:0:
153,92,18911,2,0,L|139:175,1,52.5
193,300,19026,1,0,0:0:0:0:
326,97,19142,1,0,0:0:0:0:
208,300,19257,1,0,0:0:0:0:
286,85,19373,6,0,L|252:143,1,52.5,0|0,0:0|0:0,0:0:0:0:
169,260,19488,1,0,0:0:0:0:
353,120,19603,1,0,0:0:0:0:
109,202,19719,1,0,0:0:0:0:
141,85,19834,2,0,L|218:135,1,52.5,0|0,0:0|0:0,0:0:0:0:
369,239,19950,1,0,0:0:0:0:
250,80,20065,1,0,0:0:0:0:
283,295,20180,1,0,0:0:0:0:
344,101,20296,6,0,L|281:138,1,52.5,0|0,0:0|0:0,0:0:0:0:
205,190,20411,1,0,0:0:0:0:
238,107,20526,1,0,0:0:0:0:
166,266,20642,1,0,0:0:0:0:
273,268,20757,1,0,0:0:0:0:
96,186,20873,1,0,0:0:0:0:
290,201,20988,1,0,0:0:0:0:
180,99,21103,1,0,0:0:0:0:
249,95,21219,6,0,L|228:154,1,52.5,0|0,0:0|0:0,0:0:0:0:
165,277,21334,1,0,0:0:0:0:
171,101,21450,1,0,0:0:0:0:
256,265,21565,1,0,0:0:0:0:
270,51,21680,1,0,0:0:0:0:
136,320,21796,1,0,0:0:0:0:
149,51,21911,1,0,0:0:0:0:
298,316,22026,1,0,0:0:0:0:
184,63,22142,6,0,L|170:137,1,52.5,0|0,0:0|0:0,0:0:0:0:
148,237,22257,1,0,0:0:0:0:
253,158,22373,1,0,0:0:0:0:
350,62,22488,1,0,0:0:0:0:
384,179,22603,2,0,L|397:254,1,52.5,0|0,0:0|0:0,0:0:0:0:
415,351,22719,1,0,0:0:0:0:
288,284,22834,1,0,0:0:0:0:
168,212,22950,1,0,0:0:0:0:
160,113,23065,6,0,L|84:132,1,52.5,0|0,0:0|0:0,0:0:0:0:
241,88,23180,1,0,0:0:0:0:
79,133,23296,1,0,0:0:0:0:
328,54,23411,1,0,0:0:0:0:
243,168,23526,2,0,L|309:152,1,52.5,0|0,0:0|0:0,0:0:0:0:
174,181,23642,1,0,0:0:0:0:
358,137,23757,1,0,0:0:0:0:
108,201,23873,1,0,0:0:0:0:
248,110,23988,6,0,L|234:167,1,52.5,0|0,0:0|0:0,0:0:0:0:
291,214,24103,1,0,0:0:0:0:
171,175,24219,1,0,0:0:0:0:
291,142,24334,1,0,0:0:0:0:
192,244,24450,1,0,0:0:0:0:
220,120,24565,1,0,0:0:0:0:
260,250,24680,1,0,0:0:0:0:
144,171,24796,1,0,0:0:0:0:
309,216,24911,6,0,L|359:252,1,52.5,0|0,0:0|0:0,0:0:0:0:
395,145,25026,1,0,0:0:0:0:
412,283,25142,1,0,0:0:0:0:
269,134,25257,1,0,0:0:0:0:
438,213,25373,1,0,0:0:0:0:
288,306,25488,1,0,0:0:0:0:
350,95,25603,1,0,0:0:0:0:
416,302,25719,1,0,0:0:0:0:
170,82,25834,6,0,L|137:161,1,52.5,0|0,0:0|0:0,0:0:0:0:
233,56,25950,1,0,0:0:0:0:
84,170,26065,1,0,0:0:0:0:
233,56,26180,1,0,0:0:0:0:
200,141,26296,6,0,L|233:220,1,52.5,0|0,0:0|0:0,0:0:0:0:
137,115,26412,1,0,0:0:0:0:
286,229,26527,1,0,0:0:0:0:
137,115,26642,1,0,0:0:0:0:
254,294,26757,6,0,L|221:215,1,52.5,0|0,0:0|0:0,0:0:0:0:
317,320,26873,1,0,0:0:0:0:
168,206,26988,1,0,0:0:0:0:
317,320,27103,1,0,0:0:0:0:
376,122,27219,6,0,L|354:204,1,52.5,0|0,0:0|0:0,0:0:0:0:
341,63,27335,1,0,0:0:0:0:
391,244,27450,1,0,0:0:0:0:
341,63,27565,1,0,0:0:0:0:
238,138,27680,6,0,L|259:190,1,52.5,0|0,0:0|0:0,0:0:0:0:
166,105,27796,1,0,0:0:0:0:
241,262,27911,1,0,0:0:0:0:
150,94,28026,1,0,0:0:0:0:
154,273,28142,1,0,0:0:0:0:
201,88,28257,1,0,0:0:0:0:
118,291,28373,1,0,0:0:0:0:
228,61,28488,1,0,0:0:0:0:
295,82,28603,6,0,L|242:122,1,52.5,0|0,0:0|0:0,0:0:0:0:
92,208,28719,1,0,0:0:0:0:
353,189,28834,2,0,L|286:182,1,52.5,0|0,0:0|0:0,0:0:0:0:
99,127,28950,1,0,0:0:0:0:
315,279,29065,2,0,L|268:231,1,52.5,0|0,0:0|0:0,0:0:0:0:
138,57,29181,1,0,0:0:0:0:
203,311,29296,2,0,L|209:244,1,52.5,0|0,0:0|0:0,0:0:0:0:
225,16,29412,1,0,0:0:0:0:
218,121,29526,6,0,L|203:178,1,52.5,0|0,0:0|0:0,0:0:0:0:
157,306,29642,1,0,0:0:0:0:
56,174,29757,1,0,0:0:0:0:
157,306,29873,1,0,0:0:0:0:
218,121,29988,6,0,L|233:178,1,52.5,0|0,0:0|0:0,0:0:0:0:
279,306,30104,1,0,0:0:0:0:
380,174,30219,1,0,0:0:0:0:
279,306,30335,1,0,0:0:0:0:
270,232,30450,6,0,L|208:261,1,52.5,0|0,0:0|0:0,0:0:0:0:
108,308,30565,1,0,0:0:0:0:
87,186,30680,6,0,L|149:215,1,52.5,0|0,0:0|0:0,0:0:0:0:
249,262,30795,1,0,0:0:0:0:
254,127,30911,6,0,L|198:167,1,52.5,0|0,0:0|0:0,0:0:0:0:
109,232,31026,1,0,0:0:0:0:
104,110,31142,6,0,L|159:150,1,52.5,0|0,0:0|0:0,0:0:0:0:
248,215,31257,1,0,0:0:0:0:
256,192,31373,12,0,32988,0:0:0:0:
140,84,33219,6,0,L|126:157,1,52.5,0|0,0:0|0:0,0:0:0:0:
199,125,33334,1,0,0:0:0:0:
277,62,33450,1,0,0:0:0:0:
295,163,33565,1,0,0:0:0:0:
320,269,33680,2,0,L|334:342,1,52.5,0|0,0:0|0:0,0:0:0:0:
261,310,33796,1,0,0:0:0:0:
183,247,33911,1,0,0:0:0:0:
165,348,34026,1,0,0:0:0:0:
74,286,34142,6,0,L|134:347,1,52.5,0|0,0:0|0:0,0:0:0:0:
136,276,34257,2,0,L|83:258,1,52.5,0|0,0:0|0:0,0:0:0:0:
122,218,34373,2,0,L|182:279,1,52.5,0|0,0:0|0:0,0:0:0:0:
184,208,34488,2,0,L|131:190,1,52.5,0|0,0:0|0:0,0:0:0:0:
175,159,34603,2,0,L|235:220,1,52.5,0|0,0:0|0:0,0:0:0:0:
237,149,34719,2,0,L|184:131,1,52.5,0|0,0:0|0:0,0:0:0:0:
224,92,34834,2,0,L|284:153,1,52.5,0|0,0:0|0:0,0:0:0:0:
286,82,34950,2,0,L|233:64,1,52.5,0|0,0:0|0:0,0:0:0:0:
141,44,35065,6,0,L|114:102,1,52.5,0|0,0:0|0:0,0:0:0:0:
86,150,35180,1,0,0:0:0:0:
178,112,35296,2,0,L|151:170,1,52.5,0|0,0:0|0:0,0:0:0:0:
123,218,35411,1,0,0:0:0:0:
216,170,35526,2,0,L|189:228,1,52.5,0|0,0:0|0:0,0:0:0:0:
161,276,35642,1,0,0:0:0:0:
250,235,35757,2,0,L|223:293,1,52.5,0|0,0:0|0:0,0:0:0:0:
195,341,35873,1,0,0:0:0:0:
288,288,35988,6,0,L|357:265,1,52.5,0|0,0:0|0:0,0:0:0:0:
416,320,36103,1,0,0:0:0:0:
192,224,36219,2,0,L|123:201,1,52.5,0|0,0:0|0:0,0:0:0:0:
64,256,36334,1,0,0:0:0:0:
352,160,36450,2,0,L|421:137,1,52.5,0|0,0:0|0:0,0:0:0:0:
480,192,36565,1,0,0:0:0:0:
128,96,36680,2,0,L|59:73,1,52.5,0|0,0:0|0:0,0:0:0:0:
0,128,36796,1,0,0:0:0:0:
160,224,36911,6,0,L|175:166,1,52.5,0|0,0:0|0:0,0:0:0:0:
192,224,37026,2,0,L|207:166,1,52.5,0|0,0:0|0:0,0:0:0:0:
224,224,37142,2,0,L|239:166,1,52.5,0|0,0:0|0:0,0:0:0:0:
256,224,37257,2,0,L|271:166,1,52.5,0|0,0:0|0:0,0:0:0:0:
320,64,37373,2,0,L|305:122,1,52.5,0|0,0:0|0:0,0:0:0:0:
288,64,37488,2,0,L|273:122,1,52.5,0|0,0:0|0:0,0:0:0:0:
256,64,37604,2,0,L|241:122,1,52.5,0|0,0:0|0:0,0:0:0:0:
224,64,37719,2,0,L|209:122,1,52.5,0|0,0:0|0:0,0:0:0:0:
171,106,37834,5,0,0:0:0:0:
144,163,37892,1,0,0:0:0:0:
139,226,37950,1,0,0:0:0:0:
158,285,38007,1,0,0:0:0:0:
209,321,38065,1,0,0:0:0:0:
241,266,38123,1,0,0:0:0:0:
260,206,38180,1,0,0:0:0:0:
262,142,38238,1,0,0:0:0:0:
239,83,38296,6,0,L|289:49,1,52.5,0|0,0:0|0:0,0:0:0:0:
300,296,38411,2,0,L|246:275,1,52.5
239,83,38526,2,0,L|289:49,1,52.5
300,296,38642,2,0,L|246:275,1,52.5,0|0,0:0|0:0,0:0:0:0:
136,119,38757,6,0,L|80:142,1,52.5,0|0,0:0|0:0,0:0:0:0:
95,247,38873,2,0,L|110:307,1,52.5,0|0,0:0|0:0,0:0:0:0:
231,71,38988,2,0,L|157:88,1,52.5,0|0,0:0|0:0,0:0:0:0:
154,221,39104,2,0,L|160:298,1,52.5,0|0,0:0|0:0,0:0:0:0:
358,53,39219,2,0,L|266:48,1,52.5,0|0,0:0|0:0,0:0:0:0:
217,202,39335,2,0,L|199:294,1,52.5,0|0,0:0|0:0,0:0:0:0:
484,103,39450,2,0,L|395:54,1,52.5,0|0,0:0|0:0,0:0:0:0:
272,182,39566,2,0,L|209:264,1,52.5,0|0,0:0|0:0,0:0:0:0:
229,171,39680,6,0,L|257:134,1,26.25,0|0,0:0|0:0,0:0:0:0:
221,156,39738,2,0,L|249:119,1,26.25,0|0,0:0|0:0,0:0:0:0:
214,142,39796,2,0,L|242:105,1,26.25,0|0,0:0|0:0,0:0:0:0:
207,127,39853,2,0,L|235:90,1,26.25,0|0,0:0|0:0,0:0:0:0:
158,126,39911,6,0,L|116:146,1,26.25,0|0,0:0|0:0,0:0:0:0:
158,142,39969,2,0,L|116:162,1,26.25,0|0,0:0|0:0,0:0:0:0:
158,158,40026,2,0,L|116:178,1,26.25,0|0,0:0|0:0,0:0:0:0:
158,174,40084,2,0,L|116:194,1,26.25,0|0,0:0|0:0,0:0:0:0:
174,228,40142,6,0,L|162:273,1,26.25,0|0,0:0|0:0,0:0:0:0:
186,238,40200,2,0,L|174:283,1,26.25,0|0,0:0|0:0,0:0:0:0:
198,248,40257,2,0,L|186:293,1,26.25,0|0,0:0|0:0,0:0:0:0:
210,258,40315,2,0,L|198:303,1,26.25,0|0,0:0|0:0,0:0:0:0:
269,253,40373,6,0,L|311:272,1,26.25
281,242,40430,2,0,L|323:261,1,26.25,0|0,0:0|0:0,0:0:0:0:
293,232,40488,2,0,L|335:251,1,26.25,0|0,0:0|0:0,0:0:0:0:
305,222,40546,2,0,L|347:241,1,26.25
317,162,40603,6,0,L|274:142,1,26.25
252,125,40719,1,0,0:0:0:0:
255,62,40834,1,0,0:0:0:0:
203,98,40950,1,0,0:0:0:0:
92,124,41065,6,0,L|134:143,1,26.25
157,161,41181,1,0,0:0:0:0:
154,224,41296,1,0,0:0:0:0:
206,188,41412,1,0,0:0:0:0:
157,70,41526,6,0,L|96:117,1,52.5,0|0,0:0|0:0,0:0:0:0:
175,129,41642,2,0,L|141:179,1,52.5,0|0,0:0|0:0,0:0:0:0:
206,188,41757,2,0,L|189:246,1,52.5,0|0,0:0|0:0,0:0:0:0:
260,225,41873,2,0,L|254:289,1,52.5,0|0,0:0|0:0,0:0:0:0:
350,251,41988,6,0,L|402:239,1,52.5,0|0,0:0|0:0,0:0:0:0:
196,286,42103,2,0,L|208:338,1,52.5,0|0,0:0|0:0,0:0:0:0:
161,132,42219,2,0,L|109:144,1,52.5,0|0,0:0|0:0,0:0:0:0:
315,97,42334,2,0,L|303:45,1,52.5,0|0,0:0|0:0,0:0:0:0:
394,73,42450,6,0,L|380:104,1,26.25
277,235,42680,2,0,L|263:266,1,26.25
168,63,42911,2,0,L|154:94,1,26.25
100,289,43142,2,0,L|86:320,1,26.25
160,119,43373,6,0,L|136:184,1,52.5,0|0,0:0|0:0,0:0:0:0:
160,265,43488,2,0,L|136:200,1,52.5,0|0,0:0|0:0,0:0:0:0:
246,91,43603,2,0,L|219:164,1,52.5,0|0,0:0|0:0,0:0:0:0:
246,293,43719,2,0,L|219:220,1,52.5,0|0,0:0|0:0,0:0:0:0:
330,96,43834,2,0,L|307:154,1,52.5,0|0,0:0|0:0,0:0:0:0:
153,301,43950,2,0,L|218:258,1,52.5,0|0,0:0|0:0,0:0:0:0:
401,302,44065,2,0,L|346:275,1,52.5,0|0,0:0|0:0,0:0:0:0:
88,174,44180,2,0,L|156:137,1,52.5,0|0,0:0|0:0,0:0:0:0:
223,58,44296,6,0,L|199:166,1,105
273,121,44526,2,0,L|249:229,1,105
337,138,44757,6,0,L|361:246,1,105
287,201,44987,2,0,L|311:309,1,105
310,79,45219,6,0,L|252:107,1,52.5,0|0,0:0|0:0,0:0:0:0:
201,304,45334,2,0,L|259:276,1,52.5,0|0,0:0|0:0,0:0:0:0:
201,79,45450,2,0,L|259:107,1,52.5,0|0,0:0|0:0,0:0:0:0:
310,304,45565,2,0,L|252:276,1,52.5,0|0,0:0|0:0,0:0:0:0:
143,246,45680,2,0,L|171:188,1,52.5,0|0,0:0|0:0,0:0:0:0:
368,137,45796,2,0,L|340:195,1,52.5,0|0,0:0|0:0,0:0:0:0:
368,246,45911,2,0,L|340:188,1,52.5,0|0,0:0|0:0,0:0:0:0:
143,137,46026,2,0,L|171:195,1,52.5,0|0,0:0|0:0,0:0:0:0:
461,272,46142,6,0,B|468:179|468:179|395:233,1,183.75,0|0,0:0|0:0,0:0:0:0:
346,272,46373,6,0,B|273:330|273:330|277:239,1,183.75,0|0,0:0|0:0,0:0:0:0:
283,177,46603,6,0,B|290:84|290:84|217:138,1,183.75,0|0,0:0|0:0,0:0:0:0:
169,177,46834,6,0,B|96:235|96:235|100:144,1,183.75,0|0,0:0|0:0,0:0:0:0:
228,90,47065,6,0,B|124:90|124:90|103:180,1,183.75,0|0,0:0|0:0,0:0:0:0:
105,216,47296,2,0,B|124:294|124:294|228:294,1,183.75,0|0,0:0|0:0,0:0:0:0:
284,294,47526,2,0,B|388:294|388:294|406:216,1,183.75,0|0,0:0|0:0,0:0:0:0:
406,167,47757,2,0,B|388:90|388:90|284:90,1,183.75,0|0,0:0|0:0,0:0:0:0:
336,96,77526,6,0,L|304:32,1,52.5,0|0,0:0|0:0,0:0:0:0:
176,96,77642,2,0,L|208:32,1,52.5,0|0,0:0|0:0,0:0:0:0:
304,96,77757,1,0,0:0:0:0:
272,96,77815,1,0,0:0:0:0:
240,96,77873,1,0,0:0:0:0:
208,96,77930,1,0,0:0:0:0:
160,112,77988,6,0,L|96:144,1,52.5,0|0,0:0|0:0,0:0:0:0:
160,272,78103,2,0,L|96:240,1,52.5,0|0,0:0|0:0,0:0:0:0:
160,144,78219,1,0,0:0:0:0:
160,176,78276,1,0,0:0:0:0:
160,208,78334,1,0,0:0:0:0:
160,240,78392,1,0,0:0:0:0:
176,288,78450,6,0,L|208:352,1,52.5,0|0,0:0|0:0,0:0:0:0:
336,288,78565,2,0,L|304:352,1,52.5,0|0,0:0|0:0,0:0:0:0:
208,288,78680,1,0,0:0:0:0:
240,288,78738,1,0,0:0:0:0:
272,288,78796,1,0,0:0:0:0:
304,288,78853,1,0,0:0:0:0:
352,272,78911,6,0,L|416:240,1,52.5,0|0,0:0|0:0,0:0:0:0:
352,112,79026,2,0,L|416:144,1,52.5,0|0,0:0|0:0,0:0:0:0:
352,240,79142,1,0,0:0:0:0:
352,208,79200,1,0,0:0:0:0:
352,176,79257,1,0,0:0:0:0:
352,144,79315,1,0,0:0:0:0:
320,96,79373,6,0,L|304:32,1,52.5,0|0,0:0|0:0,0:0:0:0:
288,96,79488,2,0,L|272:32,1,52.5,0|0,0:0|0:0,0:0:0:0:
256,80,79603,1,0,0:0:0:0:
224,96,79661,1,0,0:0:0:0:
192,80,79719,1,0,0:0:0:0:
160,96,79776,1,0,0:0:0:0:
96,192,79834,6,0,L|112:128,1,52.5,0|0,0:0|0:0,0:0:0:0:
128,192,79950,2,0,L|144:128,1,52.5,0|0,0:0|0:0,0:0:0:0:
160,192,80065,2,0,L|288:192,1,105,0|0,0:0|0:0,0:0:0:0:
320,192,80296,2,0,B|384:160|384:96|320:64|256:64|192:96|192:160|288:288|288:288|160:320|128:128|128:128|96:128|64:160,1,735,0|0,0:0|0:0,0:0:0:0:
124,156,81219,5,0,0:0:0:0:
128,192,81276,1,0,0:0:0:0:
128,224,81334,1,0,0:0:0:0:
128,256,81392,1,0,0:0:0:0:
124,292,81450,5,0,0:0:0:0:
160,288,81507,1,0,0:0:0:0:
192,288,81565,1,0,0:0:0:0:
224,288,81623,1,0,0:0:0:0:
256,292,81680,5,0,0:0:0:0:
252,256,81738,1,0,0:0:0:0:
252,224,81796,1,0,0:0:0:0:
252,192,81853,1,0,0:0:0:0:
260,156,81911,6,0,B|285:105|285:105|356:116,1,105,0|0,0:0|0:0,0:0:0:0:
416,128,82142,6,0,B|400:320|400:320|368:336|336:320|336:320|320:240|320:240|288:224|256:240|256:240|240:320|240:320|208:336|176:320|176:320|160:272|160:272|128:256|96:272|96:272|80:320|80:320|48:336,1,735,0|0,0:0|0:0,0:0:0:0:
64,256,83065,6,0,L|160:288,1,52.5,0|0,0:0|0:0,0:0:0:0:
64,128,83180,2,0,L|160:160,1,52.5,0|0,0:0|0:0,0:0:0:0:
64,192,83296,2,0,L|160:224,1,52.5,0|0,0:0|0:0,0:0:0:0:
64,64,83411,2,0,L|160:96,1,52.5,0|0,0:0|0:0,0:0:0:0:
224,256,83526,6,0,L|128:288,1,52.5,0|0,0:0|0:0,0:0:0:0:
224,128,83642,2,0,L|128:160,1,52.5,0|0,0:0|0:0,0:0:0:0:
224,192,83757,2,0,L|152:216,1,52.5,0|0,0:0|0:0,0:0:0:0:
224,64,83988,2,0,B|312:29|416:64|448:160|448:160|231:114|231:114|274:237|452:219,1,735,0|0,0:0|0:0,0:0:0:0:
284,151,84911,6,0,L|223:69,1,52.5
223,170,85026,2,0,L|162:88,1,52.5
344,131,85142,2,0,L|283:49,1,52.5
162,190,85257,2,0,L|101:108,1,52.5
228,151,85373,6,0,L|288:69,1,52.5
289,170,85488,2,0,L|349:88,1,52.5
168,131,85604,2,0,L|228:49,1,52.5
350,190,85719,2,0,L|410:108,1,52.5
284,179,85834,6,0,L|223:261,1,52.5
223,160,85949,2,0,L|162:242,1,52.5
344,199,86065,2,0,L|283:281,1,52.5
162,140,86180,2,0,L|101:222,1,52.5
228,179,86296,6,0,L|288:261,1,52.5
289,160,86411,2,0,L|349:242,1,52.5
168,199,86527,2,0,L|228:281,1,52.5
350,140,86642,2,0,L|410:222,1,52.5
181,120,86757,6,0,L|196:57,1,52.5
162,130,86873,2,0,L|99:115,1,52.5
173,150,86988,2,0,L|158:213,1,52.5
192,140,87104,2,0,L|255:155,1,52.5
193,68,87219,6,0,L|181:120,1,52.5
160,201,87334,2,0,L|173:150,1,52.5
193,68,87450,2,0,L|178:135,1,52.5
160,201,87680,2,0,L|177:138,1,63
409,260,88603,6,0,L|340:273,1,52.5
246,297,88719,2,0,L|315:284,1,52.5
408,300,88834,2,0,L|339:287,1,52.5
245,263,88950,2,0,L|314:276,1,52.5
409,260,89065,2,0,L|340:273,1,52.5
246,297,89181,2,0,L|315:284,1,52.5
408,300,89296,2,0,L|339:287,1,52.5
245,263,89526,2,0,B|51:234|133:5|465:39|268:190,1,472.500018024445
103,260,90450,6,0,L|172:273,1,52.5
266,297,90566,2,0,L|197:284,1,52.5
104,300,90681,2,0,L|173:287,1,52.5
267,263,90797,2,0,L|198:276,1,52.5
103,260,90912,2,0,L|172:273,1,52.5
266,297,91028,2,0,L|197:284,1,52.5
104,300,91143,2,0,L|173:287,1,52.5
267,263,91373,2,0,B|461:234|379:5|47:39|244:190,1,472.500018024445
320,128,107065,6,0,L|256:128,1,52.5,0|0,0:0|0:0,0:0:0:0:
352,128,107180,2,0,L|288:96,1,52.5,0|0,0:0|0:0,0:0:0:0:
384,128,107296,2,0,L|352:64,1,52.5,0|0,0:0|0:0,0:0:0:0:
416,128,107411,2,0,L|416:64,1,52.5,0|0,0:0|0:0,0:0:0:0:
128,256,107526,2,0,L|96:352,1,52.5,0|0,0:0|0:0,0:0:0:0:
192,256,107642,2,0,L|224:352,1,52.5,0|0,0:0|0:0,0:0:0:0:
416,128,107757,2,0,L|480:128,1,52.5,0|0,0:0|0:0,0:0:0:0:
384,128,107873,2,0,L|448:96,1,52.5,0|0,0:0|0:0,0:0:0:0:
352,128,107988,2,0,L|384:64,1,52.5,0|0,0:0|0:0,0:0:0:0:
320,128,108103,2,0,L|320:64,1,52.5,0|0,0:0|0:0,0:0:0:0:
128,256,108219,2,0,L|96:352,1,52.5,0|0,0:0|0:0,0:0:0:0:
192,256,108334,2,0,L|224:352,1,52.5,0|0,0:0|0:0,0:0:0:0:
320,128,108450,1,0,0:0:0:0:
352,128,108507,1,0,0:0:0:0:
384,128,108565,1,0,0:0:0:0:
416,128,108623,1,0,0:0:0:0:
384,256,108680,2,0,L|416:352,1,52.5,0|0,0:0|0:0,0:0:0:0:
320,256,108796,2,0,L|288:352,1,52.5,0|0,0:0|0:0,0:0:0:0:
320,128,108911,6,0,L|256:128,1,52.5,0|0,0:0|0:0,0:0:0:0:
352,128,109026,2,0,L|288:96,1,52.5,0|0,0:0|0:0,0:0:0:0:
384,128,109142,2,0,L|352:64,1,52.5,0|0,0:0|0:0,0:0:0:0:
416,128,109257,2,0,L|416:64,1,52.5,0|0,0:0|0:0,0:0:0:0:
128,256,109373,2,0,L|96:352,1,52.5,0|0,0:0|0:0,0:0:0:0:
192,256,109488,2,0,L|224:352,1,52.5,0|0,0:0|0:0,0:0:0:0:
416,128,109603,2,0,L|480:128,1,52.5,0|0,0:0|0:0,0:0:0:0:
384,128,109719,2,0,L|448:96,1,52.5,0|0,0:0|0:0,0:0:0:0:
352,128,109834,2,0,L|384:64,1,52.5,0|0,0:0|0:0,0:0:0:0:
320,128,109950,2,0,L|320:64,1,52.5,0|0,0:0|0:0,0:0:0:0:
128,256,110065,2,0,L|96:352,1,52.5,0|0,0:0|0:0,0:0:0:0:
192,256,110180,2,0,L|224:352,1,52.5,0|0,0:0|0:0,0:0:0:0:
320,128,110296,1,0,0:0:0:0:
352,128,110353,1,0,0:0:0:0:
384,128,110411,1,0,0:0:0:0:
416,128,110469,1,0,0:0:0:0:
384,256,110526,2,0,L|416:352,1,52.5,0|0,0:0|0:0,0:0:0:0:
320,256,110642,2,0,L|288:352,1,52.5,0|0,0:0|0:0,0:0:0:0:
192,128,110757,6,0,L|256:128,1,52.5,0|0,0:0|0:0,0:0:0:0:
160,128,110872,2,0,L|224:96,1,52.5,0|0,0:0|0:0,0:0:0:0:
128,128,110988,2,0,L|160:64,1,52.5,0|0,0:0|0:0,0:0:0:0:
96,128,111103,2,0,L|96:64,1,52.5,0|0,0:0|0:0,0:0:0:0:
384,256,111218,2,0,L|416:352,1,52.5,0|0,0:0|0:0,0:0:0:0:
320,256,111334,2,0,L|288:352,1,52.5,0|0,0:0|0:0,0:0:0:0:
96,128,111449,2,0,L|32:128,1,52.5,0|0,0:0|0:0,0:0:0:0:
128,128,111565,2,0,L|64:96,1,52.5,0|0,0:0|0:0,0:0:0:0:
160,128,111680,2,0,L|128:64,1,52.5,0|0,0:0|0:0,0:0:0:0:
192,128,111795,2,0,L|192:64,1,52.5,0|0,0:0|0:0,0:0:0:0:
384,256,111911,2,0,L|416:352,1,52.5,0|0,0:0|0:0,0:0:0:0:
320,256,112026,2,0,L|288:352,1,52.5,0|0,0:0|0:0,0:0:0:0:
192,128,112142,1,0,0:0:0:0:
160,128,112199,1,0,0:0:0:0:
128,128,112257,1,0,0:0:0:0:
96,128,112315,1,0,0:0:0:0:
128,256,112372,2,0,L|96:352,1,52.5,0|0,0:0|0:0,0:0:0:0:
192,256,112488,2,0,L|224:352,1,52.5,0|0,0:0|0:0,0:0:0:0:
192,128,112603,6,0,L|256:128,1,52.5,0|0,0:0|0:0,0:0:0:0:
160,128,112718,2,0,L|224:96,1,52.5,0|0,0:0|0:0,0:0:0:0:
128,128,112834,2,0,L|160:64,1,52.5,0|0,0:0|0:0,0:0:0:0:
96,128,112949,2,0,L|96:64,1,52.5,0|0,0:0|0:0,0:0:0:0:
384,256,113065,2,0,L|416:352,1,52.5,0|0,0:0|0:0,0:0:0:0:
320,256,113180,2,0,L|288:352,1,52.5,0|0,0:0|0:0,0:0:0:0:
96,128,113295,2,0,L|32:128,1,52.5,0|0,0:0|0:0,0:0:0:0:
128,128,113411,2,0,L|64:96,1,52.5,0|0,0:0|0:0,0:0:0:0:
160,128,113526,2,0,L|128:64,1,52.5,0|0,0:0|0:0,0:0:0:0:
192,128,113642,2,0,L|192:64,1,52.5,0|0,0:0|0:0,0:0:0:0:
384,256,113757,2,0,L|416:352,1,52.5,0|0,0:0|0:0,0:0:0:0:
320,256,113872,2,0,L|288:352,1,52.5,0|0,0:0|0:0,0:0:0:0:
192,128,113988,1,0,0:0:0:0:
160,128,114045,1,0,0:0:0:0:
128,128,114103,1,0,0:0:0:0:
96,128,114161,1,0,0:0:0:0:
128,256,114218,2,0,L|96:352,1,52.5,0|0,0:0|0:0,0:0:0:0:
192,256,114334,2,0,L|224:352,1,52.5,0|0,0:0|0:0,0:0:0:0:
192,128,114450,6,0,L|256:128,1,52.5,0|0,0:0|0:0,0:0:0:0:
160,128,114565,2,0,L|224:96,1,52.5,0|0,0:0|0:0,0:0:0:0:
128,128,114681,2,0,L|160:64,1,52.5,0|0,0:0|0:0,0:0:0:0:
96,128,114796,2,0,L|96:64,1,52.5,0|0,0:0|0:0,0:0:0:0:
384,256,114911,2,0,L|416:352,1,52.5,0|0,0:0|0:0,0:0:0:0:
320,256,115027,2,0,L|288:352,1,52.5,0|0,0:0|0:0,0:0:0:0:
96,128,115142,2,0,L|32:128,1,52.5,0|0,0:0|0:0,0:0:0:0:
128,128,115258,2,0,L|64:96,1,52.5,0|0,0:0|0:0,0:0:0:0:
160,128,115373,2,0,L|128:64,1,52.5,0|0,0:0|0:0,0:0:0:0:
192,128,115488,2,0,L|192:64,1,52.5,0|0,0:0|0:0,0:0:0:0:
384,256,115604,2,0,L|416:352,1,52.5,0|0,0:0|0:0,0:0:0:0:
320,256,115719,2,0,L|288:352,1,52.5,0|0,0:0|0:0,0:0:0:0:
192,128,115835,1,0,0:0:0:0:
160,128,115892,1,0,0:0:0:0:
128,128,115950,1,0,0:0:0:0:
96,128,116008,1,0,0:0:0:0:
128,256,116065,2,0,L|96:352,1,52.5,0|0,0:0|0:0,0:0:0:0:
192,256,116181,2,0,L|224:352,1,52.5,0|0,0:0|0:0,0:0:0:0:
192,128,116296,6,0,L|256:128,1,52.5,0|0,0:0|0:0,0:0:0:0:
160,128,116411,2,0,L|224:96,1,52.5,0|0,0:0|0:0,0:0:0:0:
128,128,116527,2,0,L|160:64,1,52.5,0|0,0:0|0:0,0:0:0:0:
96,128,116642,2,0,L|96:64,1,52.5,0|0,0:0|0:0,0:0:0:0:
384,256,116758,2,0,L|416:352,1,52.5,0|0,0:0|0:0,0:0:0:0:
320,256,116873,2,0,L|288:352,1,52.5,0|0,0:0|0:0,0:0:0:0:
96,128,116988,2,0,L|32:128,1,52.5,0|0,0:0|0:0,0:0:0:0:
128,128,117104,2,0,L|64:96,1,52.5,0|0,0:0|0:0,0:0:0:0:
160,128,117219,2,0,L|128:64,1,52.5,0|0,0:0|0:0,0:0:0:0:
192,128,117335,2,0,L|192:64,1,52.5,0|0,0:0|0:0,0:0:0:0:
384,256,117450,2,0,L|416:352,1,52.5,0|0,0:0|0:0,0:0:0:0:
320,256,117565,2,0,L|288:352,1,52.5,0|0,0:0|0:0,0:0:0:0:
192,128,117681,1,0,0:0:0:0:
160,128,117738,1,0,0:0:0:0:
128,128,117796,1,0,0:0:0:0:
96,128,117854,1,0,0:0:0:0:
128,256,117911,2,0,L|96:352,1,52.5,0|0,0:0|0:0,0:0:0:0:
192,256,118027,2,0,L|224:352,1,52.5,0|0,0:0|0:0,0:0:0:0:
320,128,118142,6,0,L|256:128,1,52.5,0|0,0:0|0:0,0:0:0:0:
352,128,118257,2,0,L|288:96,1,52.5,0|0,0:0|0:0,0:0:0:0:
384,128,118373,2,0,L|352:64,1,52.5,0|0,0:0|0:0,0:0:0:0:
416,128,118488,2,0,L|416:64,1,52.5,0|0,0:0|0:0,0:0:0:0:
128,256,118603,2,0,L|96:352,1,52.5,0|0,0:0|0:0,0:0:0:0:
192,256,118719,2,0,L|224:352,1,52.5,0|0,0:0|0:0,0:0:0:0:
416,128,118834,2,0,L|480:128,1,52.5,0|0,0:0|0:0,0:0:0:0:
384,128,118950,2,0,L|448:96,1,52.5,0|0,0:0|0:0,0:0:0:0:
352,128,119065,2,0,L|384:64,1,52.5,0|0,0:0|0:0,0:0:0:0:
320,128,119180,2,0,L|320:64,1,52.5,0|0,0:0|0:0,0:0:0:0:
128,256,119296,2,0,L|96:352,1,52.5,0|0,0:0|0:0,0:0:0:0:
192,256,119411,2,0,L|224:352,1,52.5,0|0,0:0|0:0,0:0:0:0:
320,128,119527,1,0,0:0:0:0:
352,128,119584,1,0,0:0:0:0:
384,128,119642,1,0,0:0:0:0:
416,128,119700,1,0,0:0:0:0:
384,256,119757,2,0,L|416:352,1,52.5,0|0,0:0|0:0,0:0:0:0:
320,256,119873,2,0,L|288:352,1,52.5,0|0,0:0|0:0,0:0:0:0:
416,75,119988,6,0,L|416:128,1,52.5,0|0,0:0|0:0,0:0:0:0:
360,81,120103,2,0,L|384:128,1,52.5,0|0,0:0|0:0,0:0:0:0:
305,104,120219,2,0,L|352:128,1,52.5,0|0,0:0|0:0,0:0:0:0:
267,128,120334,2,0,L|320:128,1,52.5,0|0,0:0|0:0,0:0:0:0:
208,305,120450,2,0,L|192:256,1,52.5,0|0,0:0|0:0,0:0:0:0:
111,305,120565,2,0,L|128:256,1,52.5,0|0,0:0|0:0,0:0:0:0:
320,75,120680,2,0,L|320:128,1,52.5,0|0,0:0|0:0,0:0:0:0:
375,81,120796,2,0,L|352:128,1,52.5,0|0,0:0|0:0,0:0:0:0:
430,104,120911,2,0,L|384:128,1,52.5,0|0,0:0|0:0,0:0:0:0:
468,128,121027,2,0,L|416:128,1,52.5,0|0,0:0|0:0,0:0:0:0:
208,305,121142,2,0,L|192:256,1,52.5,0|0,0:0|0:0,0:0:0:0:
111,305,121257,2,0,L|128:256,1,52.5,0|0,0:0|0:0,0:0:0:0:
320,128,121373,2,0,L|288:32,1,52.5,0|0,0:0|0:0,0:0:0:0:
352,128,121430,2,0,L|320:32,1,52.5,0|0,0:0|0:0,0:0:0:0:
384,128,121488,2,0,L|352:32,1,52.5,0|0,0:0|0:0,0:0:0:0:
416,128,121546,2,0,L|384:32,1,52.5,0|0,0:0|0:0,0:0:0:0:
303,305,121603,2,0,L|320:256,1,52.5,0|0,0:0|0:0,0:0:0:0:
400,305,121719,2,0,L|384:256,1,52.5,0|0,0:0|0:0,0:0:0:0:
320,256,121834,6,0,L|256:256,1,52.5,0|0,0:0|0:0,0:0:0:0:
352,256,121949,2,0,L|288:288,1,52.5,0|0,0:0|0:0,0:0:0:0:
384,256,122065,2,0,L|352:320,1,52.5,0|0,0:0|0:0,0:0:0:0:
416,256,122180,2,0,L|416:320,1,52.5,0|0,0:0|0:0,0:0:0:0:
128,128,122295,2,0,L|96:32,1,52.5,0|0,0:0|0:0,0:0:0:0:
192,128,122411,2,0,L|224:32,1,52.5,0|0,0:0|0:0,0:0:0:0:
416,256,122526,2,0,L|480:256,1,52.5,0|0,0:0|0:0,0:0:0:0:
384,256,122642,2,0,L|448:288,1,52.5,0|0,0:0|0:0,0:0:0:0:
352,256,122757,2,0,L|384:320,1,52.5,0|0,0:0|0:0,0:0:0:0:
320,256,122872,2,0,L|320:320,1,52.5,0|0,0:0|0:0,0:0:0:0:
128,128,122988,2,0,L|96:32,1,52.5,0|0,0:0|0:0,0:0:0:0:
192,128,123103,2,0,L|224:32,1,52.5,0|0,0:0|0:0,0:0:0:0:
320,256,123219,1,0,0:0:0:0:
352,256,123276,1,0,0:0:0:0:
384,256,123334,1,0,0:0:0:0:
416,256,123392,1,0,0:0:0:0:
384,128,123449,2,0,L|416:32,1,52.5,0|0,0:0|0:0,0:0:0:0:
320,128,123565,2,0,L|288:32,1,52.5,0|0,0:0|0:0,0:0:0:0:
320,256,123680,6,0,L|256:256,1,52.5,0|0,0:0|0:0,0:0:0:0:
352,256,123795,2,0,L|288:288,1,52.5,0|0,0:0|0:0,0:0:0:0:
384,256,123911,2,0,L|352:320,1,52.5,0|0,0:0|0:0,0:0:0:0:
416,256,124026,2,0,L|416:320,1,52.5,0|0,0:0|0:0,0:0:0:0:
128,128,124142,2,0,L|96:32,1,52.5,0|0,0:0|0:0,0:0:0:0:
192,128,124257,2,0,L|224:32,1,52.5,0|0,0:0|0:0,0:0:0:0:
416,256,124372,2,0,L|480:256,1,52.5,0|0,0:0|0:0,0:0:0:0:
384,256,124488,2,0,L|448:288,1,52.5,0|0,0:0|0:0,0:0:0:0:
352,256,124603,2,0,L|384:320,1,52.5,0|0,0:0|0:0,0:0:0:0:
320,256,124719,2,0,L|320:320,1,52.5,0|0,0:0|0:0,0:0:0:0:
128,128,124834,6,0,L|96:32,1,52.5,0|0,0:0|0:0,0:0:0:0:
192,128,124949,2,0,L|224:32,1,52.5,0|0,0:0|0:0,0:0:0:0:
320,256,125065,1,0,0:0:0:0:
352,256,125122,1,0,0:0:0:0:
384,256,125180,1,0,0:0:0:0:
416,256,125238,1,0,0:0:0:0:
384,128,125295,2,0,L|416:32,1,52.5,0|0,0:0|0:0,0:0:0:0:
320,128,125411,2,0,L|288:32,1,52.5,0|0,0:0|0:0,0:0:0:0:
192,256,125526,6,0,L|256:256,1,52.5,0|0,0:0|0:0,0:0:0:0:
160,256,125641,2,0,L|224:288,1,52.5,0|0,0:0|0:0,0:0:0:0:
128,256,125757,2,0,L|160:320,1,52.5,0|0,0:0|0:0,0:0:0:0:
96,256,125872,2,0,L|96:320,1,52.5,0|0,0:0|0:0,0:0:0:0:
384,128,125987,2,0,L|416:32,1,52.5,0|0,0:0|0:0,0:0:0:0:
320,128,126103,2,0,L|288:32,1,52.5,0|0,0:0|0:0,0:0:0:0:
96,256,126218,2,0,L|32:256,1,52.5,0|0,0:0|0:0,0:0:0:0:
128,256,126334,2,0,L|64:288,1,52.5,0|0,0:0|0:0,0:0:0:0:
160,256,126449,2,0,L|128:320,1,52.5,0|0,0:0|0:0,0:0:0:0:
192,256,126564,2,0,L|192:320,1,52.5,0|0,0:0|0:0,0:0:0:0:
384,128,126680,2,0,L|416:32,1,52.5,0|0,0:0|0:0,0:0:0:0:
320,128,126795,2,0,L|288:32,1,52.5,0|0,0:0|0:0,0:0:0:0:
192,256,126911,1,0,0:0:0:0:
160,256,126968,1,0,0:0:0:0:
128,256,127026,1,0,0:0:0:0:
96,256,127084,1,0,0:0:0:0:
128,128,127141,2,0,L|96:32,1,52.5,0|0,0:0|0:0,0:0:0:0:
192,128,127257,2,0,L|224:32,1,52.5,0|0,0:0|0:0,0:0:0:0:
192,256,127372,6,0,L|256:256,1,52.5,0|0,0:0|0:0,0:0:0:0:
160,256,127487,2,0,L|224:288,1,52.5,0|0,0:0|0:0,0:0:0:0:
128,256,127603,2,0,L|160:320,1,52.5,0|0,0:0|0:0,0:0:0:0:
96,256,127718,2,0,L|96:320,1,52.5,0|0,0:0|0:0,0:0:0:0:
384,128,127834,2,0,L|416:32,1,52.5,0|0,0:0|0:0,0:0:0:0:
320,128,127949,2,0,L|288:32,1,52.5,0|0,0:0|0:0,0:0:0:0:
96,256,128064,2,0,L|32:256,1,52.5,0|0,0:0|0:0,0:0:0:0:
128,256,128180,2,0,L|64:288,1,52.5,0|0,0:0|0:0,0:0:0:0:
160,256,128295,2,0,L|128:320,1,52.5,0|0,0:0|0:0,0:0:0:0:
192,256,128411,2,0,L|192:320,1,52.5,0|0,0:0|0:0,0:0:0:0:
384,128,128526,6,0,L|416:32,1,52.5,0|0,0:0|0:0,0:0:0:0:
320,128,128641,2,0,L|288:32,1,52.5,0|0,0:0|0:0,0:0:0:0:
192,256,128757,1,0,0:0:0:0:
160,256,128814,1,0,0:0:0:0:
128,256,128872,1,0,0:0:0:0:
96,256,128930,1,0,0:0:0:0:
128,128,128987,2,0,L|96:32,1,52.5,0|0,0:0|0:0,0:0:0:0:
192,128,129103,2,0,L|224:32,1,52.5,0|0,0:0|0:0,0:0:0:0:
192,256,129219,6,0,L|256:256,1,52.5,0|0,0:0|0:0,0:0:0:0:
160,256,129334,2,0,L|224:288,1,52.5,0|0,0:0|0:0,0:0:0:0:
128,256,129450,2,0,L|160:320,1,52.5,0|0,0:0|0:0,0:0:0:0:
96,256,129565,2,0,L|96:320,1,52.5,0|0,0:0|0:0,0:0:0:0:
384,128,129680,2,0,L|416:32,1,52.5,0|0,0:0|0:0,0:0:0:0:
320,128,129796,2,0,L|288:32,1,52.5,0|0,0:0|0:0,0:0:0:0:
96,256,129911,2,0,L|32:256,1,52.5,0|0,0:0|0:0,0:0:0:0:
128,256,130027,2,0,L|64:288,1,52.5,0|0,0:0|0:0,0:0:0:0:
160,256,130142,2,0,L|128:320,1,52.5,0|0,0:0|0:0,0:0:0:0:
192,256,130257,2,0,L|192:320,1,52.5,0|0,0:0|0:0,0:0:0:0:
384,128,130373,2,0,L|416:32,1,52.5,0|0,0:0|0:0,0:0:0:0:
320,128,130488,2,0,L|288:32,1,52.5,0|0,0:0|0:0,0:0:0:0:
192,256,130604,1,0,0:0:0:0:
160,256,130661,1,0,0:0:0:0:
128,256,130719,1,0,0:0:0:0:
96,256,130777,1,0,0:0:0:0:
128,128,130834,2,0,L|96:32,1,52.5,0|0,0:0|0:0,0:0:0:0:
192,128,130950,2,0,L|224:32,1,52.5,0|0,0:0|0:0,0:0:0:0:
192,256,131065,6,0,L|256:256,1,52.5,0|0,0:0|0:0,0:0:0:0:
160,256,131180,2,0,L|224:288,1,52.5,0|0,0:0|0:0,0:0:0:0:
128,256,131296,2,0,L|160:320,1,52.5,0|0,0:0|0:0,0:0:0:0:
96,256,131411,2,0,L|96:320,1,52.5,0|0,0:0|0:0,0:0:0:0:
384,128,131527,2,0,L|416:32,1,52.5,0|0,0:0|0:0,0:0:0:0:
320,128,131642,2,0,L|288:32,1,52.5,0|0,0:0|0:0,0:0:0:0:
96,256,131757,2,0,L|32:256,1,52.5,0|0,0:0|0:0,0:0:0:0:
128,256,131873,2,0,L|64:288,1,52.5,0|0,0:0|0:0,0:0:0:0:
160,256,131988,2,0,L|128:320,1,52.5,0|0,0:0|0:0,0:0:0:0:
192,256,132104,2,0,L|192:320,1,52.5,0|0,0:0|0:0,0:0:0:0:
384,128,132219,2,0,L|416:32,1,52.5,0|0,0:0|0:0,0:0:0:0:
320,128,132334,2,0,L|288:32,1,52.5,0|0,0:0|0:0,0:0:0:0:
192,256,132450,1,0,0:0:0:0:
160,256,132507,1,0,0:0:0:0:
128,256,132565,1,0,0:0:0:0:
96,256,132623,1,0,0:0:0:0:
128,128,132680,2,0,L|96:32,1,52.5,0|0,0:0|0:0,0:0:0:0:
192,128,132796,2,0,L|224:32,1,52.5,0|0,0:0|0:0,0:0:0:0:
320,256,132911,6,0,L|256:256,1,52.5,0|0,0:0|0:0,0:0:0:0:
352,256,133026,2,0,L|288:288,1,52.5,0|0,0:0|0:0,0:0:0:0:
384,256,133142,2,0,L|352:320,1,52.5,0|0,0:0|0:0,0:0:0:0:
416,256,133257,2,0,L|416:320,1,52.5,0|0,0:0|0:0,0:0:0:0:
128,128,133372,2,0,L|96:32,1,52.5,0|0,0:0|0:0,0:0:0:0:
192,128,133488,2,0,L|224:32,1,52.5,0|0,0:0|0:0,0:0:0:0:
416,256,133603,2,0,L|480:256,1,52.5,0|0,0:0|0:0,0:0:0:0:
384,256,133719,2,0,L|448:288,1,52.5,0|0,0:0|0:0,0:0:0:0:
352,256,133834,2,0,L|384:320,1,52.5,0|0,0:0|0:0,0:0:0:0:
320,256,133949,2,0,L|320:320,1,52.5,0|0,0:0|0:0,0:0:0:0:
128,128,134065,2,0,L|96:32,1,52.5,0|0,0:0|0:0,0:0:0:0:
192,128,134180,2,0,L|224:32,1,52.5,0|0,0:0|0:0,0:0:0:0:
320,256,134296,1,0,0:0:0:0:
352,256,134353,1,0,0:0:0:0:
384,256,134411,1,0,0:0:0:0:
416,256,134469,1,0,0:0:0:0:
384,128,134526,2,0,L|416:32,1,52.5,0|0,0:0|0:0,0:0:0:0:
320,128,134642,2,0,L|288:32,1,52.5,0|0,0:0|0:0,0:0:0:0:
416,309,134757,6,0,L|416:256,1,52.5,0|0,0:0|0:0,0:0:0:0:
360,303,134872,2,0,L|384:256,1,52.5,0|0,0:0|0:0,0:0:0:0:
305,280,134988,2,0,L|352:256,1,52.5,0|0,0:0|0:0,0:0:0:0:
267,256,135103,2,0,L|320:256,1,52.5,0|0,0:0|0:0,0:0:0:0:
208,79,135219,2,0,L|192:128,1,52.5,0|0,0:0|0:0,0:0:0:0:
111,79,135334,2,0,L|128:128,1,52.5,0|0,0:0|0:0,0:0:0:0:
320,309,135449,2,0,L|320:256,1,52.5,0|0,0:0|0:0,0:0:0:0:
375,303,135565,2,0,L|352:256,1,52.5,0|0,0:0|0:0,0:0:0:0:
430,280,135680,2,0,L|384:256,1,52.5,0|0,0:0|0:0,0:0:0:0:
468,256,135796,2,0,L|416:256,1,52.5,0|0,0:0|0:0,0:0:0:0:
208,79,135911,2,0,L|192:128,1,52.5,0|0,0:0|0:0,0:0:0:0:
111,79,136026,2,0,L|128:128,1,52.5,0|0,0:0|0:0,0:0:0:0:
320,256,136142,6,0,L|288:352,1,52.5,0|0,0:0|0:0,0:0:0:0:
352,256,136199,2,0,L|320:352,1,52.5,0|0,0:0|0:0,0:0:0:0:
384,256,136257,2,0,L|352:352,1,52.5,0|0,0:0|0:0,0:0:0:0:
416,256,136315,2,0,L|384:352,1,52.5,0|0,0:0|0:0,0:0:0:0:
303,79,136372,2,0,L|320:128,1,52.5,0|0,0:0|0:0,0:0:0:0:
400,79,136488,2,0,L|384:128,1,52.5,0|0,0:0|0:0,0:0:0:0:
160,256,136603,5,0,0:0:0:0:
224,224,136719,1,0,0:0:0:0:
288,256,136834,1,0,0:0:0:0:
224,224,136950,1,0,0:0:0:0:
160,256,137065,2,0,B|224:288|224:288|224:240,1,105,0|0,0:0|0:0,0:0:0:0:
224,224,137411,1,0,0:0:0:0:
93,319,137526,6,0,P|134:288|149:235,1,78.7500030040742,0|0,0:0|0:0,0:0:0:0:
196,321,137642,2,0,P|220:272|217:219,1,78.7500030040742,0|0,0:0|0:0,0:0:0:0:
419,64,137757,6,0,P|386:86|366:119,1,78.7500030040742,0|0,0:0|0:0,0:0:0:0:
316,62,137873,2,0,P|295:96|289:135,1,78.7500030040742,0|0,0:0|0:0,0:0:0:0:
290,247,137988,6,0,P|300:305|331:342,1,78.7500030040742,0|0,0:0|0:0,0:0:0:0:
366,260,138103,2,0,P|397:303|440:318,1,78.7500030040742,0|0,0:0|0:0,0:0:0:0:
202,141,138219,6,0,P|192:83|161:46,1,78.7500030040742,0|0,0:0|0:0,0:0:0:0:
126,128,138334,2,0,P|95:85|52:70,1,78.7500030040742,0|0,0:0|0:0,0:0:0:0:
160,128,138450,5,0,0:0:0:0:
224,160,138565,1,0,0:0:0:0:
288,128,138680,1,0,0:0:0:0:
224,160,138796,1,0,0:0:0:0:
160,128,138911,2,0,B|224:96|224:96|224:144,1,105,0|0,0:0|0:0,0:0:0:0:
224,160,139257,1,0,0:0:0:0:
93,65,139373,6,0,P|134:96|149:149,1,78.7500030040742,0|0,0:0|0:0,0:0:0:0:
196,63,139488,2,0,P|220:112|217:165,1,78.7500030040742,0|0,0:0|0:0,0:0:0:0:
419,320,139603,6,0,P|386:298|366:265,1,78.7500030040742,0|0,0:0|0:0,0:0:0:0:
316,322,139719,2,0,P|295:288|289:249,1,78.7500030040742,0|0,0:0|0:0,0:0:0:0:
290,137,139834,6,0,P|300:79|331:42,1,78.7500030040742,0|0,0:0|0:0,0:0:0:0:
366,124,139950,2,0,P|397:81|440:66,1,78.7500030040742,0|0,0:0|0:0,0:0:0:0:
202,243,140065,6,0,P|192:301|161:338,1,78.7500030040742,0|0,0:0|0:0,0:0:0:0:
126,256,140180,2,0,P|95:299|52:314,1,78.7500030040742,0|0,0:0|0:0,0:0:0:0:
448,192,140296,5,0,0:0:0:0:
416,128,140411,1,0,0:0:0:0:
448,192,140526,1,0,0:0:0:0:
416,256,140642,1,0,0:0:0:0:
448,192,140757,2,0,B|384:160|320:192|320:192|384:224|416:192,1,210,0|0,0:0|0:0,0:0:0:0:
448,192,141103,1,0,0:0:0:0:
388,141,141219,6,0,L|292:119,1,78.7500030040742,0|0,0:0|0:0,0:0:0:0:
370,67,141334,2,0,L|274:45,1,78.7500030040742,0|0,0:0|0:0,0:0:0:0:
341,206,141450,6,0,L|245:228,1,78.7500030040742,0|0,0:0|0:0,0:0:0:0:
321,279,141565,2,0,L|225:301,1,78.7500030040742,0|0,0:0|0:0,0:0:0:0:
191,91,141680,6,0,L|115:154,1,78.7500030040742,0|0,0:0|0:0,0:0:0:0:
118,62,141796,2,0,L|42:125,1,78.7500030040742,0|0,0:0|0:0,0:0:0:0:
68,276,141911,6,0,L|143:212,1,78.7500030040742,0|0,0:0|0:0,0:0:0:0:
141,303,142026,2,0,L|216:239,1,78.7500030040742,0|0,0:0|0:0,0:0:0:0:
64,192,142142,5,0,0:0:0:0:
96,128,142257,1,0,0:0:0:0:
64,192,142373,1,0,0:0:0:0:
96,256,142488,1,0,0:0:0:0:
64,192,142603,2,0,B|128:160|192:192|192:192|128:224|96:192,1,210,0|0,0:0|0:0,0:0:0:0:
64,192,142950,1,0,0:0:0:0:
120,140,143065,6,0,L|216:118,1,78.7500030040742,0|0,0:0|0:0,0:0:0:0:
142,67,143180,2,0,L|238:45,1,78.7500030040742,0|0,0:0|0:0,0:0:0:0:
165,204,143296,6,0,L|261:226,1,78.7500030040742,0|0,0:0|0:0,0:0:0:0:
191,279,143411,2,0,L|287:301,1,78.7500030040742,0|0,0:0|0:0,0:0:0:0:
319,87,143526,6,0,L|394:150,1,78.7500030040742,0|0,0:0|0:0,0:0:0:0:
394,62,143642,2,0,L|469:125,1,78.7500030040742,0|0,0:0|0:0,0:0:0:0:
444,276,143757,6,0,L|368:212,1,78.7500030040742,0|0,0:0|0:0,0:0:0:0:
371,303,143873,2,0,L|295:239,1,78.7500030040742,0|0,0:0|0:0,0:0:0:0:
352,128,143988,5,0,0:0:0:0:
288,160,144103,1,0,0:0:0:0:
224,128,144219,1,0,0:0:0:0:
288,160,144334,1,0,0:0:0:0:
352,128,144450,2,0,B|288:96|288:96|288:144,1,105,0|0,0:0|0:0,0:0:0:0:
288,160,144796,1,0,0:0:0:0:
419,65,144911,6,0,P|378:96|363:149,1,78.7500030040742,0|0,0:0|0:0,0:0:0:0:
316,63,145026,2,0,P|292:112|295:165,1,78.7500030040742,0|0,0:0|0:0,0:0:0:0:
93,320,145142,6,0,P|126:298|146:265,1,78.7500030040742,0|0,0:0|0:0,0:0:0:0:
196,322,145257,2,0,P|217:288|223:249,1,78.7500030040742,0|0,0:0|0:0,0:0:0:0:
222,137,145373,6,0,P|212:79|181:42,1,78.7500030040742,0|0,0:0|0:0,0:0:0:0:
146,124,145488,2,0,P|115:81|72:66,1,78.7500030040742,0|0,0:0|0:0,0:0:0:0:
310,243,145603,6,0,P|320:301|351:338,1,78.7500030040742,0|0,0:0|0:0,0:0:0:0:
386,256,145719,2,0,P|417:299|460:314,1,78.7500030040742,0|0,0:0|0:0,0:0:0:0:
352,256,145834,5,0,0:0:0:0:
288,224,145950,1,0,0:0:0:0:
224,256,146065,1,0,0:0:0:0:
288,224,146180,1,0,0:0:0:0:
352,256,146296,2,0,B|288:288|288:288|288:240,1,105,0|0,0:0|0:0,0:0:0:0:
288,224,146642,1,0,0:0:0:0:
419,319,146757,6,0,P|378:288|363:235,1,78.7500030040742,0|0,0:0|0:0,0:0:0:0:
316,321,146873,2,0,P|292:272|295:219,1,78.7500030040742,0|0,0:0|0:0,0:0:0:0:
93,64,146988,6,0,P|126:86|146:119,1,78.7500030040742,0|0,0:0|0:0,0:0:0:0:
196,62,147103,2,0,P|217:96|223:135,1,78.7500030040742,0|0,0:0|0:0,0:0:0:0:
222,247,147219,6,0,P|212:305|181:342,1,78.7500030040742,0|0,0:0|0:0,0:0:0:0:
146,260,147334,2,0,P|115:303|72:318,1,78.7500030040742,0|0,0:0|0:0,0:0:0:0:
310,141,147450,6,0,P|320:83|351:46,1,78.7500030040742,0|0,0:0|0:0,0:0:0:0:
386,128,147565,2,0,P|417:85|460:70,1,78.7500030040742,0|0,0:0|0:0,0:0:0:0:
64,192,147680,5,0,0:0:0:0:
96,256,147796,1,0,0:0:0:0:
64,192,147911,1,0,0:0:0:0:
96,128,148026,1,0,0:0:0:0:
64,192,148142,2,0,B|128:224|192:192|192:192|128:160|96:192,1,210,0|0,0:0|0:0,0:0:0:0:
64,192,148488,1,0,0:0:0:0:
118,242,148603,6,0,L|214:264,1,78.7500030040742,0|0,0:0|0:0,0:0:0:0:
142,317,148719,2,0,L|238:339,1,78.7500030040742,0|0,0:0|0:0,0:0:0:0:
167,179,148834,6,0,L|263:157,1,78.7500030040742,0|0,0:0|0:0,0:0:0:0:
191,105,148950,2,0,L|287:83,1,78.7500030040742,0|0,0:0|0:0,0:0:0:0:
324,296,149065,6,0,L|399:232,1,78.7500030040742,0|0,0:0|0:0,0:0:0:0:
398,324,149180,2,0,L|473:260,1,78.7500030040742,0|0,0:0|0:0,0:0:0:0:
445,111,149296,6,0,L|369:174,1,78.7500030040742,0|0,0:0|0:0,0:0:0:0:
371,81,149411,2,0,L|295:144,1,78.7500030040742,0|0,0:0|0:0,0:0:0:0:
256,160,149526,5,0,0:0:0:0:
256,224,149642,1,0,0:0:0:0:
320,160,149757,1,0,0:0:0:0:
192,224,149873,1,0,0:0:0:0:
352,288,149988,1,0,0:0:0:0:
160,96,150103,1,0,0:0:0:0:
352,64,150219,1,0,0:0:0:0:
160,320,150334,1,0,0:0:0:0:
170,351,150450,6,0,L|141:258,1,78.7500030040742,0|0,0:0|0:0,0:0:0:0:
62,131,150565,2,0,L|123:213,1,78.7500030040742,0|0,0:0|0:0,0:0:0:0:
236,327,150680,2,0,L|238:226,1,78.7500030040742,0|0,0:0|0:0,0:0:0:0:
129,102,150796,2,0,L|202:172,1,78.7500030040742,0|0,0:0|0:0,0:0:0:0:
306,302,150911,2,0,L|321:200,1,78.7500030040742,0|0,0:0|0:0,0:0:0:0:
196,69,151026,2,0,L|284:128,1,78.7500030040742,0|0,0:0|0:0,0:0:0:0:
379,280,151142,2,0,L|421:200,1,78.7500030040742
258,28,151257,2,0,L|352:54,1,78.7500030040742,0|0,0:0|0:0,0:0:0:0:
341,63,151373,5,0,0:0:0:0:
319,186,151488,1,0,0:0:0:0:
293,308,151603,1,0,0:0:0:0:
319,186,151719,1,0,0:0:0:0:
199,73,151834,1,0,0:0:0:0:
250,188,151950,1,0,0:0:0:0:
250,188,152065,1,0,0:0:0:0:
302,301,152180,1,0,0:0:0:0:
175,308,152296,5,0,0:0:0:0:
201,185,152411,1,0,0:0:0:0:
201,185,152526,1,0,0:0:0:0:
228,61,152642,1,0,0:0:0:0:
175,76,152757,5,0,0:0:0:0:
201,199,152872,1,0,0:0:0:0:
201,199,152987,1,0,0:0:0:0:
228,323,153103,1,0,0:0:0:0:
283,191,153219,5,0,0:0:0:0:
228,323,153334,1,0,0:0:0:0:
163,213,153450,1,0,0:0:0:0:
228,323,153565,1,0,0:0:0:0:
218,197,153680,1,0,0:0:0:0:
135,293,153796,1,0,0:0:0:0:
135,293,153911,1,0,0:0:0:0:
258,316,154026,1,0,0:0:0:0:
163,231,154142,5,0,0:0:0:0:
258,316,154257,1,0,0:0:0:0:
258,316,154373,1,0,0:0:0:0:
383,322,154488,1,0,0:0:0:0:
131,336,154603,5,0,0:0:0:0:
255,311,154719,1,0,0:0:0:0:
380,317,154834,1,0,0:0:0:0:
255,311,154950,1,0,0:0:0:0:
365,251,155065,5,0,0:0:0:0:
248,202,155180,1,0,0:0:0:0:
232,203,155296,1,0,0:0:0:0:
115,250,155411,1,0,0:0:0:0:
340,110,155526,5,0,0:0:0:0:
248,202,155642,1,0,0:0:0:0:
232,203,155757,1,0,0:0:0:0:
115,250,155873,1,0,0:0:0:0:
372,174,155988,5,0,0:0:0:0:
248,202,156103,1,0,0:0:0:0:
232,203,156218,1,0,0:0:0:0:
372,174,156334,1,0,0:0:0:0:
301,68,156450,1,0,0:0:0:0:
248,202,156565,1,0,0:0:0:0:
232,203,156680,1,0,0:0:0:0:
115,250,156796,1,0,0:0:0:0:
306,108,156911,5,0,0:0:0:0:
226,238,157026,1,0,0:0:0:0:
87,158,157142,1,0,0:0:0:0:
366,107,157257,5,0,0:0:0:0:
319,233,157373,1,0,0:0:0:0:
216,130,157488,1,0,0:0:0:0:
80,161,157603,1,0,0:0:0:0:
188,264,157719,1,0,0:0:0:0:
340,112,157834,5,0,0:0:0:0:
300,161,157950,1,0,0:0:0:0:
282,221,158065,1,0,0:0:0:0:
225,115,158180,5,0,0:0:0:0:
209,176,158296,1,0,0:0:0:0:
219,237,158411,1,0,0:0:0:0:
158,221,158526,1,0,0:0:0:0:
109,261,158642,1,0,0:0:0:0:
108,323,158757,5,0,0:0:0:0:
129,206,158872,1,0,0:0:0:0:
155,84,158987,1,0,0:0:0:0:
129,206,159103,1,0,0:0:0:0:
249,319,159218,1,0,0:0:0:0:
198,204,159334,1,0,0:0:0:0:
198,204,159449,1,0,0:0:0:0:
146,91,159564,1,0,0:0:0:0:
273,84,159680,5,0,0:0:0:0:
247,207,159795,1,0,0:0:0:0:
247,207,159910,1,0,0:0:0:0:
220,331,160026,1,0,0:0:0:0:
273,316,160141,5,0,0:0:0:0:
247,193,160256,1,0,0:0:0:0:
247,193,160371,1,0,0:0:0:0:
220,69,160487,1,0,0:0:0:0:
165,201,160603,5,0,0:0:0:0:
220,69,160718,1,0,0:0:0:0:
285,179,160834,1,0,0:0:0:0:
220,69,160949,1,0,0:0:0:0:
230,195,161064,1,0,0:0:0:0:
313,99,161180,1,0,0:0:0:0:
313,99,161295,1,0,0:0:0:0:
190,76,161410,1,0,0:0:0:0:
285,161,161526,5,0,0:0:0:0:
190,76,161641,1,0,0:0:0:0:
190,76,161757,1,0,0:0:0:0:
65,70,161872,1,0,0:0:0:0:
317,57,161987,5,0,0:0:0:0:
193,81,162103,1,0,0:0:0:0:
68,75,162218,1,0,0:0:0:0:
193,81,162334,1,0,0:0:0:0:
83,141,162449,5,0,0:0:0:0:
200,190,162564,1,0,0:0:0:0:
216,189,162680,1,0,0:0:0:0:
333,142,162795,1,0,0:0:0:0:
108,282,162910,5,0,0:0:0:0:
200,190,163026,1,0,0:0:0:0:
216,189,163141,1,0,0:0:0:0:
333,142,163257,1,0,0:0:0:0:
76,218,163372,5,0,0:0:0:0:
200,190,163487,1,0,0:0:0:0:
216,189,163602,1,0,0:0:0:0:
76,218,163718,1,0,0:0:0:0:
147,324,163834,1,0,0:0:0:0:
200,190,163949,1,0,0:0:0:0:
216,189,164064,1,0,0:0:0:0:
333,142,164180,1,0,0:0:0:0:
142,284,164295,5,0,0:0:0:0:
222,154,164410,1,0,0:0:0:0:
361,234,164526,1,0,0:0:0:0:
82,285,164641,5,0,0:0:0:0:
129,159,164757,1,0,0:0:0:0:
232,262,164872,1,0,0:0:0:0:
368,231,164987,1,0,0:0:0:0:
260,128,165103,1,0,0:0:0:0:
108,280,165218,5,0,0:0:0:0:
148,231,165334,1,0,0:0:0:0:
166,171,165449,1,0,0:0:0:0:
223,277,165564,5,0,0:0:0:0:
266,230,165680,5,0,0:0:0:0:
277,168,165795,1,0,0:0:0:0:
240,116,165910,1,0,0:0:0:0:
176,120,166026,1,0,0:0:0:0:
128,160,166142,5,0,0:0:0:0:
128,96,166257,1,0,0:0:0:0:
128,224,166373,1,0,0:0:0:0:
128,160,166488,1,0,0:0:0:0:
128,288,166603,2,0,B|153:351|217:317,1,105,0|0,0:0|0:0,0:0:0:0:
273,272,166950,1,0,0:0:0:0:
416,320,167065,6,0,L|396:242,1,78.7500030040742,0|0,0:0|0:0,0:0:0:0:
345,43,167180,2,0,L|341:134,1,78.7500030040742,0|0,0:0|0:0,0:0:0:0:
346,329,167296,2,0,L|326:251,1,78.7500030040742,0|0,0:0|0:0,0:0:0:0:
265,65,167411,2,0,L|261:156,1,78.7500030040742,0|0,0:0|0:0,0:0:0:0:
269,325,167526,2,0,L|249:247,1,78.7500030040742,0|0,0:0|0:0,0:0:0:0:
194,58,167642,2,0,L|190:149,1,78.7500030040742,0|0,0:0|0:0,0:0:0:0:
190,319,167757,2,0,L|170:241,1,78.7500030040742,0|0,0:0|0:0,0:0:0:0:
118,49,167873,2,0,L|114:140,1,78.7500030040742,0|0,0:0|0:0,0:0:0:0:
192,192,167988,5,0,0:0:0:0:
192,96,168103,1,0,0:0:0:0:
288,96,168219,1,0,0:0:0:0:
288,192,168334,1,0,0:0:0:0:
192,192,168450,2,0,P|142:173|96:192,1,105,0|0,0:0|0:0,0:0:0:0:
108,280,168796,1,0,0:0:0:0:
168,300,168911,6,0,P|225:279|242:245,1,78.7500030040742,0|0,0:0|0:0,0:0:0:0:
344,84,169026,2,0,P|287:105|270:139,1,78.7500030040742,0|0,0:0|0:0,0:0:0:0:
198,319,169142,2,0,P|248:284|256:246,1,78.7500030040742,0|0,0:0|0:0,0:0:0:0:
313,64,169257,2,0,P|263:99|255:137,1,78.7500030040742,0|0,0:0|0:0,0:0:0:0:
233,329,169373,2,0,P|272:282|270:244,1,78.7500030040742,0|0,0:0|0:0,0:0:0:0:
278,54,169488,2,0,P|239:101|241:139,1,78.7500030040742,0|0,0:0|0:0,0:0:0:0:
270,330,169603,2,0,P|295:275|283:239,1,78.7500030040742,0|0,0:0|0:0,0:0:0:0:
241,53,169719,2,0,P|216:108|228:144,1,78.7500030040742,0|0,0:0|0:0,0:0:0:0:
289,315,169834,5,0,0:0:0:0:
132,225,169950,1,0,0:0:0:0:
222,68,170065,1,0,0:0:0:0:
379,158,170180,1,0,0:0:0:0:
288,320,170296,2,0,B|256:288|224:320|192:288,1,105,0|0,0:0|0:0,0:0:0:0:
90,190,170642,1,0,0:0:0:0:
144,75,170757,6,0,P|205:80|226:108,1,78.7500030040742,0|0,0:0|0:0,0:0:0:0:
190,292,170873,2,0,P|227:262|267:276,1,78.7500030040742,0|0,0:0|0:0,0:0:0:0:
275,56,170988,2,0,P|214:61|193:89,1,78.7500030040742,0|0,0:0|0:0,0:0:0:0:
229,273,171103,2,0,P|192:243|152:257,1,78.7500030040742,0|0,0:0|0:0,0:0:0:0:
277,95,171219,6,0,P|338:100|359:128,1,78.7500030040742,0|0,0:0|0:0,0:0:0:0:
323,312,171334,2,0,P|360:282|400:296,1,78.7500030040742,0|0,0:0|0:0,0:0:0:0:
336,120,171450,2,0,P|275:125|254:153,1,78.7500030040742,0|0,0:0|0:0,0:0:0:0:
290,337,171565,2,0,P|253:307|213:321,1,78.7500030040742,0|0,0:0|0:0,0:0:0:0:
247,137,171680,5,0,0:0:0:0:
223,280,171796,1,0,0:0:0:0:
270,117,171911,1,0,0:0:0:0:
189,286,172026,1,0,0:0:0:0:
271,173,172142,2,0,B|204:210|136:116|159:97|184:89|211:86|234:88|249:117|249:135|196:203|134:189,1,315,0|0,0:0|0:0,0:0:0:0:
137,282,172488,1,0,0:0:0:0:
247,306,172603,5,0,0:0:0:0:
277,298,172661,1,0,0:0:0:0:
305,283,172719,1,0,0:0:0:0:
330,265,172776,1,0,0:0:0:0:
354,244,172834,1,0,0:0:0:0:
376,221,172892,1,0,0:0:0:0:
389,192,172950,1,0,0:0:0:0:
397,162,173007,1,0,0:0:0:0:
369,146,173065,5,0,0:0:0:0:
342,163,173123,1,0,0:0:0:0:
313,176,173180,1,0,0:0:0:0:
283,187,173238,1,0,0:0:0:0:
252,195,173296,1,0,0:0:0:0:
221,199,173353,1,0,0:0:0:0:
189,202,173411,1,0,0:0:0:0:
157,200,173469,1,0,0:0:0:0:
122,192,173526,6,0,L|98:77,1,105,0|0,0:0|0:0,0:0:0:0:
187,323,173757,1,0,0:0:0:0:
190,307,173815,1,0,0:0:0:0:
193,291,173873,1,0,0:0:0:0:
197,275,173930,1,0,0:0:0:0:
200,259,173988,6,0,B|163:164|260:193|212:86,1,157.500006008148,0|0,0:0|0:0,0:0:0:0:
398,65,174219,1,0,0:0:0:0:
396,80,174276,1,0,0:0:0:0:
394,95,174334,1,0,0:0:0:0:
392,110,174392,1,0,0:0:0:0:
388,125,174450,6,0,B|397:190|413:237|437:282,1,157.500006008148,0|0,0:0|0:0,0:0:0:0:
290,313,174680,1,0,0:0:0:0:
267,304,174738,1,0,0:0:0:0:
246,292,174796,1,0,0:0:0:0:
228,276,174853,1,0,0:0:0:0:
206,253,174911,6,0,B|140:189|155:119|195:195|230:171|223:138|214:107|150:70,1,210,0|0,0:0|0:0,0:0:0:0:
233,55,175142,2,0,B|266:70|275:101|282:134|247:158|207:82|192:152|258:216,1,210,0|0,0:0|0:0,0:0:0:0:
330,176,175373,6,0,B|386:153|429:231|384:318,1,157.5,0|0,0:0|0:0,0:0:0:0:
379,312,175603,2,0,B|292:248|283:360|259:242,1,157.5,0|0,0:0|0:0,0:0:0:0:
233,274,175834,2,0,B|196:343|179:241|158:252|160:347|148:336|82:300,1,157.5,0|0,0:0|0:0,0:0:0:0:
82,262,176065,2,0,B|70:202|70:202|139:216|139:216|100:174|104:108,1,236.250009012223,0|0,0:0|0:0,0:0:0:0:
150,75,176296,5,0,0:0:0:0:
186,116,176325,2,0,B|257:178|202:313|274:345|274:345|336:322|311:258|260:138|280:109|247:71|280:28|322:33|332:58,1,614.249981254578,0|0,0:0|0:0,0:0:0:0:
397,76,176757,1,0,0:0:0:0:
413,117,176786,2,0,B|427:214|429:294|394:355|303:349|303:349|291:289|260:213|204:175|121:171|63:230,1,614.249981254578,0|0,0:0|0:0,0:0:0:0:
127,125,177219,6,0,P|178:68|250:67,1,105,0|0,0:0|0:0,0:0:0:0:
367,62,177450,1,0,0:0:0:0:
375,68,177507,1,0,0:0:0:0:
382,75,177565,1,0,0:0:0:0:
388,83,177623,1,0,0:0:0:0:
393,91,177680,6,0,P|430:146|410:190,1,105,0|0,0:0|0:0,0:0:0:0:
295,122,177911,1,0,0:0:0:0:
289,131,177969,1,0,0:0:0:0:
286,141,178026,1,0,0:0:0:0:
284,151,178084,1,0,0:0:0:0:
284,161,178142,6,0,P|268:210|311:250,1,105,0|0,0:0|0:0,0:0:0:0:
370,206,178373,2,0,P|387:272|348:317,1,105,0|0,0:0|0:0,0:0:0:0:
279,313,178603,2,0,B|259:234|208:296|185:218,3,136.499993751526,0|0|0|0,0:0|0:0|0:0|0:0,0:0:0:0:
202,148,179065,6,0,P|217:88|157:124,1,157.500006008148,0|0,0:0|0:0,0:0:0:0:
88,193,179296,1,0,0:0:0:0:
90,208,179353,1,0,0:0:0:0:
97,221,179411,1,0,0:0:0:0:
106,233,179469,1,0,0:0:0:0:
118,242,179526,6,0,B|191:275|191:275|260:238,1,157.500006008148,0|0,0:0|0:0,0:0:0:0:
183,161,179757,1,0,0:0:0:0:
198,133,179815,1,0,0:0:0:0:
219,110,179873,1,0,0:0:0:0:
244,91,179930,1,0,0:0:0:0:
273,78,179988,6,0,P|330:84|376:135,1,125.999996154785,0|0,0:0|0:0,0:0:0:0:
252,171,180219,1,0,0:0:0:0:
252,189,180276,1,0,0:0:0:0:
251,207,180334,1,0,0:0:0:0:
377,187,180450,1,0,0:0:0:0:
382,204,180507,1,0,0:0:0:0:
388,221,180565,1,0,0:0:0:0:
263,251,180680,1,0,0:0:0:0:
245,259,180738,1,0,0:0:0:0:
228,267,180796,1,0,0:0:0:0:
211,275,180853,1,0,0:0:0:0:
137,284,180911,6,0,L|145:104,1,157.500006008148
232,112,181142,1,0,0:0:0:0:
223,174,181200,1,0,0:0:0:0:
214,235,181257,1,0,0:0:0:0:
206,297,181315,1,0,0:0:0:0:
275,307,181373,6,0,L|324:133,1,157.500006008148
232,112,181603,1,0,0:0:0:0:
223,174,181661,1,0,0:0:0:0:
214,235,181718,1,0,0:0:0:0:
206,297,181776,1,0,0:0:0:0:
137,284,181834,6,0,L|145:104,1,157.500006008148
232,112,182065,1,0,0:0:0:0:
223,174,182123,1,0,0:0:0:0:
214,235,182180,1,0,0:0:0:0:
206,297,182238,1,0,0:0:0:0:
275,307,182296,6,0,L|324:133,1,157.500006008148
317,155,182526,2,0,L|275:307,1,157.500006008148
141,152,182757,6,0,L|137:284,1,131.25
202,83,182988,2,0,L|106:172,1,131.25
295,77,183219,2,0,L|164:73,1,131.25
364,138,183450,2,0,L|275:42,1,131.25
370,245,183680,1,0,0:0:0:0:
370,231,183709,2,0,B|328:165|418:142|377:83,1,157.5
284,47,184142,1,0,0:0:0:0:
283,60,184171,2,0,B|335:133|234:103|276:208,1,157.5
188,177,184603,6,0,P|160:207|163:167,1,105
205,104,184834,1,0,0:0:0:0:
242,85,184892,1,0,0:0:0:0:
282,73,184950,1,0,0:0:0:0:
323,72,185007,1,0,0:0:0:0:
364,80,185065,6,0,P|392:95|348:109,1,105
267,131,185296,1,0,0:0:0:0:
264,172,185353,1,0,0:0:0:0:
267,214,185411,1,0,0:0:0:0:
277,254,185469,1,0,0:0:0:0:
288,293,185526,6,0,P|236:270|191:300,1,105
116,264,185757,2,0,P|80:209|101:157,1,105
155,123,185988,2,0,L|169:60,1,52.5
208,135,186103,2,0,L|222:72,1,52.5
261,148,186219,2,0,L|275:85,1,52.5
312,162,186334,2,0,L|326:99,1,52.5
360,133,186450,6,0,P|401:155|364:170,1,105
284,167,186680,1,0,0:0:0:0:
278,208,186738,1,0,0:0:0:0:
268,249,186796,1,0,0:0:0:0:
251,287,186853,1,0,0:0:0:0:
220,316,186911,6,0,B|187:285|187:285|193:274|193:274|181:280|181:280|149:250,1,105
133,174,187142,2,0,B|163:141|163:141|174:147|174:147|168:135|168:135|198:103,1,105
133,49,187373,5,0,0:0:0:0:
125,89,187430,1,0,0:0:0:0:
138,129,187488,1,0,0:0:0:0:
128,170,187546,1,0,0:0:0:0:
120,210,187603,1,0,0:0:0:0:
138,247,187661,1,0,0:0:0:0:
170,274,187719,1,0,0:0:0:0:
206,293,187776,1,0,0:0:0:0:
248,294,187834,5,0,0:0:0:0:
287,280,187892,1,0,0:0:0:0:
322,257,187950,1,0,0:0:0:0:
349,226,188007,1,0,0:0:0:0:
364,186,188065,1,0,0:0:0:0:
354,144,188123,1,0,0:0:0:0:
322,116,188180,1,0,0:0:0:0:
284,96,188238,1,0,0:0:0:0:
221,92,188296,5,0,0:0:0:0:
204,100,188325,2,0,L|155:119,2,31.4999990386963,0|0|0,0:0|0:0|0:0,0:0:0:0:
342,87,188526,1,0,0:0:0:0:
351,123,188584,1,0,0:0:0:0:
361,159,188642,1,0,0:0:0:0:
214,166,188757,5,0,0:0:0:0:
197,174,188786,2,0,L|148:193,2,31.4999990386963,0|0|0,0:0|0:0|0:0,0:0:0:0:
342,87,188987,1,0,0:0:0:0:
351,123,189045,1,0,0:0:0:0:
361,159,189103,1,0,0:0:0:0:
219,239,189219,5,0,0:0:0:0:
202,247,189248,2,0,L|153:266,2,31.4999990386963,0|0|0,0:0|0:0|0:0,0:0:0:0:
342,87,189449,1,0,0:0:0:0:
351,123,189507,1,0,0:0:0:0:
361,159,189565,1,0,0:0:0:0:
164,181,189680,5,0,0:0:0:0:
147,189,189709,2,0,L|98:208,2,31.4999990386963,0|0|0,0:0|0:0|0:0,0:0:0:0:
342,87,189910,1,0,0:0:0:0:
351,123,189968,1,0,0:0:0:0:
361,159,190026,1,0,0:0:0:0:
221,92,190142,5,0,0:0:0:0:
204,100,190171,2,0,L|155:119,2,31.4999990386963,0|0|0,0:0|0:0|0:0,0:0:0:0:
342,87,190372,1,0,0:0:0:0:
351,123,190430,1,0,0:0:0:0:
361,159,190488,1,0,0:0:0:0:
214,166,190603,5,0,0:0:0:0:
197,174,190632,2,0,L|148:193,2,31.4999990386963,0|0|0,0:0|0:0|0:0,0:0:0:0:
342,87,190833,1,0,0:0:0:0:
351,123,190891,1,0,0:0:0:0:
361,159,190949,1,0,0:0:0:0:
219,239,191065,5,0,0:0:0:0:
202,247,191094,2,0,L|153:266,2,31.4999990386963,0|0|0,0:0|0:0|0:0,0:0:0:0:
262,259,191296,5,0,0:0:0:0:
245,267,191325,2,0,L|196:286,2,31.4999990386963,0|0|0,0:0|0:0|0:0,0:0:0:0:
183,257,191526,5,0,0:0:0:0:
166,265,191555,2,0,L|117:284,2,31.4999990386963,0|0|0,0:0|0:0|0:0,0:0:0:0:
218,227,191757,5,0,0:0:0:0:
201,235,191786,2,0,L|152:254,2,31.4999990386963,0|0|0,0:0|0:0|0:0,0:0:0:0:
307,253,191988,5,0,0:0:0:0:
324,261,192017,2,0,L|373:280,2,31.4999990386963,0|0|0,0:0|0:0|0:0,0:0:0:0:
155,65,192219,1,0,0:0:0:0:
136,67,192276,1,0,0:0:0:0:
145,83,192334,1,0,0:0:0:0:
155,65,192392,1,0,0:0:0:0:
136,67,192449,1,0,0:0:0:0:
218,227,192680,5,0,0:0:0:0:
201,235,192709,2,0,L|152:254,2,31.4999990386963,0|0|0,0:0|0:0|0:0,0:0:0:0:
307,253,192911,5,0,0:0:0:0:
324,261,192940,2,0,L|373:280,2,31.4999990386963,0|0|0,0:0|0:0|0:0,0:0:0:0:
155,65,193142,1,0,0:0:0:0:
136,67,193199,1,0,0:0:0:0:
145,83,193257,1,0,0:0:0:0:
155,65,193315,1,0,0:0:0:0:
200,136,193373,5,0,0:0:0:0:
208,153,193402,2,0,L|227:202,2,31.4999990386963,0|0|0,0:0|0:0|0:0,0:0:0:0:
155,65,193603,1,0,0:0:0:0:
136,67,193660,1,0,0:0:0:0:
145,83,193718,1,0,0:0:0:0:
155,65,193776,1,0,0:0:0:0:
253,75,193834,5,0,0:0:0:0:
261,92,193863,2,0,L|280:141,2,31.4999990386963,0|0|0,0:0|0:0|0:0,0:0:0:0:
155,65,194065,1,0,0:0:0:0:
136,67,194122,1,0,0:0:0:0:
145,83,194180,1,0,0:0:0:0:
155,65,194238,1,0,0:0:0:0:
236,110,194296,5,0,0:0:0:0:
244,127,194325,2,0,L|263:176,2,31.4999990386963,0|0|0,0:0|0:0|0:0,0:0:0:0:
155,65,194526,1,0,0:0:0:0:
136,67,194583,1,0,0:0:0:0:
145,83,194641,1,0,0:0:0:0:
155,65,194699,1,0,0:0:0:0:
200,180,194757,5,0,0:0:0:0:
208,197,194786,2,0,L|227:246,2,31.4999990386963,0|0|0,0:0|0:0|0:0,0:0:0:0:
155,65,194988,1,0,0:0:0:0:
136,67,195045,1,0,0:0:0:0:
145,83,195103,1,0,0:0:0:0:
155,65,195161,1,0,0:0:0:0:
200,180,195219,5,0,0:0:0:0:
208,197,195248,2,0,L|227:246,2,31.4999990386963,0|0|0,0:0|0:0|0:0,0:0:0:0:
155,65,195450,1,0,0:0:0:0:
136,67,195507,1,0,0:0:0:0:
145,83,195565,1,0,0:0:0:0:
155,65,195623,1,0,0:0:0:0:
291,92,195680,5,0,0:0:0:0:
308,100,195709,2,0,L|357:119,2,31.4999990386963,0|0|0,0:0|0:0|0:0,0:0:0:0:
170,87,195910,1,0,0:0:0:0:
161,123,195968,1,0,0:0:0:0:
151,159,196026,1,0,0:0:0:0:
298,166,196141,5,0,0:0:0:0:
315,174,196170,2,0,L|364:193,2,31.4999990386963,0|0|0,0:0|0:0|0:0,0:0:0:0:
170,87,196371,1,0,0:0:0:0:
161,123,196429,1,0,0:0:0:0:
151,159,196487,1,0,0:0:0:0:
293,239,196603,5,0,0:0:0:0:
310,247,196632,2,0,L|359:266,2,31.4999990386963,0|0|0,0:0|0:0|0:0,0:0:0:0:
170,87,196833,1,0,0:0:0:0:
161,123,196891,1,0,0:0:0:0:
151,159,196949,1,0,0:0:0:0:
348,181,197064,5,0,0:0:0:0:
365,189,197093,2,0,L|414:208,2,31.4999990386963,0|0|0,0:0|0:0|0:0,0:0:0:0:
170,87,197294,1,0,0:0:0:0:
161,123,197352,1,0,0:0:0:0:
151,159,197410,1,0,0:0:0:0:
291,92,197526,5,0,0:0:0:0:
308,100,197555,2,0,L|357:119,2,31.4999990386963,0|0|0,0:0|0:0|0:0,0:0:0:0:
170,87,197756,1,0,0:0:0:0:
161,123,197814,1,0,0:0:0:0:
151,159,197872,1,0,0:0:0:0:
298,166,197987,5,0,0:0:0:0:
315,174,198016,2,0,L|364:193,2,31.4999990386963,0|0|0,0:0|0:0|0:0,0:0:0:0:
170,87,198217,1,0,0:0:0:0:
161,123,198275,1,0,0:0:0:0:
151,159,198333,1,0,0:0:0:0:
293,239,198449,5,0,0:0:0:0:
310,247,198478,2,0,L|359:266,2,31.4999990386963,0|0|0,0:0|0:0|0:0,0:0:0:0:
250,259,198680,5,0,0:0:0:0:
267,267,198709,2,0,L|316:286,2,31.4999990386963,0|0|0,0:0|0:0|0:0,0:0:0:0:
329,257,198910,5,0,0:0:0:0:
346,265,198939,2,0,L|395:284,2,31.4999990386963,0|0|0,0:0|0:0|0:0,0:0:0:0:
294,227,199141,5,0,0:0:0:0:
311,235,199170,2,0,L|360:254,2,31.4999990386963,0|0|0,0:0|0:0|0:0,0:0:0:0:
205,253,199372,5,0,0:0:0:0:
188,261,199401,2,0,L|139:280,2,31.4999990386963,0|0|0,0:0|0:0|0:0,0:0:0:0:
357,65,199603,1,0,0:0:0:0:
376,67,199660,1,0,0:0:0:0:
367,83,199718,1,0,0:0:0:0:
357,65,199776,1,0,0:0:0:0:
376,67,199833,1,0,0:0:0:0:
294,227,200064,5,0,0:0:0:0:
311,235,200093,2,0,L|360:254,2,31.4999990386963,0|0|0,0:0|0:0|0:0,0:0:0:0:
205,253,200295,5,0,0:0:0:0:
188,261,200324,2,0,L|139:280,2,31.4999990386963,0|0|0,0:0|0:0|0:0,0:0:0:0:
357,65,200526,1,0,0:0:0:0:
376,67,200583,1,0,0:0:0:0:
367,83,200641,1,0,0:0:0:0:
357,65,200699,1,0,0:0:0:0:
312,136,200757,5,0,0:0:0:0:
304,153,200786,2,0,L|285:202,2,31.4999990386963,0|0|0,0:0|0:0|0:0,0:0:0:0:
357,65,200987,1,0,0:0:0:0:
376,67,201044,1,0,0:0:0:0:
367,83,201102,1,0,0:0:0:0:
357,65,201160,1,0,0:0:0:0:
259,75,201218,5,0,0:0:0:0:
251,92,201247,2,0,L|232:141,2,31.4999990386963,0|0|0,0:0|0:0|0:0,0:0:0:0:
357,65,201449,1,0,0:0:0:0:
376,67,201506,1,0,0:0:0:0:
367,83,201564,1,0,0:0:0:0:
357,65,201622,1,0,0:0:0:0:
276,110,201680,5,0,0:0:0:0:
268,127,201709,2,0,L|249:176,2,31.4999990386963,0|0|0,0:0|0:0|0:0,0:0:0:0:
357,65,201910,1,0,0:0:0:0:
376,67,201967,1,0,0:0:0:0:
367,83,202025,1,0,0:0:0:0:
357,65,202083,1,0,0:0:0:0:
312,180,202141,5,0,0:0:0:0:
304,197,202170,2,0,L|285:246,2,31.4999990386963,0|0|0,0:0|0:0|0:0,0:0:0:0:
357,65,202372,1,0,0:0:0:0:
376,67,202429,1,0,0:0:0:0:
367,83,202487,1,0,0:0:0:0:
357,65,202545,1,0,0:0:0:0:
312,180,202603,5,0,0:0:0:0:
304,197,202632,2,0,L|285:246,2,31.4999990386963,0|0|0,0:0|0:0|0:0,0:0:0:0:
357,65,202834,1,0,0:0:0:0:
376,67,202891,1,0,0:0:0:0:
367,83,202949,1,0,0:0:0:0:
357,65,203007,1,0,0:0:0:0:
166,214,203065,6,0,L|156:264,1,45.9375,0|0,0:0|0:0,0:0:0:0:
156,259,203296,2,0,L|196:59,1,202.125006168366,0|0,0:0|0:0,0:0:0:0:
263,96,203526,6,0,L|272:45,1,45.9375,0|0,0:0|0:0,0:0:0:0:
270,50,203757,2,0,L|231:250,1,202.125006168366,0|0,0:0|0:0,0:0:0:0:
298,269,203988,6,0,L|308:319,1,45.9375,0|0,0:0|0:0,0:0:0:0:
307,314,204219,2,0,L|267:113,1,202.125006168366,0|0,0:0|0:0,0:0:0:0:
201,151,204449,6,0,L|191:100,1,45.9375,0|0,0:0|0:0,0:0:0:0:
194,105,204680,2,0,L|232:305,1,202.125006168366,0|0,0:0|0:0,0:0:0:0:
299,284,204911,6,0,L|340:263,1,45.9375,0|0,0:0|0:0,0:0:0:0:
361,245,205142,2,0,L|145:265,1,202.125006168366,0|0,0:0|0:0,0:0:0:0:
175,262,205373,6,0,L|134:241,1,45.9375,0|0,0:0|0:0,0:0:0:0:
113,223,205604,2,0,L|329:243,1,202.125006168366,0|0,0:0|0:0,0:0:0:0:
347,187,205834,6,0,L|383:158,1,45.9375,0|0,0:0|0:0,0:0:0:0:
400,136,206065,2,0,L|191:196,1,202.125006168366,0|0,0:0|0:0,0:0:0:0:
147,165,206296,6,0,L|110:136,1,45.9375,0|0,0:0|0:0,0:0:0:0:
94,114,206527,2,0,L|302:174,1,202.125006168366,0|0,0:0|0:0,0:0:0:0:
199,90,206757,6,0,L|168:51,1,45.9375
142,61,206988,2,0,P|123:151|113:273,1,202.125006168366
237,104,207219,6,0,L|206:65,1,45.9375
180,75,207450,2,0,P|161:165|151:287,1,202.125006168366
276,125,207680,6,0,L|245:86,1,45.9375
219,96,207911,2,0,P|200:186|190:308,1,202.125006168366
313,142,208142,6,0,L|282:103,1,45.9375
256,113,208373,2,0,P|237:203|227:325,1,202.125006168366
189,94,208603,6,0,B|176:99|170:75|199:76|198:95|196:99|189:101|183:89|184:80,1,45.9375
189,94,208834,2,0,P|197:188|168:302,1,202.125006168366
316,89,209065,6,0,B|329:93|333:69|304:72|307:91|309:95|316:96|321:84|320:75,1,45.9375
316,89,209296,2,0,P|314:183|351:295,1,202.125006168366
216,79,209526,6,0,B|202:81|203:56|230:65|225:83|222:86|214:86|212:73|215:65,1,45.9375
216,79,209757,2,0,P|200:172|142:275,1,202.125006168366
277,75,209988,6,0,B|291:74|286:50|260:62|269:79|272:82|280:81|280:68|276:60,1,45.9375
277,75,210219,2,0,P|308:164|381:256,1,202.125006168366
108,212,210450,5,0,0:0:0:0:
83,324,210565,1,0,0:0:0:0:
108,212,210680,2,0,L|82:330,1,115.50000352478
406,145,210911,5,0,0:0:0:0:
381,33,211026,1,0,0:0:0:0:
406,145,211141,2,0,L|380:27,1,115.50000352478
205,254,211373,5,0,0:0:0:0:
93,279,211488,1,0,0:0:0:0:
205,254,211603,2,0,L|87:280,1,115.50000352478
317,59,211834,5,0,0:0:0:0:
429,84,211949,1,0,0:0:0:0:
317,59,212064,2,0,L|435:85,1,115.50000352478
199,176,212296,5,0,0:0:0:0:
273,295,212411,1,0,0:0:0:0:
118,216,212526,1,0,0:0:0:0:
356,234,212642,1,0,0:0:0:0:
128,302,212757,1,0,0:0:0:0:
323,116,212873,1,0,0:0:0:0:
224,343,212988,2,0,P|240:275|236:221,1,115.50000352478
182,82,213219,5,0,0:0:0:0:
279,203,213334,1,0,0:0:0:0:
112,163,213450,1,0,0:0:0:0:
360,157,213565,1,0,0:0:0:0:
116,251,213680,2,0,P|148:202|202:169,1,115.50000352478
296,72,213911,2,0,P|300:130|274:197,1,115.50000352478
313,208,214142,5,0,0:0:0:0:
239,89,214257,1,0,0:0:0:0:
394,168,214372,1,0,0:0:0:0:
156,150,214488,1,0,0:0:0:0:
384,82,214603,1,0,0:0:0:0:
189,268,214719,1,0,0:0:0:0:
288,41,214834,2,0,P|272:109|276:163,1,115.50000352478
330,302,215065,5,0,0:0:0:0:
233,181,215180,1,0,0:0:0:0:
400,221,215296,1,0,0:0:0:0:
152,227,215411,1,0,0:0:0:0:
396,133,215526,2,0,P|364:182|310:215,1,115.50000352478
216,312,215757,2,0,P|212:254|238:187,1,115.50000352478
233,158,215988,5,0,0:0:0:0:
114,232,216103,1,0,0:0:0:0:
193,77,216218,1,0,0:0:0:0:
175,315,216334,1,0,0:0:0:0:
107,87,216449,1,0,0:0:0:0:
293,282,216565,1,0,0:0:0:0:
66,183,216680,2,0,P|134:199|188:195,1,115.50000352478
327,141,216911,5,0,0:0:0:0:
206,238,217026,1,0,0:0:0:0:
246,71,217142,1,0,0:0:0:0:
252,319,217257,1,0,0:0:0:0:
158,75,217372,2,0,P|207:107|240:161,1,115.50000352478
337,255,217603,2,0,P|279:259|212:233,1,115.50000352478
240,56,217834,5,0,0:0:0:0:
179,153,218295,1,0,0:0:0:0:
238,239,218757,1,0,0:0:0:0:
186,330,219218,1,0,0:0:0:0:
240,56,219680,5,0,0:0:0:0:
179,153,220141,1,0,0:0:0:0:
238,239,220603,1,0,0:0:0:0:
186,330,221064,1,0,0:0:0:0:
238,239,221526,5,0,0:0:0:0:
186,330,221987,1,0,0:0:0:0:
238,239,222449,1,0,0:0:0:0:
179,153,222910,1,0,0:0:0:0:
238,239,223372,5,0,0:0:0:0:
186,330,223833,1,0,0:0:0:0:
238,239,224295,1,0,0:0:0:0:
179,153,224756,1,0,0:0:0:0:
294,60,225218,5,0,0:0:0:0:
200,126,225679,1,0,0:0:0:0:
221,228,226141,1,0,0:0:0:0:
137,291,226602,1,0,0:0:0:0:
294,60,227064,5,0,0:0:0:0:
200,126,227525,1,0,0:0:0:0:
221,228,227987,1,0,0:0:0:0:
137,291,228448,1,0,0:0:0:0:
221,228,228910,5,0,0:0:0:0:
137,291,229371,1,0,0:0:0:0:
221,228,229833,1,0,0:0:0:0:
200,126,230294,1,0,0:0:0:0:
221,228,230756,5,0,0:0:0:0:
137,291,231217,1,0,0:0:0:0:
221,228,231679,1,0,0:0:0:0:
200,126,232140,1,0,0:0:0:0:
206,75,232603,5,0,0:0:0:0:
150,137,232834,1,0,0:0:0:0:
199,204,233064,1,0,0:0:0:0:
186,287,233295,1,0,0:0:0:0:
206,75,233526,5,0,0:0:0:0:
150,137,233757,1,0,0:0:0:0:
199,204,233987,1,0,0:0:0:0:
186,287,234218,1,0,0:0:0:0:
206,75,234449,5,0,0:0:0:0:
150,137,234680,1,0,0:0:0:0:
199,204,234910,1,0,0:0:0:0:
186,287,235141,1,0,0:0:0:0:
206,75,235372,5,0,0:0:0:0:
150,137,235603,1,0,0:0:0:0:
271,65,235834,5,0,0:0:0:0:
191,91,236064,1,0,0:0:0:0:
332,90,236295,5,0,0:0:0:0:
250,72,236525,1,0,0:0:0:0:
268,155,236757,1,0,0:0:0:0:
193,192,236987,1,0,0:0:0:0:
332,90,237218,5,0,0:0:0:0:
250,72,237448,1,0,0:0:0:0:
268,155,237680,1,0,0:0:0:0:
193,192,237910,1,0,0:0:0:0:
332,90,238141,5,0,0:0:0:0:
250,72,238371,1,0,0:0:0:0:
268,155,238603,1,0,0:0:0:0:
193,192,238833,1,0,0:0:0:0:
373,141,239064,5,0,0:0:0:0:
311,85,239294,1,0,0:0:0:0:
382,207,239526,5,0,0:0:0:0:
356,127,239756,1,0,0:0:0:0:
357,268,239987,5,0,0:0:0:0:
375,186,240217,1,0,0:0:0:0:
335,112,240449,1,0,0:0:0:0:
252,96,240680,1,0,0:0:0:0:
357,268,240910,5,0,0:0:0:0:
375,186,241140,1,0,0:0:0:0:
335,112,241372,1,0,0:0:0:0:
252,96,241603,1,0,0:0:0:0:
306,309,241834,5,0,0:0:0:0:
375,186,242064,1,0,0:0:0:0:
335,112,242296,1,0,0:0:0:0:
252,96,242527,1,0,0:0:0:0:
179,293,242757,5,0,0:0:0:0:
320,292,242987,1,0,0:0:0:0:
129,176,243218,5,0,0:0:0:0:
201,298,243448,1,0,0:0:0:0:
218,69,243680,6,0,L|198:148,1,81.375,0|0,0:0|0:0,0:0:0:0:
257,176,245526,6,0,L|237:255,1,81.375,0|0,0:0|0:0,0:0:0:0:
256,192,247372,6,0,B|3681:-32396|3681:-32396|-3169:32780|-3169:32780|256:192|256:192|-32332:-3233|-32332:-3233|32844:3617|32844:3617|256:192,1,262132.5
256,192,247373,6,0,L|32:160,1,210
116,98,247488,2,0,L|323:127,1,210
375,295,247603,2,0,L|167:265,1,210
150,181,247719,2,0,L|357:210,1,210
359,230,247834,2,0,L|119:255,1,210
66,192,247949,2,0,L|274:170,1,210
412,113,248065,2,0,L|203:134,1,210
64,99,248180,2,0,L|272:77,1,210
395,57,248296,6,0,P|317:77|280:143,1,131.25
335,319,248411,2,0,P|315:241|249:204,1,131.25
163,53,248526,2,0,P|113:116|125:191,1,131.25
109,315,248641,2,0,P|172:265|247:277,1,131.25
334,313,248757,2,0,L|377:167,1,131.25
320,64,248873,2,0,L|282:189,1,131.25
168,296,248988,2,0,L|211:150,1,131.25
164,36,249104,2,0,L|126:161,1,131.25
113,317,249219,6,0,L|146:155,1,131.25
213,302,249334,2,0,L|202:161,1,131.25
305,159,249449,2,0,L|290:294,1,131.25
386,161,249565,2,0,L|416:300,1,131.25
353,103,249680,2,0,L|210:158,1,131.25
305,159,249796,2,0,L|162:214,1,131.25
257,225,249911,2,0,L|114:280,1,131.25
172,206,250026,2,0,L|29:261,1,131.25
383,70,250142,6,0,L|300:135,1,105
394,124,250257,2,0,L|311:189,1,105
406,183,250373,2,0,L|323:248,1,105
420,234,250488,2,0,L|337:299,1,105
84,164,250603,2,0,L|157:220,1,52.5
87,190,250718,2,0,L|165:249,1,52.5
90,214,250834,2,0,L|168:274,1,52.5
93,235,250949,2,0,L|172:297,1,52.5
432,66,251065,6,0,L|298:106,1,125.999996154785
68,128,251180,2,0,L|188:91,1,125.999996154785
432,66,251296,2,0,P|367:71|298:106,1,125.999996154785
68,128,251411,2,0,B|128:95|128:95|202:88,1,125.999996154785
432,66,251526,2,0,B|373:95|373:95|298:106,1,125.999996154785
68,128,251641,2,0,P|133:123|202:88,1,125.999996154785
432,66,251757,2,0,P|352:57|312:98,1,125.999996154785
68,128,251873,2,0,P|148:137|188:96,1,125.999996154785
179,110,251988,6,0,P|127:143|68:128,1,125.999996154785
320,83,252104,2,0,P|372:50|432:66,1,125.999996154785
187,98,252220,2,0,P|130:123|68:128,1,125.999996154785
313,103,252335,2,0,B|373:95|373:95|432:66,1,125.999996154785
185,89,252450,2,0,B|128:95|128:95|68:128,1,125.999996154785
312,95,252565,2,0,P|369:70|432:66,1,125.999996154785
188,91,252681,2,0,L|68:128,1,125.999996154785
311,102,252796,2,0,L|432:66,1,125.999996154785
336,205,252911,6,0,L|407:315,1,78.7500030040742
176,179,253026,2,0,L|133:112,1,78.7500030040742
323,237,253142,2,0,L|340:367,1,78.7500030040742
188,146,253257,2,0,L|178:68,1,78.7500030040742
297,261,253373,2,0,L|258:386,1,78.7500030040742
214,122,253488,2,0,L|237:47,1,78.7500030040742
264,272,253603,2,0,L|176:369,1,78.7500030040742
247,111,253718,2,0,L|300:52,1,78.7500030040742
229,268,253834,5,0,0:0:0:0:
187,290,253892,1,0,0:0:0:0:
140,286,253949,1,0,0:0:0:0:
111,247,254007,1,0,0:0:0:0:
140,210,254065,1,0,0:0:0:0:
186,198,254123,1,0,0:0:0:0:
211,159,254180,1,0,0:0:0:0:
178,124,254238,1,0,0:0:0:0:
176,76,254296,5,0,0:0:0:0:
212,46,254353,1,0,0:0:0:0:
259,49,254411,1,0,0:0:0:0:
291,84,254469,1,0,0:0:0:0:
299,129,254526,1,0,0:0:0:0:
317,172,254584,1,0,0:0:0:0:
348,207,254642,1,0,0:0:0:0:
388,230,254699,1,0,0:0:0:0:
432,245,254757,6,0,B|-25737:-19474|-25737:-19474|26601:19964|26601:19964|432:245|432:245|-19287:26414|-19287:26414|20151:-25924|20151:-25924|432:245,1,262132.5
432,244,254758,6,0,B|407:193|407:193|336:175,1,105
324,223,254873,2,0,B|281:185|281:185|290:124,1,105
229,104,254988,2,0,P|187:54|111:56,1,105
82,68,255104,2,0,P|116:121|177:143,1,105
120,208,255219,2,0,L|101:315,1,78.7500030040742
196,204,255334,2,0,L|178:306,1,78.7500030040742
269,194,255450,2,0,L|285:102,1,78.7500030040742
344,190,255565,2,0,L|360:95,1,78.7500030040742
412,232,255681,6,0,L|286:254,1,105
361,309,255796,2,0,L|231:333,1,105
286,255,255911,2,0,L|168:276,1,105
215,198,256027,2,0,L|67:224,1,105
67,154,256142,2,0,L|193:176,1,105
118,231,256257,2,0,L|248:255,1,105
193,177,256372,2,0,L|311:198,1,105
264,120,256488,2,0,L|412:146,1,105
390,250,256604,6,0,L|277:210,1,105
309,290,256719,2,0,L|242:202,1,105
212,288,256834,2,0,L|204:167,1,105
120,262,256950,2,0,L|152:140,1,105
191,60,257065,2,0,L|123:142,1,105
283,95,257181,2,0,L|174:138,1,105
361,164,257296,2,0,L|241:155,1,105
393,279,257411,2,0,L|288:210,1,105
386,227,257527,6,0,L|275:169,1,105
101,91,257642,2,0,L|195:161,1,105
425,115,257758,2,0,L|295:128,1,105
85,215,257873,2,0,L|194:169,1,105
117,91,257988,2,0,L|143:204,1,105
199,309,258104,2,0,L|200:195,1,105
247,70,258219,2,0,L|291:176,1,105
324,314,258334,2,0,L|371:197,1,105
388,75,258450,6,0,L|379:135,1,52.5
333,98,258565,2,0,L|338:152,1,52.5
291,61,258681,2,0,L|282:121,1,52.5
236,84,258796,2,0,L|241:138,1,52.5
196,61,258911,2,0,L|187:121,1,52.5
141,84,259026,2,0,L|146:138,1,52.5
106,56,259142,2,0,L|97:116,1,52.5
51,79,259257,2,0,L|56:133,1,52.5
90,56,259373,6,0,L|99:116,1,52.5
145,79,259488,2,0,L|140:133,1,52.5
187,42,259604,2,0,L|196:102,1,52.5
242,65,259719,2,0,L|237:119,1,52.5
282,42,259834,2,0,L|291:102,1,52.5
337,65,259949,2,0,L|332:119,1,52.5
372,37,260065,2,0,L|381:97,1,52.5
427,60,260180,2,0,L|422:114,1,52.5
400,166,260296,6,0,L|415:228,1,52.5
340,150,260411,2,0,L|376:200,1,52.5
321,195,260527,2,0,L|336:257,1,52.5
261,179,260642,2,0,L|297:229,1,52.5
256,224,260758,2,0,L|271:286,1,52.5
196,208,260873,2,0,L|232:258,1,52.5
176,247,260988,2,0,L|191:309,1,52.5
116,231,261103,2,0,L|152:281,1,52.5
78,196,261219,5,0,0:0:0:0:
85,165,261277,1,0,0:0:0:0:
104,141,261334,1,0,0:0:0:0:
133,128,261392,1,0,0:0:0:0:
164,132,261450,1,0,0:0:0:0:
179,159,261508,1,0,0:0:0:0:
182,189,261565,1,0,0:0:0:0:
194,218,261623,1,0,0:0:0:0:
212,244,261681,5,0,0:0:0:0:
222,284,261738,1,0,0:0:0:0:
261,299,261796,1,0,0:0:0:0:
300,284,261854,1,0,0:0:0:0:
306,242,261911,1,0,0:0:0:0:
282,206,261969,1,0,0:0:0:0:
266,166,262027,1,0,0:0:0:0:
276,125,262084,1,0,0:0:0:0:
300,94,262142,6,0,B|358:89|393:117|397:166,1,105.000004005432
344,281,262296,1,0,0:0:0:0:
309,285,262373,1,0,0:0:0:0:
281,263,262450,1,0,0:0:0:0:
263,232,262527,1,0,0:0:0:0:
246,193,262604,2,0,P|204:127|162:95,1,105.000004005432
82,210,262758,5,0,0:0:0:0:
107,277,262834,1,0,0:0:0:0:
175,303,262911,1,0,0:0:0:0:
246,287,262988,1,0,0:0:0:0:
312,256,263065,2,0,P|386:197|393:174,1,105.000004005432
304,70,263219,5,0,0:0:0:0:
276,138,263296,1,0,0:0:0:0:
248,69,263373,1,0,0:0:0:0:
312,104,263450,1,0,0:0:0:0:
246,128,263527,2,0,B|164:142|154:167|119:209,1,140
195,326,263681,5,0,0:0:0:0:
274,298,263758,1,0,0:0:0:0:
299,218,263834,1,0,0:0:0:0:
290,134,263911,1,0,0:0:0:0:
242,64,263988,2,0,P|171:81|175:163,1,140
151,268,264296,1,0,0:0:0:0:
275,99,264450,1,0,0:0:0:0:
111,150,264604,1,0,0:0:0:0:
379,179,264758,1,0,0:0:0:0:
248,315,264911,6,0,B|190:291|176:221|298:151,1,210
324,138,265219,1,0,0:0:0:0:
374,151,265373,2,0,B|336:285|215:260|145:299|90:240|217:125,1,420.000016021729
260,100,265834,6,0,P|302:120|328:152,1,83.9999974365235
339,302,265988,1,0,0:0:0:0:
271,301,266065,1,0,0:0:0:0:
208,275,266142,1,0,0:0:0:0:
154,234,266219,1,0,0:0:0:0:
108,184,266296,6,0,P|84:135|87:89,1,83.9999974365235
154,78,266450,1,0,0:0:0:0:
182,138,266527,1,0,0:0:0:0:
216,196,266604,1,0,0:0:0:0:
266,240,266681,1,0,0:0:0:0:
323,274,266758,6,0,P|369:290|423:296,1,83.9999974365235
421,179,266911,1,0,0:0:0:0:
365,140,266988,1,0,0:0:0:0:
299,126,267065,1,0,0:0:0:0:
232,119,267142,1,0,0:0:0:0:
165,126,267219,6,0,P|119:159|97:212,1,83.9999974365235
136,316,267373,1,0,0:0:0:0:
202,303,267450,1,0,0:0:0:0:
255,261,267527,1,0,0:0:0:0:
296,208,267604,1,0,0:0:0:0:
311,142,267681,6,0,L|192:190,1,83.9999974365235
175,207,267834,2,0,L|311:230,1,83.9999974365235
323,239,267988,2,0,L|212:294,1,83.9999974365235
181,260,268142,2,0,B|121:164|189:118|225:179|324:89,1,251.999992309571
349,80,268450,1,0,0:0:0:0:
374,177,268604,2,0,B|219:174|207:112|67:97,1,251.999992309571
90,83,268911,1,0,0:0:0:0:
168,262,269065,2,0,B|319:278|346:189|245:192|224:200|220:221|235:261|267:351,1,315.000012016297
315,337,269373,1,0,0:0:0:0:
102,193,269527,6,0,L|121:296,1,83.9999974365235
173,237,269681,1,0,0:0:0:0:
203,176,269758,1,0,0:0:0:0:
240,121,269834,1,0,0:0:0:0:
290,76,269911,1,0,0:0:0:0:
354,58,269988,6,0,L|407:158,1,83.9999974365235
386,200,270142,1,0,0:0:0:0:
349,256,270219,1,0,0:0:0:0:
295,296,270296,1,0,0:0:0:0:
232,320,270373,1,0,0:0:0:0:
164,325,270450,6,0,L|82:261,1,83.9999974365235
96,205,270604,1,0,0:0:0:0:
111,139,270681,1,0,0:0:0:0:
167,102,270758,1,0,0:0:0:0:
232,111,270834,1,0,0:0:0:0:
266,168,270911,6,0,L|210:270,1,83.9999974365235
279,283,271065,1,0,0:0:0:0:
346,283,271142,1,0,0:0:0:0:
400,243,271219,1,0,0:0:0:0:
435,185,271296,1,0,0:0:0:0:
429,117,271373,5,0,0:0:0:0:
419,95,271681,1,0,0:0:0:0:
118,260,271834,1,0,0:0:0:0:
327,64,271988,1,0,0:0:0:0:
249,274,272142,1,0,0:0:0:0:
165,57,272296,2,0,P|111:52|77:160,1,167.999994873047
162,294,272604,1,0,0:0:0:0:
338,281,272758,2,0,P|416:249|400:174,1,167.999994873047
295,73,273065,1,0,0:0:0:0:
82,98,273219,6,0,L|95:186,1,83.9999974365235
120,244,273373,1,0,0:0:0:0:
166,292,273450,1,0,0:0:0:0:
230,309,273527,1,0,0:0:0:0:
296,318,273604,1,0,0:0:0:0:
360,297,273681,6,0,L|251:238,1,83.9999974365235
226,224,273834,1,0,0:0:0:0:
187,169,273911,1,0,0:0:0:0:
173,103,273988,1,0,0:0:0:0:
196,39,274065,1,0,0:0:0:0:
256,8,274142,6,0,L|361:59,1,83.9999974365235
366,103,274296,1,0,0:0:0:0:
371,170,274373,1,0,0:0:0:0:
332,225,274450,1,0,0:0:0:0:
279,266,274527,1,0,0:0:0:0:
213,282,274604,6,0,L|150:182,1,83.9999974365235
146,146,274758,1,0,0:0:0:0:
198,105,274834,1,0,0:0:0:0:
265,105,274911,1,0,0:0:0:0:
315,149,274988,1,0,0:0:0:0:
335,215,275064,5,0,0:0:0:0:
287,228,275217,1,0,0:0:0:0:
249,198,275371,1,0,0:0:0:0:
232,152,275525,1,0,0:0:0:0:
189,133,275833,1,0,0:0:0:0:
146,158,275987,1,0,0:0:0:0:
218,223,276294,1,0,0:0:0:0:
267,223,276448,1,0,0:0:0:0:
211,304,276756,1,0,0:0:0:0:
241,268,276910,5,0,0:0:0:0:
137,179,277025,1,0,0:0:0:0:
358,211,277140,1,0,0:0:0:0:
201,275,277256,1,0,0:0:0:0:
236,134,277371,2,0,B|221:165|206:127|218:112|235:111|252:113|269:119|262:140|239:167|225:185|207:217|231:265,1,210
358,93,277833,5,0,0:0:0:0:
354,273,277948,1,0,0:0:0:0:
238,93,278063,1,0,0:0:0:0:
267,305,278179,1,0,0:0:0:0:
147,88,278294,2,0,B|139:181|196:226|304:218,1,210
439,135,278756,5,0,0:0:0:0:
274,325,278871,1,0,0:0:0:0:
230,62,278986,1,0,0:0:0:0:
150,333,279102,1,0,0:0:0:0:
121,83,279217,2,0,P|132:155|168:192,1,105
249,263,279448,2,0,P|250:203|218:148,1,105
157,87,279679,2,0,P|137:166|157:234,1,141.750000540733
220,328,279910,5,0,0:0:0:0:
300,88,280025,1,0,0:0:0:0:
327,304,280140,1,0,0:0:0:0:
163,97,280256,1,0,0:0:0:0:
400,210,280371,1,0,0:0:0:0:
80,184,280486,1,0,0:0:0:0:
434,91,280602,6,0,L|409:105,1,21
154,307,280833,1,0,0:0:0:0:
355,265,280948,1,0,0:0:0:0:
239,59,281063,2,0,L|239:82,1,21
93,132,281294,2,0,L|116:151,1,21
78,293,281525,6,0,L|103:279,1,21
358,77,281756,1,0,0:0:0:0:
157,119,281871,1,0,0:0:0:0:
273,325,281986,2,0,L|273:302,1,21
419,252,282217,2,0,L|396:233,1,21
187,153,282448,5,0,0:0:0:0:
152,286,282563,1,0,0:0:0:0:
196,145,282679,1,0,0:0:0:0:
140,288,282794,1,0,0:0:0:0:
205,137,282910,2,0,P|256:75|366:87,1,141.750000540733
303,255,283140,2,0,P|238:313|152:307,1,141.750000540733
112,250,283371,6,0,L|86:169,1,70.8750002703667
113,96,283486,1,0,0:0:0:0:
199,298,283602,1,0,0:0:0:0:
235,80,283717,1,0,0:0:0:0:
404,291,283833,6,0,L|327:264,1,70.8750002703667
104,220,283948,1,0,0:0:0:0:
408,150,284063,1,0,0:0:0:0:
92,105,284179,1,0,0:0:0:0:
397,100,284294,6,0,L|386:174,1,70.8750002703667
325,243,284410,2,0,L|314:317,1,70.8750002703667
293,68,284525,2,0,L|282:142,1,70.8750002703667
219,224,284640,2,0,L|208:298,1,70.8750002703667
130,75,284756,2,0,L|97:297,3,210
397,284,285217,6,0,L|386:210,1,70.8750002703667
325,141,285333,2,0,L|314:67,1,70.8750002703667
293,316,285448,2,0,L|282:242,1,70.8750002703667
219,160,285563,2,0,L|208:86,1,70.8750002703667
130,309,285679,2,0,L|97:87,3,210
215,80,286140,6,0,L|188:193,1,105
263,153,286256,2,0,L|238:266,1,105
320,92,286371,2,0,L|344:231,1,105
270,202,286486,2,0,L|290:333,1,105
194,156,286602,2,0,L|160:324,1,157.500006008148
159,72,286833,2,0,L|117:284,1,157.500006008148
214,160,287063,6,0,L|172:372,1,157.500006008148
278,280,287294,1,0,0:0:0:0:
356,180,287410,1,0,0:0:0:0:
258,100,287525,1,0,0:0:0:0:
151,166,287640,1,0,0:0:0:0:
203,281,287756,1,0,0:0:0:0:
81,312,287871,1,0,0:0:0:0:
99,230,287986,6,0,L|110:159,2,52.5
160,128,288217,1,0,0:0:0:0:
224,128,288333,1,0,0:0:0:0:
287,180,288448,2,0,L|295:231,2,52.5
367,224,288679,2,0,L|358:172,2,52.5
287,180,288910,2,0,L|295:231,2,52.5
224,128,289140,5,0,0:0:0:0:
160,128,289256,1,0,0:0:0:0:
110,213,289371,2,0,L|161:204,2,52.5
169,276,289602,2,0,L|117:284,2,52.5
233,180,289833,1,0,0:0:0:0:
262,300,289948,1,0,0:0:0:0:
277,153,290063,1,0,0:0:0:0:
254,303,290179,1,0,0:0:0:0:
349,142,290294,5,0,0:0:0:0:
195,48,290525,1,0,0:0:0:0:
98,147,290756,2,0,P|247:300|247:86,1,504
192,103,291217,2,0,P|189:316|340:165,1,504
384,69,291679,5,0,0:0:0:0:
378,64,291910,1,0,0:0:0:0:
285,102,292025,1,0,0:0:0:0:
172,69,292140,1,0,0:0:0:0:
99,183,292256,1,0,0:0:0:0:
245,220,292371,1,0,0:0:0:0:
386,73,292602,5,0,0:0:0:0:
374,54,292833,1,0,0:0:0:0:
365,84,292948,1,0,0:0:0:0:
395,93,293063,1,0,0:0:0:0:
404,63,293179,1,0,0:0:0:0:
386,73,293294,1,0,0:0:0:0:
65,166,293525,5,0,0:0:0:0:
76,150,293756,1,0,0:0:0:0:
173,125,293871,1,0,0:0:0:0:
174,242,293986,1,0,0:0:0:0:
301,285,294102,1,0,0:0:0:0:
301,134,294217,1,0,0:0:0:0:
65,166,294448,5,0,0:0:0:0:
77,148,294679,1,0,0:0:0:0:
85,178,294794,1,0,0:0:0:0:
55,187,294909,1,0,0:0:0:0:
46,156,295025,1,0,0:0:0:0:
65,166,295140,1,0,0:0:0:0:
414,299,295371,5,0,0:0:0:0:
403,285,295602,1,0,0:0:0:0:
353,197,295717,1,0,0:0:0:0:
292,298,295833,1,0,0:0:0:0:
247,154,295948,1,0,0:0:0:0:
183,326,296063,1,0,0:0:0:0:
84,132,296294,5,0,0:0:0:0:
223,102,296525,1,0,0:0:0:0:
345,159,296640,1,0,0:0:0:0:
288,281,296756,1,0,0:0:0:0:
166,224,296871,1,0,0:0:0:0:
215,88,296986,1,0,0:0:0:0:
456,261,297217,5,0,0:0:0:0:
271,148,297448,1,0,0:0:0:0:
396,214,297563,1,0,0:0:0:0:
213,236,297679,1,0,0:0:0:0:
353,175,297794,1,0,0:0:0:0:
142,134,297910,1,0,0:0:0:0:
211,205,298140,5,0,0:0:0:0:
220,83,298371,1,0,0:0:0:0:
348,124,298486,1,0,0:0:0:0:
348,259,298602,1,0,0:0:0:0:
220,300,298717,1,0,0:0:0:0:
141,191,298833,1,0,0:0:0:0:
252,183,299063,6,0,L|259:212,1,21
286,287,299294,1,0,0:0:0:0:
175,133,299410,1,0,0:0:0:0:
356,192,299525,1,0,0:0:0:0:
175,250,299640,1,0,0:0:0:0:
286,96,299756,1,0,0:0:0:0:
238,297,299986,5,0,0:0:0:0:
142,231,300102,1,0,0:0:0:0:
333,214,300217,1,0,0:0:0:0:
268,312,300333,1,0,0:0:0:0:
183,87,300448,1,0,0:0:0:0:
319,137,300563,1,0,0:0:0:0:
151,225,300679,1,0,0:0:0:0:
248,174,300910,6,0,L|253:196,1,21
280,289,301140,1,0,0:0:0:0:
219,90,301256,1,0,0:0:0:0:
202,294,301371,1,0,0:0:0:0:
304,76,301486,1,0,0:0:0:0:
345,296,301602,1,0,0:0:0:0:
182,159,301833,5,0,0:0:0:0:
251,254,301948,1,0,0:0:0:0:
253,135,302063,1,0,0:0:0:0:
140,242,302179,1,0,0:0:0:0:
361,188,302294,1,0,0:0:0:0:
166,105,302410,1,0,0:0:0:0:
237,320,302525,1,0,0:0:0:0:
222,213,302756,5,0,0:0:0:0:
253,100,302986,1,0,0:0:0:0:
180,183,303102,1,0,0:0:0:0:
300,133,303217,1,0,0:0:0:0:
267,250,303333,1,0,0:0:0:0:
378,143,303448,1,0,0:0:0:0:
182,312,303679,5,0,0:0:0:0:
394,99,303910,1,0,0:0:0:0:
262,80,304025,1,0,0:0:0:0:
287,236,304140,1,0,0:0:0:0:
387,92,304256,1,0,0:0:0:0:
434,237,304371,1,0,0:0:0:0:
180,103,304602,5,0,0:0:0:0:
142,245,304833,1,0,0:0:0:0:
244,183,304948,1,0,0:0:0:0:
134,249,305063,1,0,0:0:0:0:
251,178,305179,1,0,0:0:0:0:
247,308,305294,1,0,0:0:0:0:
266,179,305525,6,0,L|258:197,2,10.5
238,107,305756,1,0,0:0:0:0:
146,133,305871,1,0,0:0:0:0:
147,222,305986,2,0,L|163:230,2,10.5
188,304,306217,2,0,L|198:289,2,10.5
247,307,306448,5,0,0:0:0:0:
288,285,306506,1,0,0:0:0:0:
318,250,306563,1,0,0:0:0:0:
343,211,306621,1,0,0:0:0:0:
353,165,306679,1,0,0:0:0:0:
341,120,306736,1,0,0:0:0:0:
318,79,306794,1,0,0:0:0:0:
278,54,306852,1,0,0:0:0:0:
238,29,306910,5,0,0:0:0:0:
250,72,306967,1,0,0:0:0:0:
258,117,307025,1,0,0:0:0:0:
260,163,307083,1,0,0:0:0:0:
250,207,307140,1,0,0:0:0:0:
227,247,307198,1,0,0:0:0:0:
198,283,307256,1,0,0:0:0:0:
162,311,307313,1,0,0:0:0:0:
119,328,307371,5,0,0:0:0:0:
101,285,307448,1,0,0:0:0:0:
87,240,307525,1,0,0:0:0:0:
125,171,307602,1,0,0:0:0:0:
164,146,307679,1,0,0:0:0:0:
205,123,307756,1,0,0:0:0:0:
306,82,307833,1,0,0:0:0:0:
302,130,307910,1,0,0:0:0:0:
301,176,307987,1,0,0:0:0:0:
311,295,308063,1,0,0:0:0:0:
356,287,308140,1,0,0:0:0:0:
401,281,308217,1,0,0:0:0:0:
439,196,308294,5,0,0:0:0:0:
421,165,308352,1,0,0:0:0:0:
386,158,308410,1,0,0:0:0:0:
356,175,308467,1,0,0:0:0:0:
333,201,308525,1,0,0:0:0:0:
313,229,308583,1,0,0:0:0:0:
283,247,308640,1,0,0:0:0:0:
249,254,308698,1,0,0:0:0:0:
214,248,308756,1,0,0:0:0:0:
184,230,308813,1,0,0:0:0:0:
163,202,308871,1,0,0:0:0:0:
151,169,308929,1,0,0:0:0:0:
161,136,308986,1,0,0:0:0:0:
183,109,309044,1,0,0:0:0:0:
216,100,309102,1,0,0:0:0:0:
250,105,309160,1,0,0:0:0:0:
271,119,309217,6,0,L|306:145,2,35
212,171,309448,1,0,0:0:0:0:
217,205,309525,1,0,0:0:0:0:
241,230,309602,1,0,0:0:0:0:
275,235,309679,2,0,L|321:236,2,35
222,276,309910,1,0,0:0:0:0:
192,294,309986,1,0,0:0:0:0:
158,283,310063,1,0,0:0:0:0:
122,244,310140,5,0,0:0:0:0:
112,205,310198,1,0,0:0:0:0:
117,165,310256,1,0,0:0:0:0:
144,137,310313,1,0,0:0:0:0:
180,121,310371,1,0,0:0:0:0:
213,141,310429,1,0,0:0:0:0:
216,179,310486,1,0,0:0:0:0:
211,218,310544,1,0,0:0:0:0:
213,257,310602,1,0,0:0:0:0:
240,285,310660,1,0,0:0:0:0:
278,291,310717,1,0,0:0:0:0:
311,269,310775,1,0,0:0:0:0:
329,233,310833,1,0,0:0:0:0:
334,194,310890,1,0,0:0:0:0:
322,156,310948,1,0,0:0:0:0:
286,139,311006,1,0,0:0:0:0:
247,142,311063,5,0,0:0:0:0:
213,101,311140,1,0,0:0:0:0:
190,148,311217,1,0,0:0:0:0:
137,142,311294,5,0,0:0:0:0:
168,184,311371,1,0,0:0:0:0:
125,214,311448,1,0,0:0:0:0:
151,259,311525,5,0,0:0:0:0:
176,305,311602,1,0,0:0:0:0:
213,268,311679,1,0,0:0:0:0:
241,223,311756,5,0,0:0:0:0:
204,185,311833,1,0,0:0:0:0:
239,145,311910,1,0,0:0:0:0:
235,93,311986,5,0,0:0:0:0:
268,71,312044,1,0,0:0:0:0:
307,73,312102,1,0,0:0:0:0:
329,105,312160,1,0,0:0:0:0:
313,140,312217,1,0,0:0:0:0:
278,159,312275,1,0,0:0:0:0:
239,166,312333,1,0,0:0:0:0:
202,151,312390,1,0,0:0:0:0:
173,123,312448,1,0,0:0:0:0:
141,99,312506,1,0,0:0:0:0:
103,107,312563,1,0,0:0:0:0:
82,140,312621,1,0,0:0:0:0:
72,178,312679,1,0,0:0:0:0:
74,216,312736,1,0,0:0:0:0:
84,254,312794,1,0,0:0:0:0:
102,288,312852,1,0,0:0:0:0:
125,320,312910,5,0,0:0:0:0:
176,314,312967,1,0,0:0:0:0:
225,295,313025,1,0,0:0:0:0:
272,272,313083,1,0,0:0:0:0:
318,248,313140,2,0,L|359:227,3,26.25
332,184,313371,1,0,0:0:0:0:
279,190,313429,1,0,0:0:0:0:
227,185,313486,1,0,0:0:0:0:
175,174,313544,1,0,0:0:0:0:
122,165,313602,2,0,L|80:155,3,26.25
78,109,313833,5,0,0:0:0:0:
123,74,313890,1,0,0:0:0:0:
179,60,313948,1,0,0:0:0:0:
236,65,314006,1,0,0:0:0:0:
288,86,314063,1,0,0:0:0:0:
328,127,314121,1,0,0:0:0:0:
305,180,314179,1,0,0:0:0:0:
257,212,314236,1,0,0:0:0:0:
200,224,314294,1,0,0:0:0:0:
162,268,314352,1,0,0:0:0:0:
196,314,314410,1,0,0:0:0:0:
250,329,314467,1,0,0:0:0:0:
308,328,314525,1,0,0:0:0:0:
359,301,314583,1,0,0:0:0:0:
385,250,314640,1,0,0:0:0:0:
381,192,314698,1,0,0:0:0:0:
363,136,314756,5,0,0:0:0:0:
304,86,314833,1,0,0:0:0:0:
230,62,314910,1,0,0:0:0:0:
158,88,314986,1,0,0:0:0:0:
106,145,315063,1,0,0:0:0:0:
82,218,315140,1,0,0:0:0:0:
92,294,315217,2,0,L|110:350,5,35
180,316,315679,5,0,0:0:0:0:
209,266,315736,1,0,0:0:0:0:
201,208,315794,1,0,0:0:0:0:
169,159,315852,1,0,0:0:0:0:
137,110,315910,1,0,0:0:0:0:
170,63,315967,1,0,0:0:0:0:
222,39,316025,1,0,0:0:0:0:
279,34,316083,1,0,0:0:0:0:
333,51,316140,1,0,0:0:0:0:
369,95,316198,1,0,0:0:0:0:
338,144,316256,1,0,0:0:0:0:
316,196,316313,1,0,0:0:0:0:
317,254,316371,1,0,0:0:0:0:
341,306,316429,1,0,0:0:0:0:
390,334,316486,1,0,0:0:0:0:
447,324,316544,1,0,0:0:0:0:
436,266,316602,5,0,0:0:0:0:
419,190,316679,1,0,0:0:0:0:
402,114,316756,1,0,0:0:0:0:
348,58,316833,1,0,0:0:0:0:
287,105,316910,1,0,0:0:0:0:
226,151,316986,1,0,0:0:0:0:
293,188,317063,1,0,0:0:0:0:
309,263,317140,1,0,0:0:0:0:
247,309,317217,1,0,0:0:0:0:
171,295,317294,1,0,0:0:0:0:
134,226,317371,1,0,0:0:0:0:
147,150,317448,1,0,0:0:0:0:
121,77,317525,5,0,0:0:0:0:
155,52,317583,1,0,0:0:0:0:
186,78,317640,1,0,0:0:0:0:
224,60,317698,1,0,0:0:0:0:
243,97,317756,1,0,0:0:0:0:
281,81,317813,1,0,0:0:0:0:
304,116,317871,1,0,0:0:0:0:
345,124,317929,1,0,0:0:0:0:
350,165,317986,1,0,0:0:0:0:
389,178,318044,1,0,0:0:0:0:
393,219,318102,1,0,0:0:0:0:
422,249,318160,1,0,0:0:0:0:
403,286,318217,1,0,0:0:0:0:
407,328,318275,1,0,0:0:0:0:
365,337,318333,1,0,0:0:0:0:
325,351,318390,1,0,0:0:0:0:
283,344,318448,6,0,L|229:340,2,35
240,306,318679,2,0,L|274:308,2,35
281,267,318910,2,0,L|227:263,2,35
238,229,319141,2,0,L|272:231,2,35
245,166,319371,5,0,0:0:0:0:
234,119,319429,1,0,0:0:0:0:
200,86,319486,1,0,0:0:0:0:
152,81,319544,1,0,0:0:0:0:
118,107,319602,1,0,0:0:0:0:
99,145,319660,1,0,0:0:0:0:
101,186,319717,1,0,0:0:0:0:
118,224,319775,1,0,0:0:0:0:
143,250,319833,1,0,0:0:0:0:
176,264,319890,1,0,0:0:0:0:
206,274,319948,1,0,0:0:0:0:
234,276,320006,1,0,0:0:0:0:
259,271,320063,1,0,0:0:0:0:
281,264,320121,1,0,0:0:0:0:
299,253,320179,1,0,0:0:0:0:
313,242,320236,1,0,0:0:0:0:
323,229,320294,5,0,0:0:0:0:
329,211,320352,1,0,0:0:0:0:
325,190,320410,1,0,0:0:0:0:
313,169,320467,1,0,0:0:0:0:
296,148,320525,1,0,0:0:0:0:
272,130,320583,1,0,0:0:0:0:
243,117,320640,1,0,0:0:0:0:
208,112,320698,1,0,0:0:0:0:
174,117,320756,2,0,L|135:136,7,26.25
123,143,321217,5,0,0:0:0:0:
182,304,321447,1,0,0:0:0:0:
97,193,321678,1,0,0:0:0:0:
154,315,321909,1,0,0:0:0:0:
212,147,322140,5,0,0:0:0:0:
222,296,322370,1,0,0:0:0:0:
149,177,322601,1,0,0:0:0:0:
178,295,322832,1,0,0:0:0:0:
248,150,323063,5,0,0:0:0:0:
262,307,323293,1,0,0:0:0:0:
176,177,323524,1,0,0:0:0:0:
206,280,323755,1,0,0:0:0:0:
296,148,323986,5,0,0:0:0:0:
295,278,324217,1,0,0:0:0:0:
374,168,324447,1,0,0:0:0:0:
252,79,324678,1,0,0:0:0:0:
152,131,324909,5,0,0:0:0:0:
120,305,325140,1,0,0:0:0:0:
64,157,325370,1,0,0:0:0:0:
123,298,325601,1,0,0:0:0:0:
188,139,325832,5,0,0:0:0:0:
125,292,326063,1,0,0:0:0:0:
61,164,326293,1,0,0:0:0:0:
123,286,326524,1,0,0:0:0:0:
193,143,326755,5,0,0:0:0:0:
121,272,326986,1,0,0:0:0:0:
66,174,327217,1,0,0:0:0:0:
125,283,327447,1,0,0:0:0:0:
190,141,327678,5,0,0:0:0:0:
136,281,327909,1,0,0:0:0:0:
264,153,328140,1,0,0:0:0:0:
227,292,328370,1,0,0:0:0:0:
364,208,328601,5,0,0:0:0:0:
392,299,328832,1,0,0:0:0:0:
287,329,329063,1,0,0:0:0:0:
392,299,329293,1,0,0:0:0:0:
361,190,329524,5,0,0:0:0:0:
393,291,329755,1,0,0:0:0:0:
287,319,329986,1,0,0:0:0:0:
395,287,330217,1,0,0:0:0:0:
355,187,330447,5,0,0:0:0:0:
397,294,330678,1,0,0:0:0:0:
294,312,330909,1,0,0:0:0:0:
398,294,331140,1,0,0:0:0:0:
380,195,331370,5,0,0:0:0:0:
307,316,331601,1,0,0:0:0:0:
156,303,331832,1,0,0:0:0:0:
108,166,332063,1,0,0:0:0:0:
181,58,332293,5,0,0:0:0:0:
220,217,332524,1,0,0:0:0:0:
202,88,332755,1,0,0:0:0:0:
201,270,332986,1,0,0:0:0:0:
250,51,333217,5,0,0:0:0:0:
228,205,333447,1,0,0:0:0:0:
186,86,333678,1,0,0:0:0:0:
251,261,333909,1,0,0:0:0:0:
299,76,334140,5,0,0:0:0:0:
275,223,334370,1,0,0:0:0:0:
349,130,334601,1,0,0:0:0:0:
211,262,334832,1,0,0:0:0:0:
102,152,335063,5,0,0:0:0:0:
155,241,335293,1,0,0:0:0:0:
213,153,335524,1,0,0:0:0:0:
269,241,335755,1,0,0:0:0:0:
288,96,335986,5,0,0:0:0:0:
352,224,336217,1,0,0:0:0:0:
224,288,336447,1,0,0:0:0:0:
160,160,336678,1,0,0:0:0:0:
352,128,336909,5,0,0:0:0:0:
320,288,337140,1,0,0:0:0:0:
160,256,337370,1,0,0:0:0:0:
192,96,337601,1,0,0:0:0:0:
352,160,337832,5,0,0:0:0:0:
288,288,338063,1,0,0:0:0:0:
160,224,338293,1,0,0:0:0:0:
288,96,338524,1,0,0:0:0:0:
352,128,338755,5,0,0:0:0:0:
256,288,338986,1,0,0:0:0:0:
160,128,339217,1,0,0:0:0:0:
348,153,339447,1,0,0:0:0:0:
224,96,339678,5,0,0:0:0:0:
160,224,339909,1,0,0:0:0:0:
288,288,340139,1,0,0:0:0:0:
352,160,340370,1,0,0:0:0:0:
160,128,340601,5,0,0:0:0:0:
192,288,340832,1,0,0:0:0:0:
352,256,341062,1,0,0:0:0:0:
320,96,341293,1,0,0:0:0:0:
160,160,341524,5,0,0:0:0:0:
224,288,341755,1,0,0:0:0:0:
352,224,341985,1,0,0:0:0:0:
224,96,342216,1,0,0:0:0:0:
160,128,342447,5,0,0:0:0:0:
256,288,342678,1,0,0:0:0:0:
352,128,342909,1,0,0:0:0:0:
164,153,343139,1,0,0:0:0:0:
173,277,343370,6,0,L|141:243,1,26.25
84,244,343832,2,0,L|102:214,1,26.25
169,275,344293,2,0,L|140:237,1,26.25
83,232,344755,2,0,L|104:204,1,26.25
162,282,345217,2,0,L|137:242,1,26.25
80,230,345679,2,0,L|103:204,1,26.25
177,297,346140,2,0,L|160:272,2,26.25
284,262,346832,1,0,0:0:0:0:
405,219,347063,6,0,L|422:190,1,26.25
216,150,347524,2,0,L|196:122,1,26.25
399,215,347986,2,0,L|416:186,1,26.25
210,146,348447,2,0,L|190:118,1,26.25
391,203,348909,2,0,L|408:174,1,26.25
202,134,349370,2,0,L|182:106,1,26.25
393,208,349832,5,0,0:0:0:0:
159,152,350063,1,0,0:0:0:0:
385,137,350293,1,0,0:0:0:0:
244,194,350524,1,0,0:0:0:0:
136,292,350755,6,0,L|173:238,1,39.3750015020371
237,275,350986,2,0,L|248:225,1,39.3750015020371
326,233,351217,2,0,L|315:190,1,39.3750015020371
393,162,351447,2,0,L|372:124,1,39.3750015020371
210,68,351678,6,0,L|160:86,1,39.3750015020371
207,140,351909,2,0,L|172:172,1,39.3750015020371
235,212,352140,2,0,L|235:261,1,39.3750015020371
307,256,352370,2,0,L|329:303,1,39.3750015020371
363,170,352601,6,0,L|376:127,1,39.3750015020371
289,124,352832,2,0,L|282:80,1,39.3750015020371
216,115,353063,2,0,L|184:81,1,39.3750015020371
148,147,353293,2,0,L|83:141,1,39.3750015020371
104,220,353524,6,0,L|122:272,1,39.3750015020371
200,117,353755,2,0,L|178:74,1,39.3750015020371
222,252,353986,2,0,L|252:296,1,39.3750015020371
389,145,354217,2,0,L|356:99,1,39.3750015020371
182,43,354447,6,0,L|143:68,1,39.3750015020371
200,102,354678,2,0,L|161:127,1,39.3750015020371
220,160,354909,2,0,L|181:185,1,39.3750015020371
242,218,355140,2,0,L|203:243,1,39.3750015020371
203,325,355370,6,0,L|242:300,1,39.3750015020371
182,266,355601,2,0,L|218:238,1,39.3750015020371
139,217,355832,2,0,L|170:180,1,39.3750015020371
80,184,356063,2,0,L|97:135,1,39.3750015020371
203,31,356293,6,0,L|144:54,1,39.3750015020371
236,100,356524,2,0,L|206:138,1,39.3750015020371
298,161,356755,2,0,L|300:217,1,39.3750015020371
393,171,356986,2,0,L|423:214,1,39.3750015020371
285,329,357217,5,0,0:0:0:0:
103,224,357332,1,0,0:0:0:0:
207,327,357447,1,0,0:0:0:0:
133,92,357563,1,0,0:0:0:0:
137,295,357678,1,0,0:0:0:0:
199,60,357793,1,0,0:0:0:0:
92,144,357909,1,0,0:0:0:0:
270,43,358024,1,0,0:0:0:0:
331,88,358140,6,0,L|339:141,1,39.3750015020371
319,196,358370,2,0,L|309:136,1,39.3750015020371
275,98,358601,2,0,L|283:151,1,39.3750015020371
263,206,358831,2,0,L|253:146,1,39.3750015020371
82,280,359063,6,0,L|88:318,1,39.3750015020371
106,249,359293,2,0,L|100:210,1,39.3750015020371
138,270,359524,2,0,L|144:308,1,39.3750015020371
162,239,359754,2,0,L|156:200,1,39.3750015020371
255,243,359986,6,0,P|287:283|288:230,1,78.7500030040742
259,236,360217,2,0,P|299:204|246:203,1,78.7500030040742
258,227,360447,2,0,P|226:187|225:240,1,78.7500030040742
245,229,360678,2,0,P|205:261|258:262,1,78.7500030040742
327,204,360909,6,0,B|347:154|369:150|369:173|327:204,1,105
284,184,361140,2,0,B|271:131|287:115|300:134|284:184,1,105
185,204,361370,6,0,B|165:154|143:150|143:173|185:204,1,105
228,184,361601,2,0,B|240:131|224:115|211:134|228:184,1,105
203,67,361832,6,0,B|136:68|115:83|174:159,1,105
214,132,362063,2,0,B|209:199|194:192|149:185,1,105
261,205,362293,2,0,B|270:174|276:178|296:219|324:234|370:198,1,105
354,199,362524,2,0,B|331:220|303:205|283:164|277:160|268:191,1,105
242,308,362755,6,0,B|198:282|198:282|198:263|198:263|169:245,1,105
269,156,362986,2,0,B|243:200|243:200|224:200|224:200|206:229,1,105
145,126,363217,2,0,B|189:152|189:152|189:171|189:171|218:189,3,105
277,126,363678,6,0,P|301:76|382:73,1,105
318,180,363909,2,0,P|356:153|427:173,1,91.8750008761883
328,247,364140,2,0,P|365:246|398:309,3,78.7500030040742
263,295,364601,5,0,0:0:0:0:
162,329,364717,1,0,0:0:0:0:
238,221,364832,1,0,0:0:0:0:
88,226,364947,1,0,0:0:0:0:
294,152,365063,1,0,0:0:0:0:
97,119,365178,1,0,0:0:0:0:
390,149,365293,1,0,0:0:0:0:
180,63,365409,1,0,0:0:0:0:
352,288,365524,6,0,L|323:273,1,19.6875007510186
408,244,365755,2,0,L|393:272,1,19.6875007510186
365,187,365986,2,0,L|393:201,1,19.6875007510186
308,231,366217,2,0,L|322:202,1,19.6875007510186
160,288,366447,6,0,L|188:273,1,19.6875007510186
104,244,366678,2,0,L|118:272,1,19.6875007510186
147,187,366909,2,0,L|118:201,1,19.6875007510186
204,231,367140,2,0,L|189:202,1,19.6875007510186
352,288,367370,6,0,L|323:273,1,19.6875007510186
408,244,367601,2,0,L|393:272,1,19.6875007510186
365,187,367832,2,0,L|393:201,1,19.6875007510186
308,231,368063,2,0,L|322:202,1,19.6875007510186
160,288,368293,6,0,L|188:273,1,19.6875007510186
104,244,368524,2,0,L|118:272,1,19.6875007510186
147,187,368755,2,0,L|118:201,1,19.6875007510186
204,231,368986,2,0,L|189:202,1,19.6875007510186
64,64,369217,6,0,L|46:90,1,19.6875007510186
117,98,369447,2,0,L|99:124,1,19.6875007510186
171,133,369678,2,0,L|153:159,1,19.6875007510186
225,168,369909,2,0,L|207:194,1,19.6875007510186
448,64,370140,6,0,L|465:90,1,19.6875007510186
395,98,370370,2,0,L|412:124,1,19.6875007510186
341,133,370601,2,0,L|358:159,1,19.6875007510186
287,168,370832,2,0,L|304:194,1,19.6875007510186
64,64,371063,6,0,L|46:90,1,19.6875007510186
117,98,371293,2,0,L|99:124,1,19.6875007510186
171,133,371524,2,0,L|153:159,1,19.6875007510186
225,168,371755,2,0,L|207:194,1,19.6875007510186
448,64,371986,6,0,L|465:90,1,19.6875007510186
395,98,372216,2,0,L|412:124,1,19.6875007510186
341,133,372447,2,0,L|358:159,1,19.6875007510186
287,168,372678,2,0,L|304:194,1,19.6875007510186
128,288,372909,6,0,L|99:323,1,26.25
121,64,373140,2,0,L|85:35,1,26.25
184,57,373370,2,0,L|212:21,1,26.25
191,121,373601,2,0,L|226:149,1,26.25
136,292,373832,6,0,L|119:312,1,26.25
129,68,374063,2,0,L|108:51,1,26.25
192,61,374293,2,0,L|208:40,1,26.25
199,125,374524,2,0,L|219:141,1,26.25
148,296,374755,6,0,L|131:316,1,26.25
141,72,374986,2,0,L|120:55,1,26.25
204,65,375216,2,0,L|220:44,1,26.25
211,129,375447,2,0,L|231:145,1,26.25
160,300,375678,6,0,L|143:320,1,26.25
153,76,375909,2,0,L|132:59,1,26.25
216,69,376139,2,0,L|232:48,1,26.25
223,133,376370,2,0,L|243:149,1,26.25
320,288,376601,6,0,L|349:304,1,26.25
416,96,376832,2,0,L|444:109,1,26.25
416,288,377063,2,0,L|444:275,1,26.25
320,96,377293,2,0,L|349:80,1,26.25
224,288,377524,2,0,L|252:275,1,26.25
320,128,377755,2,0,L|349:112,1,26.25
320,288,377986,2,0,L|349:304,1,26.25
224,128,378217,2,0,L|252:141,1,26.25
128,288,378447,2,0,L|157:304,1,26.25
224,160,378678,2,0,L|252:173,1,26.25
224,288,378909,2,0,L|252:275,1,26.25
128,160,379140,2,0,L|157:144,1,26.25
256,192,379370,12,0,380293,0:0:0:0:
127,313,409831,6,0,L|201:282,1,70
222,221,410292,2,0,B|193:192|188:154|219:132|256:114|280:121|287:134|282:158|271:207|243:282,1,280
316,300,411677,6,0,L|229:255,1,70
199,223,412138,2,0,B|215:257|192:284|174:279|153:255|152:232|149:205|164:189|180:137|207:119|234:91|279:81,1,280
328,142,413523,6,0,L|247:112,1,70
198,144,413984,2,0,P|168:146|168:199,1,70
324,155,414446,2,0,L|412:121,1,70
432,240,414907,2,0,L|354:225,1,70
215,178,415369,2,0,B|171:235|66:230|49:184|49:137|80:104|116:95|166:114|151:173|149:194|93:258|169:278,1,385
205,217,417215,6,0,L|297:204,1,70
363,179,417677,2,0,B|327:129|291:137|286:162|253:185|260:238|217:283|167:266|157:225,1,280
220,183,419061,6,0,L|300:201,1,70
344,250,419523,2,0,B|310:293|267:268|249:230|218:204|203:172|164:166|148:170|137:180|104:221,1,280
124,299,420907,6,0,L|214:281,1,70
256,239,421369,2,0,L|156:223,1,70
138,160,421831,2,0,B|121:116|142:88|190:94|196:108|177:162,1,105.000004005432
240,169,422292,2,0,B|272:135|264:101|217:87|206:98|203:155,1,105.000004005432
165,177,422754,2,0,B|162:260|179:312|200:331|286:335|299:262|273:195|271:136|286:83|299:71|314:70|327:76|329:82|329:87|329:95|319:111|208:239,1,577.500022029878
114,282,424600,6,0,P|84:261|71:224,1,52.5000020027161
381,91,424907,1,0,0:0:0:0:
402,279,425061,2,0,P|395:312|369:328,1,52.5000020027161
90,121,425369,1,0,0:0:0:0:
358,92,425523,2,0,P|392:84|415:98,1,52.5000020027161
123,334,425831,1,0,0:0:0:0:
86,105,425984,2,0,P|109:80|144:74,1,52.5000020027161
393,313,426292,1,0,0:0:0:0:
399,70,426446,6,0,L|393:91,1,13.125000500679
286,92,426600,2,0,L|287:115,1,13.125000500679
182,153,426754,2,0,L|189:167,1,13.125000500679
116,251,426907,2,0,P|138:274|167:287,1,52.5000020027161
355,113,427215,1,0,0:0:0:0:
195,306,427369,6,0,P|218:327|260:332,1,52.5000020027161
233,70,427677,1,0,0:0:0:0:
264,310,427831,6,0,L|271:330,1,13.125000500679
164,117,427984,2,0,L|155:106,1,13.125000500679
346,248,428138,2,0,L|363:258,1,13.125000500679
364,69,428292,6,0,P|329:47|293:48,1,52.5000020027161
276,296,428600,1,0,0:0:0:0:
277,78,428754,2,0,P|236:70|203:83,1,52.5000020027161
276,321,429062,1,0,0:0:0:0:
199,89,429215,6,0,L|189:75,1,13.125000500679
219,204,429369,2,0,L|207:187,1,13.125000500679
242,328,429523,2,0,L|231:312,1,13.125000500679
298,112,429677,2,0,L|348:59,1,52.5000020027161
393,159,429984,1,0,0:0:0:0:
366,262,430138,6,0,L|388:328,1,52.5000020027161
271,83,430446,1,0,0:0:0:0:
291,257,430600,2,0,L|311:316,1,52.5000020027161
179,90,430907,1,0,0:0:0:0:
211,263,431061,6,0,L|218:280,1,13.125000500679
264,63,431215,2,0,L|269:79,1,13.125000500679
249,266,431369,2,0,L|256:289,1,13.125000500679
151,63,431523,2,0,L|172:154,1,52.5000020027161
211,308,431831,1,0,0:0:0:0:
109,258,431984,6,0,L|145:198,1,52.5000020027161
383,85,432292,1,0,0:0:0:0:
389,217,432446,2,0,L|363:268,1,52.5000020027161
140,110,432754,1,0,0:0:0:0:
342,82,432907,2,0,L|423:107,1,52.5000020027161
371,292,433215,1,0,0:0:0:0:
169,303,433369,2,0,L|98:276,1,52.5000020027161
160,85,433677,1,0,0:0:0:0:
342,98,433831,6,0,L|353:106,1,13.125000500679
332,218,433984,2,0,L|342:235,1,13.125000500679
237,299,434138,2,0,L|236:321,1,13.125000500679
143,296,434292,2,0,L|92:327,1,52.5000020027161
315,237,434600,1,0,0:0:0:0:
331,253,434754,2,0,L|393:283,1,52.5000020027161
174,215,435061,1,0,0:0:0:0:
160,227,435215,2,0,L|97:249,2,52.5000020027161
237,137,435677,6,0,L|288:110,1,52.5000020027161
351,103,435984,1,0,0:0:0:0:
248,202,436138,2,0,L|314:179,1,52.5000020027161
364,203,436446,1,0,0:0:0:0:
362,297,436600,6,0,L|381:301,1,13.125000500679
241,307,436754,2,0,L|260:311,1,13.125000500679
120,314,436907,2,0,L|139:318,1,13.125000500679
262,311,437061,2,0,L|333:328,1,52.5000020027161
409,310,437369,1,0,0:0:0:0:
152,265,437523,6,0,L|98:252,2,52.5000020027161
348,225,437984,2,0,L|410:208,2,52.5000020027161
124,114,438446,2,0,L|116:96,1,13.125000500679
212,176,438600,2,0,L|204:158,1,13.125000500679
292,228,438754,2,0,L|284:210,1,13.125000500679
368,288,438907,2,0,P|401:226|408:176,1,105.000004005432
169,287,439369,5,0,0:0:0:0:
364,75,439677,1,0,0:0:0:0:
399,184,439831,1,0,0:0:0:0:
364,75,440138,1,0,0:0:0:0:
276,149,440292,1,0,0:0:0:0:
364,75,440600,1,0,0:0:0:0:
399,184,440754,1,0,0:0:0:0:
364,75,441061,1,0,0:0:0:0:
175,292,441215,5,0,0:0:0:0:
355,67,441523,1,0,0:0:0:0:
398,174,441677,1,0,0:0:0:0:
355,67,441984,1,0,0:0:0:0:
272,147,442138,1,0,0:0:0:0:
355,67,442446,1,0,0:0:0:0:
398,174,442600,1,0,0:0:0:0:
355,67,442907,1,0,0:0:0:0:
186,300,443061,5,0,0:0:0:0:
342,58,443369,1,0,0:0:0:0:
395,158,443523,2,0,P|415:228|404:294,1,105.000004005432
329,267,443984,2,0,B|243:254|243:254|217:205|217:205|323:218,1,210.000008010865
347,202,444446,2,0,B|433:189|433:189|459:140|459:140|353:153,1,210.000008010865
120,231,444907,6,0,B|97:272|116:316|141:312|154:280|133:225,1,140
138,103,445215,2,0,P|147:73|129:76,1,35
164,231,445369,2,0,B|155:277|187:312|210:300|212:266|174:221,1,140
138,103,445677,2,0,P|136:71|120:80,1,35
186,225,445831,2,0,B|185:272|223:301|243:285|239:251|194:213,1,140
138,103,446139,2,0,P|131:72|117:83,1,35
207,215,446292,2,0,B|214:261|257:283|274:264|264:231|213:202,1,140
138,103,446600,2,0,P|126:74|114:87,1,35
385,295,446754,5,0,0:0:0:0:
111,82,447062,1,0,0:0:0:0:
97,195,447216,1,0,0:0:0:0:
111,82,447523,1,0,0:0:0:0:
211,137,447677,1,0,0:0:0:0:
111,82,447985,1,0,0:0:0:0:
97,195,448139,1,0,0:0:0:0:
111,82,448446,1,0,0:0:0:0:
377,303,448600,5,0,0:0:0:0:
119,72,448908,1,0,0:0:0:0:
97,183,449062,1,0,0:0:0:0:
119,72,449369,1,0,0:0:0:0:
214,133,449523,1,0,0:0:0:0:
119,72,449831,1,0,0:0:0:0:
97,183,449985,1,0,0:0:0:0:
119,72,450292,1,0,0:0:0:0:
377,303,450446,5,0,0:0:0:0:
119,72,450754,1,0,0:0:0:0:
97,183,450907,2,0,P|72:285|83:324,2,105.000004005432
151,148,451369,2,0,B|204:127|204:127|201:209|201:209|256:202|285:133,1,210.000008010865
296,119,451831,2,0,B|325:85|363:80|363:80|362:235,1,210.000008010865
379,289,452292,6,0,L|301:299,1,52.5000020027161
70,234,452600,1,0,0:0:0:0:
379,267,452754,2,0,L|301:277,1,52.5000020027161
70,212,453062,1,0,0:0:0:0:
379,238,453215,2,0,L|301:248,1,52.5000020027161
70,183,453523,1,0,0:0:0:0:
378,208,453677,2,0,L|300:218,1,52.5000020027161
69,153,453985,1,0,0:0:0:0:
343,104,454138,5,0,0:0:0:0:
358,74,454446,1,0,0:0:0:0:
373,104,454600,1,0,0:0:0:0:
358,74,454907,1,0,0:0:0:0:
343,104,455061,1,0,0:0:0:0:
300,324,455523,1,0,0:0:0:0:
157,243,455831,1,0,0:0:0:0:
169,104,455984,5,0,0:0:0:0:
154,74,456292,1,0,0:0:0:0:
139,104,456446,1,0,0:0:0:0:
154,74,456753,1,0,0:0:0:0:
169,104,456907,1,0,0:0:0:0:
212,324,457369,1,0,0:0:0:0:
355,243,457677,1,0,0:0:0:0:
376,80,457831,5,0,0:0:0:0:
321,173,458138,1,0,0:0:0:0:
376,80,458292,1,0,0:0:0:0:
321,173,458600,1,0,0:0:0:0:
376,80,458754,2,0,L|313:185,1,105.000004005432
373,219,459215,2,0,B|309:256|261:226|273:168,1,105.000004005432
182,113,459677,2,0,B|119:85|56:107|56:107|140:136|140:136|70:158|70:158|133:163|133:163|76:177|76:177|129:181|129:181|80:191|80:191|122:193|122:193|86:204|86:204|116:205|116:205|89:219|89:219|113:221|113:221|93:233|93:233|112:235|112:235|94:243|94:243|111:251|111:251|97:254|97:254|109:261|109:261|99:265|99:265|107:271|107:271|100:274|100:274,1,770
176,233,461523,5,0,0:0:0:0:
225,139,461831,1,0,0:0:0:0:
176,233,461984,1,0,0:0:0:0:
225,139,462292,1,0,0:0:0:0:
176,233,462446,1,0,0:0:0:0:
225,139,462754,1,0,0:0:0:0:
185,328,462907,1,0,0:0:0:0:
195,334,463215,1,0,0:0:0:0:
410,232,463369,5,0,0:0:0:0:
322,316,463677,1,0,0:0:0:0:
410,232,463831,1,0,0:0:0:0:
322,316,464139,1,0,0:0:0:0:
410,232,464292,2,0,B|464:189|442:165|413:161|394:179|374:230,1,140
323,294,464754,2,0,B|283:313|261:319|250:312|236:299|204:290|173:325,1,140
133,276,465215,5,0,0:0:0:0:
197,96,465523,1,0,0:0:0:0:
278,161,465677,1,0,0:0:0:0:
197,96,465984,1,0,0:0:0:0:
330,319,466138,5,0,0:0:0:0:
379,97,466446,1,0,0:0:0:0:
306,148,466600,1,0,0:0:0:0:
379,97,466907,1,0,0:0:0:0:
256,192,467061,12,0,468754,0:0:0:0:
