osu file format v14

[General]
AudioFilename: audio.mp3
AudioLeadIn: 0
PreviewTime: 608060
Countdown: 0
SampleSet: Normal
StackLeniency: 0.7
Mode: 0
LetterboxInBreaks: 0
WidescreenStoryboard: 0

[Editor]
Bookmarks: 32060,32521,37598,46829,61598,68983,76367,91137,105906,109598,121367,135444,150214,172367,173291,187137,216675,246214,253598,260983,275752,290521,305291,320060,349598,353291,356983,360675,364367,368060,371752,375444,379137,408675,438214,467752,482521,497291,512060,526829,541598,571137,598829,600675,615444,659752,689291,718829,733598,763137,792675,800060,932983,962521,1013291
DistanceSpacing: 0.8
BeatDivisor: 4
GridSize: 16
TimelineZoom: 5.099997

[Metadata]
Title:Soulless 5
TitleUnicode:Soulless 5
Artist:ExileLord
ArtistUnicode:ExileLord
Creator:WhyTryToWin
Version:Imagine the Nerves
Source:
Tags:
BeatmapID:1940718
BeatmapSetID:929199

[Difficulty]
HPDrainRate:7
CircleSize:3.8
OverallDifficulty:9.6
ApproachRate:10
SliderMultiplier:2.7
SliderTickRate:1

[Events]
//Background and Video events
0,0,"iMaGiNeThEnErVeS.png",0,0
//Break Periods
2,379105,408180
2,571221,585427
2,615413,762687
2,800202,1006350
//Storyboard Layer 0 (Background)
//Storyboard Layer 1 (Fail)
//Storyboard Layer 2 (Pass)
//Storyboard Layer 3 (Foreground)
//Storyboard Layer 4 (Overlay)
//Storyboard Sound Samples

[TimingPoints]
2537,230.769230769231,4,1,0,45,1,0
17291,230.769230769231,4,1,0,45,1,0
17291,-142.857142857143,4,1,0,45,0,0
17521,-125,4,1,0,45,0,0
17752,-142.857142857143,4,1,0,45,0,0
17982,-125,4,1,0,45,0,0
18214,-142.857142857143,4,1,0,45,0,0
18444,-125,4,1,0,45,0,0
18675,-142.857142857143,4,1,0,45,0,0
18905,-125,4,1,0,45,0,0
19137,-200,4,1,0,45,0,0
20060,-142.857142857143,4,1,0,45,0,0
20983,-142.857142857143,4,1,0,45,0,0
21214,-125,4,1,0,45,0,0
21444,-142.857142857143,4,1,0,45,0,0
21675,-125,4,1,0,45,0,0
21906,-142.857142857143,4,1,0,45,0,0
22137,-125,4,1,0,45,0,0
22367,-142.857142857143,4,1,0,45,0,0
22598,-125,4,1,0,45,0,0
22829,-200,4,1,0,45,0,0
23752,-142.857142857143,4,1,0,45,0,0
24675,-142.857142857143,4,1,0,45,0,0
24906,-125,4,1,0,45,0,0
25137,-142.857142857143,4,1,0,45,0,0
25368,-125,4,1,0,45,0,0
25598,-200,4,1,0,45,0,0
26521,-142.857142857143,4,1,0,45,0,0
26752,-125,4,1,0,45,0,0
26983,-142.857142857143,4,1,0,45,0,0
27214,-125,4,1,0,45,0,0
27444,-200,4,1,0,45,0,0
28367,-142.857142857143,4,1,0,45,0,0
28598,-125,4,1,0,45,0,0
28829,-142.857142857143,4,1,0,45,0,0
29060,-125,4,1,0,45,0,0
29291,-200,4,1,0,45,0,0
30214,-142.857142857143,4,1,0,45,0,0
30445,-125,4,1,0,45,0,0
30675,-142.857142857143,4,1,0,45,0,0
30906,-125,4,1,0,45,0,0
31137,-200,4,1,0,45,0,0
32060,-142.857142857143,4,1,0,45,0,1
32291,-125,4,1,0,45,0,1
32521,-142.857142857143,4,1,0,45,0,1
32752,-125,4,1,0,45,0,1
32983,-111.111111111111,4,1,0,45,0,1
33906,-142.857142857143,4,1,0,45,0,1
34829,-200,4,1,0,45,0,1
35752,-111.111111111111,4,1,0,45,0,1
36675,-142.857142857143,4,1,0,45,0,1
37137,-111.111111111111,4,1,0,45,0,1
39444,-142.857142857143,4,1,0,45,0,1
39675,-125,4,1,0,45,0,1
39905,-142.857142857143,4,1,0,45,0,1
40136,-125,4,1,0,45,0,1
40367,-111.111111111111,4,1,0,45,0,1
41290,-142.857142857143,4,1,0,45,0,1
42214,-111.111111111111,4,1,0,45,0,1
43137,-142.857142857143,4,1,0,45,0,1
44060,-111.111111111111,4,1,0,45,0,1
44983,-142.857142857143,4,1,0,45,0,1
45214,-125,4,1,0,45,0,1
45444,-142.857142857143,4,1,0,45,0,1
45675,-125,4,1,0,45,0,1
45906,-200,4,1,0,45,0,1
46829,-142.857142857143,4,1,0,45,0,0
75444,-62.5,4,1,0,45,0,0
76367,-999.99999999999,4,1,0,45,0,1
78214,-142.857142857143,4,1,0,45,0,1
78906,-142.857142857143,4,1,0,45,0,1
79137,-200,4,1,0,45,0,1
80060,-142.857142857143,4,1,0,45,0,1
80752,-142.857142857143,4,1,0,45,0,1
80983,-200,4,1,0,45,0,1
81906,-142.857142857143,4,1,0,45,0,1
82598,-142.857142857143,4,1,0,45,0,1
82829,-200,4,1,0,45,0,1
83752,-111.111111111111,4,1,0,45,0,1
85598,-142.857142857143,4,1,0,45,0,1
86291,-142.857142857143,4,1,0,45,0,1
86522,-200,4,1,0,45,0,1
87445,-142.857142857143,4,1,0,45,0,1
88137,-142.857142857143,4,1,0,45,0,1
88368,-200,4,1,0,45,0,1
89291,-142.857142857143,4,1,0,45,0,1
89983,-142.857142857143,4,1,0,45,0,1
90214,-200,4,1,0,45,0,1
91137,-142.857142857143,4,1,0,45,0,0
128060,-111.111111111111,4,1,0,45,0,0
131752,-90.909090909091,4,1,0,45,0,0
135444,-142.857142857143,4,1,0,45,0,1
172367,-125,4,1,0,45,0,0
172598,-200,4,1,0,45,0,0
172829,-125,4,1,0,45,0,0
173060,-200,4,1,0,45,0,0
173291,-125,4,1,0,45,0,0
173522,-200,4,1,0,45,0,0
173752,-125,4,1,0,45,0,0
173983,-142.857142857143,4,1,0,45,0,0
174214,-125,4,1,0,45,0,0
176060,-125,4,1,0,45,0,0
176291,-200,4,1,0,45,0,0
176522,-125,4,1,0,45,0,0
176753,-200,4,1,0,45,0,0
176983,-125,4,1,0,45,0,0
177906,-125,4,1,0,45,0,0
178137,-200,4,1,0,45,0,0
178367,-125,4,1,0,45,0,0
178598,-200,4,1,0,45,0,0
178829,-125,4,1,0,45,0,0
179060,-200,4,1,0,45,0,0
179061,-200,4,1,0,45,0,0
179752,-125,4,1,0,45,0,0
179983,-200,4,1,0,45,0,0
180214,-125,4,1,0,45,0,0
180445,-200,4,1,0,45,0,0
180676,-125,4,1,0,45,0,0
180907,-200,4,1,0,45,0,0
181137,-125,4,1,0,45,0,0
181368,-142.857142857143,4,1,0,45,0,0
181599,-125,4,1,0,45,0,0
183445,-125,4,1,0,45,0,0
183676,-200,4,1,0,45,0,0
183907,-125,4,1,0,45,0,0
184138,-200,4,1,0,45,0,0
184368,-125,4,1,0,45,0,0
185291,-125,4,1,0,45,0,0
185522,-200,4,1,0,45,0,0
185752,-125,4,1,0,45,0,0
185983,-200,4,1,0,45,0,0
186214,-125,4,1,0,45,0,0
186445,-200,4,1,0,45,0,0
186446,-200,4,1,0,45,0,0
187137,-90.9090909090909,4,1,0,45,0,1
189906,-142.857142857143,4,1,0,45,0,1
190137,-125,4,1,0,45,0,1
190367,-111.111111111111,4,1,0,45,0,1
190598,-66.6666666666667,4,1,0,45,0,1
190829,-90.9090909090909,4,1,0,45,0,1
194521,-90.9090909090909,4,1,0,45,0,1
197290,-142.857142857143,4,1,0,45,0,1
197521,-125,4,1,0,45,0,1
197751,-111.111111111111,4,1,0,45,0,1
197982,-66.6666666666667,4,1,0,45,0,1
198213,-90.9090909090909,4,1,0,45,0,1
201906,-142.857142857143,4,1,0,45,0,0
203752,-83.3333333333334,4,1,0,45,0,0
205598,-142.857142857143,4,1,0,45,0,0
211137,-71.4285714285715,4,1,0,45,0,0
212983,-142.857142857143,4,1,0,45,0,0
216675,-66.6666666666667,4,1,0,45,0,0
242521,-1000,4,1,0,45,0,0
245291,-166.666666666667,4,1,0,45,0,0
246214,-111.111111111111,4,1,0,45,0,1
248060,-166.666666666667,4,1,0,45,0,1
249906,-111.111111111111,4,1,0,45,0,1
251752,-111.111111111111,4,1,0,45,0,1
255444,-166.666666666666,4,1,0,45,0,1
257291,-111.111111111111,4,1,0,45,0,1
259137,-111.111111111111,4,1,0,45,0,1
260060,-166.666666666667,4,1,0,45,0,1
260983,-166.666666666667,4,1,0,45,0,0
275752,-111.111111111111,4,1,0,45,0,0
278983,-99.9999999999999,4,1,0,45,0,0
279098,-90.9090909090909,4,1,0,45,0,0
279214,-83.3333333333333,4,1,0,45,0,0
279329,-76.9230769230769,4,1,0,45,0,0
279444,-111.111111111111,4,1,0,45,0,0
290521,-125,4,1,0,45,0,0
305291,-250,4,1,0,45,0,1
306214,-111.111111111111,4,1,0,45,0,1
307137,-250,4,1,0,45,0,1
308060,-111.111111111111,4,1,0,45,0,1
308983,-249.999999999999,4,1,0,45,0,1
309906,-111.111111111111,4,1,0,45,0,1
310829,-249.999999999999,4,1,0,45,0,1
320060,-142.857142857143,4,1,0,45,0,0
408675,-142.857142857143,4,1,0,45,0,0
423444,-125,4,1,0,45,0,0
438214,-142.857142857143,4,1,0,45,0,0
467752,-166.666666666667,4,1,0,45,0,0
482521,-142.857142857143,4,1,0,45,0,0
497291,-111.111111111111,4,1,0,45,0,0
502829,-125,4,1,0,45,0,0
503752,-200,4,1,0,45,0,0
504675,-99.9999999999999,4,1,0,45,0,0
510214,-90.9090909090909,4,1,0,45,0,0
511137,-125,4,1,0,45,0,0
512060,-125,4,1,0,45,0,1
515752,-111.111111111111,4,1,0,45,0,1
519444,-99.9999999999999,4,1,0,45,0,1
523137,-90.9090909090909,4,1,0,45,0,1
524983,-83.3333333333333,4,1,0,45,0,1
525444,-100,4,1,0,45,0,1
525906,-142.857142857143,4,1,0,45,0,1
526367,-125,4,1,0,45,0,1
526829,-100,4,1,0,45,0,1
541598,-142.857142857143,4,1,0,45,0,0
570214,-62.5,4,1,0,45,0,0
585906,-142.857142857143,4,1,0,45,0,0
600675,-142.857142857143,4,1,0,45,0,0
659752,-142.857142857143,4,1,0,45,0,0
718829,-142.857142857143,4,1,0,45,0,0
763137,-1000,4,1,0,45,0,0
792675,-166.666666666667,4,1,0,45,0,0
1006829,-333.333333333334,4,1,0,45,0,0

[HitObjects]
121,71,17291,6,0,P|179:82|227:113,1,94.499997116089
382,273,17521,2,0,B|359:223|359:223|369:153,1,108
282,27,17752,6,0,P|293:85|324:133,1,94.499997116089
484,288,17982,2,0,B|434:265|434:265|364:275,1,108
136,172,18214,6,0,P|194:183|242:214,1,94.499997116089
397,374,18444,2,0,B|374:324|374:324|384:254,1,108
179,10,18675,6,0,P|190:68|221:116,1,94.499997116089
381,271,18905,2,0,B|331:248|331:248|261:258,1,108
127,324,19137,6,0,L|81:349,2,33.75
163,216,19367,2,0,L|209:241,2,33.75
127,108,19598,2,0,L|81:133,2,33.75
163,0,19829,2,0,L|209:25,2,33.75
326,57,20060,5,0,0:0:0:0:
326,151,20175,1,0,0:0:0:0:
244,104,20291,1,0,0:0:0:0:
244,198,20407,1,0,0:0:0:0:
326,151,20521,5,0,0:0:0:0:
326,245,20636,1,0,0:0:0:0:
408,198,20752,1,0,0:0:0:0:
408,292,20868,1,0,0:0:0:0:
490,245,20983,6,0,P|446:209|383:199,1,94.4999971160889
155,75,21214,2,0,B|187:124|187:124|262:150,1,108
488,342,21444,6,0,P|441:308|415:250,1,94.4999971160889
237,62,21675,2,0,B|292:80|292:80|337:145,1,108
348,286,21906,6,0,P|304:250|241:240,1,94.4999971160889
13,116,22137,2,0,B|45:165|45:165|120:191,1,108
346,383,22367,6,0,P|299:349|273:291,1,94.4999971160889
95,103,22598,2,0,B|150:121|150:121|195:186,1,108
157,297,22829,6,0,L|112:269,2,33.75
268,274,23059,2,0,L|269:326,2,33.75
344,188,23290,2,0,L|299:160,2,33.75
455,166,23521,2,0,L|456:218,2,33.75
458,287,23752,5,0,0:0:0:0:
376,241,23867,1,0,0:0:0:0:
376,335,23983,1,0,0:0:0:0:
294,288,24099,1,0,0:0:0:0:
376,241,24213,5,0,0:0:0:0:
295,193,24328,1,0,0:0:0:0:
376,146,24444,1,0,0:0:0:0:
295,99,24560,1,0,0:0:0:0:
376,52,24675,6,0,P|316:24|253:26,1,94.4999971160889
48,145,24906,2,0,B|111:152|111:152|194:117,1,108
376,146,25137,6,0,P|316:118|253:120,1,94.4999971160889
48,239,25368,2,0,B|111:246|111:246|194:211,1,108
250,147,25599,6,0,L|242:139|230:127|226:123|206:103|202:99|199:96|195:92|215:43,2,33.75
250,147,25829,2,0,L|270:98,2,33.75
288,253,26060,2,0,L|236:261,2,33.75
383,317,26291,2,0,L|403:268,2,33.75
173,354,26521,6,0,P|238:342|288:304,1,94.4999971160889
388,89,26752,2,0,B|332:119|332:119|284:195,1,108
119,276,26983,6,0,P|184:264|234:226,1,94.4999971160889
334,12,27214,2,0,B|278:42|278:42|230:118,1,108
155,155,27444,6,0,L|147:147|135:135|131:131|111:111|107:107|104:104|100:100|88:48,2,33.75
155,155,27675,2,0,L|143:103,2,33.75
246,220,27906,2,0,L|207:256,2,33.75
361,217,28136,2,0,L|349:165,2,33.75
440,128,28367,6,0,P|447:187|441:243,1,94.4999971160889
289,360,28598,2,0,B|301:302|301:302|358:250,1,108
348,78,28829,6,0,P|355:137|349:193,1,94.4999971160889
197,310,29060,2,0,B|209:252|209:252|266:200,1,108
338,174,29291,6,0,L|330:166|318:154|314:150|294:130|290:126|287:123|283:119|308:167,2,33.75
338,174,29521,2,0,L|358:222,2,33.75
236,125,29752,2,0,L|267:82,2,33.75
123,147,29983,2,0,L|143:195,2,33.75
55,258,30214,6,0,P|122:279|168:258,1,94.4999971160889
361,111,30444,2,0,L|259:200,1,94.4999971160889
201,326,30675,6,0,P|268:347|314:326,1,94.4999971160889
507,179,30905,2,0,L|405:268,1,94.4999971160889
336,285,31137,6,0,L|340:347,2,33.75
243,200,31367,2,0,L|239:138,2,33.75
158,293,31598,2,0,L|159:355,2,33.75
65,208,31829,2,0,L|61:146,2,33.75
22,96,32060,6,0,P|71:73|138:75,1,94.4999971160889
400,132,32291,2,0,B|339:139|339:139|258:134,1,108
38,212,32521,6,0,P|87:189|154:191,1,94.4999971160889
416,248,32752,2,0,B|355:255|355:255|274:250,1,108
144,198,32983,6,0,P|168:172|187:138,1,60.7499981460572
154,208,33098,2,0,P|178:182|197:148,1,60.7499981460572
361,68,33214,6,0,P|337:94|318:128,1,60.7499981460572
351,58,33329,2,0,P|327:84|308:118,1,60.7499981460572
264,270,33444,6,0,P|292:248|316:218,1,60.7499981460572
272,281,33559,2,0,P|300:259|324:229,1,60.7499981460572
500,179,33675,6,0,P|471:200|447:230,1,60.7499981460572
492,168,33790,2,0,P|463:189|439:219,1,60.7499981460572
378,278,33906,5,0,0:0:0:0:
289,245,34021,1,0,0:0:0:0:
361,184,34137,1,0,0:0:0:0:
273,152,34253,1,0,0:0:0:0:
345,91,34367,5,0,0:0:0:0:
257,59,34483,1,0,0:0:0:0:
273,152,34598,1,0,0:0:0:0:
184,119,34714,1,0,0:0:0:0:
200,212,34829,6,0,L|183:241,2,33.75
81,244,35060,2,0,L|98:215,2,33.75
49,124,35291,2,0,L|32:153,2,33.75
168,92,35521,2,0,L|151:121,2,33.75
262,31,35752,6,0,P|275:63|299:94,1,60.7499981460572
248,36,35867,2,0,P|261:68|285:99,1,60.7499981460572
292,282,35983,6,0,P|278:249|254:218,1,60.7499981460572
305,277,36098,2,0,P|291:244|267:213,1,60.7499981460572
147,111,36213,6,0,P|155:145|173:179,1,60.7499981460572
134,114,36329,2,0,P|142:148|180:214,1,60.7499981460572
134,363,36444,6,0,P|126:327|108:293,1,60.7499981460572
147,361,36559,2,0,P|139:325|121:291,1,60.7499981460572
44,251,36675,5,0,0:0:0:0:
58,206,36732,1,0,0:0:0:0:
93,176,36790,1,0,0:0:0:0:
139,168,36848,1,0,0:0:0:0:
182,186,36906,1,0,0:0:0:0:
222,209,36963,1,0,0:0:0:0:
268,202,37021,1,0,0:0:0:0:
301,170,37079,1,0,0:0:0:0:
308,124,37137,6,0,L|266:57,1,60.7499981460572
318,114,37252,2,0,L|275:46,1,60.7499981460572
164,33,37367,6,0,L|206:100,1,60.7499981460572
154,43,37483,2,0,L|196:110,1,60.7499981460572
187,244,37598,6,0,P|192:209|189:170,1,60.7499981460572
201,247,37713,2,0,P|206:212|203:173,1,60.7499981460572
294,15,37829,6,0,P|288:49|291:88,1,60.7499981460572
280,12,37944,2,0,P|274:46|277:85,1,60.7499981460572
326,237,38059,6,0,P|336:203|340:164,1,60.7499981460572
339,241,38175,2,0,P|349:207|351:159,1,60.7499981460572
471,30,38290,6,0,P|458:63|455:101,1,60.7499981460572
459,25,38406,2,0,P|446:58|443:96,1,60.7499981460572
445,181,38521,6,0,L|466:212,6,30.3749990730286
372,221,38752,2,0,L|366:258,6,30.3749990730286
271,224,38983,6,0,L|240:203,6,30.3749990730286
231,297,39214,2,0,L|189:305,6,30.3749990730286
22,288,39444,6,0,P|71:311|138:309,1,94.4999971160889
400,252,39675,2,0,B|339:245|339:245|258:250,1,108
38,172,39905,6,0,P|87:195|154:193,1,94.4999971160889
416,136,40136,2,0,B|355:129|355:129|274:134,1,108
144,186,40367,6,0,P|168:212|187:246,1,60.7499981460572
154,176,40483,2,0,P|178:202|197:236,1,60.7499981460572
361,316,40598,6,0,P|337:290|318:256,1,60.7499981460572
351,326,40713,2,0,P|327:300|308:266,1,60.7499981460572
264,114,40829,6,0,P|292:136|316:166,1,60.7499981460572
272,103,40944,2,0,P|300:125|324:155,1,60.7499981460572
500,205,41059,6,0,P|471:184|447:154,1,60.7499981460572
492,216,41175,2,0,P|463:195|439:165,1,60.7499981460572
378,106,41290,5,0,0:0:0:0:
289,139,41405,1,0,0:0:0:0:
361,200,41521,1,0,0:0:0:0:
273,232,41637,1,0,0:0:0:0:
345,293,41751,5,0,0:0:0:0:
257,325,41867,1,0,0:0:0:0:
273,232,41982,1,0,0:0:0:0:
184,265,42098,1,0,0:0:0:0:
168,358,42214,6,0,P|138:337|102:323,1,60.7499981460572
175,348,42329,2,0,P|145:327|109:313,1,60.7499981460572
7,163,42445,6,0,P|36:183|72:197,1,60.7499981460572
0,175,42560,2,0,P|29:195|65:209,1,60.7499981460572
222,231,42675,6,0,P|196:206|163:186,1,60.7499981460572
230,222,42790,2,0,P|204:197|171:177,1,60.7499981460572
99,10,42906,6,0,P|123:35|156:55,1,60.7499981460572
89,19,43021,2,0,P|113:44|146:64,1,60.7499981460572
243,123,43137,5,0,0:0:0:0:
315,183,43252,1,0,0:0:0:0:
331,91,43368,1,0,0:0:0:0:
403,151,43484,1,0,0:0:0:0:
421,58,43598,5,0,0:0:0:0:
492,118,43714,1,0,0:0:0:0:
403,151,43829,1,0,0:0:0:0:
476,211,43945,1,0,0:0:0:0:
387,244,44060,6,0,P|355:259|324:283,1,60.7499981460572
381,232,44175,2,0,P|349:247|318:271,1,60.7499981460572
137,285,44291,6,0,P|168:269|199:245,1,60.7499981460572
144,297,44406,2,0,P|175:281|206:257,1,60.7499981460572
304,133,44521,6,0,P|269:142|236:161,1,60.7499981460572
300,122,44636,2,0,P|265:131|232:150,1,60.7499981460572
51,129,44752,6,0,P|85:120|119:101,1,60.7499981460572
53,142,44867,2,0,P|87:133|121:114,1,60.7499981460572
133,37,44983,6,0,P|202:46|235:84,1,94.4999971160889
349,299,45213,2,0,L|294:175,1,94.4999971160889
295,37,45444,6,0,P|364:46|397:84,1,94.4999971160889
510,299,45675,2,0,L|452:169,1,108
400,131,45906,6,0,L|429:76,2,33.75
279,169,46136,2,0,L|249:223,2,33.75
242,48,46367,2,0,L|269:-7,2,33.75
121,86,46598,2,0,L|91:140,2,33.75
75,236,46829,6,0,P|119:287|169:313,1,94.4999971160889
422,287,47060,2,0,L|310:264,1,94.4999971160889
77,139,47291,6,0,P|89:205|119:252,1,94.4999971160889
352,357,47522,2,0,L|266:281,1,94.4999971160889
127,56,47752,6,0,P|105:120|107:176,1,94.4999971160889
256,382,47983,2,0,L|220:274,1,94.4999971160889
212,10,48214,6,0,P|161:54|135:104,1,94.4999971160889
161,357,48445,2,0,L|184:245,1,94.4999971160889
75,148,48675,6,0,P|119:97|169:71,1,94.4999971160889
422,97,48906,2,0,L|310:120,1,94.4999971160889
77,245,49137,6,0,P|89:178|119:131,1,94.4999971160889
352,27,49368,2,0,L|266:102,1,94.4999971160889
127,327,49598,6,0,B|105:263|105:263|107:207,1,94.4999971160889
256,1,49829,2,0,L|220:109,1,94.4999971160889
212,373,50060,6,0,B|161:329|161:329|135:279,1,94.4999971160889
161,26,50291,2,0,L|184:138,1,94.4999971160889
437,236,50521,6,0,B|393:287|393:287|343:313,1,94.4999971160889
90,287,50752,2,0,L|202:264,1,94.4999971160889
435,139,50983,6,0,B|422:205|422:205|392:252,1,94.4999971160889
160,357,51214,2,0,L|245:281,1,94.4999971160889
384,56,51444,6,0,B|406:120|406:120|404:176,1,94.4999971160889
255,382,51675,2,0,L|291:274,1,94.4999971160889
299,10,51906,6,0,B|350:54|350:54|376:104,1,94.4999971160889
350,357,52137,2,0,L|327:245,1,94.4999971160889
216,70,52367,6,0,P|209:135|224:181,1,94.4999971160889
469,251,52598,2,0,L|369:200,1,94.4999971160889
160,106,52829,6,0,P|186:166|222:198,1,94.4999971160889
469,136,53060,2,0,L|357:142,1,94.4999971160889
71,201,53291,6,0,P|133:252|274:260,1,188.999994232178
441,183,53752,2,0,P|379:132|238:124,1,188.999994232178
75,148,54214,6,0,P|119:97|169:71,1,94.4999971160889
422,97,54445,2,0,L|310:120,1,94.4999971160889
77,245,54676,6,0,P|89:178|119:131,1,94.4999971160889
352,27,54907,2,0,L|266:102,1,94.4999971160889
127,327,55137,6,0,P|105:263|107:207,1,94.4999971160889
256,1,55368,2,0,L|220:109,1,94.4999971160889
212,373,55599,6,0,P|161:329|135:279,1,94.4999971160889
161,26,55830,2,0,L|184:138,1,94.4999971160889
75,236,56060,6,0,P|119:287|169:313,1,94.4999971160889
422,287,56291,2,0,L|310:264,1,94.4999971160889
77,139,56522,6,0,P|89:205|119:252,1,94.4999971160889
352,357,56753,2,0,L|266:281,1,94.4999971160889
127,56,56983,6,0,B|105:120|105:120|107:176,1,94.4999971160889
256,382,57214,2,0,L|220:274,1,94.4999971160889
212,10,57445,6,0,B|161:54|161:54|135:104,1,94.4999971160889
161,357,57676,2,0,L|184:245,1,94.4999971160889
437,148,57906,6,0,B|393:97|393:97|343:71,1,94.4999971160889
90,97,58137,2,0,L|202:120,1,94.4999971160889
435,245,58368,6,0,B|422:178|422:178|392:131,1,94.4999971160889
160,27,58599,2,0,L|245:102,1,94.4999971160889
384,327,58829,6,0,B|406:263|406:263|404:207,1,94.4999971160889
255,1,59060,2,0,L|291:109,1,94.4999971160889
299,373,59291,6,0,B|350:329|350:329|376:279,1,94.4999971160889
350,26,59522,2,0,L|327:138,1,94.4999971160889
216,314,59752,6,0,P|209:249|224:203,1,94.4999971160889
469,133,59983,2,0,L|369:184,1,94.4999971160889
160,277,60214,6,0,P|186:217|222:185,1,94.4999971160889
469,247,60445,2,0,L|357:241,1,94.4999971160889
71,183,60676,6,0,P|133:132|274:124,1,188.999994232178
441,201,61137,2,0,P|379:252|238:260,1,188.999994232178
62,155,61598,6,0,B|121:129|121:129|184:144,1,94.4999971160889
276,329,61829,2,0,P|226:297|203:245,1,94.4999971160889
106,62,62060,6,0,B|170:69|170:69|217:114,1,94.4999971160889
204,320,62291,2,0,P|177:267|183:211,1,94.4999971160889
191,5,62521,6,0,B|243:43|243:43|261:105,1,94.4999971160889
147,277,62752,2,0,P|150:218|183:172,1,94.4999971160889
293,0,62983,6,0,B|319:57|319:57|304:120,1,94.4999971160889
119,211,63214,2,0,P|150:162|202:139,1,94.4999971160889
450,155,63444,6,0,B|391:129|391:129|328:144,1,94.4999971160889
236,329,63675,2,0,P|286:297|309:245,1,94.4999971160889
405,62,63906,6,0,B|341:69|341:69|294:114,1,94.4999971160889
307,320,64137,2,0,P|334:267|328:211,1,94.4999971160889
320,5,64367,6,0,B|268:43|268:43|250:105,1,94.4999971160889
364,277,64598,2,0,P|361:218|328:172,1,94.4999971160889
219,0,64829,6,0,B|193:57|193:57|208:120,1,94.4999971160889
392,211,65060,2,0,P|361:162|309:139,1,94.4999971160889
62,229,65291,6,0,B|121:255|121:255|184:240,1,94.4999971160889
276,55,65522,2,0,P|226:87|203:139,1,94.4999971160889
106,321,65753,6,0,B|170:314|170:314|217:269,1,94.4999971160889
204,63,65984,2,0,P|177:116|183:172,1,94.4999971160889
191,378,66214,6,0,B|243:340|243:340|261:278,1,94.4999971160889
147,106,66445,2,0,P|150:165|183:211,1,94.4999971160889
293,386,66676,6,0,B|319:327|319:327|304:264,1,94.4999971160889
119,172,66907,2,0,P|151:221|203:245,1,94.4999971160889
407,285,67137,6,0,B|396:224|396:224|334:207,1,94.4999971160889
85,250,67367,2,0,P|152:267|192:253,1,94.4999971160889
433,197,67598,6,0,B|393:149|393:149|331:165,1,94.4999971160889
136,327,67828,2,0,P|203:308|231:276,1,94.4999971160889
441,183,68060,6,0,B|379:132|379:132|238:124,1,188.999994232178
71,201,68521,2,0,B|133:252|133:252|274:260,1,188.999994232178
385,106,68983,6,0,B|324:103|324:103|300:142,1,94.4999971160889
198,323,69214,2,0,B|270:292|270:292|285:259,1,94.4999971160889
324,53,69444,6,0,B|270:80|270:80|269:126,1,94.4999971160889
271,334,69675,2,0,B|318:271|318:271|314:235,1,94.4999971160889
246,37,69906,6,0,B|212:88|212:88|234:128,1,94.4999971160889
340,307,70137,2,0,B|349:229|349:229|328:200,1,94.4999971160889
170,63,70367,6,0,B|167:124|167:124|206:148,1,94.4999971160889
387,250,70598,2,0,B|356:178|356:178|323:162,1,94.4999971160889
127,106,70829,6,0,B|188:103|188:103|212:142,1,94.4999971160889
314,323,71060,2,0,B|242:292|242:292|227:259,1,94.4999971160889
187,53,71290,6,0,B|241:80|241:80|242:126,1,94.4999971160889
240,334,71521,2,0,B|193:271|193:271|197:235,1,94.4999971160889
265,37,71752,6,0,B|299:88|299:88|277:128,1,94.4999971160889
171,307,71983,2,0,B|162:229|162:229|183:200,1,94.4999971160889
342,63,72213,6,0,B|345:124|345:124|306:148,1,94.4999971160889
125,250,72444,2,0,B|156:178|156:178|189:162,1,94.4999971160889
342,63,72675,6,0,B|345:124|345:124|306:148,1,94.4999971160889
51,213,72906,2,0,B|82:140|82:140|115:125,1,94.4999971160889
394,123,73137,6,0,B|367:177|367:177|321:178,1,94.4999971160889
67,107,73368,2,0,B|130:60|130:60|166:64,1,94.4999971160889
342,321,73598,6,0,B|345:260|345:260|306:235,1,94.4999971160889
28,171,73829,2,0,B|59:243|59:243|92:258,1,94.4999971160889
394,260,74060,6,0,B|367:206|367:206|321:205,1,94.4999971160889
52,296,74291,2,0,B|114:342|114:342|150:339,1,94.4999971160889
405,80,74521,6,0,B|354:76|354:76|324:139,1,94.4999971160889
238,329,74752,2,0,B|292:293|292:293|268:222,1,94.4999971160889
210,19,74983,6,0,B|163:41|163:41|169:110,1,94.4999971160889
308,319,75214,2,0,B|337:261|337:261|281:211,1,94.4999971160889
51,153,75444,2,0,B|77:216|77:216|144:242|144:242|175:328,3,216
244,248,75906,2,0,B|218:185|218:185|151:159|151:159|120:73,3,216
234,44,76367,5,0,0:0:0:0:
238,49,76424,1,0,0:0:0:0:
242,54,76482,1,0,0:0:0:0:
246,60,76540,1,0,0:0:0:0:
250,65,76597,1,0,0:0:0:0:
254,70,76655,1,0,0:0:0:0:
258,76,76713,1,0,0:0:0:0:
262,81,76770,1,0,0:0:0:0:
246,113,76829,5,0,0:0:0:0:
247,119,76886,1,0,0:0:0:0:
248,126,76944,1,0,0:0:0:0:
250,132,77002,1,0,0:0:0:0:
251,139,77059,1,0,0:0:0:0:
253,145,77117,1,0,0:0:0:0:
254,152,77175,1,0,0:0:0:0:
256,159,77232,1,0,0:0:0:0:
294,167,77291,5,0,0:0:0:0:
297,172,77348,1,0,0:0:0:0:
300,178,77406,1,0,0:0:0:0:
303,184,77464,1,0,0:0:0:0:
307,190,77521,1,0,0:0:0:0:
310,196,77579,1,0,0:0:0:0:
313,202,77637,1,0,0:0:0:0:
316,208,77694,1,0,0:0:0:0:
291,249,77752,5,0,0:0:0:0:
291,255,77809,1,0,0:0:0:0:
292,262,77867,1,0,0:0:0:0:
292,269,77925,1,0,0:0:0:0:
293,275,77982,1,0,0:0:0:0:
293,282,78040,1,0,0:0:0:0:
294,289,78098,1,0,0:0:0:0:
294,296,78155,1,0,0:0:0:0:
263,317,78214,6,0,L|203:324,3,47.2499985580445
151,260,78444,6,0,L|95:236,3,47.2499985580445
144,135,78675,6,0,L|137:75,3,47.2499985580445
206,40,78906,2,0,P|250:89|244:180,1,141.749995674133
77,199,79137,2,0,B|66:254|80:302|130:325|184:321|215:276|195:221|195:221|231:256|300:265|341:212|346:180|323:146|343:114|392:110,1,506.25
462,166,80060,6,0,L|479:223,3,47.2499985580445
426,285,80290,6,0,L|412:343,3,47.2499985580445
304,313,80521,6,0,L|246:330,3,47.2499985580445
124,281,80752,2,0,P|173:246|275:255,1,141.749995674133
360,232,80983,2,0,B|368:168|352:136|320:112|272:112|240:136|216:168|216:168|200:120|176:112|144:112|112:120|96:136|48:112|32:88|40:40|80:24,1,506.25
174,40,81906,6,0,L|226:68,3,47.2499985580445
232,149,82136,6,0,L|263:199,3,47.2499985580445
166,255,82367,6,0,L|137:308,3,47.2499985580445
37,296,82598,2,0,P|57:220|120:176,1,141.749995674133
248,230,82829,2,0,B|281:276|322:273|364:252|378:210|369:165|332:136|281:160|281:160|249:120|206:121|160:110|129:79|119:42|158:23|173:10|226:37,1,506.25
278,44,83752,5,0,0:0:0:0:
274,49,83809,1,0,0:0:0:0:
270,54,83867,1,0,0:0:0:0:
266,60,83925,1,0,0:0:0:0:
262,65,83982,1,0,0:0:0:0:
258,70,84040,1,0,0:0:0:0:
254,76,84098,1,0,0:0:0:0:
250,81,84155,1,0,0:0:0:0:
266,113,84214,5,0,0:0:0:0:
265,119,84271,1,0,0:0:0:0:
264,126,84329,1,0,0:0:0:0:
262,132,84387,1,0,0:0:0:0:
261,139,84444,1,0,0:0:0:0:
259,145,84502,1,0,0:0:0:0:
258,152,84560,1,0,0:0:0:0:
256,159,84617,1,0,0:0:0:0:
218,167,84676,5,0,0:0:0:0:
215,172,84733,1,0,0:0:0:0:
212,178,84791,1,0,0:0:0:0:
209,184,84849,1,0,0:0:0:0:
205,190,84906,1,0,0:0:0:0:
202,196,84964,1,0,0:0:0:0:
199,202,85022,1,0,0:0:0:0:
196,208,85079,1,0,0:0:0:0:
221,249,85137,5,0,0:0:0:0:
221,255,85194,1,0,0:0:0:0:
220,262,85252,1,0,0:0:0:0:
220,269,85310,1,0,0:0:0:0:
219,275,85367,1,0,0:0:0:0:
219,282,85425,1,0,0:0:0:0:
218,289,85483,1,0,0:0:0:0:
218,296,85540,1,0,0:0:0:0:
249,317,85599,6,0,L|309:324,3,47.2499985580445
361,260,85829,6,0,L|417:236,3,47.2499985580445
368,135,86060,6,0,L|375:75,3,47.2499985580445
306,40,86291,2,0,P|262:89|268:180,1,141.749995674133
435,199,86522,2,0,B|446:254|432:302|382:325|328:321|297:276|317:221|317:221|281:256|212:265|171:212|166:180|189:146|169:114|120:110,1,506.25
50,166,87445,6,0,L|33:223,3,47.2499985580445
86,285,87675,6,0,L|100:343,3,47.2499985580445
208,313,87906,6,0,L|266:330,3,47.2499985580445
388,281,88137,2,0,P|339:246|237:255,1,141.749995674133
152,232,88368,2,0,B|144:168|160:136|192:112|240:112|272:136|296:168|296:168|312:120|336:112|368:112|400:120|416:136|464:112|480:88|472:40|432:24,1,506.25
338,40,89291,6,0,L|285:68,3,47.2499985580445
280,149,89521,6,0,L|248:199,3,47.2499985580445
346,255,89752,6,0,L|374:308,3,47.2499985580445
475,296,89983,2,0,P|455:220|392:176,1,141.749995674133
256,235,90214,2,0,B|223:281|182:278|140:257|126:215|135:170|172:141|223:165|223:165|208:116|223:82|272:58|301:96|327:107|399:97|424:53,1,506.25
437,236,91137,6,0,P|393:287|343:313,1,94.4999971160889
90,287,91368,2,0,L|202:264,1,94.4999971160889
435,139,91599,6,0,P|423:206|393:253,1,94.4999971160889
160,357,91830,2,0,L|246:282,1,94.4999971160889
385,57,92060,6,0,P|407:121|405:177,1,94.4999971160889
256,383,92291,2,0,L|292:275,1,94.4999971160889
300,11,92522,6,0,P|351:55|377:105,1,94.4999971160889
351,358,92753,2,0,L|328:246,1,94.4999971160889
437,148,92983,6,0,P|393:97|343:71,1,94.4999971160889
90,97,93214,2,0,L|202:120,1,94.4999971160889
435,245,93445,6,0,P|423:179|393:132,1,94.4999971160889
160,27,93676,2,0,L|246:103,1,94.4999971160889
385,328,93906,6,0,B|407:264|407:264|405:208,1,94.4999971160889
256,2,94137,2,0,L|292:110,1,94.4999971160889
300,374,94368,6,0,B|351:330|351:330|377:280,1,94.4999971160889
351,27,94599,2,0,L|328:139,1,94.4999971160889
75,236,94829,6,0,B|119:287|119:287|169:313,1,94.4999971160889
422,287,95060,2,0,L|310:264,1,94.4999971160889
77,139,95291,6,0,B|90:206|90:206|120:253,1,94.4999971160889
352,357,95522,2,0,L|267:282,1,94.4999971160889
128,57,95752,6,0,B|106:121|106:121|108:177,1,94.4999971160889
257,383,95983,2,0,L|221:275,1,94.4999971160889
213,11,96214,6,0,B|162:55|162:55|136:105,1,94.4999971160889
162,358,96445,2,0,L|185:246,1,94.4999971160889
296,70,96675,6,0,P|303:135|288:181,1,94.4999971160889
43,251,96906,2,0,L|143:200,1,94.4999971160889
352,107,97137,6,0,P|326:167|290:199,1,94.4999971160889
43,137,97368,2,0,L|155:143,1,94.4999971160889
441,201,97599,6,0,P|379:252|238:260,1,188.999994232178
71,183,98060,2,0,P|133:132|274:124,1,188.999994232178
450,229,98521,6,0,B|391:255|391:255|328:240,1,94.4999971160889
236,55,98752,2,0,P|286:87|309:139,1,94.4999971160889
406,322,98983,6,0,B|342:315|342:315|295:270,1,94.4999971160889
308,64,99214,2,0,P|335:117|329:173,1,94.4999971160889
321,379,99444,6,0,B|269:341|269:341|251:279,1,94.4999971160889
365,107,99675,2,0,P|362:166|329:212,1,94.4999971160889
219,384,99906,6,0,B|193:327|193:327|208:264,1,94.4999971160889
393,173,100137,2,0,P|362:222|310:245,1,94.4999971160889
62,229,100367,6,0,B|121:255|121:255|184:240,1,94.4999971160889
276,55,100598,2,0,P|226:87|203:139,1,94.4999971160889
107,322,100829,6,0,B|171:315|171:315|218:270,1,94.4999971160889
205,64,101060,2,0,P|178:117|184:173,1,94.4999971160889
192,379,101290,6,0,B|244:341|244:341|262:279,1,94.4999971160889
148,107,101521,2,0,P|151:166|184:212,1,94.4999971160889
293,384,101752,6,0,B|319:327|319:327|304:264,1,94.4999971160889
120,173,101983,2,0,P|151:222|203:245,1,94.4999971160889
450,155,102214,6,0,B|391:129|391:129|328:144,1,94.4999971160889
236,329,102445,2,0,P|286:297|309:245,1,94.4999971160889
406,63,102676,6,0,B|342:70|342:70|295:115,1,94.4999971160889
308,321,102907,2,0,P|335:268|329:212,1,94.4999971160889
321,6,103137,6,0,B|269:44|269:44|251:106,1,94.4999971160889
365,278,103368,2,0,P|362:219|329:173,1,94.4999971160889
219,0,103599,6,0,B|193:57|193:57|208:120,1,94.4999971160889
393,212,103830,2,0,P|361:163|309:139,1,94.4999971160889
105,99,104060,6,0,B|116:160|116:160|178:177,1,94.4999971160889
427,134,104290,2,0,P|360:117|320:131,1,94.4999971160889
79,187,104521,6,0,B|119:235|119:235|181:219,1,94.4999971160889
376,57,104751,2,0,P|309:76|281:108,1,94.4999971160889
71,201,104983,6,0,B|133:252|133:252|274:260,1,188.999994232178
441,183,105444,2,0,B|379:132|379:132|238:124,1,188.999994232178
188,202,105906,6,0,L|110:272,3,94.4999971160889
270,125,106598,6,0,L|165:119,3,94.4999971160889
383,129,107291,6,0,L|313:51,2,94.4999971160889
324,202,107752,6,0,L|402:272,3,94.4999971160889
242,125,108444,6,0,L|346:119,3,94.4999971160889
129,129,109137,6,0,L|199:51,2,94.4999971160889
76,210,109598,6,0,L|-2:140,3,94.4999971160889
158,287,110290,6,0,L|53:292,3,94.4999971160889
271,283,110983,6,0,L|201:361,2,94.4999971160889
436,210,111444,6,0,L|514:140,3,94.4999971160889
354,287,112136,6,0,L|458:292,3,94.4999971160889
241,283,112829,6,0,L|311:361,2,94.4999971160889
86,161,113291,5,0,0:0:0:0:
86,161,113406,1,0,0:0:0:0:
86,161,113521,1,0,0:0:0:0:
86,161,113637,1,0,0:0:0:0:
158,247,113983,1,0,0:0:0:0:
158,247,114098,1,0,0:0:0:0:
158,247,114214,1,0,0:0:0:0:
158,247,114329,1,0,0:0:0:0:
224,341,114675,1,0,0:0:0:0:
224,341,114791,1,0,0:0:0:0:
426,161,115137,5,0,0:0:0:0:
426,161,115252,1,0,0:0:0:0:
426,161,115367,1,0,0:0:0:0:
426,161,115483,1,0,0:0:0:0:
354,247,115829,1,0,0:0:0:0:
354,247,115944,1,0,0:0:0:0:
354,247,116060,1,0,0:0:0:0:
354,247,116175,1,0,0:0:0:0:
288,341,116521,1,0,0:0:0:0:
288,341,116637,1,0,0:0:0:0:
158,222,116983,5,0,0:0:0:0:
198,138,117098,1,0,0:0:0:0:
282,101,117213,1,0,0:0:0:0:
371,127,117329,1,0,0:0:0:0:
158,222,117675,5,0,0:0:0:0:
198,138,117790,1,0,0:0:0:0:
282,101,117905,1,0,0:0:0:0:
371,127,118021,1,0,0:0:0:0:
158,222,118367,5,0,0:0:0:0:
371,127,118483,1,0,0:0:0:0:
301,217,118829,5,0,0:0:0:0:
261,301,118944,1,0,0:0:0:0:
177,338,119059,1,0,0:0:0:0:
88,312,119175,1,0,0:0:0:0:
301,217,119521,5,0,0:0:0:0:
261,301,119636,1,0,0:0:0:0:
177,338,119751,1,0,0:0:0:0:
88,312,119867,1,0,0:0:0:0:
301,217,120213,5,0,0:0:0:0:
88,312,120329,1,0,0:0:0:0:
57,58,120675,5,0,0:0:0:0:
114,132,120790,1,0,0:0:0:0:
172,207,120905,1,0,0:0:0:0:
230,282,121021,1,0,0:0:0:0:
57,58,121367,5,0,0:0:0:0:
114,132,121482,1,0,0:0:0:0:
172,207,121597,1,0,0:0:0:0:
230,282,121713,1,0,0:0:0:0:
57,58,122060,5,0,0:0:0:0:
230,282,122175,1,0,0:0:0:0:
455,326,122521,5,0,0:0:0:0:
397,251,122636,1,0,0:0:0:0:
339,176,122751,1,0,0:0:0:0:
281,101,122867,1,0,0:0:0:0:
455,326,123213,5,0,0:0:0:0:
397,251,123328,1,0,0:0:0:0:
339,176,123443,1,0,0:0:0:0:
281,101,123559,1,0,0:0:0:0:
455,326,123906,5,0,0:0:0:0:
281,101,124021,1,0,0:0:0:0:
161,38,124367,5,0,0:0:0:0:
140,128,124482,1,0,0:0:0:0:
181,211,124597,1,0,0:0:0:0:
264,252,124713,1,0,0:0:0:0:
161,38,125060,5,0,0:0:0:0:
140,128,125175,1,0,0:0:0:0:
181,211,125290,1,0,0:0:0:0:
264,252,125406,1,0,0:0:0:0:
161,38,125752,5,0,0:0:0:0:
264,252,125867,1,0,0:0:0:0:
351,346,126214,5,0,0:0:0:0:
371,255,126329,1,0,0:0:0:0:
330,172,126444,1,0,0:0:0:0:
247,131,126560,1,0,0:0:0:0:
351,346,126907,5,0,0:0:0:0:
371,255,127022,1,0,0:0:0:0:
330,172,127137,1,0,0:0:0:0:
247,131,127253,1,0,0:0:0:0:
351,346,127599,5,0,0:0:0:0:
247,131,127714,1,0,0:0:0:0:
48,85,128060,5,0,0:0:0:0:
70,202,128175,1,0,0:0:0:0:
161,279,128290,1,0,0:0:0:0:
280,283,128406,1,0,0:0:0:0:
48,85,128752,5,0,0:0:0:0:
70,202,128867,1,0,0:0:0:0:
161,279,128982,1,0,0:0:0:0:
280,283,129098,1,0,0:0:0:0:
48,85,129444,5,0,0:0:0:0:
280,283,129560,1,0,0:0:0:0:
464,299,129906,5,0,0:0:0:0:
441,181,130021,1,0,0:0:0:0:
350,104,130136,1,0,0:0:0:0:
231,100,130252,1,0,0:0:0:0:
464,299,130598,5,0,0:0:0:0:
441,181,130713,1,0,0:0:0:0:
350,104,130828,1,0,0:0:0:0:
231,100,130944,1,0,0:0:0:0:
464,299,131290,5,0,0:0:0:0:
231,100,131406,1,0,0:0:0:0:
130,45,131752,5,0,0:0:0:0:
47,158,131867,1,0,0:0:0:0:
118,278,131982,1,0,0:0:0:0:
258,259,132098,1,0,0:0:0:0:
130,45,132444,5,0,0:0:0:0:
47,158,132559,1,0,0:0:0:0:
118,278,132674,1,0,0:0:0:0:
258,259,132790,1,0,0:0:0:0:
130,45,133137,5,0,0:0:0:0:
258,259,133252,1,0,0:0:0:0:
382,339,133598,5,0,0:0:0:0:
465,226,133713,1,0,0:0:0:0:
394,106,133828,1,0,0:0:0:0:
254,125,133944,1,0,0:0:0:0:
382,339,134290,5,0,0:0:0:0:
465,226,134405,1,0,0:0:0:0:
394,106,134520,1,0,0:0:0:0:
254,125,134636,1,0,0:0:0:0:
382,339,134983,5,0,0:0:0:0:
254,125,135098,1,0,0:0:0:0:
59,97,135444,6,0,L|143:131,1,47.2499985580445
101,192,135560,2,0,L|64:221,1,47.2499985580445
104,290,135675,2,0,L|193:277,1,47.2499985580445
225,310,135791,2,0,L|219:356,1,47.2499985580445
330,352,135906,2,0,P|331:266|261:193,1,188.999994232178
152,63,136252,2,0,L|215:65,1,47.2499985580445
368,65,136367,6,0,L|306:99,1,47.2499985580445
303,272,136483,2,0,L|365:238,1,47.2499985580445
470,119,136598,2,0,L|458:107|454:103|434:83|430:79|427:76|423:72|361:106,1,47.2499985580445
470,119,136714,2,0,L|408:153,1,47.2499985580445
151,161,136829,2,0,L|213:127,1,47.2499985580445
346,164,136944,2,0,L|284:198,1,47.2499985580445
175,345,137060,2,0,L|163:333|159:329|139:309|135:305|132:302|128:298|190:264,1,47.2499985580445
175,345,137175,2,0,L|237:311,1,47.2499985580445
453,287,137291,6,0,L|369:253,1,47.2499985580445
410,191,137407,2,0,L|447:162,1,47.2499985580445
408,94,137522,2,0,L|318:106,1,47.2499985580445
287,74,137638,2,0,L|292:27,1,47.2499985580445
182,32,137753,2,0,P|181:118|251:191,1,188.999994232178
360,321,138099,2,0,L|297:319,1,47.2499985580445
144,319,138214,6,0,L|206:285,1,47.2499985580445
209,112,138330,2,0,L|147:146,1,47.2499985580445
42,265,138445,2,0,L|30:253|26:249|6:229|2:225|0:222|-3:218|57:184,1,47.2499985580445
42,265,138561,2,0,L|104:231,1,47.2499985580445
361,223,138676,2,0,L|299:257,1,47.2499985580445
166,220,138791,2,0,L|228:186,1,47.2499985580445
337,39,138907,2,0,L|325:27|321:23|301:3|297:0|294:-3|290:-6|228:26,1,47.2499985580445
337,39,139022,2,0,L|275:73,1,47.2499985580445
101,139,139137,6,0,L|190:150,1,47.2499985580445
166,220,139253,2,0,L|137:257,1,47.2499985580445
194,312,139368,2,0,L|277:277,1,47.2499985580445
315,301,139484,2,0,L|322:347,1,47.2499985580445
428,315,139599,2,0,P|406:231|320:179,1,188.999994232178
182,81,139945,2,0,L|243:66,1,47.2499985580445
391,27,140060,6,0,L|339:75,1,47.2499985580445
381,244,140176,2,0,L|432:195,1,47.2499985580445
503,53,140291,2,0,L|491:41|487:37|467:17|463:13|460:10|456:6|404:54,1,47.2499985580445
503,53,140407,2,0,L|451:101,1,47.2499985580445
206,176,140522,2,0,L|257:127,1,47.2499985580445
395,129,140637,2,0,L|343:177,1,47.2499985580445
277,348,140753,2,0,L|265:336|261:332|241:312|237:308|234:305|230:301|281:252,1,47.2499985580445
277,348,140868,2,0,L|328:299,1,47.2499985580445
419,249,140983,6,0,L|330:230,1,47.2499985580445
360,161,141099,2,0,L|391:126,1,47.2499985580445
341,66,141214,2,0,L|254:93,1,47.2499985580445
218,67,141330,2,0,L|214:19,1,47.2499985580445
108,44,141445,2,0,P|121:128|203:188,1,188.999994232178
332,298,141791,2,0,L|269:306,1,47.2499985580445
119,333,141906,6,0,L|174:288,1,47.2499985580445
148,118,142022,2,0,L|92:162,1,47.2499985580445
10,298,142137,2,0,L|-1:286|-4:282|-21:262|-24:258|-27:255|-31:251|18:206,1,47.2499985580445
10,298,142253,2,0,L|65:253,1,47.2499985580445
317,201,142368,2,0,L|261:245,1,47.2499985580445
124,232,142483,2,0,L|179:187,1,47.2499985580445
262,24,142599,2,0,L|250:12|246:8|226:-10|222:-14|219:-16|215:-19|159:21,1,47.2499985580445
262,24,142714,2,0,L|206:68,1,47.2499985580445
38,182,142829,6,0,L|109:126,1,47.2499985580445
143,193,142945,2,0,L|149:239,1,47.2499985580445
228,239,143060,2,0,L|262:155,1,47.2499985580445
306,145,143176,2,0,L|344:172,1,47.2499985580445
394,75,143291,2,0,P|320:31|221:55,1,188.999994232178
56,83,143637,2,0,L|89:29,1,47.2499985580445
236,50,143752,6,0,L|180:94,1,47.2499985580445
207,265,143868,2,0,L|262:220,1,47.2499985580445
345,85,143983,2,0,L|333:73|329:69|309:49|305:45|302:42|298:38|242:82,1,47.2499985580445
345,85,144099,2,0,L|289:129,1,47.2499985580445
38,182,144214,2,0,L|93:137,1,47.2499985580445
231,151,144329,2,0,L|175:195,1,47.2499985580445
93,359,144445,2,0,L|81:347|77:343|57:323|53:319|50:316|46:312|101:267,1,47.2499985580445
93,359,144560,2,0,L|148:314,1,47.2499985580445
272,343,144675,6,0,L|275:252,1,47.2499985580445
347,269,144791,2,0,L|386:293,1,47.2499985580445
437,234,144906,2,0,L|394:153,1,47.2499985580445
415,113,145022,2,0,L|460:101,1,47.2499985580445
418,2,145137,2,0,P|336:30|292:121,1,188.999994232178
207,265,145483,2,0,L|187:205,1,47.2499985580445
47,114,145598,6,0,L|80:175,1,47.2499985580445
253,179,145714,2,0,L|219:117,1,47.2499985580445
100,12,145829,2,0,B|76:32|76:32|93:55,1,47.2499985580445
100,12,145945,2,0,L|133:73,1,47.2499985580445
142,331,146060,2,0,L|107:268,1,47.2499985580445
145,136,146175,2,0,L|178:197,1,47.2499985580445
326,308,146291,2,0,L|314:296|310:292|290:272|286:268|283:265|279:261|245:199,1,47.2499985580445
326,308,146406,2,0,L|292:246,1,47.2499985580445
224,17,146521,6,0,L|220:107,1,47.2499985580445
149,91,146637,2,0,L|109:66,1,47.2499985580445
59,126,146752,2,0,L|101:206,1,47.2499985580445
81,247,146868,2,0,L|35:258,1,47.2499985580445
78,358,146983,2,0,P|159:329|203:238,1,188.999994232178
289,95,147329,2,0,L|308:154,1,47.2499985580445
416,286,147444,6,0,L|345:287,1,47.2499985580445
256,140,147560,2,0,L|326:138,1,47.2499985580445
477,189,147675,2,0,L|465:177|461:173|441:153|437:149|434:146|430:142|359:143,1,47.2499985580445
477,189,147791,2,0,L|406:190,1,47.2499985580445
180,312,147906,2,0,L|250:310,1,47.2499985580445
347,212,148021,2,0,L|268:205,1,47.2499985580445
108,141,148137,2,0,L|96:129|92:125|72:105|68:101|65:98|61:94|131:92,1,47.2499985580445
108,141,148252,2,0,L|178:139,1,47.2499985580445
347,212,148367,6,0,L|276:210,1,47.2499985580445
187,358,148483,2,0,L|257:359,1,47.2499985580445
408,309,148598,2,0,L|396:297|392:293|372:273|368:269|365:266|361:262|290:260,1,47.2499985580445
408,309,148714,2,0,L|337:307,1,47.2499985580445
111,186,148829,2,0,L|181:187,1,47.2499985580445
278,286,148944,2,0,L|207:284,1,47.2499985580445
39,357,149060,2,0,L|27:345|23:341|3:321|0:317|-3:314|-6:310|62:311,1,47.2499985580445
39,357,149175,2,0,L|109:358,1,47.2499985580445
325,284,149291,6,0,L|254:285,1,47.2499985580445
165,138,149407,2,0,L|235:136,1,47.2499985580445
386,187,149522,2,0,L|374:175|370:171|350:151|346:147|343:144|339:140|268:141,1,47.2499985580445
386,187,149638,2,0,L|315:188,1,47.2499985580445
89,310,149753,2,0,L|159:308,1,47.2499985580445
256,210,149868,2,0,L|185:211,1,47.2499985580445
17,139,149984,2,0,L|5:127|1:123|-16:103|-19:99|-21:96|-24:92|40:90,1,47.2499985580445
17,139,150099,2,0,L|87:137,1,47.2499985580445
179,172,150214,5,0,0:0:0:0:
178,290,150329,1,0,0:0:0:0:
76,231,150444,1,0,0:0:0:0:
179,172,150560,1,0,0:0:0:0:
77,113,150675,1,0,0:0:0:0:
178,54,150791,1,0,0:0:0:0:
179,172,150906,1,0,0:0:0:0:
281,113,151021,1,0,0:0:0:0:
280,231,151137,5,0,0:0:0:0:
280,231,151252,1,0,0:0:0:0:
383,172,151367,1,0,0:0:0:0:
382,290,151482,1,0,0:0:0:0:
486,231,151598,1,0,0:0:0:0:
486,231,151714,1,0,0:0:0:0:
382,290,151829,1,0,0:0:0:0:
382,290,151944,1,0,0:0:0:0:
383,172,152060,5,0,0:0:0:0:
384,290,152175,1,0,0:0:0:0:
486,231,152290,1,0,0:0:0:0:
383,172,152406,1,0,0:0:0:0:
485,113,152521,1,0,0:0:0:0:
384,54,152637,1,0,0:0:0:0:
383,172,152752,1,0,0:0:0:0:
281,113,152867,1,0,0:0:0:0:
282,231,152983,5,0,0:0:0:0:
282,231,153098,1,0,0:0:0:0:
179,172,153213,1,0,0:0:0:0:
180,290,153328,1,0,0:0:0:0:
76,231,153444,1,0,0:0:0:0:
76,231,153560,1,0,0:0:0:0:
180,290,153675,1,0,0:0:0:0:
180,290,153790,1,0,0:0:0:0:
179,172,153906,5,0,0:0:0:0:
282,231,154021,1,0,0:0:0:0:
281,113,154137,1,0,0:0:0:0:
383,172,154252,1,0,0:0:0:0:
183,158,154367,5,0,0:0:0:0:
274,234,154482,1,0,0:0:0:0:
294,118,154598,1,0,0:0:0:0:
384,194,154713,1,0,0:0:0:0:
190,146,154829,5,0,0:0:0:0:
267,237,154944,1,0,0:0:0:0:
306,126,155060,1,0,0:0:0:0:
382,216,155175,1,0,0:0:0:0:
422,105,155291,1,0,0:0:0:0:
497,195,155406,1,0,0:0:0:0:
422,105,155521,1,0,0:0:0:0:
422,105,155637,1,0,0:0:0:0:
382,216,155752,5,0,0:0:0:0:
279,275,155867,1,0,0:0:0:0:
280,157,155983,1,0,0:0:0:0:
178,216,156098,1,0,0:0:0:0:
377,202,156213,5,0,0:0:0:0:
286,278,156328,1,0,0:0:0:0:
266,162,156444,1,0,0:0:0:0:
176,238,156559,1,0,0:0:0:0:
370,190,156675,5,0,0:0:0:0:
293,281,156790,1,0,0:0:0:0:
254,170,156906,1,0,0:0:0:0:
178,260,157021,1,0,0:0:0:0:
139,149,157137,1,0,0:0:0:0:
64,239,157252,1,0,0:0:0:0:
139,149,157367,1,0,0:0:0:0:
139,149,157483,1,0,0:0:0:0:
179,172,157598,5,0,0:0:0:0:
178,290,157713,1,0,0:0:0:0:
76,231,157828,1,0,0:0:0:0:
179,172,157944,1,0,0:0:0:0:
77,113,158059,1,0,0:0:0:0:
178,54,158175,1,0,0:0:0:0:
179,172,158290,1,0,0:0:0:0:
281,113,158405,1,0,0:0:0:0:
280,231,158521,5,0,0:0:0:0:
280,231,158636,1,0,0:0:0:0:
383,172,158751,1,0,0:0:0:0:
382,290,158866,1,0,0:0:0:0:
486,231,158982,1,0,0:0:0:0:
486,231,159098,1,0,0:0:0:0:
382,290,159213,1,0,0:0:0:0:
382,290,159328,1,0,0:0:0:0:
383,172,159444,5,0,0:0:0:0:
384,290,159559,1,0,0:0:0:0:
486,231,159674,1,0,0:0:0:0:
383,172,159790,1,0,0:0:0:0:
485,113,159905,1,0,0:0:0:0:
384,54,160021,1,0,0:0:0:0:
383,172,160136,1,0,0:0:0:0:
281,113,160251,1,0,0:0:0:0:
282,231,160367,5,0,0:0:0:0:
282,231,160482,1,0,0:0:0:0:
179,172,160597,1,0,0:0:0:0:
180,290,160714,1,0,0:0:0:0:
76,231,160828,1,0,0:0:0:0:
76,231,160944,1,0,0:0:0:0:
180,290,161059,1,0,0:0:0:0:
180,290,161174,1,0,0:0:0:0:
179,172,161291,5,0,0:0:0:0:
282,231,161406,1,0,0:0:0:0:
281,113,161522,1,0,0:0:0:0:
383,172,161637,1,0,0:0:0:0:
183,158,161752,5,0,0:0:0:0:
274,234,161867,1,0,0:0:0:0:
294,118,161983,1,0,0:0:0:0:
384,194,162098,1,0,0:0:0:0:
190,146,162214,5,0,0:0:0:0:
267,237,162329,1,0,0:0:0:0:
306,126,162445,1,0,0:0:0:0:
382,216,162560,1,0,0:0:0:0:
422,105,162676,1,0,0:0:0:0:
497,195,162791,1,0,0:0:0:0:
422,105,162906,1,0,0:0:0:0:
422,105,163022,1,0,0:0:0:0:
382,216,163137,5,0,0:0:0:0:
279,275,163252,1,0,0:0:0:0:
280,157,163368,1,0,0:0:0:0:
178,216,163483,1,0,0:0:0:0:
377,202,163598,5,0,0:0:0:0:
286,278,163713,1,0,0:0:0:0:
266,162,163829,1,0,0:0:0:0:
176,238,163944,1,0,0:0:0:0:
370,190,164060,5,0,0:0:0:0:
293,281,164175,1,0,0:0:0:0:
254,170,164291,1,0,0:0:0:0:
178,260,164406,1,0,0:0:0:0:
139,149,164522,1,0,0:0:0:0:
64,239,164637,1,0,0:0:0:0:
139,149,164752,1,0,0:0:0:0:
139,149,164868,1,0,0:0:0:0:
59,97,164983,6,0,L|143:131,1,47.2499985580445
101,192,165099,2,0,L|64:221,1,47.2499985580445
104,290,165214,2,0,L|193:277,1,47.2499985580445
225,310,165330,2,0,L|219:356,1,47.2499985580445
330,352,165445,2,0,P|331:266|261:193,1,188.999994232178
152,63,165791,2,0,L|215:65,1,47.2499985580445
368,65,165906,6,0,L|306:99,1,47.2499985580445
303,272,166022,2,0,L|365:238,1,47.2499985580445
470,119,166137,2,0,L|458:107|454:103|434:83|430:79|427:76|423:72|361:106,1,47.2499985580445
470,119,166253,2,0,L|408:153,1,47.2499985580445
151,161,166368,2,0,L|213:127,1,47.2499985580445
346,164,166483,2,0,L|284:198,1,47.2499985580445
175,345,166599,2,0,L|163:333|159:329|139:309|135:305|132:302|128:298|190:264,1,47.2499985580445
175,345,166714,2,0,L|237:311,1,47.2499985580445
453,287,166830,6,0,L|369:253,1,47.2499985580445
410,191,166944,2,0,L|447:162,1,47.2499985580445
408,94,167061,2,0,L|318:106,1,47.2499985580445
287,74,167175,2,0,L|292:27,1,47.2499985580445
182,32,167292,2,0,P|181:118|251:191,1,188.999994232178
360,321,167638,2,0,L|297:319,1,47.2499985580445
144,319,167753,6,0,L|206:285,1,47.2499985580445
209,112,167867,2,0,L|147:146,1,47.2499985580445
42,265,167984,2,0,L|30:253|26:249|6:229|2:225|0:222|-3:218|57:184,1,47.2499985580445
42,265,168098,2,0,L|104:231,1,47.2499985580445
361,223,168215,2,0,L|299:257,1,47.2499985580445
166,220,168330,2,0,L|228:186,1,47.2499985580445
337,39,168444,2,0,L|325:27|321:23|301:3|297:0|294:-3|290:-6|228:26,1,47.2499985580445
337,39,168561,2,0,L|275:73,1,47.2499985580445
101,139,168676,6,0,L|190:150,1,47.2499985580445
166,220,168792,2,0,L|137:257,1,47.2499985580445
194,312,168907,2,0,L|277:277,1,47.2499985580445
315,301,169021,2,0,L|322:347,1,47.2499985580445
428,315,169138,2,0,P|406:231|320:179,1,188.999994232178
182,81,169484,2,0,L|243:66,1,47.2499985580445
391,27,169598,6,0,L|339:75,1,47.2499985580445
381,244,169714,2,0,L|432:195,1,47.2499985580445
503,53,169829,2,0,L|491:41|487:37|467:17|463:13|460:10|456:6|404:54,1,47.2499985580445
503,53,169945,2,0,L|451:101,1,47.2499985580445
206,176,170060,2,0,L|257:127,1,47.2499985580445
395,129,170175,2,0,L|343:177,1,47.2499985580445
277,348,170291,2,0,L|265:336|261:332|241:312|237:308|234:305|230:301|281:252,1,47.2499985580445
277,348,170406,2,0,L|328:299,1,47.2499985580445
419,249,170521,6,0,L|330:230,1,47.2499985580445
360,161,170637,2,0,L|391:126,1,47.2499985580445
341,66,170752,2,0,L|254:93,1,47.2499985580445
218,67,170868,2,0,L|214:19,1,47.2499985580445
108,44,170983,2,0,P|121:128|203:188,1,188.999994232178
332,298,171329,2,0,L|269:306,1,47.2499985580445
119,333,171444,6,0,L|174:288,1,47.2499985580445
148,118,171560,2,0,L|92:162,1,47.2499985580445
10,298,171675,2,0,L|-1:286|-4:282|-21:262|-24:258|-27:255|-31:251|18:206,1,47.2499985580445
10,298,171791,2,0,L|65:253,1,47.2499985580445
317,201,171906,2,0,L|261:245,1,47.2499985580445
124,232,172021,2,0,L|179:187,1,47.2499985580445
262,24,172137,2,0,L|250:12|246:8|226:-10|222:-14|219:-16|215:-19|159:21,1,47.2499985580445
262,24,172252,2,0,L|206:68,1,47.2499985580445
129,352,172367,6,0,P|108:292|138:196,1,162
322,109,172598,2,0,L|303:71,2,33.75
438,370,172829,6,0,P|459:310|429:214,1,162
219,171,173060,2,0,L|238:133,2,33.75
21,262,173291,6,0,P|0:202|30:106,1,162
240,63,173522,2,0,L|221:25,2,33.75
320,347,173752,6,0,P|341:287|311:191,1,162
101,148,173983,2,0,P|89:93|163:45,1,141.749995674133
344,63,174214,6,0,L|211:167,1,162
209,261,174444,6,0,L|342:157,1,162
448,174,174675,6,0,L|315:278,1,162
331,372,174906,6,0,L|464:268,1,162
344,63,175137,6,0,L|27:295,1,378
209,261,175598,6,0,L|342:157,1,162
448,174,175829,6,0,L|315:278,1,162
103,308,176060,6,0,P|82:248|112:152,1,162
322,109,176291,2,0,L|303:71,2,33.75
438,370,176522,6,0,P|459:310|429:214,1,162
219,171,176753,2,0,L|238:133,2,33.75
93,122,176983,6,0,L|164:293,1,162
275,310,177214,6,0,L|204:139,1,162
245,29,177444,6,0,L|410:372,1,378
418,378,177906,6,0,P|439:318|409:222,1,162
199,179,178137,2,0,L|218:141,2,33.75
105,295,178367,6,0,P|84:235|114:139,1,162
324,96,178598,2,0,L|305:58,2,33.75
413,246,178829,6,0,P|434:186|404:90,1,162
194,47,179060,2,0,L|179:32|156:9|148:1|109:-35|101:-43|94:-49|86:-56|105:-92,2,33.75
194,47,179291,2,0,L|186:39|174:27|170:23|150:3|146:0|143:-3|139:-7|158:-39,2,33.75
194,47,179521,2,0,L|213:9,2,33.75
409,308,179752,6,0,P|430:248|400:152,1,162
190,109,179983,2,0,L|209:71,2,33.75
74,370,180214,6,0,P|53:310|83:214,1,162
293,171,180445,2,0,L|274:133,2,33.75
491,262,180676,6,0,P|512:202|482:106,1,162
272,63,180907,2,0,L|291:25,2,33.75
192,347,181137,6,0,P|171:287|201:191,1,162
411,148,181368,2,0,P|423:93|349:45,1,141.749995674133
168,63,181599,6,0,L|301:167,1,162
303,261,181829,6,0,L|170:157,1,162
64,174,182060,6,0,L|197:278,1,162
181,372,182291,6,0,L|48:268,1,162
168,63,182522,6,0,L|485:295,1,378
303,261,182983,6,0,L|170:157,1,162
64,174,183214,6,0,L|197:278,1,162
409,308,183445,6,0,P|430:248|400:152,1,162
190,109,183676,2,0,L|209:71,2,33.75
74,370,183907,6,0,P|53:310|83:214,1,162
293,171,184138,2,0,L|274:133,2,33.75
419,122,184368,6,0,L|348:293,1,162
237,310,184599,6,0,L|308:139,1,162
267,29,184829,6,0,L|102:372,1,378
94,378,185291,6,0,P|73:318|103:222,1,162
313,179,185522,2,0,L|294:141,2,33.75
407,295,185752,6,0,P|428:235|398:139,1,162
188,96,185983,2,0,L|207:58,2,33.75
99,246,186214,6,0,P|78:186|108:90,1,162
318,47,186445,2,0,L|303:32|280:9|272:1|233:-35|225:-43|218:-49|210:-56|191:-92,2,33.75
318,47,186676,2,0,L|310:39|298:27|294:23|274:3|270:0|267:-3|263:-7|244:-39,2,33.75
318,47,186906,2,0,L|299:9,2,33.75
263,193,187137,6,0,P|251:154|254:102,2,74.2500022659302
401,337,187367,2,0,L|415:293,4,37.1250011329651
458,155,187598,6,0,P|469:116|467:64,2,74.2500022659302
320,299,187829,2,0,L|306:255,4,37.1250011329651
246,89,188060,6,0,P|234:50|237:-2,2,74.2500022659302
384,233,188290,2,0,L|398:189,4,37.1250011329651
337,127,188521,6,0,P|348:88|346:36,2,74.2500022659302
199,271,188752,2,0,L|185:227,4,37.1250011329651
139,92,188983,6,0,P|127:53|130:1,2,74.2500022659302
277,236,189213,2,0,L|291:192,4,37.1250011329651
224,145,189444,6,0,P|235:106|233:54,2,74.2500022659302
86,289,189675,2,0,L|72:245,4,37.1250011329651
81,159,189906,6,0,B|46:124|35:113|87:62|116:116,1,125.999996154785
81,159,190137,6,0,B|58:136|50:128|69:82|130:147,1,144
81,159,190367,6,0,B|69:147|65:143|95:99|76:179,1,182.249994438172
81,159,190598,6,0,B|257:66|272:218|386:156,1,303.750011587143
328,89,190829,6,0,P|339:50|207:34,1,222.750006797791
190,233,191060,2,0,L|176:189,8,37.1250011329651
46,197,191521,6,0,P|34:158|167:142,1,222.750006797791
273,223,191752,2,0,P|287:181|276:132,2,74.2500022659302
184,341,191983,2,0,L|198:297,4,37.1250011329651
266,150,192214,6,0,P|251:108|263:59,2,74.2500022659302
438,365,192445,2,0,L|424:321,4,37.1250011329651
381,95,192675,6,0,P|395:53|384:4,2,74.2500022659302
209,310,192906,2,0,L|223:266,4,37.1250011329651
140,70,193137,6,0,P|125:28|137:-21,2,74.2500022659302
312,285,193368,2,0,L|298:241,4,37.1250011329651
243,116,193598,6,0,P|257:74|246:25,2,74.2500022659302
71,331,193829,2,0,L|85:287,4,37.1250011329651
75,148,194060,6,0,P|60:106|72:57,2,74.2500022659302
247,363,194291,2,0,L|233:319,4,37.1250011329651
249,193,194521,6,0,P|261:154|258:102,2,74.2500022659302
111,337,194752,2,0,L|97:293,4,37.1250011329651
54,155,194983,6,0,P|43:116|45:64,2,74.2500022659302
192,299,195214,2,0,L|206:255,4,37.1250011329651
266,89,195444,6,0,P|278:50|275:-2,2,74.2500022659302
128,233,195675,2,0,L|114:189,4,37.1250011329651
175,127,195906,6,0,P|164:88|166:36,2,74.2500022659302
313,271,196137,2,0,L|327:227,4,37.1250011329651
373,92,196367,6,0,P|385:53|382:1,2,74.2500022659302
235,236,196598,2,0,L|221:192,4,37.1250011329651
288,145,196829,6,0,P|277:106|279:54,2,74.2500022659302
426,289,197060,2,0,L|440:245,4,37.1250011329651
431,159,197291,6,0,B|396:124|385:113|324:58|293:121,1,125.999996154785
431,159,197522,6,0,B|408:136|400:128|345:75|346:157,1,162
431,159,197752,6,0,B|419:147|415:143|361:99|380:179,1,182.249994438172
431,159,197982,6,0,B|255:66|240:218|126:156,1,303.750011587143
179,94,198213,6,0,P|168:55|300:39,1,222.750006797791
317,238,198444,2,0,L|331:194,8,37.1250011329651
403,210,198905,6,0,P|415:171|282:155,1,222.750006797791
176,236,199136,2,0,P|162:194|173:145,2,74.2500022659302
265,354,199367,2,0,L|251:310,4,37.1250011329651
246,150,199598,6,0,P|261:108|249:59,2,74.2500022659302
74,365,199829,2,0,L|88:321,4,37.1250011329651
131,95,200059,6,0,P|117:53|128:4,2,74.2500022659302
303,310,200290,2,0,L|289:266,4,37.1250011329651
372,70,200521,6,0,P|387:28|375:-21,2,74.2500022659302
200,285,200752,2,0,L|214:241,4,37.1250011329651
269,116,200983,6,0,P|255:74|266:25,2,74.2500022659302
441,331,201213,2,0,L|427:287,4,37.1250011329651
437,148,201444,6,0,P|452:106|440:57,2,74.2500022659302
265,363,201675,2,0,L|279:319,4,37.1250011329651
164,349,201906,6,0,L|142:234,1,94.4999971160889
322,129,202137,2,0,L|300:14,1,94.4999971160889
174,339,202367,6,0,L|152:224,1,94.4999971160889
332,119,202598,2,0,L|310:4,1,94.4999971160889
184,329,202829,6,0,L|162:214,1,94.4999971160889
342,109,203060,2,0,L|320:-6,1,94.4999971160889
194,319,203291,6,0,L|172:204,1,94.4999971160889
352,99,203522,2,0,L|330:-16,1,94.4999971160889
243,46,203752,6,0,B|253:81|243:128|218:156|218:156|252:174|241:215|276:231|276:231|282:289,1,242.999992584229
387,312,203983,2,0,B|376:277|386:230|412:202|412:202|377:184|389:143|354:127|354:127|348:69,1,242.999992584229
206,55,204214,6,0,B|225:86|227:133|210:167|210:167|248:175|247:218|285:224|285:224|306:278,1,242.999992584229
413,274,204445,2,0,B|394:243|392:195|409:162|409:162|371:153|372:110|334:104|334:104|313:50,1,242.999992584229
243,46,204675,6,0,B|253:81|243:128|218:156|218:156|252:174|241:215|276:231|276:231|282:289,1,242.999992584229
387,312,204906,2,0,B|376:277|386:230|412:202|412:202|377:184|389:143|354:127|354:127|348:69,1,242.999992584229
206,55,205137,6,0,B|225:86|227:133|210:167|210:167|248:175|247:218|285:224|285:224|306:278,1,242.999992584229
413,274,205368,2,0,B|394:243|392:195|409:162|409:162|371:153|372:110|334:104|334:104|313:50,1,242.999992584229
303,35,205598,6,0,L|325:150,1,94.4999971160889
145,255,205829,2,0,L|167:370,1,94.4999971160889
293,45,206059,6,0,L|315:160,1,94.4999971160889
135,265,206290,2,0,L|157:380,1,94.4999971160889
283,55,206521,6,0,L|305:170,1,94.4999971160889
125,275,206752,2,0,L|147:390,1,94.4999971160889
273,65,206983,6,0,L|295:180,1,94.4999971160889
115,285,207214,2,0,L|137:400,1,94.4999971160889
78,0,207444,6,0,L|56:115,1,94.4999971160889
236,220,207675,2,0,L|214:335,1,94.4999971160889
88,10,207905,6,0,L|66:125,1,94.4999971160889
246,230,208136,2,0,L|224:345,1,94.4999971160889
98,20,208367,6,0,L|76:135,1,94.4999971160889
256,240,208598,2,0,L|234:355,1,94.4999971160889
108,30,208829,6,0,L|86:145,1,94.4999971160889
266,250,209060,2,0,L|244:365,1,94.4999971160889
348,349,209291,6,0,L|370:234,1,94.4999971160889
190,129,209522,2,0,L|212:14,1,94.4999971160889
338,339,209752,6,0,L|360:224,1,94.4999971160889
180,119,209983,2,0,L|202:4,1,94.4999971160889
328,329,210214,6,0,L|350:214,1,94.4999971160889
170,109,210445,2,0,L|192:-6,1,94.4999971160889
318,319,210676,6,0,L|340:204,1,94.4999971160889
160,99,210907,2,0,L|182:-16,1,94.4999971160889
290,47,211137,6,0,B|283:109|248:93|241:155|241:155|201:164|202:203|208:246|159:256|159:256|165:325,1,283.499991348267
246,343,211367,2,0,B|253:281|288:297|295:235|295:235|335:226|333:186|328:144|377:134|377:134|371:65,1,283.499991348267
326,60,211598,6,0,B|303:118|273:94|251:152|251:152|210:150|201:189|195:231|145:228|145:228|133:296,1,283.499991348267
207,335,211828,2,0,B|230:277|259:301|282:243|282:243|323:245|332:206|337:164|387:167|387:167|399:99,1,283.499991348267
357,83,212060,6,0,B|320:133|298:102|261:152|261:152|222:140|203:175|187:214|139:198|139:198|110:261,1,283.499991348267
171,317,212290,2,0,B|208:267|231:298|268:248|268:248|307:260|325:225|342:186|389:202|389:202|419:139,1,283.499991348267
382,113,212521,6,0,B|333:152|320:116|271:155|271:155|236:133|209:162|183:196|142:168|142:168|97:221,1,283.499991348267
142,291,212751,2,0,B|190:252|204:288|253:249|253:249|287:271|314:242|340:208|382:236|382:236|427:183,1,283.499991348267
209,35,212983,6,0,L|187:150,1,94.4999971160889
367,255,213214,2,0,L|345:370,1,94.4999971160889
219,45,213444,6,0,L|197:160,1,94.4999971160889
377,265,213675,2,0,L|355:380,1,94.4999971160889
229,55,213906,6,0,L|207:170,1,94.4999971160889
387,275,214137,2,0,L|365:390,1,94.4999971160889
239,65,214368,6,0,L|217:180,1,94.4999971160889
397,285,214599,2,0,L|375:400,1,94.4999971160889
434,0,214829,6,0,L|456:115,1,94.4999971160889
276,220,215060,2,0,L|298:335,1,94.4999971160889
424,10,215290,6,0,L|446:125,1,94.4999971160889
266,230,215521,2,0,L|288:345,1,94.4999971160889
414,20,215752,6,0,L|436:135,1,94.4999971160889
256,240,215983,2,0,L|278:355,1,94.4999971160889
404,30,216214,6,0,L|426:145,1,94.4999971160889
246,250,216445,2,0,L|268:365,1,94.4999971160889
445,333,216675,5,0,0:0:0:0:
387,249,217137,1,0,0:0:0:0:
329,166,217598,1,0,0:0:0:0:
272,83,218060,1,0,0:0:0:0:
445,333,218521,5,0,0:0:0:0:
387,249,218983,1,0,0:0:0:0:
329,166,219444,1,0,0:0:0:0:
272,83,219906,1,0,0:0:0:0:
272,83,220367,5,0,0:0:0:0:
214,166,220829,1,0,0:0:0:0:
156,249,221290,1,0,0:0:0:0:
99,332,221752,1,0,0:0:0:0:
272,83,222214,5,0,0:0:0:0:
214,166,222676,1,0,0:0:0:0:
156,249,223137,1,0,0:0:0:0:
99,332,223599,1,0,0:0:0:0:
445,333,224060,5,0,0:0:0:0:
387,249,224522,1,0,0:0:0:0:
329,166,224983,1,0,0:0:0:0:
272,83,225445,1,0,0:0:0:0:
445,333,225906,5,0,0:0:0:0:
387,249,226368,1,0,0:0:0:0:
329,166,226829,1,0,0:0:0:0:
272,83,227291,1,0,0:0:0:0:
272,83,227752,5,0,0:0:0:0:
214,166,228214,1,0,0:0:0:0:
156,249,228675,1,0,0:0:0:0:
99,332,229137,1,0,0:0:0:0:
272,83,229599,5,0,0:0:0:0:
214,166,230061,1,0,0:0:0:0:
156,249,230522,1,0,0:0:0:0:
99,332,230984,1,0,0:0:0:0:
445,333,231444,5,0,0:0:0:0:
387,249,231675,1,0,0:0:0:0:
329,166,231906,1,0,0:0:0:0:
272,83,232137,1,0,0:0:0:0:
445,333,232367,5,0,0:0:0:0:
387,249,232598,1,0,0:0:0:0:
329,166,232829,1,0,0:0:0:0:
272,83,233060,1,0,0:0:0:0:
445,333,233291,5,0,0:0:0:0:
387,249,233522,1,0,0:0:0:0:
329,166,233753,1,0,0:0:0:0:
272,83,233984,1,0,0:0:0:0:
445,333,234214,5,0,0:0:0:0:
387,249,234445,1,0,0:0:0:0:
203,177,234676,1,0,0:0:0:0:
146,94,234907,1,0,0:0:0:0:
319,344,235137,5,0,0:0:0:0:
261,260,235368,1,0,0:0:0:0:
203,177,235599,1,0,0:0:0:0:
146,94,235830,1,0,0:0:0:0:
319,344,236060,5,0,0:0:0:0:
261,260,236291,1,0,0:0:0:0:
203,177,236522,1,0,0:0:0:0:
146,94,236753,1,0,0:0:0:0:
319,344,236983,5,0,0:0:0:0:
261,260,237214,1,0,0:0:0:0:
203,177,237445,1,0,0:0:0:0:
146,94,237676,1,0,0:0:0:0:
319,344,237906,5,0,0:0:0:0:
261,260,238137,1,0,0:0:0:0:
77,188,238368,1,0,0:0:0:0:
20,105,238599,1,0,0:0:0:0:
193,355,238829,5,0,0:0:0:0:
135,271,239060,1,0,0:0:0:0:
77,188,239291,1,0,0:0:0:0:
20,105,239522,1,0,0:0:0:0:
193,355,239752,5,0,0:0:0:0:
135,271,239983,1,0,0:0:0:0:
77,188,240214,1,0,0:0:0:0:
20,105,240445,1,0,0:0:0:0:
193,355,240675,5,0,0:0:0:0:
135,271,240906,1,0,0:0:0:0:
77,188,241137,1,0,0:0:0:0:
20,105,241368,1,0,0:0:0:0:
193,355,241598,5,0,0:0:0:0:
135,271,241829,1,0,0:0:0:0:
77,188,242060,1,0,0:0:0:0:
20,105,242291,1,0,0:0:0:0:
193,355,242521,6,0,B|165:325|165:325|166:315|166:315|154:281|154:281|146:281|146:281|115:246|115:246|118:239|118:239|86:212|86:212|77:192,1,211.5
256,192,244367,12,0,245233,0:0:0:0:
256,192,245291,12,0,246156,0:0:0:0:
169,297,246214,6,0,L|154:224,3,60.7499981460572
70,164,246444,2,0,L|117:81,3,60.7499981460572
144,270,246675,6,0,L|149:196,3,60.7499981460572
83,116,246906,2,0,L|150:48,3,60.7499981460572
128,239,247137,6,0,L|151:168,3,60.7499981460572
108,74,247367,2,0,L|191:26,3,60.7499981460572
120,204,247598,6,0,L|161:142,3,60.7499981460572
144,40,247829,2,0,L|236:15,3,60.7499981460572
314,46,248060,6,0,L|360:53,1,26.9999991760254
400,122,248137,2,0,L|442:114,3,26.9999991760254
320,123,248291,6,0,L|274:130,1,26.9999991760254
234,199,248368,2,0,L|192:191,3,26.9999991760254
315,203,248521,6,0,L|361:210,1,26.9999991760254
401,279,248598,2,0,L|443:271,3,26.9999991760254
321,280,248752,6,0,L|275:287,1,26.9999991760254
235,356,248829,2,0,L|193:348,3,26.9999991760254
140,275,248983,6,0,P|112:246|75:234,2,53.9999983520508
115,168,249214,2,0,P|115:128|98:93,2,53.9999983520508
193,39,249444,6,0,P|191:79|210:125,1,80.9999975280763
192,203,249675,2,0,P|225:224|274:231,1,80.9999975280763
337,77,249906,6,0,L|352:150,3,60.7499981460572
436,210,250136,2,0,L|389:293,3,60.7499981460572
361,103,250367,6,0,L|356:177,3,60.7499981460572
422,257,250598,2,0,L|355:325,3,60.7499981460572
377,134,250829,6,0,L|353:204,3,60.7499981460572
397,299,251060,2,0,L|314:347,3,60.7499981460572
385,169,251291,6,0,L|343:231,3,60.7499981460572
361,333,251521,2,0,L|269:358,3,60.7499981460572
205,330,251752,6,0,L|220:257,3,60.7499981460572
304,197,251983,2,0,L|257:114,3,60.7499981460572
230,303,252214,6,0,L|225:228,3,60.7499981460572
291,149,252444,2,0,L|224:80,3,60.7499981460572
246,272,252675,6,0,L|222:201,3,60.7499981460572
266,107,252906,2,0,L|183:58,3,60.7499981460572
254,237,253137,6,0,L|212:174,3,60.7499981460572
230,73,253367,2,0,L|138:47,3,60.7499981460572
87,80,253598,6,0,L|95:154,3,60.7499981460572
33,237,253829,2,0,L|103:301,3,60.7499981460572
71,112,254059,6,0,L|98:181,3,60.7499981460572
60,277,254291,2,0,L|144:321,3,60.7499981460572
65,146,254521,6,0,L|109:205,3,60.7499981460572
97,309,254752,2,0,L|190:329,3,60.7499981460572
68,182,254983,6,0,L|126:228,3,60.7499981460572
142,331,255214,2,0,L|237:326,3,60.7499981460572
314,338,255444,6,0,L|360:331,1,26.9999991760254
400,262,255521,2,0,L|442:270,3,26.9999991760254
320,261,255675,6,0,L|274:254,1,26.9999991760254
234,185,255752,2,0,L|192:193,3,26.9999991760254
315,181,255905,6,0,L|361:174,1,26.9999991760254
401,105,255983,2,0,L|443:113,3,26.9999991760254
321,104,256136,6,0,L|275:97,1,26.9999991760254
235,28,256214,2,0,L|193:36,3,26.9999991760254
140,109,256367,6,0,P|112:138|75:150,2,53.9999983520508
115,215,256598,2,0,P|115:255|98:290,2,53.9999983520508
193,345,256828,6,0,P|191:305|210:259,1,80.9999975280763
192,181,257059,2,0,P|225:159|274:152,1,80.9999975280763
336,71,257291,6,0,L|351:144,3,60.7499981460572
435,204,257521,2,0,L|388:287,3,60.7499981460572
360,97,257752,6,0,L|355:171,3,60.7499981460572
421,251,257983,2,0,L|354:319,3,60.7499981460572
376,128,258214,6,0,L|352:198,3,60.7499981460572
396,293,258444,2,0,L|313:341,3,60.7499981460572
384,163,258675,6,0,L|342:225,3,60.7499981460572
360,327,258906,2,0,L|268:352,3,60.7499981460572
207,336,259137,6,0,L|192:263,3,60.7499981460572
108,203,259367,2,0,L|155:120,3,60.7499981460572
182,309,259598,6,0,L|186:234,3,60.7499981460572
121,155,259829,2,0,L|187:86,3,60.7499981460572
176,34,260060,6,0,P|211:52|246:99,1,80.9999975280763
318,115,260291,2,0,P|320:155|301:200,1,80.9999975280763
230,161,260521,6,0,P|211:196|209:246,1,80.9999975280763
160,308,260752,2,0,P|181:341|223:368,1,80.9999975280763
316,314,260983,6,0,B|329:215|281:245|302:113,1,202.499993820191
286,27,261329,2,0,L|241:55,1,40.4999987640381
210,114,261444,2,0,B|231:245|183:215|196:314,1,202.499993820191
125,352,261791,2,0,L|92:315,1,40.4999987640381
44,248,261906,6,0,P|113:206|220:257,1,202.499993820191
289,293,262252,2,0,L|302:249,1,40.4999987640381
373,218,262367,2,0,P|353:139|242:99,1,202.499993820191
167,76,262714,2,0,L|188:35,1,40.4999987640381
272,15,262829,6,0,L|448:68,1,161.999995056153
427,61,263137,1,0,0:0:0:0:
398,90,263291,1,0,0:0:0:0:
370,120,263444,1,0,0:0:0:0:
342,149,263598,1,0,0:0:0:0:
314,178,263752,6,0,L|186:60,1,161.999995056153
106,63,264060,2,0,P|119:98|117:128,1,53.9999983520508
82,188,264214,6,0,L|210:306,1,161.999995056153
290,303,264522,2,0,P|277:268|279:238,1,53.9999983520508
186,67,264675,6,0,B|173:166|221:136|200:268,1,202.499993820191
216,354,265021,2,0,L|261:326,1,40.4999987640381
292,266,265136,2,0,B|271:135|319:165|306:66,1,202.499993820191
377,29,265483,2,0,L|410:66,1,40.4999987640381
458,133,265598,6,0,P|389:175|282:124,1,202.499993820191
213,88,265944,2,0,L|200:132,1,40.4999987640381
129,163,266059,2,0,P|148:241|259:281,1,202.499993820191
335,305,266406,2,0,L|313:345,1,40.4999987640381
235,349,266521,5,0,0:0:0:0:
237,308,266675,1,0,0:0:0:0:
240,268,266828,1,0,0:0:0:0:
246,187,266983,6,0,L|420:194,1,161.999995056153
480,141,267290,2,0,P|447:122|429:98,1,53.9999983520508
418,30,267444,6,0,L|243:22,1,161.999995056153
184,76,267752,2,0,P|216:94|234:118,1,53.9999983520508
266,197,267906,6,0,L|91:189,1,161.999995056153
32,243,268214,2,0,P|64:261|82:285,1,53.9999983520508
196,314,268367,6,0,B|183:215|231:245|210:113,1,202.499993820191
226,27,268713,2,0,L|271:55,1,40.4999987640381
301,114,268828,2,0,B|281:245|329:215|316:314,1,202.499993820191
387,352,269175,2,0,L|420:315,1,40.4999987640381
468,248,269290,6,0,P|399:206|292:257,1,202.499993820191
223,293,269636,2,0,L|210:249,1,40.4999987640381
139,218,269752,2,0,P|158:139|269:99,1,202.499993820191
345,76,270098,2,0,L|323:35,1,40.4999987640381
240,15,270213,6,0,L|64:68,1,161.999995056153
84,61,270521,1,0,0:0:0:0:
113,90,270675,1,0,0:0:0:0:
141,120,270828,1,0,0:0:0:0:
169,149,270982,1,0,0:0:0:0:
197,178,271136,6,0,L|326:60,1,161.999995056153
406,63,271444,2,0,P|393:98|395:128,1,53.9999983520508
430,188,271598,6,0,L|301:306,1,161.999995056153
222,303,271906,2,0,P|235:268|233:238,1,53.9999983520508
326,67,272059,6,0,B|339:166|291:136|312:268,1,202.499993820191
296,354,272406,2,0,L|251:326,1,40.4999987640381
220,266,272521,2,0,B|240:135|192:165|205:66,1,202.499993820191
135,29,272867,2,0,L|102:66,1,40.4999987640381
54,133,272982,6,0,P|123:175|230:124,1,202.499993820191
299,88,273329,2,0,L|312:132,1,40.4999987640381
383,163,273444,2,0,P|363:241|252:281,1,202.499993820191
177,305,273790,2,0,L|198:345,1,40.4999987640381
277,349,273905,5,0,0:0:0:0:
275,308,274059,1,0,0:0:0:0:
272,268,274214,1,0,0:0:0:0:
266,187,274367,6,0,L|91:194,1,161.999995056153
32,141,274675,2,0,P|64:122|82:98,1,53.9999983520508
94,30,274829,6,0,L|268:22,1,161.999995056153
328,76,275137,2,0,P|295:94|277:118,1,53.9999983520508
246,197,275290,6,0,L|420:189,1,161.999995056153
480,243,275598,2,0,P|447:261|429:285,1,53.9999983520508
396,342,275752,5,0,0:0:0:0:
161,243,275867,1,0,0:0:0:0:
419,315,275983,5,0,0:0:0:0:
171,258,276098,1,0,0:0:0:0:
256,367,276214,2,0,P|291:308|57:195,1,425.2499870224
98,295,276675,5,0,0:0:0:0:
333,196,276790,1,0,0:0:0:0:
74,268,276906,5,0,0:0:0:0:
322,211,277021,1,0,0:0:0:0:
238,320,277137,2,0,P|203:261|437:148,1,425.2499870224
411,248,277598,5,0,0:0:0:0:
176,149,277713,1,0,0:0:0:0:
435,221,277829,5,0,0:0:0:0:
187,164,277944,1,0,0:0:0:0:
276,327,278060,2,0,L|302:201,1,121.499996292114
376,162,278291,2,0,L|402:36,1,121.499996292114
318,38,278521,6,0,B|243:145|206:78|124:193,1,242.999992584229
131,282,278867,1,0,0:0:0:0:
228,329,278983,1,0,0:0:0:0:
346,320,279098,1,0,0:0:0:0:
445,235,279214,1,0,0:0:0:0:
478,99,279329,1,0,0:0:0:0:
393,40,279444,6,0,P|376:111|345:156,1,121.499996292114
261,185,279675,2,0,L|253:177|192:148,1,60.7499981460572
206,158,279791,2,0,L|267:187,1,60.7499981460572
347,235,279906,2,0,P|300:290|237:303,1,121.499996292114
61,303,280137,2,0,P|108:248|171:235,1,121.499996292114
340,354,280367,6,0,P|322:282|292:237,1,121.499996292114
208,208,280598,2,0,L|204:204|143:233,1,60.7499981460572
153,235,280714,2,0,L|214:205,1,60.7499981460572
294,159,280829,2,0,P|247:103|184:90,1,121.499996292114
8,91,281060,2,0,P|54:145|117:158,1,121.499996292114
200,117,281291,5,0,0:0:0:0:
419,325,281406,1,0,0:0:0:0:
293,75,281521,5,0,0:0:0:0:
318,358,281637,1,0,0:0:0:0:
422,151,281752,2,0,L|293:190,1,121.499996292114
237,294,281983,2,0,L|366:255,1,121.499996292114
436,241,282214,6,0,P|405:160|250:103,1,242.999992584229
76,143,282675,6,0,P|107:224|262:281,1,242.999992584229
396,342,283137,5,0,0:0:0:0:
161,243,283252,1,0,0:0:0:0:
419,315,283368,5,0,0:0:0:0:
171,258,283483,1,0,0:0:0:0:
256,367,283599,2,0,P|291:308|57:195,1,425.2499870224
98,295,284060,5,0,0:0:0:0:
333,196,284175,1,0,0:0:0:0:
74,268,284291,5,0,0:0:0:0:
322,211,284406,1,0,0:0:0:0:
238,320,284522,2,0,P|203:261|437:148,1,425.2499870224
411,248,284983,5,0,0:0:0:0:
176,149,285098,1,0,0:0:0:0:
435,221,285214,5,0,0:0:0:0:
187,164,285329,1,0,0:0:0:0:
276,327,285445,2,0,L|302:201,1,121.499996292114
376,162,285676,2,0,L|402:36,1,121.499996292114
318,38,285906,6,0,B|243:145|206:78|124:193,1,242.999992584229
131,282,286252,1,0,0:0:0:0:
228,329,286368,1,0,0:0:0:0:
346,320,286483,1,0,0:0:0:0:
445,235,286599,1,0,0:0:0:0:
478,99,286714,1,0,0:0:0:0:
393,40,286829,6,0,P|376:111|345:156,1,121.499996292114
261,185,287060,2,0,L|253:177|192:148,1,60.7499981460572
206,158,287176,2,0,L|267:187,1,60.7499981460572
347,235,287291,2,0,P|300:290|237:303,1,121.499996292114
61,303,287522,2,0,P|108:248|171:235,1,121.499996292114
340,354,287752,6,0,P|322:282|292:237,1,121.499996292114
208,208,287983,2,0,L|204:204|143:233,1,60.7499981460572
153,235,288099,2,0,L|214:205,1,60.7499981460572
294,159,288214,2,0,P|247:103|184:90,1,121.499996292114
8,91,288445,2,0,P|54:145|117:158,1,121.499996292114
200,117,288676,5,0,0:0:0:0:
419,325,288791,1,0,0:0:0:0:
293,75,288906,5,0,0:0:0:0:
318,358,289022,1,0,0:0:0:0:
422,151,289137,2,0,L|293:190,1,121.499996292114
237,294,289368,2,0,L|366:255,1,121.499996292114
436,241,289599,6,0,P|405:160|250:103,1,242.999992584229
76,143,290060,6,0,P|107:224|262:281,1,242.999992584229
326,332,290521,6,0,L|296:155,1,162
331,77,290752,1,0,0:0:0:0:
360,122,290867,1,0,0:0:0:0:
390,167,290983,1,0,0:0:0:0:
420,212,291098,1,0,0:0:0:0:
449,257,291214,2,0,L|246:243,1,162
68,117,291444,6,0,P|122:170|123:264,1,162
66,323,291675,1,0,0:0:0:0:
26,188,291791,1,0,0:0:0:0:
206,302,291906,1,0,0:0:0:0:
218,151,292021,1,0,0:0:0:0:
400,29,292137,2,0,P|405:145|391:203,1,162
326,332,292367,6,0,L|296:155,1,162
331,77,292598,1,0,0:0:0:0:
360,122,292713,1,0,0:0:0:0:
390,167,292829,1,0,0:0:0:0:
420,212,292944,1,0,0:0:0:0:
449,257,293060,2,0,L|246:243,1,162
68,117,293291,6,0,P|122:170|123:264,1,162
66,323,293522,1,0,0:0:0:0:
26,188,293638,1,0,0:0:0:0:
206,302,293753,1,0,0:0:0:0:
218,151,293868,1,0,0:0:0:0:
400,29,293984,2,0,P|405:145|391:203,1,162
326,332,294214,6,0,L|296:155,1,162
331,77,294445,1,0,0:0:0:0:
360,122,294560,1,0,0:0:0:0:
390,167,294676,1,0,0:0:0:0:
420,212,294791,1,0,0:0:0:0:
449,257,294907,2,0,L|246:243,1,162
68,117,295137,6,0,P|122:170|123:264,1,162
66,323,295368,1,0,0:0:0:0:
30,230,295484,1,0,0:0:0:0:
206,302,295599,1,0,0:0:0:0:
215,202,295714,1,0,0:0:0:0:
357,118,295830,2,0,P|362:234|348:292,1,162
326,332,296060,6,0,L|296:155,1,162
339,90,296291,1,0,0:0:0:0:
363,126,296406,1,0,0:0:0:0:
387,162,296522,1,0,0:0:0:0:
411,198,296637,1,0,0:0:0:0:
430,238,296753,2,0,L|226:223,1,162
68,117,296983,6,0,P|122:170|123:264,1,162
66,323,297214,1,0,0:0:0:0:
30,230,297330,1,0,0:0:0:0:
206,302,297445,1,0,0:0:0:0:
215,202,297560,1,0,0:0:0:0:
357,118,297676,2,0,P|362:234|348:292,1,162
326,332,297906,6,0,L|296:155,1,162
339,90,298137,1,0,0:0:0:0:
363,126,298252,1,0,0:0:0:0:
387,162,298368,1,0,0:0:0:0:
411,198,298483,1,0,0:0:0:0:
430,238,298599,2,0,L|226:223,1,162
68,117,298829,6,0,P|122:170|123:264,1,162
66,323,299060,1,0,0:0:0:0:
26,188,299176,1,0,0:0:0:0:
206,302,299291,1,0,0:0:0:0:
218,151,299406,1,0,0:0:0:0:
400,29,299522,2,0,P|405:145|391:203,1,162
326,332,299752,6,0,L|296:155,1,162
331,77,299983,1,0,0:0:0:0:
360,122,300098,1,0,0:0:0:0:
390,167,300214,1,0,0:0:0:0:
420,212,300329,1,0,0:0:0:0:
449,257,300445,2,0,L|246:243,1,162
68,117,300675,6,0,P|122:170|123:264,1,162
66,323,300906,1,0,0:0:0:0:
26,188,301022,1,0,0:0:0:0:
206,302,301137,1,0,0:0:0:0:
218,151,301252,1,0,0:0:0:0:
400,29,301368,2,0,P|405:145|391:203,1,162
326,332,301598,6,0,L|296:155,1,162
331,77,301829,1,0,0:0:0:0:
360,122,301944,1,0,0:0:0:0:
390,167,302060,1,0,0:0:0:0:
420,212,302175,1,0,0:0:0:0:
449,257,302291,2,0,L|246:243,1,162
68,117,302521,6,0,P|122:170|123:264,1,162
66,323,302752,1,0,0:0:0:0:
30,230,302868,1,0,0:0:0:0:
206,302,302983,1,0,0:0:0:0:
215,202,303098,1,0,0:0:0:0:
357,118,303214,2,0,P|362:234|348:292,1,162
326,332,303444,6,0,L|296:155,1,162
339,90,303675,1,0,0:0:0:0:
363,126,303790,1,0,0:0:0:0:
387,162,303906,1,0,0:0:0:0:
411,198,304021,1,0,0:0:0:0:
430,238,304137,2,0,L|226:223,1,162
68,117,304367,6,0,P|122:170|123:264,1,162
66,323,304598,1,0,0:0:0:0:
30,230,304714,1,0,0:0:0:0:
206,302,304829,1,0,0:0:0:0:
215,202,304944,1,0,0:0:0:0:
357,118,305060,2,0,P|362:234|348:292,1,162
284,334,305291,5,0,0:0:0:0:
277,322,305319,1,0,0:0:0:0:
271,310,305348,1,0,0:0:0:0:
267,297,305377,1,0,0:0:0:0:
265,283,305406,1,0,0:0:0:0:
264,270,305435,1,0,0:0:0:0:
264,257,305464,1,0,0:0:0:0:
267,243,305492,1,0,0:0:0:0:
270,229,305521,5,0,0:0:0:0:
273,215,305549,1,0,0:0:0:0:
274,202,305578,1,0,0:0:0:0:
272,188,305607,1,0,0:0:0:0:
269,175,305636,1,0,0:0:0:0:
264,163,305665,1,0,0:0:0:0:
257,152,305694,1,0,0:0:0:0:
248,141,305722,1,0,0:0:0:0:
237,133,305751,5,0,0:0:0:0:
226,126,305780,1,0,0:0:0:0:
213,121,305809,1,0,0:0:0:0:
200,118,305838,1,0,0:0:0:0:
187,117,305867,1,0,0:0:0:0:
173,119,305895,1,0,0:0:0:0:
160,122,305924,1,0,0:0:0:0:
148,128,305953,1,0,0:0:0:0:
137,135,305982,5,0,0:0:0:0:
127,144,306011,1,0,0:0:0:0:
118,154,306040,1,0,0:0:0:0:
112,166,306069,1,0,0:0:0:0:
107,179,306097,1,0,0:0:0:0:
104,192,306126,1,0,0:0:0:0:
104,206,306155,1,0,0:0:0:0:
105,219,306184,1,0,0:0:0:0:
110,232,306214,5,0,0:0:0:0:
172,276,306290,1,0,0:0:0:0:
240,239,306367,1,0,0:0:0:0:
235,159,306444,1,0,0:0:0:0:
275,90,306520,1,0,0:0:0:0:
347,54,306597,1,0,0:0:0:0:
426,64,306674,1,0,0:0:0:0:
487,115,306751,1,0,0:0:0:0:
510,192,306828,1,0,0:0:0:0:
487,268,306905,1,0,0:0:0:0:
426,320,306982,1,0,0:0:0:0:
347,330,307059,1,0,0:0:0:0:
275,294,307137,5,0,0:0:0:0:
266,284,307165,1,0,0:0:0:0:
259,273,307194,1,0,0:0:0:0:
254,260,307223,1,0,0:0:0:0:
252,247,307252,1,0,0:0:0:0:
252,233,307281,1,0,0:0:0:0:
255,220,307310,1,0,0:0:0:0:
260,208,307338,1,0,0:0:0:0:
267,196,307367,5,0,0:0:0:0:
276,186,307396,1,0,0:0:0:0:
287,179,307425,1,0,0:0:0:0:
300,173,307454,1,0,0:0:0:0:
314,169,307483,1,0,0:0:0:0:
327,167,307511,1,0,0:0:0:0:
340,163,307540,1,0,0:0:0:0:
352,157,307569,1,0,0:0:0:0:
362,148,307598,5,0,0:0:0:0:
369,137,307627,1,0,0:0:0:0:
375,124,307656,1,0,0:0:0:0:
377,111,307684,1,0,0:0:0:0:
377,98,307713,1,0,0:0:0:0:
374,85,307742,1,0,0:0:0:0:
368,73,307771,1,0,0:0:0:0:
360,62,307800,1,0,0:0:0:0:
349,53,307829,5,0,0:0:0:0:
337,47,307857,1,0,0:0:0:0:
324,44,307886,1,0,0:0:0:0:
311,43,307915,1,0,0:0:0:0:
298,46,307944,1,0,0:0:0:0:
285,51,307973,1,0,0:0:0:0:
274,59,308002,1,0,0:0:0:0:
265,68,308031,1,0,0:0:0:0:
256,81,308060,5,0,0:0:0:0:
222,154,308136,1,0,0:0:0:0:
216,234,308214,1,0,0:0:0:0:
178,302,308290,1,0,0:0:0:0:
101,305,308367,1,0,0:0:0:0:
59,240,308444,1,0,0:0:0:0:
93,170,308521,1,0,0:0:0:0:
165,135,308597,1,0,0:0:0:0:
244,144,308674,1,0,0:0:0:0:
312,196,308752,1,0,0:0:0:0:
383,222,308828,1,0,0:0:0:0:
438,169,308905,1,0,0:0:0:0:
413,96,308983,5,0,0:0:0:0:
403,86,309011,1,0,0:0:0:0:
393,77,309040,1,0,0:0:0:0:
381,70,309069,1,0,0:0:0:0:
369,66,309098,1,0,0:0:0:0:
355,63,309127,1,0,0:0:0:0:
342,62,309156,1,0,0:0:0:0:
329,63,309184,1,0,0:0:0:0:
316,67,309213,5,0,0:0:0:0:
303,72,309242,1,0,0:0:0:0:
292,79,309271,1,0,0:0:0:0:
282,88,309300,1,0,0:0:0:0:
273,98,309329,1,0,0:0:0:0:
266,110,309357,1,0,0:0:0:0:
261,122,309386,1,0,0:0:0:0:
258,136,309415,1,0,0:0:0:0:
257,150,309444,5,0,0:0:0:0:
254,163,309472,1,0,0:0:0:0:
250,176,309501,1,0,0:0:0:0:
245,188,309530,1,0,0:0:0:0:
237,199,309559,1,0,0:0:0:0:
228,209,309588,1,0,0:0:0:0:
218,218,309617,1,0,0:0:0:0:
206,225,309645,1,0,0:0:0:0:
194,230,309674,5,0,0:0:0:0:
181,234,309703,1,0,0:0:0:0:
167,235,309732,1,0,0:0:0:0:
154,235,309761,1,0,0:0:0:0:
141,232,309790,1,0,0:0:0:0:
128,228,309818,1,0,0:0:0:0:
116,222,309847,1,0,0:0:0:0:
105,214,309876,1,0,0:0:0:0:
93,204,309906,5,0,0:0:0:0:
91,127,309982,1,0,0:0:0:0:
160,94,310059,1,0,0:0:0:0:
219,143,310137,1,0,0:0:0:0:
233,226,310214,1,0,0:0:0:0:
275,293,310290,1,0,0:0:0:0:
349,324,310367,1,0,0:0:0:0:
427,308,310444,1,0,0:0:0:0:
482,250,310521,1,0,0:0:0:0:
495,171,310598,1,0,0:0:0:0:
460,99,310675,1,0,0:0:0:0:
391,59,310752,1,0,0:0:0:0:
312,66,310829,5,0,0:0:0:0:
300,72,310857,1,0,0:0:0:0:
288,79,310886,1,0,0:0:0:0:
277,87,310915,1,0,0:0:0:0:
267,96,310944,1,0,0:0:0:0:
258,106,310973,1,0,0:0:0:0:
250,116,311002,1,0,0:0:0:0:
242,128,311030,1,0,0:0:0:0:
236,139,311059,5,0,0:0:0:0:
231,152,311088,1,0,0:0:0:0:
227,165,311117,1,0,0:0:0:0:
224,178,311146,1,0,0:0:0:0:
222,191,311175,1,0,0:0:0:0:
222,205,311203,1,0,0:0:0:0:
223,218,311232,1,0,0:0:0:0:
225,232,311261,1,0,0:0:0:0:
227,247,311291,5,0,0:0:0:0:
228,260,311319,1,0,0:0:0:0:
226,273,311348,1,0,0:0:0:0:
222,286,311377,1,0,0:0:0:0:
216,298,311406,1,0,0:0:0:0:
207,309,311435,1,0,0:0:0:0:
197,317,311464,1,0,0:0:0:0:
185,324,311492,1,0,0:0:0:0:
173,328,311521,5,0,0:0:0:0:
159,329,311550,1,0,0:0:0:0:
146,328,311579,1,0,0:0:0:0:
133,325,311608,1,0,0:0:0:0:
121,319,311637,1,0,0:0:0:0:
110,310,311665,1,0,0:0:0:0:
101,300,311694,1,0,0:0:0:0:
94,288,311723,1,0,0:0:0:0:
87,273,311752,5,0,0:0:0:0:
79,247,311809,1,0,0:0:0:0:
80,220,311867,1,0,0:0:0:0:
89,194,311925,1,0,0:0:0:0:
104,172,311982,1,0,0:0:0:0:
125,156,312040,1,0,0:0:0:0:
150,146,312098,1,0,0:0:0:0:
177,144,312155,1,0,0:0:0:0:
237,212,312214,5,0,0:0:0:0:
263,205,312271,1,0,0:0:0:0:
285,190,312329,1,0,0:0:0:0:
303,170,312387,1,0,0:0:0:0:
313,145,312444,1,0,0:0:0:0:
314,118,312502,1,0,0:0:0:0:
308,92,312560,1,0,0:0:0:0:
294,69,312617,1,0,0:0:0:0:
284,50,312675,5,0,0:0:0:0:
277,62,312703,1,0,0:0:0:0:
271,74,312732,1,0,0:0:0:0:
267,87,312761,1,0,0:0:0:0:
265,101,312790,1,0,0:0:0:0:
264,114,312819,1,0,0:0:0:0:
264,127,312848,1,0,0:0:0:0:
267,141,312876,1,0,0:0:0:0:
270,155,312905,5,0,0:0:0:0:
273,169,312935,1,0,0:0:0:0:
274,182,312964,1,0,0:0:0:0:
272,196,312991,1,0,0:0:0:0:
269,209,313020,1,0,0:0:0:0:
264,221,313049,1,0,0:0:0:0:
257,232,313078,1,0,0:0:0:0:
248,243,313108,1,0,0:0:0:0:
237,251,313137,5,0,0:0:0:0:
226,258,313166,1,0,0:0:0:0:
213,263,313193,1,0,0:0:0:0:
200,266,313222,1,0,0:0:0:0:
187,267,313251,1,0,0:0:0:0:
173,265,313281,1,0,0:0:0:0:
160,262,313310,1,0,0:0:0:0:
148,256,313339,1,0,0:0:0:0:
137,249,313366,5,0,0:0:0:0:
127,240,313395,1,0,0:0:0:0:
118,230,313424,1,0,0:0:0:0:
112,218,313453,1,0,0:0:0:0:
107,205,313483,1,0,0:0:0:0:
104,192,313512,1,0,0:0:0:0:
104,178,313541,1,0,0:0:0:0:
105,165,313568,1,0,0:0:0:0:
110,152,313598,5,0,0:0:0:0:
172,108,313675,1,0,0:0:0:0:
240,145,313752,1,0,0:0:0:0:
235,225,313829,1,0,0:0:0:0:
275,294,313906,1,0,0:0:0:0:
347,330,313983,1,0,0:0:0:0:
426,320,314060,1,0,0:0:0:0:
487,269,314137,1,0,0:0:0:0:
510,192,314214,1,0,0:0:0:0:
487,116,314291,1,0,0:0:0:0:
426,64,314367,1,0,0:0:0:0:
347,54,314444,1,0,0:0:0:0:
275,90,314521,5,0,0:0:0:0:
266,100,314550,1,0,0:0:0:0:
259,111,314579,1,0,0:0:0:0:
254,124,314608,1,0,0:0:0:0:
252,137,314637,1,0,0:0:0:0:
252,151,314666,1,0,0:0:0:0:
255,164,314694,1,0,0:0:0:0:
260,176,314723,1,0,0:0:0:0:
267,188,314752,5,0,0:0:0:0:
276,198,314781,1,0,0:0:0:0:
287,205,314810,1,0,0:0:0:0:
300,211,314839,1,0,0:0:0:0:
314,215,314867,1,0,0:0:0:0:
327,217,314896,1,0,0:0:0:0:
340,221,314924,1,0,0:0:0:0:
352,227,314953,1,0,0:0:0:0:
362,236,314982,5,0,0:0:0:0:
369,247,315011,1,0,0:0:0:0:
375,260,315040,1,0,0:0:0:0:
377,273,315068,1,0,0:0:0:0:
377,286,315097,1,0,0:0:0:0:
374,299,315126,1,0,0:0:0:0:
368,311,315155,1,0,0:0:0:0:
360,322,315184,1,0,0:0:0:0:
349,331,315213,5,0,0:0:0:0:
337,337,315241,1,0,0:0:0:0:
324,340,315270,1,0,0:0:0:0:
311,341,315299,1,0,0:0:0:0:
298,338,315328,1,0,0:0:0:0:
285,333,315357,1,0,0:0:0:0:
274,325,315386,1,0,0:0:0:0:
265,316,315415,1,0,0:0:0:0:
256,303,315444,5,0,0:0:0:0:
222,230,315521,1,0,0:0:0:0:
216,150,315598,1,0,0:0:0:0:
178,82,315675,1,0,0:0:0:0:
101,79,315752,1,0,0:0:0:0:
59,144,315829,1,0,0:0:0:0:
93,214,315906,1,0,0:0:0:0:
165,249,315983,1,0,0:0:0:0:
244,240,316060,1,0,0:0:0:0:
312,188,316137,1,0,0:0:0:0:
383,162,316214,1,0,0:0:0:0:
438,215,316291,1,0,0:0:0:0:
413,288,316367,5,0,0:0:0:0:
403,297,316396,1,0,0:0:0:0:
393,306,316425,1,0,0:0:0:0:
381,313,316454,1,0,0:0:0:0:
369,317,316483,1,0,0:0:0:0:
355,320,316512,1,0,0:0:0:0:
342,321,316541,1,0,0:0:0:0:
329,320,316568,1,0,0:0:0:0:
316,316,316598,5,0,0:0:0:0:
303,311,316627,1,0,0:0:0:0:
292,304,316656,1,0,0:0:0:0:
282,295,316685,1,0,0:0:0:0:
273,285,316714,1,0,0:0:0:0:
266,273,316742,1,0,0:0:0:0:
261,261,316771,1,0,0:0:0:0:
258,247,316800,1,0,0:0:0:0:
257,234,316829,5,0,0:0:0:0:
254,220,316858,1,0,0:0:0:0:
250,207,316887,1,0,0:0:0:0:
245,195,316916,1,0,0:0:0:0:
237,184,316944,1,0,0:0:0:0:
228,174,316973,1,0,0:0:0:0:
218,165,317002,1,0,0:0:0:0:
206,158,317031,1,0,0:0:0:0:
194,153,317060,5,0,0:0:0:0:
181,149,317089,1,0,0:0:0:0:
167,148,317117,1,0,0:0:0:0:
154,148,317146,1,0,0:0:0:0:
141,151,317175,1,0,0:0:0:0:
128,155,317204,1,0,0:0:0:0:
116,161,317233,1,0,0:0:0:0:
105,169,317262,1,0,0:0:0:0:
93,180,317291,5,0,0:0:0:0:
91,256,317367,1,0,0:0:0:0:
160,289,317444,1,0,0:0:0:0:
219,240,317521,1,0,0:0:0:0:
233,158,317598,1,0,0:0:0:0:
275,90,317675,1,0,0:0:0:0:
349,59,317752,1,0,0:0:0:0:
427,75,317829,1,0,0:0:0:0:
482,133,317906,1,0,0:0:0:0:
495,212,317983,1,0,0:0:0:0:
460,284,318060,1,0,0:0:0:0:
391,324,318137,1,0,0:0:0:0:
312,317,318213,5,0,0:0:0:0:
300,311,318242,1,0,0:0:0:0:
288,304,318271,1,0,0:0:0:0:
277,296,318300,1,0,0:0:0:0:
267,287,318329,1,0,0:0:0:0:
258,277,318358,1,0,0:0:0:0:
250,267,318387,1,0,0:0:0:0:
242,255,318416,1,0,0:0:0:0:
236,244,318444,5,0,0:0:0:0:
231,231,318473,1,0,0:0:0:0:
227,218,318502,1,0,0:0:0:0:
224,205,318531,1,0,0:0:0:0:
222,192,318560,1,0,0:0:0:0:
222,178,318589,1,0,0:0:0:0:
223,165,318617,1,0,0:0:0:0:
225,151,318646,1,0,0:0:0:0:
227,137,318675,5,0,0:0:0:0:
228,123,318704,1,0,0:0:0:0:
226,110,318733,1,0,0:0:0:0:
222,97,318762,1,0,0:0:0:0:
216,85,318791,1,0,0:0:0:0:
207,74,318819,1,0,0:0:0:0:
197,66,318848,1,0,0:0:0:0:
185,59,318877,1,0,0:0:0:0:
173,55,318906,5,0,0:0:0:0:
159,54,318935,1,0,0:0:0:0:
146,55,318964,1,0,0:0:0:0:
133,58,318992,1,0,0:0:0:0:
121,64,319021,1,0,0:0:0:0:
110,73,319050,1,0,0:0:0:0:
101,83,319079,1,0,0:0:0:0:
94,95,319108,1,0,0:0:0:0:
87,111,319137,5,0,0:0:0:0:
79,136,319194,1,0,0:0:0:0:
80,163,319252,1,0,0:0:0:0:
89,190,319310,1,0,0:0:0:0:
104,211,319367,1,0,0:0:0:0:
125,227,319425,1,0,0:0:0:0:
150,237,319483,1,0,0:0:0:0:
177,239,319541,1,0,0:0:0:0:
237,172,319598,5,0,0:0:0:0:
263,178,319656,1,0,0:0:0:0:
285,193,319714,1,0,0:0:0:0:
303,213,319771,1,0,0:0:0:0:
313,238,319829,1,0,0:0:0:0:
314,265,319887,1,0,0:0:0:0:
308,291,319944,1,0,0:0:0:0:
294,314,320002,1,0,0:0:0:0:
205,340,320060,6,0,B|130:276|130:276|232:268,1,188.999994232178
205,340,320521,6,0,B|124:282|124:282|225:265,1,188.999994232178
205,340,320983,6,0,B|120:289|120:289|219:264,1,188.999994232178
205,340,321444,6,0,B|115:297|115:297|212:263,1,188.999994232178
205,340,321906,6,0,B|112:305|112:305|205:263,1,188.999994232178
205,340,322367,6,0,B|109:313|109:313|199:263,1,188.999994232178
266,235,322829,6,0,L|238:77,1,141.749995674133
322,211,323060,2,0,L|230:79,1,141.749995674133
364,166,323291,2,0,L|225:86,1,141.749995674133
383,108,323521,2,0,L|223:94,1,141.749995674133
142,119,323752,6,0,B|217:183|217:183|115:191,1,188.999994232178
142,119,324213,6,0,B|222:176|222:176|121:193,1,188.999994232178
142,119,324675,6,0,B|226:169|226:169|127:194,1,188.999994232178
142,119,325136,6,0,B|231:161|231:161|134:195,1,188.999994232178
142,119,325598,6,0,B|234:153|234:153|141:195,1,188.999994232178
142,119,326060,6,0,B|237:145|237:145|147:195,1,188.999994232178
67,298,326521,6,0,L|169:175,1,141.749995674133
120,325,326752,2,0,L|161:170,1,141.749995674133
181,328,326983,2,0,L|153:170,1,141.749995674133
238,306,327214,2,0,L|146:174,1,141.749995674133
146,33,327444,6,0,B|71:97|71:97|173:105,1,188.999994232178
146,33,327906,6,0,B|65:90|65:90|166:107,1,188.999994232178
146,33,328367,6,0,B|61:83|61:83|160:108,1,188.999994232178
146,33,328829,6,0,B|56:75|56:75|153:109,1,188.999994232178
146,33,329290,6,0,B|53:67|53:67|146:109,1,188.999994232178
146,33,329752,6,0,B|50:59|50:59|140:109,1,188.999994232178
257,194,330214,6,0,L|229:36,1,141.749995674133
313,170,330445,2,0,L|221:38,1,141.749995674133
355,125,330676,2,0,L|216:45,1,141.749995674133
374,67,330906,2,0,L|214:53,1,141.749995674133
165,117,331137,6,0,B|240:181|240:181|138:189,1,188.999994232178
165,117,331598,6,0,B|245:174|245:174|144:191,1,188.999994232178
165,117,332060,6,0,B|249:167|249:167|150:192,1,188.999994232178
165,117,332521,6,0,B|254:159|254:159|157:193,1,188.999994232178
165,117,332983,6,0,B|257:151|257:151|164:193,1,188.999994232178
165,117,333444,6,0,B|260:143|260:143|170:193,1,188.999994232178
207,319,333906,6,0,L|309:196,1,141.749995674133
261,346,334137,2,0,L|302:191,1,141.749995674133
322,349,334368,2,0,L|294:191,1,141.749995674133
379,326,334598,2,0,L|287:194,1,141.749995674133
347,64,334829,6,0,B|272:128|272:128|374:136,1,188.999994232178
347,64,335290,6,0,B|266:121|266:121|367:138,1,188.999994232178
347,64,335752,6,0,B|262:114|262:114|361:139,1,188.999994232178
347,64,336213,6,0,B|257:106|257:106|354:140,1,188.999994232178
347,64,336675,6,0,B|254:98|254:98|347:140,1,188.999994232178
347,64,337136,6,0,B|251:90|251:90|341:140,1,188.999994232178
454,212,337598,6,0,L|294:211,1,141.749995674133
439,270,337829,2,0,L|293:202,1,141.749995674133
403,319,338060,2,0,L|300:196,1,141.749995674133
348,348,338290,2,0,L|306:193,1,141.749995674133
171,98,338521,6,0,B|246:162|246:162|144:170,1,188.999994232178
171,98,338983,6,0,B|252:155|252:155|151:172,1,188.999994232178
171,98,339444,6,0,B|256:148|256:148|157:173,1,188.999994232178
171,98,339906,6,0,B|261:140|261:140|164:174,1,188.999994232178
171,98,340367,6,0,B|264:132|264:132|171:174,1,188.999994232178
171,98,340829,6,0,B|267:124|267:124|177:174,1,188.999994232178
64,246,341290,6,0,L|224:245,1,141.749995674133
79,304,341521,2,0,L|225:236,1,141.749995674133
115,353,341752,2,0,L|218:230,1,141.749995674133
170,382,341982,2,0,L|212:227,1,141.749995674133
298,241,342214,6,0,B|373:177|373:177|271:169,1,188.999994232178
298,241,342675,6,0,B|379:184|379:184|278:167,1,188.999994232178
298,241,343137,6,0,B|383:191|383:191|284:166,1,188.999994232178
298,241,343598,6,0,B|388:199|388:199|291:165,1,188.999994232178
298,241,344060,6,0,B|391:207|391:207|298:165,1,188.999994232178
298,241,344521,6,0,B|394:215|394:215|304:165,1,188.999994232178
233,158,344983,6,0,L|73:159,1,141.749995674133
218,100,345214,2,0,L|72:168,1,141.749995674133
182,51,345445,2,0,L|79:174,1,141.749995674133
127,22,345675,2,0,L|85:177,1,141.749995674133
154,305,345906,6,0,B|79:241|79:241|181:233,1,188.999994232178
154,305,346367,6,0,B|73:248|73:248|174:231,1,188.999994232178
154,305,346829,6,0,B|69:255|69:255|168:230,1,188.999994232178
154,305,347290,6,0,B|64:263|64:263|161:229,1,188.999994232178
154,305,347752,6,0,B|61:271|61:271|154:229,1,188.999994232178
154,305,348213,6,0,B|58:279|58:279|148:229,1,188.999994232178
216,176,348675,6,0,L|376:175,1,141.749995674133
231,234,348906,2,0,L|377:166,1,141.749995674133
267,283,349137,2,0,L|370:160,1,141.749995674133
322,312,349367,2,0,L|364:157,1,141.749995674133
319,83,349598,6,0,B|298:94|298:94|281:110|239:103|239:103|200:122|181:103|181:103|155:96|126:101,15,188.999994232178
40,152,353291,6,0,B|76:180|76:180|98:201|126:203|126:203|119:258|119:258|142:295,15,188.999994232178
318,303,356983,6,0,B|266:283|267:263|267:263|222:228|222:228|226:219|226:219|215:159,15,188.999994232178
218,49,360675,6,0,B|233:64|233:64|269:68|297:106|297:106|290:136|290:136|283:165|320:192,15,188.999994232178
305,295,364367,6,0,B|335:257|335:257|347:261|347:261|386:217|386:217|385:202|385:202|408:179|407:151,15,188.999994232178
317,157,368060,6,0,B|288:128|252:137|233:106|233:106|240:57|214:13,15,188.999994232178
317,64,371752,6,0,B|346:86|346:86|368:83|374:107|374:107|406:116|406:116|387:154|387:154|415:167|419:207,15,188.999994232178
319,194,375444,6,0,B|319:231|319:231|327:248|327:248|301:274|301:274|283:307|283:307|245:354,15,188.999994232178
136,276,408675,6,0,L|72:90,1,188.999994232178
146,49,408983,2,0,L|203:86,1,62.9999980773926
256,192,409137,12,0,410444,0:0:0:0:
376,276,410521,6,0,L|440:90,1,188.999994232178
366,49,410829,2,0,L|309:86,1,62.9999980773926
256,192,410983,12,0,412290,0:0:0:0:
136,276,412367,6,0,L|72:90,1,188.999994232178
146,49,412675,2,0,L|203:86,1,62.9999980773926
256,192,412829,12,0,413214,0:0:0:0:
256,192,413291,12,0,413676,0:0:0:0:
256,192,413753,12,0,414138,0:0:0:0:
256,192,414214,12,0,415983,0:0:0:0:
125,311,416060,6,0,L|68:118,1,188.999994232178
186,38,416367,2,0,L|176:118,1,62.9999980773926
256,192,416521,12,0,417829,0:0:0:0:
387,311,417906,6,0,L|444:118,1,188.999994232178
326,38,418214,2,0,L|336:118,1,62.9999980773926
256,192,418367,12,0,419675,0:0:0:0:
125,311,419752,6,0,L|68:118,1,188.999994232178
186,38,420060,2,0,L|176:118,1,62.9999980773926
256,192,420214,12,0,420598,0:0:0:0:
256,192,420675,12,0,421059,0:0:0:0:
256,192,421137,12,0,421521,0:0:0:0:
256,192,421598,12,0,423367,0:0:0:0:
62,56,423444,6,0,P|122:85|275:49,1,216
420,78,423752,2,0,B|399:125|399:125|373:133,1,72
346,207,423906,6,0,P|286:178|133:214,1,216
7,178,424214,2,0,B|18:126|18:126|56:114,1,72
115,113,424367,6,0,B|129:235|129:235|206:308,1,216
276,345,424675,2,0,P|277:298|317:258,1,72
360,282,424829,6,0,B|346:160|346:160|269:87,1,216
199,50,425137,2,0,P|198:97|168:131,1,72
116,175,425291,2,0,B|107:208|66:221|66:221|68:274|37:298,2,144
222,165,425752,2,0,P|265:221|164:318,1,216
178,243,426060,2,0,P|140:222|118:166,1,72
125,106,426214,6,0,P|191:70|321:142,1,216
396,175,426560,2,0,B|405:208|446:221|446:221|444:274|475:298,3,144
401,344,427137,6,0,B|323:291|323:291|187:282,1,216
87,238,427444,2,0,P|126:219|161:182,1,72
164,120,427598,6,0,B|257:129|257:129|367:210,1,216
472,240,427906,2,0,P|454:200|451:149,1,72
392,113,428060,2,0,B|359:101|349:59|349:59|296:58|274:25,2,144
393,195,428521,2,0,P|316:240|188:146,1,216
123,198,428829,2,0,P|132:238|110:287,1,72
162,335,428983,6,0,B|240:282|240:282|376:273,1,216
476,229,429290,2,0,P|437:210|402:173,1,72
399,111,429444,6,0,B|305:120|305:120|195:201,1,216
91,231,429752,2,0,P|108:191|111:140,1,72
171,104,429906,2,0,B|203:92|213:50|213:50|266:49|288:16,2,144
169,182,430367,2,0,P|252:191|363:103,1,216
437,122,430675,2,0,P|438:197|447:207,1,72
467,264,430829,6,0,P|392:298|253:261,1,216
206,216,431137,2,0,L|232:141,1,72
207,69,431291,6,0,P|282:35|421:72,1,216
468,117,431599,2,0,L|442:192,1,72
371,221,431752,6,0,B|285:256|285:256|133:224,1,216
98,182,432060,2,0,P|129:149|178:133,1,72
208,78,432214,6,0,B|294:43|294:43|446:75,1,216
481,117,432522,2,0,P|450:150|401:166,1,72
378,236,432675,2,0,B|345:224|335:182|335:182|282:181|260:148,2,144
394,317,433137,6,0,B|313:328|313:328|158:231,1,216
122,282,433444,2,0,L|86:211,1,72
143,160,433598,6,0,B|224:171|224:171|379:74,1,216
415,125,433906,2,0,L|451:54,1,72
372,29,434060,1,0,0:0:0:0:
127,274,434367,1,0,0:0:0:0:
267,320,434521,6,0,P|262:232|140:161,1,216
88,127,434829,2,0,L|134:59,1,72
207,43,434983,6,0,P|281:92|406:88,1,216
473,131,435291,2,0,L|424:216,1,72
364,264,435444,2,0,B|333:279|296:258|296:258|258:296|220:290,2,144
407,197,435906,2,0,B|338:150|338:150|178:168,1,216
144,219,436214,2,0,L|130:298,1,72
200,338,436367,6,0,P|271:273|399:302,1,216
469,261,436675,2,0,P|445:229|455:168,1,72
413,101,436829,6,0,P|342:166|214:137,1,216
144,178,437137,2,0,P|168:210|158:271,1,72
197,324,437291,2,0,B|166:339|129:318|129:318|91:356|53:350,2,144
285,311,437752,2,0,L|343:82,1,216
419,101,438060,2,0,L|440:190,1,72
469,254,438214,6,0,P|385:248|300:139,1,188.999994232178
319,98,438521,2,0,L|232:94,1,62.9999980773926
182,127,438675,2,0,P|109:137|134:43,1,188.999994232178
206,36,438983,2,0,L|273:78,1,62.9999980773926
359,225,439137,1,0,0:0:0:0:
103,299,439444,2,0,L|124:198,1,62.9999980773926
198,232,439598,2,0,P|208:301|335:315,1,188.999994232178
391,317,439906,2,0,L|445:251,1,62.9999980773926
469,130,440060,6,0,P|385:136|300:245,1,188.999994232178
319,286,440367,2,0,L|232:290,1,62.9999980773926
182,257,440521,2,0,P|109:247|134:341,1,188.999994232178
206,348,440829,2,0,L|273:306,1,62.9999980773926
359,159,440983,1,0,0:0:0:0:
103,85,441290,2,0,L|124:186,1,62.9999980773926
198,152,441444,2,0,P|208:83|335:69,1,188.999994232178
391,67,441752,2,0,L|445:133,1,62.9999980773926
461,190,441906,6,0,B|380:243|380:243|260:240,1,188.999994232178
247,170,442214,2,0,L|186:187,1,62.9999980773926
112,220,442367,6,0,B|192:327|192:327|378:323,1,314.999990386963
448,280,442829,6,0,B|409:257|391:212|391:212|408:158|359:143|371:84|371:84|316:68|289:27,1,314.999990386963
158,41,443291,2,0,B|196:63|215:109|215:109|198:163|247:178|235:237|235:237|290:253|317:294,1,314.999990386963
391,303,443752,6,0,L|345:90,1,188.999994232178
403,55,444060,2,0,L|477:101,1,62.9999980773926
486,164,444214,6,0,L|285:221,1,188.999994232178
239,265,444521,2,0,L|167:261,1,62.9999980773926
111,210,444675,6,0,P|111:77|160:52,1,188.999994232178
227,53,444983,2,0,L|256:120,1,62.9999980773926
313,165,445137,6,0,P|347:243|258:335,1,188.999994232178
214,323,445444,2,0,L|140:320,1,62.9999980773926
43,254,445598,6,0,P|127:248|212:139,1,188.999994232178
193,98,445906,2,0,L|280:94,1,62.9999980773926
330,127,446060,2,0,P|403:137|378:43,1,188.999994232178
306,36,446367,2,0,L|239:78,1,62.9999980773926
153,225,446521,1,0,0:0:0:0:
409,299,446829,2,0,L|388:198,1,62.9999980773926
314,232,446983,2,0,P|304:301|177:315,1,188.999994232178
121,317,447290,2,0,L|67:251,1,62.9999980773926
43,130,447444,6,0,P|127:136|212:245,1,188.999994232178
193,286,447752,2,0,L|280:290,1,62.9999980773926
330,257,447906,2,0,P|403:247|378:341,1,188.999994232178
306,348,448214,2,0,L|239:306,1,62.9999980773926
153,159,448367,1,0,0:0:0:0:
409,85,448675,2,0,L|388:186,1,62.9999980773926
314,152,448829,2,0,P|304:83|177:69,1,188.999994232178
121,67,449137,2,0,L|67:133,1,62.9999980773926
51,190,449290,6,0,B|132:243|132:243|252:240,1,188.999994232178
265,170,449598,2,0,L|326:187,1,62.9999980773926
400,220,449752,6,0,B|320:327|320:327|134:323,1,314.999990386963
64,280,450213,6,0,B|102:257|121:212|121:212|104:158|153:143|141:84|141:84|196:68|223:27,1,314.999990386963
354,41,450675,2,0,B|315:63|297:109|297:109|314:163|265:178|277:237|277:237|222:253|195:294,1,314.999990386963
121,303,451136,6,0,L|167:90,1,188.999994232178
109,55,451444,2,0,L|35:101,1,62.9999980773926
26,164,451598,6,0,L|227:221,1,188.999994232178
273,265,451906,2,0,L|345:261,1,62.9999980773926
401,210,452060,6,0,P|401:77|352:52,1,188.999994232178
285,53,452368,2,0,L|256:120,1,62.9999980773926
199,165,452522,6,0,P|165:243|254:335,1,188.999994232178
298,323,452829,2,0,L|372:320,1,62.9999980773926
435,288,452983,6,0,L|387:86,1,188.999994232178
333,41,453291,2,0,L|298:104,1,62.9999980773926
346,279,453444,6,0,L|298:77,1,188.999994232178
244,32,453752,2,0,L|209:95,1,62.9999980773926
257,270,453906,6,0,L|209:68,1,188.999994232178
144,43,454214,1,0,0:0:0:0:
294,111,454367,2,0,P|355:155|277:180,1,188.999994232178
199,191,454675,2,0,L|165:121,1,62.9999980773926
77,96,454829,6,0,L|125:298,1,188.999994232178
179,343,455137,2,0,L|214:280,1,62.9999980773926
166,105,455290,6,0,L|214:307,1,188.999994232178
268,352,455598,2,0,L|303:289,1,62.9999980773926
255,114,455752,6,0,L|303:316,1,188.999994232178
367,345,456060,1,0,0:0:0:0:
445,272,456214,6,0,B|470:185|470:185|398:61,1,188.999994232178
360,44,456521,2,0,P|341:68|281:93,1,62.9999980773926
70,202,456675,6,0,L|212:352,1,188.999994232178
281,364,456983,2,0,L|279:291,1,62.9999980773926
151,165,457136,6,0,L|293:315,1,188.999994232178
363,328,457444,2,0,L|361:255,1,62.9999980773926
233,128,457598,6,0,L|375:278,1,188.999994232178
445,272,457906,1,0,0:0:0:0:
463,171,458060,2,0,P|455:48|315:100,1,314.999990386963
256,192,458521,5,0,0:0:0:0:
256,192,458598,12,0,459444,0:0:0:0:
256,192,459521,12,0,460291,0:0:0:0:
95,115,460367,6,0,B|74:205|74:205|111:309,1,188.999994232178
174,343,460675,2,0,L|190:281,1,62.9999980773926
178,101,460829,6,0,B|157:191|157:191|194:295,1,188.999994232178
257,329,461137,2,0,L|273:267,1,62.9999980773926
261,87,461291,6,0,B|240:177|240:177|277:281,1,188.999994232178
340,315,461599,2,0,L|356:253,1,62.9999980773926
424,212,461752,2,0,B|431:118|431:118|332:128,1,188.999994232178
308,203,462060,2,0,L|227:192,1,62.9999980773926
182,280,462214,6,0,B|161:190|161:190|198:86,1,188.999994232178
261,52,462522,2,0,L|277:114,1,62.9999980773926
265,294,462676,6,0,B|244:204|244:204|281:100,1,188.999994232178
344,66,462984,2,0,L|360:128,1,62.9999980773926
348,308,463138,6,0,B|327:218|327:218|364:114,1,188.999994232178
427,80,463444,2,0,L|443:142,1,62.9999980773926
435,223,463598,2,0,B|442:317|442:317|343:307,1,188.999994232178
319,232,463906,2,0,L|238:243,1,62.9999980773926
174,318,464060,6,0,B|100:262|100:262|61:159,1,188.999994232178
87,92,464368,2,0,L|139:129,1,62.9999980773926
246,275,464522,6,0,B|172:219|172:219|133:116,1,188.999994232178
160,49,464830,2,0,L|212:86,1,62.9999980773926
319,232,464984,6,0,B|245:176|245:176|206:73,1,188.999994232178
233,8,465292,2,0,L|285:45,1,62.9999980773926
352,90,465444,6,0,B|370:155|370:155|478:261|478:261|325:308,1,377.999988464356
256,192,465983,12,0,467675,0:0:0:0:
34,195,467752,6,0,L|72:71,1,121.499996292114
141,28,467983,2,0,B|195:86|195:86|148:130,1,121.499996292114
129,231,468214,6,0,L|167:107,1,121.499996292114
237,65,468445,2,0,B|291:123|291:123|244:167,1,121.499996292114
225,268,468675,6,0,L|263:144,1,121.499996292114
332,102,468906,2,0,B|386:160|386:160|339:204,1,121.499996292114
320,304,469137,6,0,L|358:180,1,121.499996292114
427,138,469368,2,0,B|481:196|481:196|434:240,1,121.499996292114
402,349,469598,6,0,B|389:286|389:286|363:225,1,121.499996292114
295,183,469829,2,0,B|240:241|240:241|287:285,1,121.499996292114
139,349,470060,6,0,B|152:286|152:286|177:225,1,121.499996292114
246,183,470291,2,0,B|300:241|300:241|253:285,1,121.499996292114
442,316,470521,6,0,B|413:258|413:258|373:206,1,121.499996292114
295,183,470752,2,0,B|257:253|257:253|313:283,1,121.499996292114
99,315,470983,6,0,B|127:257|127:257|167:205,1,121.499996292114
246,183,471214,2,0,B|283:253|283:253|227:283,1,121.499996292114
177,325,471444,6,0,B|111:307|111:307|67:256,1,121.499996292114
44,177,471675,2,0,B|114:139|114:139|144:195,1,121.499996292114
267,324,471906,6,0,B|201:306|201:306|157:255,1,121.499996292114
134,176,472137,2,0,B|204:138|204:138|234:194,1,121.499996292114
357,323,472367,6,0,B|291:305|291:305|247:254,1,121.499996292114
224,175,472598,2,0,B|294:137|294:137|324:193,1,121.499996292114
447,322,472829,6,0,B|381:304|381:304|337:253,1,121.499996292114
314,174,473060,2,0,B|384:136|384:136|414:192,1,121.499996292114
391,255,473291,6,0,L|246:272,1,121.499996292114
191,196,473521,2,0,L|336:179,1,121.499996292114
361,94,473752,2,0,L|216:111,1,121.499996292114
161,35,473983,2,0,L|157:31|302:14,1,121.499996292114
281,20,474214,6,0,L|160:34,1,121.499996292114
240,108,474444,2,0,L|361:94,1,121.499996292114
311,181,474675,2,0,L|191:196,1,121.499996292114
270,269,474906,2,0,L|391:255,1,121.499996292114
478,195,475137,6,0,L|439:71,1,121.499996292114
371,28,475368,2,0,B|316:86|316:86|363:130,1,121.499996292114
383,231,475599,6,0,L|344:107,1,121.499996292114
275,65,475830,2,0,B|220:123|220:123|267:167,1,121.499996292114
287,268,476060,6,0,L|248:144,1,121.499996292114
180,102,476291,2,0,B|125:160|125:160|172:204,1,121.499996292114
192,304,476522,6,0,L|153:180,1,121.499996292114
85,138,476753,2,0,B|30:196|30:196|77:240,1,121.499996292114
110,349,476983,6,0,B|123:286|123:286|148:225,1,121.499996292114
217,183,477214,2,0,B|271:241|271:241|224:285,1,121.499996292114
373,349,477445,6,0,B|360:286|360:286|334:225,1,121.499996292114
266,183,477676,2,0,B|211:241|211:241|258:285,1,121.499996292114
70,316,477906,6,0,B|98:258|98:258|138:206,1,121.499996292114
217,183,478137,2,0,B|254:253|254:253|198:283,1,121.499996292114
413,315,478368,6,0,B|384:257|384:257|344:205,1,121.499996292114
266,183,478599,2,0,B|228:253|228:253|284:283,1,121.499996292114
335,325,478829,6,0,B|400:307|400:307|444:256,1,121.499996292114
468,177,479060,2,0,B|397:139|397:139|367:195,1,121.499996292114
245,324,479291,6,0,B|310:306|310:306|354:255,1,121.499996292114
378,176,479522,2,0,B|307:138|307:138|277:194,1,121.499996292114
155,323,479752,6,0,B|220:305|220:305|264:254,1,121.499996292114
288,175,479983,2,0,B|217:137|217:137|187:193,1,121.499996292114
65,322,480214,6,0,B|130:304|130:304|174:253,1,121.499996292114
198,174,480445,2,0,B|127:136|127:136|97:192,1,121.499996292114
121,255,480676,6,0,L|266:272,1,121.499996292114
321,196,480906,2,0,L|176:179,1,121.499996292114
151,94,481137,2,0,L|296:111,1,121.499996292114
351,35,481368,2,0,L|343:27|198:10,1,121.499996292114
231,20,481599,6,0,L|351:34,1,121.499996292114
271,108,481829,2,0,L|151:94,1,121.499996292114
200,181,482060,2,0,L|321:196,1,121.499996292114
241,269,482291,2,0,L|121:255,1,121.499996292114
62,196,482521,6,0,B|66:79|66:79|110:54,1,141.749995674133
163,32,482752,2,0,B|175:83|175:83|223:77|223:77|233:142,1,141.749995674133
203,246,482983,6,0,B|207:129|207:129|251:104,1,141.749995674133
304,82,483214,2,0,B|316:133|316:133|364:127|364:127|374:192,1,141.749995674133
395,296,483444,6,0,B|391:179|391:179|347:154,1,141.749995674133
294,132,483675,2,0,B|282:183|282:183|234:177|234:177|224:242,1,141.749995674133
254,346,483906,6,0,B|250:229|250:229|206:204,1,141.749995674133
153,182,484137,2,0,B|141:233|141:233|93:227|93:227|83:292,1,141.749995674133
254,346,484367,6,0,B|319:352|319:352|392:264,1,141.749995674133
448,296,484598,2,0,P|411:222|338:219,1,141.749995674133
164,262,484829,6,0,B|229:268|229:268|302:180,1,141.749995674133
358,212,485060,2,0,P|321:138|248:135,1,141.749995674133
292,265,485291,6,0,B|227:271|227:271|154:183,1,141.749995674133
98,215,485522,2,0,P|135:141|208:138,1,141.749995674133
382,181,485753,6,0,B|317:187|317:187|244:99,1,141.749995674133
188,131,485984,2,0,P|225:57|298:54,1,141.749995674133
360,56,486214,6,0,B|430:32|430:32|415:122,1,141.749995674133
500,139,486444,2,0,L|372:246,1,141.749995674133
251,146,486675,6,0,B|321:122|321:122|306:212,1,141.749995674133
391,229,486905,2,0,L|263:336,1,141.749995674133
198,326,487137,6,0,B|128:350|128:350|143:260,1,141.749995674133
58,243,487367,2,0,L|186:136,1,141.749995674133
307,236,487598,6,0,B|237:260|237:260|252:170,1,141.749995674133
167,153,487828,2,0,L|295:46,1,141.749995674133
359,52,488060,6,0,L|454:202,1,141.749995674133
418,297,488291,2,0,L|323:147,1,141.749995674133
220,139,488521,2,0,L|315:288,1,141.749995674133
279,384,488752,2,0,L|271:376|176:226,1,141.749995674133
203,264,488983,6,0,L|279:384,1,141.749995674133
296,258,489214,2,0,L|220:139,1,141.749995674133
342,177,489444,2,0,L|418:297,1,141.749995674133
434,171,489675,2,0,L|359:52,1,141.749995674133
62,188,489906,6,0,B|66:305|66:305|110:330,1,141.749995674133
163,352,490137,2,0,B|175:301|175:301|223:307|223:307|233:242,1,141.749995674133
203,138,490368,6,0,B|207:255|207:255|251:280,1,141.749995674133
304,302,490599,2,0,B|316:251|316:251|364:257|364:257|374:192,1,141.749995674133
395,88,490829,6,0,B|391:205|391:205|347:230,1,141.749995674133
294,252,491060,2,0,B|282:201|282:201|234:207|234:207|224:142,1,141.749995674133
254,38,491291,6,0,B|250:155|250:155|206:180,1,141.749995674133
153,202,491522,2,0,B|141:151|141:151|93:157|93:157|83:92,1,141.749995674133
254,38,491752,6,0,B|319:32|319:32|392:120,1,141.749995674133
448,88,491983,2,0,P|411:162|338:165,1,141.749995674133
164,122,492214,6,0,B|229:116|229:116|302:204,1,141.749995674133
358,172,492445,2,0,P|321:246|248:249,1,141.749995674133
292,119,492676,6,0,B|227:113|227:113|154:201,1,141.749995674133
98,169,492907,2,0,P|135:243|208:246,1,141.749995674133
382,203,493137,6,0,B|317:197|317:197|244:285,1,141.749995674133
188,253,493367,2,0,P|225:327|298:330,1,141.749995674133
360,328,493598,6,0,B|430:352|430:352|415:262,1,141.749995674133
500,245,493829,2,0,L|372:138,1,141.749995674133
251,238,494060,6,0,B|321:262|321:262|306:172,1,141.749995674133
391,155,494290,2,0,L|263:48,1,141.749995674133
198,58,494522,6,0,B|128:34|128:34|143:124,1,141.749995674133
58,141,494752,2,0,L|186:248,1,141.749995674133
307,148,494983,6,0,B|237:124|237:124|252:214,1,141.749995674133
167,231,495213,2,0,L|295:338,1,141.749995674133
359,332,495445,6,0,L|454:182,1,141.749995674133
418,87,495676,2,0,L|323:237,1,141.749995674133
220,245,495906,2,0,L|315:95,1,141.749995674133
279,0,496137,2,0,L|275:-3|180:146,1,141.749995674133
203,119,496368,6,0,L|279:0,1,141.749995674133
296,125,496599,2,0,L|220:245,1,141.749995674133
342,206,496829,2,0,L|418:87,1,141.749995674133
434,212,497060,2,0,L|359:332,1,141.749995674133
262,343,497291,6,0,P|211:293|191:220,1,121.499996292114
385,182,497521,2,0,P|335:233|262:253,1,121.499996292114
99,267,497752,1,0,0:0:0:0:
75,152,497867,1,0,0:0:0:0:
151,63,497983,2,0,L|231:177,1,121.499996292114
341,335,498214,6,0,B|431:330|431:330|463:278,1,121.499996292114
281,219,498444,2,0,B|361:259|361:259|415:230,1,121.499996292114
434,157,498675,6,0,B|344:152|344:152|312:100,1,121.499996292114
494,41,498905,2,0,B|413:81|413:81|359:52,1,121.499996292114
250,41,499137,6,0,P|301:91|321:164,1,121.499996292114
127,202,499367,2,0,P|177:151|250:131,1,121.499996292114
413,117,499598,1,0,0:0:0:0:
436,231,499713,1,0,0:0:0:0:
360,320,499829,2,0,L|281:207,1,121.499996292114
292,127,500060,6,0,L|222:123,1,60.7499981460572
183,64,500175,2,0,L|144:122,1,60.7499981460572
72,125,500291,6,0,L|103:187,1,60.7499981460572
71,250,500406,2,0,L|140:253,1,60.7499981460572
179,315,500522,6,0,L|217:256,1,60.7499981460572
184,192,500637,2,0,L|253:188,1,60.7499981460572
292,127,500752,2,0,L|330:185,3,60.7499981460572
284,358,500983,6,0,P|335:308|355:235,1,121.499996292114
161,197,501213,2,0,P|211:248|284:268,1,121.499996292114
447,282,501444,1,0,0:0:0:0:
470,167,501559,1,0,0:0:0:0:
394,78,501675,2,0,L|314:191,1,121.499996292114
264,293,501906,6,0,B|174:288|174:288|142:236,1,121.499996292114
324,177,502136,2,0,B|243:217|243:217|189:188,1,121.499996292114
171,115,502367,6,0,B|261:110|261:110|293:58,1,121.499996292114
111,0,502598,2,0,B|191:40|191:40|245:11,1,121.499996292114
322,36,502829,6,0,P|376:54|415:92,1,108
423,226,503060,2,0,P|369:208|330:170,1,108
360,58,503291,6,0,P|407:89|435:136,1,108
408,268,503522,2,0,P|361:236|333:189,1,108
267,133,503752,6,0,P|180:215|257:281,1,236.25
325,218,504214,2,0,P|412:300|335:366,1,236.25
262,343,504675,6,0,P|211:293|188:208,1,135
385,182,504906,2,0,P|335:233|255:255,1,135
99,267,505137,1,0,0:0:0:0:
75,152,505252,1,0,0:0:0:0:
151,63,505367,2,0,L|241:192,1,135
341,335,505598,6,0,B|431:330|431:330|465:272,1,135
281,219,505829,2,0,B|361:259|361:259|425:226,1,135
434,157,506060,6,0,B|344:152|344:152|305:93,1,135
494,41,506291,2,0,B|413:81|413:81|350:49,1,135
250,41,506521,6,0,P|301:91|324:176,1,135
127,202,506752,2,0,P|177:151|257:129,1,135
413,117,506983,1,0,0:0:0:0:
436,231,507098,1,0,0:0:0:0:
360,320,507214,2,0,L|270:191,1,135
292,127,507444,6,0,L|214:121,1,67.5
183,64,507560,2,0,L|139:129,1,67.5
72,125,507675,6,0,L|105:192,1,67.5
71,250,507791,2,0,L|148:256,1,67.5
179,315,507906,6,0,L|219:251,1,67.5
184,192,508021,2,0,L|265:189,1,67.5
292,127,508137,2,0,L|332:190,3,67.5
284,358,508367,6,0,P|335:308|353:230,1,135
161,197,508598,2,0,P|211:248|289:266,1,135
447,282,508829,1,0,0:0:0:0:
470,167,508944,1,0,0:0:0:0:
394,78,509060,2,0,L|309:198,1,135
264,293,509291,6,0,B|174:288|174:288|140:232,1,135
324,177,509521,2,0,B|243:217|243:217|186:185,1,135
171,115,509752,6,0,B|261:110|261:110|297:52,1,135
111,0,509983,2,0,B|191:40|191:40|251:9,1,135
346,37,510214,6,0,P|409:94|431:188,1,148.50000453186
361,288,510444,2,0,P|298:231|276:137,1,148.50000453186
175,59,510675,6,0,P|128:130|131:226,1,148.50000453186
225,305,510905,2,0,P|271:233|268:137,1,148.50000453186
297,83,511137,6,0,B|414:41|414:41|374:122|367:175|367:175|422:165|412:262,1,378
350,313,511598,2,0,B|233:355|233:355|273:274|280:221|280:221|225:231|235:134,1,378
207,55,512060,5,0,0:0:0:0:
152,102,512137,1,0,0:0:0:0:
98,149,512214,1,0,0:0:0:0:
105,155,512291,5,0,0:0:0:0:
145,95,512367,1,0,0:0:0:0:
185,36,512444,1,0,0:0:0:0:
160,23,512521,5,0,0:0:0:0:
137,91,512598,1,0,0:0:0:0:
113,159,512675,1,0,0:0:0:0:
90,227,512752,5,0,0:0:0:0:
156,256,512829,1,0,0:0:0:0:
222,284,512906,1,0,0:0:0:0:
288,313,512983,5,0,0:0:0:0:
352,280,513060,1,0,0:0:0:0:
416,247,513137,1,0,0:0:0:0:
410,239,513214,5,0,0:0:0:0:
357,288,513291,1,0,0:0:0:0:
304,336,513367,1,0,0:0:0:0:
325,354,513444,5,0,0:0:0:0:
364,294,513521,1,0,0:0:0:0:
403,233,513598,1,0,0:0:0:0:
442,172,513675,5,0,0:0:0:0:
373,192,513752,1,0,0:0:0:0:
304,212,513829,1,0,0:0:0:0:
234,232,513906,5,0,0:0:0:0:
190,176,513983,1,0,0:0:0:0:
146,119,514060,1,0,0:0:0:0:
154,114,514137,5,0,0:0:0:0:
182,180,514214,1,0,0:0:0:0:
210,247,514291,1,0,0:0:0:0:
183,254,514367,5,0,0:0:0:0:
173,183,514444,1,0,0:0:0:0:
163,112,514521,1,0,0:0:0:0:
153,40,514598,5,0,0:0:0:0:
214,79,514675,1,0,0:0:0:0:
274,118,514752,1,0,0:0:0:0:
335,157,514829,6,0,L|293:188,2,36
361,258,514944,2,0,L|313:236,2,36
296,340,515060,2,0,L|290:288,2,36
192,339,515175,2,0,L|234:308,2,36
130,255,515291,6,0,L|117:204,2,36
214,193,515406,2,0,L|163:179,2,36
216,89,515521,6,0,L|178:125,2,36
136,23,515637,6,0,L|148:73,2,36
55,50,515752,5,0,0:0:0:0:
94,120,515829,1,0,0:0:0:0:
133,191,515906,1,0,0:0:0:0:
123,195,515983,5,0,0:0:0:0:
104,117,516060,1,0,0:0:0:0:
84,38,516137,1,0,0:0:0:0:
116,34,516214,5,0,0:0:0:0:
114,115,516291,1,0,0:0:0:0:
112,196,516367,1,0,0:0:0:0:
111,277,516444,5,0,0:0:0:0:
189,300,516521,1,0,0:0:0:0:
267,322,516598,1,0,0:0:0:0:
344,345,516675,5,0,0:0:0:0:
386,276,516752,1,0,0:0:0:0:
428,206,516829,1,0,0:0:0:0:
411,201,516906,5,0,0:0:0:0:
403,281,516983,1,0,0:0:0:0:
394,362,517060,1,0,0:0:0:0:
426,361,517137,5,0,0:0:0:0:
413,281,517214,1,0,0:0:0:0:
401,201,517291,1,0,0:0:0:0:
388,121,517367,5,0,0:0:0:0:
336,183,517444,1,0,0:0:0:0:
285,246,517521,1,0,0:0:0:0:
233,308,517598,5,0,0:0:0:0:
215,229,517675,1,0,0:0:0:0:
198,150,517752,1,0,0:0:0:0:
208,149,517829,5,0,0:0:0:0:
205,230,517906,1,0,0:0:0:0:
202,311,517983,1,0,0:0:0:0:
171,306,518060,5,0,0:0:0:0:
194,228,518137,1,0,0:0:0:0:
218,151,518214,1,0,0:0:0:0:
242,74,518291,5,0,0:0:0:0:
291,139,518367,1,0,0:0:0:0:
339,204,518444,1,0,0:0:0:0:
387,269,518521,6,0,L|336:284,2,40.4999987640381
285,330,518637,2,0,L|247:292,2,40.4999987640381
170,303,518752,2,0,L|183:251,2,40.4999987640381
106,202,518867,2,0,L|157:187,2,40.4999987640381
131,86,518983,6,0,L|174:116,2,40.4999987640381
205,178,519098,2,0,L|253:156,2,40.4999987640381
323,192,519214,6,0,L|328:139,2,40.4999987640381
417,119,519329,6,0,L|373:88,2,40.4999987640381
434,1,519444,5,0,0:0:0:0:
349,31,519521,1,0,0:0:0:0:
264,62,519598,1,0,0:0:0:0:
262,50,519675,5,0,0:0:0:0:
351,43,519752,1,0,0:0:0:0:
441,35,519829,1,0,0:0:0:0:
439,70,519906,5,0,0:0:0:0:
351,54,519983,1,0,0:0:0:0:
262,39,520060,1,0,0:0:0:0:
174,23,520137,5,0,0:0:0:0:
138,106,520214,1,0,0:0:0:0:
103,188,520291,1,0,0:0:0:0:
68,271,520367,5,0,0:0:0:0:
157,256,520444,1,0,0:0:0:0:
245,242,520521,1,0,0:0:0:0:
246,254,520598,5,0,0:0:0:0:
156,245,520675,1,0,0:0:0:0:
67,236,520752,1,0,0:0:0:0:
75,202,520829,5,0,0:0:0:0:
159,233,520906,1,0,0:0:0:0:
243,265,520983,1,0,0:0:0:0:
327,297,521060,5,0,0:0:0:0:
312,208,521137,1,0,0:0:0:0:
297,119,521214,1,0,0:0:0:0:
282,30,521291,5,0,0:0:0:0:
248,114,521367,1,0,0:0:0:0:
213,197,521444,1,0,0:0:0:0:
224,199,521521,5,0,0:0:0:0:
238,110,521598,1,0,0:0:0:0:
251,21,521675,1,0,0:0:0:0:
216,21,521752,5,0,0:0:0:0:
226,110,521829,1,0,0:0:0:0:
236,199,521906,1,0,0:0:0:0:
246,289,521983,5,0,0:0:0:0:
190,219,522060,1,0,0:0:0:0:
134,148,522137,1,0,0:0:0:0:
78,78,522214,6,0,L|60:135,2,45
76,209,522329,2,0,L|116:253,2,45
166,306,522444,2,0,L|224:293,2,45
297,314,522560,2,0,L|314:257,2,45
398,230,522675,6,0,L|353:270,2,45
278,286,522791,2,0,L|220:268,2,45
152,245,522906,2,0,L|139:186,2,45
90,130,523021,2,0,L|134:89,2,45
122,3,523137,5,0,0:0:0:0:
188,76,523214,1,0,0:0:0:0:
254,149,523291,1,0,0:0:0:0:
263,139,523367,5,0,0:0:0:0:
180,86,523444,1,0,0:0:0:0:
96,32,523521,1,0,0:0:0:0:
80,67,523598,5,0,0:0:0:0:
174,97,523675,1,0,0:0:0:0:
268,128,523752,1,0,0:0:0:0:
363,158,523829,5,0,0:0:0:0:
269,191,523906,1,0,0:0:0:0:
176,225,523983,1,0,0:0:0:0:
83,258,524060,5,0,0:0:0:0:
182,266,524137,1,0,0:0:0:0:
281,273,524214,1,0,0:0:0:0:
278,285,524291,5,0,0:0:0:0:
184,253,524367,1,0,0:0:0:0:
91,220,524444,1,0,0:0:0:0:
108,186,524521,5,0,0:0:0:0:
190,241,524598,1,0,0:0:0:0:
272,297,524675,1,0,0:0:0:0:
354,352,524752,5,0,0:0:0:0:
376,256,524829,1,0,0:0:0:0:
397,159,524906,1,0,0:0:0:0:
419,63,524983,6,0,B|377:85|377:85|375:95|375:95|338:141|338:141|331:143|331:143|311:211,1,161.999995056153
163,91,525214,6,0,B|188:131|188:131|185:140|185:140|194:199|194:199|199:204|199:204|182:272,1,161.999995056153
320,179,525444,6,0,B|304:226|304:226|308:235|308:235|299:270|299:270|301:277|301:277|294:326,1,135
190,241,525675,6,0,B|206:288|206:288|202:297|202:297|211:332|211:332|209:339|209:339|216:388,1,135
304,368,525906,6,0,B|400:368|400:256|336:272|336:272|352:256|384:224|336:128,1,330.749989906311
320,112,526367,6,0,B|272:176|208:176|208:176|272:144|256:112|256:112|192:96|176:32|96:32,1,378
40,69,526829,6,0,P|91:129|91:188,1,135
40,237,527060,2,0,P|66:162|117:133,1,135
186,153,527291,2,0,P|108:167|57:137,1,135
79,17,527521,2,0,P|112:88|97:145,1,135
35,179,527752,2,0,B|80:114|135:101|176:96|176:96|272:176|304:128|400:176,1,405
466,228,528214,6,0,L|482:302,1,67.5
328,237,528329,2,0,L|331:161,1,67.5
456,263,528444,6,0,L|459:339,1,67.5
319,248,528559,2,0,L|335:174,1,67.5
453,34,528675,6,0,P|402:94|402:153,1,135
453,202,528906,2,0,P|426:127|375:98,1,135
307,118,529137,2,0,P|384:132|435:102,1,135
487,90,529367,6,0,P|422:135|407:192,1,135
443,252,529598,2,0,P|437:174|395:132,1,135
324,133,529829,2,0,P|395:167|452:152,1,135
414,71,530060,6,0,L|339:42,1,67.5
335,215,530175,2,0,L|410:186,1,67.5
419,66,530291,6,0,L|344:37,1,67.5
340,220,530406,2,0,L|415:191,1,67.5
409,103,530521,6,0,P|331:117|280:87,1,135
263,19,530752,2,0,P|314:79|314:138,1,135
263,187,530983,2,0,P|289:112|340:83,1,135
380,66,531214,6,0,P|309:100|252:84,1,135
217,23,531445,2,0,P|282:67|298:124,1,135
261,185,531676,2,0,P|267:106|309:65,1,135
365,137,531906,6,0,L|361:216,1,67.5
186,82,532021,2,0,L|190:161,1,67.5
370,142,532137,6,0,L|366:221,1,67.5
181,87,532252,2,0,L|185:166,1,67.5
126,221,532367,6,0,P|203:235|254:205,1,135
272,137,532598,2,0,P|220:197|221:256,1,135
272,305,532829,2,0,P|245:230|194:201,1,135
122,186,533060,6,0,P|194:220|251:204,1,135
285,143,533291,2,0,P|220:187|205:244,1,135
242,305,533522,2,0,P|235:226|194:185,1,135
124,102,533752,6,0,L|58:63,1,67.5
61,192,533867,2,0,L|114:246,1,67.5
110,126,533983,6,0,L|38:99,1,67.5
63,225,534098,2,0,L|126:270,1,67.5
264,349,534214,6,0,P|213:289|213:230,1,135
264,181,534445,2,0,P|237:255|186:284,1,135
118,265,534676,2,0,P|195:250|246:280,1,135
223,345,534906,2,0,P|189:274|204:217,1,135
266,183,535137,2,0,B|221:248|164:264|128:272|128:272|208:208|192:128|240:64,1,405
331,34,535598,6,0,L|417:30,1,67.5
409,159,535714,2,0,L|324:140,1,67.5
357,49,535829,6,0,L|442:60,1,67.5
412,186,535945,2,0,L|332:153,1,67.5
251,146,536060,6,0,P|200:206|200:265,1,135
251,314,536291,2,0,P|224:239|173:210,1,135
105,230,536522,2,0,P|182:244|233:214,1,135
263,146,536752,6,0,P|198:191|183:248,1,135
219,308,536983,2,0,P|213:230|171:188,1,135
100,189,537214,2,0,P|171:223|228:208,1,135
332,194,537444,6,0,L|359:272,1,67.5
486,172,537560,2,0,L|459:250,1,67.5
327,199,537675,6,0,L|354:277,1,67.5
491,177,537791,2,0,L|464:255,1,67.5
403,329,537906,6,0,P|352:269|352:210,1,135
403,161,538137,2,0,P|376:235|325:264,1,135
257,245,538368,2,0,P|334:230|385:260,1,135
433,286,538598,6,0,P|368:241|353:184,1,135
389,124,538829,6,0,P|383:202|369:219,2,67.5
270,242,539060,2,0,P|341:209|381:217,2,67.5
451,237,539291,6,0,P|377:210|348:159,1,135
367,91,539522,2,0,P|381:169|352:220,1,135
283,237,539753,6,0,P|343:186|402:186,1,135
456,184,539983,2,0,P|378:178|336:136,1,135
338,66,540214,2,0,P|371:137|356:194,1,135
294,228,540445,6,0,P|338:163|395:148,1,135
469,81,540675,1,0,0:0:0:0:
469,81,540791,1,0,0:0:0:0:
383,151,540906,1,0,0:0:0:0:
383,151,541021,1,0,0:0:0:0:
282,137,541137,2,0,L|236:115,5,45
297,220,541367,2,0,L|355:224,5,45
437,236,541598,6,0,P|393:287|343:313,1,94.4999971160889
90,287,541829,2,0,L|202:264,1,94.4999971160889
435,139,542060,6,0,P|423:205|393:252,1,94.4999971160889
160,357,542291,2,0,L|246:281,1,94.4999971160889
385,56,542521,6,0,P|407:120|405:176,1,94.4999971160889
256,382,542752,2,0,L|292:274,1,94.4999971160889
300,10,542983,6,0,P|351:54|377:104,1,94.4999971160889
351,357,543214,2,0,L|328:245,1,94.4999971160889
437,148,543444,6,0,P|393:97|343:71,1,94.4999971160889
90,97,543675,2,0,L|202:120,1,94.4999971160889
435,245,543906,6,0,P|423:178|393:131,1,94.4999971160889
160,27,544137,2,0,L|246:102,1,94.4999971160889
385,327,544367,6,0,B|407:263|407:263|405:207,1,94.4999971160889
256,1,544598,2,0,L|292:109,1,94.4999971160889
300,373,544829,6,0,B|351:329|351:329|377:279,1,94.4999971160889
351,26,545060,2,0,L|328:138,1,94.4999971160889
75,236,545290,6,0,B|119:287|119:287|169:313,1,94.4999971160889
422,287,545521,2,0,L|310:264,1,94.4999971160889
77,139,545752,6,0,B|90:205|90:205|120:252,1,94.4999971160889
352,357,545983,2,0,L|267:281,1,94.4999971160889
128,56,546213,6,0,B|106:120|106:120|108:176,1,94.4999971160889
257,382,546444,2,0,L|221:274,1,94.4999971160889
213,10,546675,6,0,B|162:54|162:54|136:104,1,94.4999971160889
162,357,546906,2,0,L|185:245,1,94.4999971160889
296,70,547136,6,0,P|303:135|288:181,1,94.4999971160889
43,251,547367,2,0,L|143:200,1,94.4999971160889
352,106,547598,6,0,P|326:166|290:198,1,94.4999971160889
43,136,547829,2,0,L|155:142,1,94.4999971160889
441,201,548060,6,0,P|379:252|238:260,1,188.999994232178
71,183,548521,2,0,P|133:132|274:124,1,188.999994232178
437,148,548983,6,0,P|393:97|343:71,1,94.4999971160889
90,97,549214,2,0,L|202:120,1,94.4999971160889
435,245,549445,6,0,P|423:178|393:131,1,94.4999971160889
160,27,549676,2,0,L|246:102,1,94.4999971160889
385,327,549906,6,0,P|407:263|405:207,1,94.4999971160889
256,1,550137,2,0,L|292:109,1,94.4999971160889
300,373,550368,6,0,P|351:329|377:279,1,94.4999971160889
351,26,550599,2,0,L|328:138,1,94.4999971160889
437,236,550829,6,0,P|393:287|343:313,1,94.4999971160889
90,287,551060,2,0,L|202:264,1,94.4999971160889
435,139,551291,6,0,P|423:205|393:252,1,94.4999971160889
160,357,551522,2,0,L|246:281,1,94.4999971160889
385,56,551752,6,0,B|407:120|407:120|405:176,1,94.4999971160889
256,382,551983,2,0,L|292:274,1,94.4999971160889
300,10,552214,6,0,B|351:54|351:54|377:104,1,94.4999971160889
351,357,552445,2,0,L|328:245,1,94.4999971160889
75,148,552675,6,0,B|119:97|119:97|169:71,1,94.4999971160889
422,97,552906,2,0,L|310:120,1,94.4999971160889
77,245,553137,6,0,B|90:178|90:178|120:131,1,94.4999971160889
352,27,553368,2,0,L|267:102,1,94.4999971160889
128,327,553598,6,0,B|106:263|106:263|108:207,1,94.4999971160889
257,1,553829,2,0,L|221:109,1,94.4999971160889
213,373,554060,6,0,B|162:329|162:329|136:279,1,94.4999971160889
162,26,554291,2,0,L|185:138,1,94.4999971160889
296,314,554521,6,0,P|303:249|288:203,1,94.4999971160889
43,133,554752,2,0,L|143:184,1,94.4999971160889
352,277,554983,6,0,P|326:217|290:185,1,94.4999971160889
43,247,555214,2,0,L|155:241,1,94.4999971160889
441,183,555445,6,0,P|379:132|238:124,1,188.999994232178
71,201,555906,2,0,P|133:252|274:260,1,188.999994232178
450,155,556367,6,0,B|391:129|391:129|328:144,1,94.4999971160889
236,329,556598,2,0,P|286:297|309:245,1,94.4999971160889
406,62,556829,6,0,B|342:69|342:69|295:114,1,94.4999971160889
308,320,557060,2,0,P|335:267|329:211,1,94.4999971160889
321,5,557290,6,0,B|269:43|269:43|251:105,1,94.4999971160889
365,277,557521,2,0,P|362:218|329:172,1,94.4999971160889
219,0,557752,6,0,B|193:57|193:57|208:120,1,94.4999971160889
393,211,557983,2,0,P|362:162|310:139,1,94.4999971160889
62,155,558213,6,0,B|121:129|121:129|184:144,1,94.4999971160889
276,329,558444,2,0,P|226:297|203:245,1,94.4999971160889
107,62,558675,6,0,B|171:69|171:69|218:114,1,94.4999971160889
205,320,558906,2,0,P|178:267|184:211,1,94.4999971160889
192,5,559136,6,0,B|244:43|244:43|262:105,1,94.4999971160889
148,277,559367,2,0,P|151:218|184:172,1,94.4999971160889
293,0,559598,6,0,B|319:57|319:57|304:120,1,94.4999971160889
120,211,559829,2,0,P|151:162|203:139,1,94.4999971160889
450,229,560060,6,0,B|391:255|391:255|328:240,1,94.4999971160889
236,55,560291,2,0,P|286:87|309:139,1,94.4999971160889
406,321,560522,6,0,B|342:314|342:314|295:269,1,94.4999971160889
308,63,560753,2,0,P|335:116|329:172,1,94.4999971160889
321,378,560983,6,0,B|269:340|269:340|251:278,1,94.4999971160889
365,106,561214,2,0,P|362:165|329:211,1,94.4999971160889
219,386,561445,6,0,B|193:327|193:327|208:264,1,94.4999971160889
393,172,561676,2,0,P|361:221|309:245,1,94.4999971160889
105,285,561906,6,0,B|116:224|116:224|178:207,1,94.4999971160889
427,250,562136,2,0,P|360:267|320:253,1,94.4999971160889
79,197,562367,6,0,B|119:149|119:149|181:165,1,94.4999971160889
376,327,562598,2,0,P|309:308|281:276,1,94.4999971160889
71,183,562829,6,0,B|133:132|133:132|274:124,1,188.999994232178
441,201,563290,2,0,B|379:252|379:252|238:260,1,188.999994232178
127,106,563752,6,0,B|188:103|188:103|212:142,1,94.4999971160889
314,323,563983,2,0,B|242:292|242:292|227:259,1,94.4999971160889
188,53,564213,6,0,B|242:80|242:80|243:126,1,94.4999971160889
241,334,564444,2,0,B|194:271|194:271|198:235,1,94.4999971160889
266,37,564675,6,0,B|300:88|300:88|278:128,1,94.4999971160889
172,307,564906,2,0,B|163:229|163:229|184:200,1,94.4999971160889
342,63,565136,6,0,B|345:124|345:124|306:148,1,94.4999971160889
125,250,565367,2,0,B|156:178|156:178|189:162,1,94.4999971160889
385,106,565598,6,0,B|324:103|324:103|300:142,1,94.4999971160889
198,323,565829,2,0,B|270:292|270:292|285:259,1,94.4999971160889
325,53,566059,6,0,B|271:80|271:80|270:126,1,94.4999971160889
272,334,566290,2,0,B|319:271|319:271|315:235,1,94.4999971160889
247,37,566521,6,0,B|213:88|213:88|235:128,1,94.4999971160889
341,307,566752,2,0,B|350:229|350:229|329:200,1,94.4999971160889
170,63,566982,6,0,B|167:124|167:124|206:148,1,94.4999971160889
387,250,567213,2,0,B|356:178|356:178|323:162,1,94.4999971160889
170,63,567444,6,0,B|167:124|167:124|206:148,1,94.4999971160889
461,213,567675,2,0,B|430:140|430:140|397:125,1,94.4999971160889
118,123,567906,6,0,B|145:177|145:177|191:178,1,94.4999971160889
445,107,568137,2,0,B|382:60|382:60|346:64,1,94.4999971160889
170,321,568367,6,0,B|167:260|167:260|206:235,1,94.4999971160889
484,171,568598,2,0,B|453:243|453:243|420:258,1,94.4999971160889
118,260,568829,6,0,B|145:206|145:206|191:205,1,94.4999971160889
460,296,569060,2,0,B|398:342|398:342|362:339,1,94.4999971160889
107,80,569291,6,0,B|158:76|158:76|188:139,1,94.4999971160889
274,329,569521,2,0,B|220:293|220:293|244:222,1,94.4999971160889
302,19,569752,6,0,B|349:41|349:41|343:110,1,94.4999971160889
204,319,569983,2,0,B|175:261|175:261|231:211,1,94.4999971160889
461,153,570214,2,0,B|435:216|435:216|368:242|368:242|337:328,3,216
268,248,570675,2,0,B|294:185|294:185|361:159|361:159|392:73,3,216
172,65,585906,5,0,0:0:0:0:
164,110,585963,1,0,0:0:0:0:
185,152,586021,1,0,0:0:0:0:
226,173,586079,1,0,0:0:0:0:
272,167,586137,1,0,0:0:0:0:
312,143,586194,1,0,0:0:0:0:
357,152,586252,1,0,0:0:0:0:
386,188,586310,1,0,0:0:0:0:
385,234,586367,5,0,0:0:0:0:
344,257,586424,1,0,0:0:0:0:
303,280,586482,1,0,0:0:0:0:
250,105,586598,5,0,0:0:0:0:
226,146,586655,1,0,0:0:0:0:
203,187,586713,1,0,0:0:0:0:
250,105,586829,5,0,0:0:0:0:
226,146,586886,1,0,0:0:0:0:
203,187,586944,1,0,0:0:0:0:
250,105,587060,5,0,0:0:0:0:
226,146,587117,1,0,0:0:0:0:
203,187,587175,1,0,0:0:0:0:
385,234,587291,5,0,0:0:0:0:
344,257,587348,1,0,0:0:0:0:
303,280,587406,1,0,0:0:0:0:
250,105,587521,5,0,0:0:0:0:
226,146,587578,1,0,0:0:0:0:
203,187,587636,1,0,0:0:0:0:
96,255,587752,5,0,0:0:0:0:
96,210,587809,1,0,0:0:0:0:
123,172,587867,1,0,0:0:0:0:
166,158,587925,1,0,0:0:0:0:
211,171,587983,1,0,0:0:0:0:
247,200,588040,1,0,0:0:0:0:
292,200,588098,1,0,0:0:0:0:
327,168,588156,1,0,0:0:0:0:
333,123,588213,5,0,0:0:0:0:
296,93,588270,1,0,0:0:0:0:
259,64,588328,1,0,0:0:0:0:
180,228,588444,5,0,0:0:0:0:
162,183,588501,1,0,0:0:0:0:
145,140,588559,1,0,0:0:0:0:
180,228,588675,5,0,0:0:0:0:
162,183,588732,1,0,0:0:0:0:
145,140,588790,1,0,0:0:0:0:
180,228,588906,5,0,0:0:0:0:
162,183,588963,1,0,0:0:0:0:
145,140,589021,1,0,0:0:0:0:
333,123,589137,5,0,0:0:0:0:
296,93,589194,1,0,0:0:0:0:
259,64,589252,1,0,0:0:0:0:
180,228,589367,5,0,0:0:0:0:
162,183,589424,1,0,0:0:0:0:
145,140,589482,1,0,0:0:0:0:
180,31,589598,5,0,0:0:0:0:
224,23,589655,1,0,0:0:0:0:
266,43,589713,1,0,0:0:0:0:
287,83,589771,1,0,0:0:0:0:
282,129,589829,1,0,0:0:0:0:
260,170,589886,1,0,0:0:0:0:
268,214,589944,1,0,0:0:0:0:
305,243,590002,1,0,0:0:0:0:
351,241,590059,5,0,0:0:0:0:
374,199,590116,1,0,0:0:0:0:
396,158,590174,1,0,0:0:0:0:
221,109,590290,5,0,0:0:0:0:
262,83,590347,1,0,0:0:0:0:
301,59,590405,1,0,0:0:0:0:
221,109,590521,5,0,0:0:0:0:
262,83,590578,1,0,0:0:0:0:
301,59,590636,1,0,0:0:0:0:
221,109,590752,5,0,0:0:0:0:
262,83,590809,1,0,0:0:0:0:
301,59,590867,1,0,0:0:0:0:
351,241,590983,5,0,0:0:0:0:
374,199,591040,1,0,0:0:0:0:
396,158,591098,1,0,0:0:0:0:
221,109,591213,5,0,0:0:0:0:
262,83,591270,1,0,0:0:0:0:
301,59,591328,1,0,0:0:0:0:
423,69,591444,5,0,0:0:0:0:
430,113,591501,1,0,0:0:0:0:
410,155,591559,1,0,0:0:0:0:
370,176,591617,1,0,0:0:0:0:
324,171,591675,1,0,0:0:0:0:
283,149,591732,1,0,0:0:0:0:
239,157,591790,1,0,0:0:0:0:
210,194,591848,1,0,0:0:0:0:
212,240,591905,5,0,0:0:0:0:
254,263,591964,1,0,0:0:0:0:
295,285,592020,1,0,0:0:0:0:
344,110,592136,5,0,0:0:0:0:
370,151,592193,1,0,0:0:0:0:
394,190,592251,1,0,0:0:0:0:
344,110,592367,5,0,0:0:0:0:
370,151,592424,1,0,0:0:0:0:
394,190,592482,1,0,0:0:0:0:
344,110,592598,5,0,0:0:0:0:
370,151,592655,1,0,0:0:0:0:
394,190,592713,1,0,0:0:0:0:
212,240,592829,5,0,0:0:0:0:
254,263,592886,1,0,0:0:0:0:
295,285,592944,1,0,0:0:0:0:
344,110,593059,5,0,0:0:0:0:
370,151,593116,1,0,0:0:0:0:
394,190,593174,1,0,0:0:0:0:
336,306,593291,5,0,0:0:0:0:
344,261,593348,1,0,0:0:0:0:
323,219,593406,1,0,0:0:0:0:
282,198,593464,1,0,0:0:0:0:
236,204,593522,1,0,0:0:0:0:
196,228,593579,1,0,0:0:0:0:
151,219,593637,1,0,0:0:0:0:
122,183,593695,1,0,0:0:0:0:
123,137,593752,5,0,0:0:0:0:
164,114,593809,1,0,0:0:0:0:
205,91,593867,1,0,0:0:0:0:
258,266,593983,5,0,0:0:0:0:
282,225,594040,1,0,0:0:0:0:
305,184,594098,1,0,0:0:0:0:
258,266,594214,5,0,0:0:0:0:
282,225,594271,1,0,0:0:0:0:
305,184,594329,1,0,0:0:0:0:
258,266,594445,5,0,0:0:0:0:
282,225,594502,1,0,0:0:0:0:
305,184,594560,1,0,0:0:0:0:
123,137,594676,5,0,0:0:0:0:
164,114,594733,1,0,0:0:0:0:
205,91,594791,1,0,0:0:0:0:
258,266,594906,5,0,0:0:0:0:
282,225,594963,1,0,0:0:0:0:
305,184,595021,1,0,0:0:0:0:
412,116,595137,5,0,0:0:0:0:
412,161,595194,1,0,0:0:0:0:
385,199,595252,1,0,0:0:0:0:
342,213,595310,1,0,0:0:0:0:
297,200,595368,1,0,0:0:0:0:
261,171,595425,1,0,0:0:0:0:
216,171,595483,1,0,0:0:0:0:
181,203,595541,1,0,0:0:0:0:
175,248,595598,5,0,0:0:0:0:
212,278,595655,1,0,0:0:0:0:
249,307,595713,1,0,0:0:0:0:
328,143,595829,5,0,0:0:0:0:
346,188,595886,1,0,0:0:0:0:
363,231,595944,1,0,0:0:0:0:
328,143,596060,5,0,0:0:0:0:
346,188,596117,1,0,0:0:0:0:
363,231,596175,1,0,0:0:0:0:
328,143,596291,5,0,0:0:0:0:
346,188,596348,1,0,0:0:0:0:
363,231,596406,1,0,0:0:0:0:
175,248,596522,5,0,0:0:0:0:
212,278,596579,1,0,0:0:0:0:
249,307,596637,1,0,0:0:0:0:
328,143,596752,5,0,0:0:0:0:
346,188,596809,1,0,0:0:0:0:
363,231,596867,1,0,0:0:0:0:
328,340,596983,5,0,0:0:0:0:
284,348,597040,1,0,0:0:0:0:
242,328,597098,1,0,0:0:0:0:
221,288,597156,1,0,0:0:0:0:
226,242,597214,1,0,0:0:0:0:
248,201,597271,1,0,0:0:0:0:
240,157,597329,1,0,0:0:0:0:
203,128,597387,1,0,0:0:0:0:
157,130,597444,5,0,0:0:0:0:
134,172,597501,1,0,0:0:0:0:
112,213,597559,1,0,0:0:0:0:
287,262,597675,5,0,0:0:0:0:
246,288,597732,1,0,0:0:0:0:
207,312,597790,1,0,0:0:0:0:
287,262,597906,5,0,0:0:0:0:
246,288,597963,1,0,0:0:0:0:
207,312,598021,1,0,0:0:0:0:
287,262,598137,5,0,0:0:0:0:
246,288,598194,1,0,0:0:0:0:
207,312,598252,1,0,0:0:0:0:
157,130,598368,5,0,0:0:0:0:
134,172,598425,1,0,0:0:0:0:
112,213,598483,1,0,0:0:0:0:
287,262,598598,5,0,0:0:0:0:
246,288,598655,1,0,0:0:0:0:
207,312,598713,1,0,0:0:0:0:
85,302,598829,5,0,0:0:0:0:
78,258,598886,1,0,0:0:0:0:
98,216,598944,1,0,0:0:0:0:
138,195,599002,1,0,0:0:0:0:
184,200,599060,1,0,0:0:0:0:
225,222,599117,1,0,0:0:0:0:
269,214,599175,1,0,0:0:0:0:
298,177,599233,1,0,0:0:0:0:
296,131,599290,5,0,0:0:0:0:
254,108,599347,1,0,0:0:0:0:
213,86,599405,1,0,0:0:0:0:
164,261,599521,5,0,0:0:0:0:
138,220,599578,1,0,0:0:0:0:
114,181,599636,1,0,0:0:0:0:
164,261,599752,5,0,0:0:0:0:
138,220,599809,1,0,0:0:0:0:
114,181,599867,1,0,0:0:0:0:
164,261,599983,5,0,0:0:0:0:
138,220,600040,1,0,0:0:0:0:
114,181,600098,1,0,0:0:0:0:
296,131,600214,5,0,0:0:0:0:
254,108,600271,1,0,0:0:0:0:
213,86,600329,1,0,0:0:0:0:
164,261,600444,5,0,0:0:0:0:
138,220,600501,1,0,0:0:0:0:
114,181,600559,1,0,0:0:0:0:
75,148,600675,6,0,P|119:97|169:71,1,94.4999971160889
422,97,600906,2,0,L|310:120,1,94.4999971160889
77,245,601137,6,0,P|89:179|119:132,1,94.4999971160889
352,27,601368,2,0,L|266:103,1,94.4999971160889
127,328,601598,6,0,P|105:264|107:208,1,94.4999971160889
256,2,601829,2,0,L|220:110,1,94.4999971160889
212,374,602060,6,0,P|161:330|135:280,1,94.4999971160889
161,27,602291,2,0,L|184:139,1,94.4999971160889
75,236,602521,6,0,P|119:287|169:313,1,94.4999971160889
422,287,602752,2,0,L|310:264,1,94.4999971160889
77,139,602983,6,0,P|89:206|119:253,1,94.4999971160889
352,357,603214,2,0,L|266:282,1,94.4999971160889
127,57,603444,6,0,B|105:121|105:121|107:177,1,94.4999971160889
256,383,603675,2,0,L|220:275,1,94.4999971160889
212,11,603906,6,0,B|161:55|161:55|135:105,1,94.4999971160889
161,358,604137,2,0,L|184:246,1,94.4999971160889
437,148,604367,6,0,B|393:97|393:97|343:71,1,94.4999971160889
90,97,604598,2,0,L|202:120,1,94.4999971160889
435,245,604829,6,0,B|422:179|422:179|392:132,1,94.4999971160889
160,27,605060,2,0,L|245:103,1,94.4999971160889
384,328,605290,6,0,B|406:264|406:264|404:208,1,94.4999971160889
255,2,605521,2,0,L|291:110,1,94.4999971160889
299,374,605752,6,0,B|350:330|350:330|376:280,1,94.4999971160889
350,27,605983,2,0,L|327:139,1,94.4999971160889
216,314,606213,6,0,P|209:249|224:203,1,94.4999971160889
469,133,606444,2,0,L|369:184,1,94.4999971160889
160,278,606675,6,0,P|186:218|222:186,1,94.4999971160889
469,248,606906,2,0,L|357:242,1,94.4999971160889
71,183,607137,6,0,P|133:132|274:124,1,188.999994232178
441,201,607598,2,0,P|379:252|238:260,1,188.999994232178
75,236,608060,6,0,P|119:287|169:313,1,94.4999971160889
422,287,608291,2,0,L|310:264,1,94.4999971160889
77,139,608522,6,0,P|89:206|119:253,1,94.4999971160889
352,357,608753,2,0,L|266:282,1,94.4999971160889
127,57,608983,6,0,P|105:121|107:177,1,94.4999971160889
256,383,609214,2,0,L|220:275,1,94.4999971160889
212,11,609445,6,0,P|161:55|135:105,1,94.4999971160889
161,358,609676,2,0,L|184:246,1,94.4999971160889
75,148,609906,6,0,P|119:97|169:71,1,94.4999971160889
422,97,610137,2,0,L|310:120,1,94.4999971160889
77,245,610368,6,0,P|89:179|119:132,1,94.4999971160889
352,27,610599,2,0,L|266:103,1,94.4999971160889
127,328,610829,6,0,B|105:264|105:264|107:208,1,94.4999971160889
256,2,611060,2,0,L|220:110,1,94.4999971160889
212,374,611291,6,0,B|161:330|161:330|135:280,1,94.4999971160889
161,27,611522,2,0,L|184:139,1,94.4999971160889
437,236,611752,6,0,B|393:287|393:287|343:313,1,94.4999971160889
90,287,611983,2,0,L|202:264,1,94.4999971160889
435,139,612214,6,0,B|422:206|422:206|392:253,1,94.4999971160889
160,357,612445,2,0,L|245:282,1,94.4999971160889
384,57,612675,6,0,B|406:121|406:121|404:177,1,94.4999971160889
255,383,612906,2,0,L|291:275,1,94.4999971160889
299,11,613137,6,0,B|350:55|350:55|376:105,1,94.4999971160889
350,358,613368,2,0,L|327:246,1,94.4999971160889
216,70,613598,6,0,P|209:135|224:181,1,94.4999971160889
469,251,613829,2,0,L|369:200,1,94.4999971160889
160,107,614060,6,0,P|186:167|222:199,1,94.4999971160889
469,137,614291,2,0,L|357:143,1,94.4999971160889
71,201,614522,6,0,P|133:252|274:260,1,188.999994232178
441,183,614983,2,0,P|379:132|238:124,1,188.999994232178
48,144,763137,6,0,B|64:80|208:16|208:16|160:176|96:192,1,425.25
32,256,766829,6,0,B|128:288|144:352|144:352|208:336|304:368,1,317.25
384,352,769598,2,0,B|384:320|384:320|400:304|400:304|400:256,1,101.25
368,176,770521,6,0,B|368:112|368:112|368:32|272:16|288:112|368:112|368:112|432:112,1,317.25
480,176,773291,2,0,P|464:224|416:240,1,101.25
336,208,774214,6,0,B|240:256|240:256|144:208,1,209.25
112,128,776060,2,0,P|144:96|192:112,1,101.25
272,144,776983,2,0,P|320:128|336:80,1,101.25
256,48,777906,6,0,B|128:48|128:48|128:96|128:96|144:112|144:112|144:128|144:128|160:144|160:144|160:192|160:192|16:192,1,425.25
16,208,781598,6,0,B|16:368|176:368|176:208|80:208,1,317.25
96,128,784367,2,0,P|144:144|192:128,1,101.25
272,144,785291,6,0,B|368:48|368:48|400:160|400:160|336:144,1,317.25
304,208,788060,2,0,L|405:233,1,101.25
432,304,788983,6,0,P|416:336|384:256,1,209.25
448,224,790829,2,0,P|464:192|448:128,1,101.25
384,80,791752,2,0,P|368:112|384:176,1,101.25
365,258,792676,5,0,0:0:0:0:
313,273,792714,2,0,L|228:301,1,80.9999975280763
181,236,792906,5,0,0:0:0:0:
232,220,792944,2,0,L|319:190,1,80.9999975280763
316,114,793137,5,0,0:0:0:0:
264,129,793175,2,0,L|174:158,1,80.9999975280763
172,153,793329,1,0,0:0:0:0:
161,128,793367,1,0,0:0:0:0:
160,101,793405,1,0,0:0:0:0:
169,76,793444,1,0,0:0:0:0:
187,56,793482,1,0,0:0:0:0:
211,44,793521,1,0,0:0:0:0:
237,41,793559,1,0,0:0:0:0:
265,49,793598,6,0,B|272:96|272:96|304:112|304:112|336:224|288:240|240:272|240:272|208:320|240:368|240:368|272:320|240:272|240:272|224:272|224:272|208:272|208:272|208:256|208:256|192:240|192:240|176:256|176:256|160:256|160:256|160:240|160:240|144:224|144:224|128:240|128:240|112:240|112:240|112:224|112:224|96:208|96:208|80:224|80:224|64:224|64:224|64:208|64:208|48:192|48:192|32:208|32:208|16:208|16:208|16:192|16:192|16:176|16:144|80:128,1,931.499971572877
256,192,794983,12,0,795848,0:0:0:0:
307,104,795906,5,0,0:0:0:0:
340,81,795963,1,0,0:0:0:0:
380,78,796021,1,0,0:0:0:0:
417,94,796079,1,0,0:0:0:0:
441,126,796136,1,0,0:0:0:0:
447,166,796194,1,0,0:0:0:0:
434,203,796252,1,0,0:0:0:0:
404,230,796309,1,0,0:0:0:0:
365,239,796367,5,0,0:0:0:0:
324,241,796424,1,0,0:0:0:0:
284,243,796483,2,0,L|233:246,1,40.4999987640381
69,181,796598,5,0,0:0:0:0:
109,178,796655,1,0,0:0:0:0:
149,176,796714,2,0,L|200:173,1,40.4999987640381
349,265,796829,5,0,0:0:0:0:
309,257,796886,1,0,0:0:0:0:
269,249,796945,2,0,L|219:238,1,40.4999987640381
78,132,797060,5,0,0:0:0:0:
117,140,797117,1,0,0:0:0:0:
156,148,797176,2,0,L|206:160,1,40.4999987640381
312,268,797291,5,0,0:0:0:0:
283,253,797348,1,0,0:0:0:0:
254,239,797407,2,0,L|218:220,1,40.4999987640381
130,109,797522,5,0,0:0:0:0:
159,123,797579,1,0,0:0:0:0:
188,138,797638,2,0,L|224:157,1,40.4999987640381
284,262,797752,5,0,0:0:0:0:
264,245,797809,1,0,0:0:0:0:
245,228,797868,2,0,L|211:194,1,40.4999987640381
176,102,797983,5,0,0:0:0:0:
195,119,798040,1,0,0:0:0:0:
214,136,798099,2,0,L|245:166,1,40.4999987640381
256,192,798214,12,0,800002,0:0:0:0:
42,117,1006829,6,0,B|474:287|474:287|372:318|372:318|372:59|372:59|301:85|301:85|300:333|300:333|230:306|230:306|231:39|231:39|158:64|158:64|156:274|156:274|156:266|156:266|156:274|156:274|156:266|156:266|156:274|156:274|156:266|156:266|156:274|156:274|156:266|156:266|156:303|156:303|156:323|156:323|156:303|156:303|156:323|156:323|156:303|156:303|156:323|156:323|156:303|156:303|156:323|156:323|156:303|156:303|156:323|156:323|156:303|156:303|156:323|156:323|156:303|156:303|156:323|156:323|156:303|156:303|156:323|156:323|156:303|156:303|156:323|156:323|156:303|156:303|156:323|156:323|156:349,1,2267.99993078613
