osu file format v14

[General]
AudioFilename: audio.mp3
AudioLeadIn: 0
PreviewTime: -1
Countdown: 1
SampleSet: Normal
StackLeniency: 0.7
Mode: 0
LetterboxInBreaks: 0
WidescreenStoryboard: 0

[Editor]
Bookmarks: 18448,47986,77525,80063,81910,92294,107063,136602,151371,166140,173525,203063,217833,247371,262140
DistanceSpacing: 1
BeatDivisor: 4
GridSize: 8
TimelineZoom: 2.899999

[Metadata]
Title:Soulless 5
TitleUnicode:Soulless 5
Artist:ExileLord
ArtistUnicode:ExileLord
Creator:JiruPiru
Version:Soulless
Source:Clone Hero
Tags:
BeatmapID:1912196
BeatmapSetID:915579

[Difficulty]
HPDrainRate:3
CircleSize:4
OverallDifficulty:7
ApproachRate:10
SliderMultiplier:1.5
SliderTickRate:1

[Events]
//Background and Video events
0,0,"soulless.jpg",0,0
//Break Periods
2,48186,69691
2,92494,246921
//Storyboard Layer 0 (Background)
//Storyboard Layer 1 (Fail)
//Storyboard Layer 2 (Pass)
//Storyboard Layer 3 (Foreground)
//Storyboard Sound Samples

[TimingPoints]
910,230.769230769231,4,1,1,30,1,0
19371,-83.3333333333333,4,1,1,30,0,0
19602,-100,4,1,1,30,0,0
19833,-83.3333333333333,4,1,1,30,0,0
20063,-100,4,1,1,30,0,0
247371,-66.6666666666667,4,1,1,30,0,0

[HitObjects]
328,40,18448,6,0,P|368:72|368:104,1,75
320,152,18679,1,0,0:0:0:0:
320,152,18794,1,0,0:0:0:0:
184,40,18910,2,0,P|144:72|144:104,1,75
192,152,19141,1,0,0:0:0:0:
192,152,19256,1,0,0:0:0:0:
320,232,19371,6,0,L|416:256,1,89.9999972534181
352,312,19602,2,0,L|440:336,1,75
192,232,19833,6,0,L|96:256,1,89.9999972534181
160,312,20064,2,0,L|72:336,1,75
72,224,20294,5,0,0:0:0:0:
72,152,20410,1,0,0:0:0:0:
128,104,20525,2,0,P|184:72|208:72,1,75
319,71,20756,6,0,P|355:80|384:104,1,75
440,152,20986,1,0,0:0:0:0:
440,224,21102,1,0,0:0:0:0:
72,160,21217,5,0,0:0:0:0:
72,232,21333,1,0,0:0:0:0:
128,280,21448,2,0,P|184:312|208:312,1,75
319,312,21679,6,0,P|355:303|384:280,1,75
440,232,21909,1,0,0:0:0:0:
440,160,22025,1,0,0:0:0:0:
304,96,22140,5,0,0:0:0:0:
304,168,22256,1,0,0:0:0:0:
208,168,22371,5,0,0:0:0:0:
208,96,22487,1,0,0:0:0:0:
313,114,22602,5,0,0:0:0:0:
288,182,22718,1,0,0:0:0:0:
198,149,22833,5,0,0:0:0:0:
223,81,22949,1,0,0:0:0:0:
368,40,23063,5,0,0:0:0:0:
416,96,23178,1,0,0:0:0:0:
416,168,23294,1,0,0:0:0:0:
416,168,23410,1,0,0:0:0:0:
144,40,23525,5,0,0:0:0:0:
96,96,23640,1,0,0:0:0:0:
96,168,23756,1,0,0:0:0:0:
96,168,23872,1,0,0:0:0:0:
320,192,23986,6,0,L|344:280,1,75
400,216,24217,2,0,L|424:304,1,75
192,192,24448,6,0,L|168:280,1,75
112,216,24679,2,0,L|88:304,1,75
64,360,24910,5,0,0:0:0:0:
136,360,25025,1,0,0:0:0:0:
208,360,25140,2,0,L|256:288,1,75
448,360,25371,5,0,0:0:0:0:
376,360,25486,1,0,0:0:0:0:
304,360,25601,2,0,L|256:288,1,75
192,208,25833,6,0,P|144:184|112:184,1,75
96,256,26063,2,0,P|144:280|176:280,1,75
320,208,26294,6,0,P|368:184|400:184,1,75
416,256,26524,2,0,P|368:280|336:280,1,75
192,208,26756,5,0,0:0:0:0:
123,182,26871,1,0,0:0:0:0:
96,256,26986,1,0,0:0:0:0:
164,281,27102,1,0,0:0:0:0:
320,208,27217,5,0,0:0:0:0:
388,182,27332,1,0,0:0:0:0:
416,256,27447,1,0,0:0:0:0:
347,281,27563,1,0,0:0:0:0:
256,320,27679,6,0,L|176:360,1,75
216,256,27910,2,0,L|296:216,1,75
256,64,28140,6,0,L|176:24,1,75
216,128,28371,2,0,L|296:168,1,75
376,192,28602,5,0,0:0:0:0:
376,192,28717,1,0,0:0:0:0:
312,264,28833,1,0,0:0:0:0:
312,264,28948,1,0,0:0:0:0:
136,192,29063,5,0,0:0:0:0:
136,192,29178,1,0,0:0:0:0:
200,264,29294,1,0,0:0:0:0:
200,264,29409,1,0,0:0:0:0:
256,184,29525,6,0,P|216:136|128:112,1,150
256,184,29986,6,0,P|296:136|384:112,1,150
256,184,30448,6,0,P|216:232|128:256,1,150
256,184,30910,6,0,P|296:232|384:256,1,150
424,112,31371,6,0,P|392:88|336:104,3,75
88,112,31833,6,0,P|120:88|176:104,3,75
88,272,32294,6,0,P|120:296|176:280,3,75
424,272,32756,6,0,P|392:296|336:280,3,75
256,192,33217,6,0,L|176:160,1,75
128,216,33448,1,0,0:0:0:0:
120,288,33563,1,0,0:0:0:0:
256,192,33679,6,0,L|336:160,1,75
384,216,33910,1,0,0:0:0:0:
392,288,34025,1,0,0:0:0:0:
256,272,34140,6,0,L|259:339,1,37.5
256,272,34256,2,0,L|256:320,1,37.5
176,192,34371,5,0,0:0:0:0:
176,192,34487,1,0,0:0:0:0:
256,112,34602,6,0,L|252:44,1,37.5
256,112,34718,2,0,L|256:64,1,37.5
336,192,34833,5,0,0:0:0:0:
336,192,34949,1,0,0:0:0:0:
256,272,35063,6,0,L|176:296,1,75
120,256,35294,2,0,L|96:176,1,75
136,120,35525,2,0,L|216:96,1,75
256,272,35756,1,0,0:0:0:0:
256,272,35986,6,0,L|336:296,1,75
392,256,36217,2,0,L|416:176,1,75
376,120,36448,2,0,L|296:96,1,75
256,272,36679,1,0,0:0:0:0:
256,272,36910,5,0,0:0:0:0:
256,272,36967,1,0,0:0:0:0:
256,272,37025,1,0,0:0:0:0:
184,272,37140,5,0,0:0:0:0:
184,200,37256,1,0,0:0:0:0:
256,272,37371,5,0,0:0:0:0:
256,272,37428,1,0,0:0:0:0:
256,272,37486,1,0,0:0:0:0:
328,272,37601,5,0,0:0:0:0:
328,200,37717,1,0,0:0:0:0:
256,112,37833,5,0,0:0:0:0:
256,152,37890,1,0,0:0:0:0:
256,192,37948,1,0,0:0:0:0:
256,232,38006,1,0,0:0:0:0:
256,192,38063,5,0,0:0:0:0:
256,152,38121,1,0,0:0:0:0:
256,112,38179,1,0,0:0:0:0:
256,152,38236,1,0,0:0:0:0:
256,192,38294,6,0,L|176:200,1,75
256,192,38525,2,0,L|336:200,1,75
376,264,38756,5,0,0:0:0:0:
376,264,38871,1,0,0:0:0:0:
376,336,38986,1,0,0:0:0:0:
376,336,39102,1,0,0:0:0:0:
136,264,39217,5,0,0:0:0:0:
136,264,39332,1,0,0:0:0:0:
136,336,39447,1,0,0:0:0:0:
136,336,39563,1,0,0:0:0:0:
256,336,39679,6,0,L|256:296,3,37.5
400,192,39910,6,0,L|360:192,3,37.5
256,48,40140,6,0,L|256:88,3,37.5
112,192,40371,6,0,L|152:192,3,37.5
256,192,40602,6,0,P|216:240|216:256,1,75
216,328,40833,1,0,0:0:0:0:
216,328,40948,1,0,0:0:0:0:
256,192,41063,6,0,P|296:240|296:256,1,75
296,328,41294,1,0,0:0:0:0:
296,328,41409,1,0,0:0:0:0:
400,280,41525,5,0,0:0:0:0:
400,208,41640,1,0,0:0:0:0:
344,48,41756,5,0,0:0:0:0:
272,48,41871,1,0,0:0:0:0:
112,104,41986,5,0,0:0:0:0:
112,176,42101,1,0,0:0:0:0:
168,336,42217,5,0,0:0:0:0:
240,336,42332,1,0,0:0:0:0:
344,288,42448,6,0,L|440:288,1,75
416,216,42679,1,0,0:0:0:0:
344,216,42794,1,0,0:0:0:0:
168,288,42910,6,0,L|72:288,1,75
96,216,43141,1,0,0:0:0:0:
168,216,43256,1,0,0:0:0:0:
296,144,43370,5,0,0:0:0:0:
216,144,43486,1,0,0:0:0:0:
296,144,43602,5,0,0:0:0:0:
216,144,43718,1,0,0:0:0:0:
296,216,43833,5,0,0:0:0:0:
216,216,43949,1,0,0:0:0:0:
216,288,44063,5,0,0:0:0:0:
296,288,44179,1,0,0:0:0:0:
216,368,44294,6,0,L|120:328,1,75
296,368,44525,2,0,L|392:328,1,75
216,368,44756,6,0,L|120:328,1,75
296,368,44987,2,0,L|392:328,1,75
216,16,45217,6,0,L|120:56,1,75
296,16,45448,2,0,L|392:56,1,75
216,16,45679,6,0,L|120:56,1,75
296,16,45910,2,0,L|392:56,1,75
400,208,46140,5,0,0:0:0:0:
400,280,46255,1,0,0:0:0:0:
240,336,46371,5,0,0:0:0:0:
168,336,46486,1,0,0:0:0:0:
112,176,46602,5,0,0:0:0:0:
112,104,46717,1,0,0:0:0:0:
272,48,46833,5,0,0:0:0:0:
344,48,46948,1,0,0:0:0:0:
344,48,47063,5,0,0:0:0:0:
272,48,47178,1,0,0:0:0:0:
112,104,47294,5,0,0:0:0:0:
112,176,47409,1,0,0:0:0:0:
168,336,47525,5,0,0:0:0:0:
240,336,47640,1,0,0:0:0:0:
400,280,47756,5,0,0:0:0:0:
400,208,47871,1,0,0:0:0:0:
256,192,47986,5,0,0:0:0:0:
256,192,70141,12,0,77063,0:0:0:0:
304,48,77525,6,0,L|336:72,3,37.5
344,104,77756,1,0,0:0:0:0:
344,144,77813,1,0,0:0:0:0:
344,184,77871,1,0,0:0:0:0:
344,224,77929,1,0,0:0:0:0:
320,256,77986,6,0,L|296:288,3,37.5
214,286,78217,6,0,L|192:256,3,37.5
184,216,78448,1,0,0:0:0:0:
184,176,78506,1,0,0:0:0:0:
184,136,78563,1,0,0:0:0:0:
184,96,78621,5,0,0:0:0:0:
208,72,78679,1,0,0:0:0:0:
232,104,78736,1,0,0:0:0:0:
232,144,78794,1,0,0:0:0:0:
232,184,78852,5,0,0:0:0:0:
232,224,78910,2,0,L|232:296,3,37.5
280,261,79140,2,0,L|280:224,3,37.5
280,184,79371,5,0,0:0:0:0:
312,160,79429,1,0,0:0:0:0:
352,152,79486,1,0,0:0:0:0:
392,160,79544,1,0,0:0:0:0:
424,176,79602,5,0,0:0:0:0:
448,208,79660,1,0,0:0:0:0:
448,248,79717,1,0,0:0:0:0:
416,272,79775,1,0,0:0:0:0:
376,280,79832,5,0,0:0:0:0:
336,272,79890,1,0,0:0:0:0:
304,256,79948,1,0,0:0:0:0:
280,224,80006,1,0,0:0:0:0:
280,184,80063,1,0,0:0:0:0:
256,192,80294,12,0,80986,0:0:0:0:
256,192,81217,5,0,0:0:0:0:
216,192,81275,1,0,0:0:0:0:
176,192,81333,1,0,0:0:0:0:
136,192,81390,1,0,0:0:0:0:
136,152,81448,5,0,0:0:0:0:
176,152,81506,1,0,0:0:0:0:
216,152,81563,1,0,0:0:0:0:
256,152,81621,1,0,0:0:0:0:
296,152,81679,5,0,0:0:0:0:
336,152,81736,1,0,0:0:0:0:
376,152,81794,1,0,0:0:0:0:
376,192,81852,1,0,0:0:0:0:
336,192,81910,1,0,0:0:0:0:
256,192,82140,12,0,82833,0:0:0:0:
256,192,83063,5,0,0:0:0:0:
296,192,83121,1,0,0:0:0:0:
336,192,83179,1,0,0:0:0:0:
376,192,83236,1,0,0:0:0:0:
376,152,83294,5,0,0:0:0:0:
336,152,83352,1,0,0:0:0:0:
296,152,83409,1,0,0:0:0:0:
256,152,83467,1,0,0:0:0:0:
216,152,83525,5,0,0:0:0:0:
176,152,83582,1,0,0:0:0:0:
136,152,83640,1,0,0:0:0:0:
136,192,83698,1,0,0:0:0:0:
176,192,83756,1,0,0:0:0:0:
256,192,83986,12,0,84679,0:0:0:0:
208,336,84910,6,0,L|176:312,3,37.5
168,280,85141,1,0,0:0:0:0:
168,240,85198,1,0,0:0:0:0:
168,200,85256,1,0,0:0:0:0:
168,160,85314,1,0,0:0:0:0:
192,128,85371,6,0,L|216:96,3,37.5
297,98,85602,6,0,L|320:128,3,37.5
328,168,85833,1,0,0:0:0:0:
328,208,85891,1,0,0:0:0:0:
328,248,85948,1,0,0:0:0:0:
328,288,86006,5,0,0:0:0:0:
304,312,86064,1,0,0:0:0:0:
280,280,86121,1,0,0:0:0:0:
280,240,86179,1,0,0:0:0:0:
280,200,86237,5,0,0:0:0:0:
280,160,86295,2,0,L|280:88,3,37.5
232,122,86525,2,0,L|232:160,3,37.5
232,200,86756,5,0,0:0:0:0:
200,224,86814,1,0,0:0:0:0:
160,232,86871,1,0,0:0:0:0:
120,224,86929,1,0,0:0:0:0:
88,208,86987,5,0,0:0:0:0:
64,176,87045,1,0,0:0:0:0:
64,136,87102,1,0,0:0:0:0:
96,112,87160,1,0,0:0:0:0:
136,104,87217,5,0,0:0:0:0:
176,112,87275,1,0,0:0:0:0:
208,128,87333,1,0,0:0:0:0:
232,160,87391,1,0,0:0:0:0:
232,200,87448,1,0,0:0:0:0:
256,192,87679,12,0,88371,0:0:0:0:
256,192,88602,5,0,0:0:0:0:
296,192,88660,1,0,0:0:0:0:
336,192,88718,1,0,0:0:0:0:
376,192,88775,1,0,0:0:0:0:
376,232,88833,5,0,0:0:0:0:
336,232,88891,1,0,0:0:0:0:
296,232,88948,1,0,0:0:0:0:
256,232,89006,1,0,0:0:0:0:
216,232,89064,5,0,0:0:0:0:
176,232,89121,1,0,0:0:0:0:
136,232,89179,1,0,0:0:0:0:
136,192,89237,1,0,0:0:0:0:
176,192,89295,1,0,0:0:0:0:
256,192,89525,12,0,90218,0:0:0:0:
256,192,90448,5,0,0:0:0:0:
216,192,90506,1,0,0:0:0:0:
176,192,90564,1,0,0:0:0:0:
136,192,90621,1,0,0:0:0:0:
136,232,90679,5,0,0:0:0:0:
176,232,90737,1,0,0:0:0:0:
216,232,90794,1,0,0:0:0:0:
256,232,90852,1,0,0:0:0:0:
296,232,90910,5,0,0:0:0:0:
336,232,90967,1,0,0:0:0:0:
376,232,91025,1,0,0:0:0:0:
376,192,91083,1,0,0:0:0:0:
336,192,91141,1,0,0:0:0:0:
256,192,91371,12,0,92064,0:0:0:0:
256,192,92294,5,0,0:0:0:0:
24,24,247371,6,0,B|488:24|488:24|488:360|488:360|24:360|24:360|24:24|24:24|232:24,1,1800.00006866455
136,24,247486,1,0,0:0:0:0:
248,24,247602,2,0,L|248:144,1,112.500004291535
488,24,247833,5,0,0:0:0:0:
488,120,247948,1,0,0:0:0:0:
488,232,248063,2,0,L|360:232,1,112.500004291535
384,360,248294,5,0,0:0:0:0:
272,360,248410,1,0,0:0:0:0:
160,360,248525,2,0,L|160:248,1,112.500004291535
24,272,248756,5,0,0:0:0:0:
24,160,248871,1,0,0:0:0:0:
24,48,248986,2,0,L|160:24,1,112.500004291535
224,24,249217,6,0,B|224:80|224:80|280:80|280:80|280:136|280:136|216:136|216:136|216:200|216:200|288:200|288:200|288:264|288:264|216:264|216:264|216:328|216:328|360:328|360:328|360:128,1,900.000034332277
216,136,249333,1,0,0:0:0:0:
216,136,249448,1,0,0:0:0:0:
272,264,249563,1,0,0:0:0:0:
272,264,249679,1,0,0:0:0:0:
320,328,249794,5,0,0:0:0:0:
320,328,249910,1,0,0:0:0:0:
360,139,250025,1,0,0:0:0:0:
360,139,250140,6,0,B|360:72|360:72|456:72|456:72|456:359|456:359|0:360,1,900.000034332277
408,72,250256,1,0,0:0:0:0:
456,136,250371,2,0,L|456:256,1,112.500004291535
456,360,250602,5,0,0:0:0:0:
344,360,250717,1,0,0:0:0:0:
232,360,250833,1,0,0:0:0:0:
120,360,250948,1,0,0:0:0:0:
7,359,251063,6,0,B|8:296|8:296|72:296|72:296|72:224|72:224|-16:224|-16:224|-16:160|-16:160|80:160|80:160|80:40|80:40|168:40|168:40|168:288|168:288|256:288|256:288|256:40|256:40|336:40|336:40|335:160|335:160|448:160|448:160|448:296|448:296|328:296,1,1800.00006866455
56,296,251179,1,0,0:0:0:0:
48,224,251294,2,0,L|168:224,1,112.500004291535
80,160,251525,5,0,0:0:0:0:
80,48,251640,1,0,0:0:0:0:
168,64,251756,2,0,L|48:64,1,112.500004291535
168,288,251986,5,0,0:0:0:0:
256,264,252102,1,0,0:0:0:0:
256,152,252217,2,0,L|256:272,1,112.500004291535
336,72,252448,5,0,0:0:0:0:
360,160,252563,1,0,0:0:0:0:
448,184,252679,2,0,L|448:72,1,112.500004291535
338,296,252910,6,0,B|272:296|272:296|272:360|272:360|104:360|104:360|104:208|104:208|216:208|216:208|216:144|216:144|104:144|104:144|104:80|104:80|288:80|288:80|288:176|288:176|416:176|416:176|416:248|416:248|32:248|32:248|32:112,1,1800.00006866455
176,360,253025,1,0,0:0:0:0:
176,360,253140,1,0,0:0:0:0:
104,208,253256,5,0,0:0:0:0:
104,208,253371,1,0,0:0:0:0:
168,144,253486,1,0,0:0:0:0:
168,144,253602,1,0,0:0:0:0:
200,80,253717,5,0,0:0:0:0:
200,80,253833,1,0,0:0:0:0:
328,176,253948,1,0,0:0:0:0:
328,176,254063,1,0,0:0:0:0:
344,248,254179,5,0,0:0:0:0:
344,248,254294,1,0,0:0:0:0:
120,248,254410,1,0,0:0:0:0:
120,248,254525,1,0,0:0:0:0:
32,114,254640,1,0,0:0:0:0:
32,114,254756,6,0,B|32:0|32:0|512:0|512:0|512:384|512:384|32:384|32:384|32:32,1,1800.00006866455
32,0,254871,1,0,0:0:0:0:
144,0,254986,2,0,L|144:120,1,112.500004291535
368,0,255217,5,0,0:0:0:0:
480,0,255333,1,0,0:0:0:0:
512,80,255448,2,0,L|384:80,1,112.500004291535
512,304,255679,5,0,0:0:0:0:
480,384,255794,1,0,0:0:0:0:
368,384,255910,2,0,L|368:264,1,112.500004291535
136,384,256140,5,0,0:0:0:0:
32,384,256256,1,0,0:0:0:0:
32,264,256371,2,0,L|160:264,1,112.500004291535
32,42,256602,6,0,B|32:104|32:104|88:104|88:104|88:160|88:160|200:160|200:160|200:224|200:224|304:224|304:224|304:104|304:104|424:104|424:104|424:312,1,900.000034332277
136,160,256717,1,0,0:0:0:0:
136,160,256833,1,0,0:0:0:0:
304,224,256948,5,0,0:0:0:0:
304,224,257063,1,0,0:0:0:0:
400,104,257179,1,0,0:0:0:0:
400,104,257294,1,0,0:0:0:0:
424,310,257410,1,0,0:0:0:0:
424,310,257525,6,0,B|424:376|424:376|352:376|352:376|352:296|352:296|224:296|224:296|224:352|224:352|48:352|48:352|48:224|48:224|264:224,1,900.000034332277
376,376,257640,1,0,0:0:0:0:
344,296,257756,2,0,L|344:184,1,112.500004291535
176,352,257986,5,0,0:0:0:0:
64,352,258102,1,0,0:0:0:0:
48,256,258217,1,0,0:0:0:0:
128,224,258333,1,0,0:0:0:0:
242,224,258448,6,0,B|312:224|312:224|312:144|312:144|8:144|8:144|8:72|8:72|384:72|384:72|384:296|384:296|168:296|168:296|168:224|168:224|8:224|8:224|8:360|8:360|120:360,1,1800.00006866455
312,184,258563,1,0,0:0:0:0:
240,144,258679,2,0,L|360:144,1,112.500004291535
8,144,258910,5,0,0:0:0:0:
48,72,259025,1,0,0:0:0:0:
160,72,259140,2,0,L|40:72,1,112.500004291535
384,72,259371,5,0,0:0:0:0:
384,184,259486,1,0,0:0:0:0:
384,296,259602,2,0,L|384:184,1,112.500004291535
168,288,259833,5,0,0:0:0:0:
120,224,259948,1,0,0:0:0:0:
8,224,260063,2,0,L|120:224,1,112.500004291535
98,360,260294,6,0,B|480:360|480:360|480:8|480:8|16:8|16:8|16:80|16:80|416:80|416:80|416:224,1,1800.00006866455
320,360,260410,1,0,0:0:0:0:
320,360,260525,1,0,0:0:0:0:
480,296,260640,5,0,0:0:0:0:
480,296,260756,1,0,0:0:0:0:
480,72,260871,1,0,0:0:0:0:
480,72,260986,1,0,0:0:0:0:
312,8,261102,5,0,0:0:0:0:
312,8,261217,1,0,0:0:0:0:
88,8,261333,1,0,0:0:0:0:
88,8,261448,1,0,0:0:0:0:
96,80,261563,5,0,0:0:0:0:
96,80,261679,1,0,0:0:0:0:
320,80,261794,1,0,0:0:0:0:
320,80,261910,1,0,0:0:0:0:
416,210,262025,5,0,0:0:0:0:
