osu file format v14

[General]
AudioFilename: audio.mp3
AudioLeadIn: 0
PreviewTime: -1
Countdown: 1
SampleSet: Normal
StackLeniency: 0.7
Mode: 0
LetterboxInBreaks: 0
WidescreenStoryboard: 0

[Editor]
Bookmarks: 5748
DistanceSpacing: 0.7
BeatDivisor: 4
GridSize: 8
TimelineZoom: 2.7

[Metadata]
Title:Soulless 4
TitleUnicode:Soulless 4
Artist:ExileLord
ArtistUnicode:ExileLord
Creator:woynawsenpai
Version:Raking Hero
Source:Guitar Hero
Tags:
BeatmapID:1720724
BeatmapSetID:820909

[Difficulty]
HPDrainRate:5
CircleSize:4
OverallDifficulty:7
ApproachRate:9.5
SliderMultiplier:1.4
SliderTickRate:1

[Events]
//Background and Video events
0,0,"1232970611_black_wallpaper_13.jpg",0,0
//Break Periods
//Storyboard Layer 0 (Background)
//Storyboard Layer 1 (Fail)
//Storyboard Layer 2 (Pass)
//Storyboard Layer 3 (Foreground)
//Storyboard Sound Samples

[TimingPoints]
3828,240,4,1,0,100,1,0
87348,-50,4,1,0,100,0,0
88068,-100,4,1,0,100,0,0
88308,-66.6666666666667,4,1,0,100,0,0
103668,-100,4,1,0,100,0,0
119028,-100,4,1,0,100,0,0
119268,-66.6666666666667,4,1,0,100,0,0
119748,-100,4,1,0,100,0,0
119988,-66.6666666666667,4,1,0,100,0,0
120228,-100,4,1,0,100,0,0
120468,-66.6666666666667,4,1,0,100,0,0
120708,-100,4,1,0,100,0,0
120948,-66.6666666666667,4,1,0,100,0,0
123108,-100,4,1,0,100,0,0
123348,-66.6666666666667,4,1,0,100,0,0
124068,-100,4,1,0,100,0,0
124308,-66.6666666666667,4,1,0,100,0,0
126948,-100,4,1,0,100,0,0
127188,-66.6666666666667,4,1,0,100,0,0
127908,-100,4,1,0,100,0,0
128148,-66.6666666666667,4,1,0,100,0,0
130788,-100,4,1,0,100,0,0
134388,-100,4,1,0,100,0,0
136068,-66.6666666666667,4,1,0,100,0,0
136308,-100,4,1,0,100,0,0
137028,-66.6666666666667,4,1,0,100,0,0
137268,-100,4,1,0,100,0,0
137988,-66.6666666666667,4,1,0,100,0,0
138228,-100,4,1,0,100,0,0
139908,-66.6666666666667,4,1,0,100,0,0
140148,-100,4,1,0,100,0,0
140868,-66.6666666666667,4,1,0,100,0,0
141108,-100,4,1,0,100,0,0
156468,-50,4,1,0,100,0,0
157428,-100,4,1,0,100,0,0
173028,-66.6666666666667,4,1,0,100,0,0
173748,-100,4,1,0,100,0,0
173988,-66.6666666666667,4,1,0,100,0,0
174228,-100,4,1,0,100,0,0
174468,-66.6666666666667,4,1,0,100,0,0
174708,-100,4,1,0,100,0,0
174948,-66.6666666666667,4,1,0,100,0,0
175188,-66.6666666666667,4,1,0,100,0,0
177108,-66.6666666666667,4,1,0,100,0,0
177588,-100,4,1,0,100,0,0
177828,-66.6666666666667,4,1,0,100,0,0
178068,-100,4,1,0,100,0,0
178308,-66.6666666666667,4,1,0,100,0,0
178548,-100,4,1,0,100,0,0
179028,-66.6666666666667,4,1,0,100,0,0
180588,-100,4,1,0,100,0,0
180948,-100,4,1,0,100,0,0
181908,-66.6666666666667,4,1,0,100,0,0
184308,-100,4,1,0,100,0,0
184548,-66.6666666666667,4,1,0,100,0,0
184788,-66.6666666666667,4,1,0,100,0,0
185028,-66.6666666666667,4,1,0,100,0,0
185268,-100,4,1,0,100,0,0
185508,-66.6666666666667,4,1,0,100,0,0
185508,-66.6666666666667,4,1,0,100,0,0
186468,-66.6666666666667,4,1,0,100,0,0
188148,-100,4,1,0,100,0,0
195828,-66.6666666666667,4,1,0,100,0,0

[HitObjects]
96,152,3828,5,0,0:0:0:0:
148,116,4068,1,0,0:0:0:0:
208,96,4308,1,0,0:0:0:0:
268,76,4548,1,0,0:0:0:0:
120,212,4788,5,0,0:0:0:0:
172,176,5028,1,0,0:0:0:0:
232,156,5268,1,0,0:0:0:0:
292,136,5508,1,0,0:0:0:0:
96,152,5748,5,0,0:0:0:0:
148,116,5988,1,0,0:0:0:0:
208,96,6228,1,0,0:0:0:0:
268,76,6468,1,0,0:0:0:0:
120,212,6708,5,0,0:0:0:0:
172,176,6948,1,0,0:0:0:0:
232,156,7188,1,0,0:0:0:0:
292,136,7428,1,0,0:0:0:0:
136,136,7668,5,0,0:0:0:0:
279,71,7908,1,0,0:0:0:0:
192,248,8148,1,0,0:0:0:0:
332,180,8388,1,0,0:0:0:0:
276,68,8628,5,0,0:0:0:0:
332,180,8868,1,0,0:0:0:0:
192,248,9108,1,0,0:0:0:0:
136,136,9348,1,0,0:0:0:0:
172,88,9588,6,0,B|220:132|220:132|288:64,3,140
172,88,10548,2,0,B|124:43|124:43|56:112,3,140
360,64,11508,2,0,B|432:112|300:276|300:276|112:272|112:272|240:180,1,560
280,160,12708,5,0,0:0:0:0:
112,144,12948,1,0,0:0:0:0:
280,72,13188,1,0,0:0:0:0:
116,240,13428,2,0,P|152:288|228:288,3,140
122,104,14388,5,0,0:0:0:0:
375,75,14628,1,0,0:0:0:0:
245,280,14868,1,0,0:0:0:0:
281,34,15108,1,0,0:0:0:0:
187,153,15348,2,0,B|135:217|135:217|151:257|227:269|300:221|300:221|423:249|423:249|319:369|261:324,1,560
144,312,16548,5,0,0:0:0:0:
104,200,16788,1,0,0:0:0:0:
204,128,17028,1,0,0:0:0:0:
360,100,17268,2,0,P|396:124|384:212,3,140
168,210,18228,6,0,B|136:258|136:258|205:303,1,140
218,77,18708,6,0,B|186:125|186:125|264:166,1,140
379,66,19188,2,0,B|363:142|363:142|467:158|467:158|431:278|431:278|299:274|299:274|435:294,1,560
376,320,20388,5,0,0:0:0:0:
440,244,20628,1,0,0:0:0:0:
348,204,20868,1,0,0:0:0:0:
80,240,21108,2,0,B|60:160|60:160|108:112,3,140
232,68,22068,6,0,L|232:220,1,140
312,208,22548,2,0,L|312:60,1,140
60,68,23028,2,0,B|104:28|204:48|192:104|136:144|96:160|96:264|96:264|92:300|96:256|96:208|100:168|136:144|184:104|176:88|176:80|136:56,1,560
92,340,24228,5,0,0:0:0:0:
92,340,24468,1,0,0:0:0:0:
92,340,24708,1,0,0:0:0:0:
260,280,24948,2,0,P|304:220|288:152,3,140
253,100,25908,6,0,L|89:100,1,140
113,74,26388,2,0,L|269:74,1,140
384,71,26868,5,0,0:0:0:0:
192,192,27108,1,0,0:0:0:0:
352,192,27348,1,0,0:0:0:0:
168,280,27588,1,0,0:0:0:0:
212,72,27828,5,0,0:0:0:0:
280,276,28068,1,0,0:0:0:0:
108,144,28308,1,0,0:0:0:0:
312,160,28548,1,0,0:0:0:0:
132,272,28788,5,0,0:0:0:0:
232,80,29028,1,0,0:0:0:0:
136,192,29268,1,0,0:0:0:0:
280,216,29508,1,0,0:0:0:0:
84,200,29748,5,0,0:0:0:0:
284,112,29988,1,0,0:0:0:0:
84,200,30228,1,0,0:0:0:0:
252,72,30468,1,0,0:0:0:0:
400,164,30708,6,0,P|368:216|280:264,1,140
120,292,31188,2,0,P|168:212|232:184,1,140
352,160,31668,1,0,0:0:0:0:
72,148,31908,1,0,0:0:0:0:
340,84,32148,1,0,0:0:0:0:
104,200,32388,1,0,0:0:0:0:
236,116,32628,6,0,B|368:200|360:192,1,140
196,212,33108,2,0,L|336:292,1,140
172,112,33588,2,0,L|48:180,1,140
140,236,34068,2,0,L|24:320,1,140
140,88,34548,5,0,0:0:0:0:
348,108,34788,1,0,0:0:0:0:
232,264,35028,1,0,0:0:0:0:
192,64,35268,1,0,0:0:0:0:
160,280,35508,5,0,0:0:0:0:
268,68,35748,1,0,0:0:0:0:
288,276,35988,1,0,0:0:0:0:
128,80,36228,1,0,0:0:0:0:
368,164,36468,5,0,0:0:0:0:
152,124,36708,1,0,0:0:0:0:
340,288,36948,1,0,0:0:0:0:
272,120,37188,1,0,0:0:0:0:
148,244,37428,5,0,0:0:0:0:
336,292,37668,1,0,0:0:0:0:
272,120,37908,1,0,0:0:0:0:
224,284,38148,1,0,0:0:0:0:
420,144,38388,5,0,0:0:0:0:
180,240,38628,1,0,0:0:0:0:
428,284,38868,1,0,0:0:0:0:
296,184,39108,1,0,0:0:0:0:
448,92,39348,5,0,0:0:0:0:
276,268,39588,1,0,0:0:0:0:
180,212,39828,1,0,0:0:0:0:
452,216,40068,1,0,0:0:0:0:
208,160,40308,5,0,0:0:0:0:
468,164,40548,1,0,0:0:0:0:
196,136,40788,1,0,0:0:0:0:
428,136,41028,1,0,0:0:0:0:
112,84,41268,6,0,P|88:160|120:208,1,140
176,152,41748,2,0,P|212:176|180:272,1,140
412,140,42228,6,0,L|360:168,2,35
236,216,42468,2,0,L|284:232,2,35
396,256,42708,2,0,L|352:216,2,35
280,128,42948,2,0,L|256:176,2,35
120,132,43188,5,0,0:0:0:0:
176,272,43428,1,0,0:0:0:0:
196,112,43668,1,0,0:0:0:0:
256,240,43908,2,0,L|288:200,2,35
404,96,44148,6,0,L|408:168,1,70
308,144,44388,2,0,L|312:236,1,70
160,244,44628,2,0,L|160:164,1,70
80,252,44868,2,0,L|80:172,1,70
200,88,45108,6,0,L|208:128,2,35
248,240,45348,2,0,L|288:192,2,35
72,172,45588,2,0,L|128:184,2,35
120,288,45828,2,0,L|148:244,2,35
380,108,46068,6,0,L|296:144,1,70
152,88,46308,2,0,L|176:188,1,70
392,284,46548,2,0,L|312:244,1,70
156,312,46788,2,0,L|208:244,1,70
352,120,47028,6,0,L|300:120,2,35
176,216,47268,2,0,L|196:168,2,35
408,212,47508,2,0,L|372:208,2,35
224,288,47748,2,0,L|244:252,2,35
272,64,47988,6,0,L|180:92,1,70
148,112,48228,2,0,L|180:200,1,70
200,232,48468,2,0,L|276:204,1,70
328,188,48708,2,0,L|296:116,1,70
184,48,48948,5,0,0:0:0:0:
140,212,49188,1,0,0:0:0:0:
372,132,49428,1,0,0:0:0:0:
268,268,49668,1,0,0:0:0:0:
136,48,49908,6,0,L|124:144,1,70
248,128,50148,2,0,L|236:224,1,70
340,196,50388,2,0,L|336:288,1,70
448,256,50628,2,0,L|444:336,1,70
176,260,50868,6,0,L|172:216,2,35
180,116,51108,2,0,L|224:112,2,35
320,76,51348,2,0,L|336:124,2,35
380,224,51588,2,0,L|352:260,2,35
96,80,51828,6,0,L|96:180,1,70
156,160,52068,2,0,L|200:96,1,70
248,132,52308,2,0,L|280:212,1,70
336,212,52548,2,0,L|388:144,1,70
144,64,52788,6,0,L|144:108,2,35
232,64,53028,2,0,L|232:108,2,35
184,156,53268,2,0,L|184:212,2,35
276,156,53508,2,0,L|280:192,2,35
348,88,53748,6,0,P|408:104|404:132,1,70
348,148,53988,2,0,P|408:164|424:148,1,70
292,92,54228,2,0,P|264:64|228:88,1,70
288,152,54468,2,0,P|240:168|220:148,1,70
80,92,54708,6,0,L|80:144,2,35
84,96,54948,2,0,L|88:144,2,35
84,100,55188,2,0,L|92:140,2,35
84,100,55428,2,0,L|92:148,2,35
228,84,55668,6,0,P|272:148|276:152,1,70
308,168,55908,2,0,P|340:148|396:164,1,70
416,192,56148,2,0,P|424:232|396:280,1,70
364,296,56388,2,0,L|292:300,1,70
100,116,56628,6,0,L|100:176,2,35
192,208,56868,2,0,L|196:272,2,35
312,160,57108,2,0,L|316:208,2,35
436,84,57348,6,0,L|444:136,2,35
40,84,57588,6,0,L|92:232,1,140
192,80,58068,2,0,L|144:224,1,140
280,80,58548,2,0,L|328:240,1,140
424,80,59028,2,0,L|388:216,1,140
176,96,59508,6,0,B|160:128|160:128|188:168,2,70
340,100,59988,2,0,L|312:240,1,140
60,180,60468,2,0,L|228:176,1,140
120,264,60948,2,0,L|292:260,1,140
344,120,61428,6,0,B|372:144|372:144|344:200,2,70
168,80,61908,2,0,L|168:240,1,140
272,104,62388,2,0,L|280:248,1,140
420,100,62868,2,0,L|420:244,1,140
184,104,63348,6,0,L|264:104,2,70
384,92,63828,2,0,L|276:228,1,140
88,72,64308,2,0,L|184:208,1,140
384,80,64788,2,0,L|272:200,1,140
172,160,65268,5,0,0:0:0:0:
280,68,65508,1,0,0:0:0:0:
408,180,65748,2,0,P|372:224|288:244,1,140
136,152,66228,5,0,0:0:0:0:
272,92,66468,1,0,0:0:0:0:
368,192,66708,2,0,L|244:260,1,140
140,244,67188,2,0,L|136:160,2,70
388,60,67668,6,0,L|376:200,1,140
360,272,68148,1,0,0:0:0:0:
156,200,68388,1,0,0:0:0:0:
200,60,68628,2,0,L|344:56,1,140
420,144,69108,6,0,L|392:208,2,70
120,184,69588,2,0,L|184:308,1,140
360,320,70068,1,0,0:0:0:0:
300,160,70308,1,0,0:0:0:0:
268,56,70548,6,0,L|124:72,1,140
60,112,71028,2,0,L|88:196,2,70
388,44,71508,2,0,L|384:204,1,140
236,116,71988,2,0,L|228:268,1,140
88,160,72468,2,0,L|84:300,1,140
164,97,72948,5,0,0:0:0:0:
339,167,73188,1,0,0:0:0:0:
191,217,73428,1,0,0:0:0:0:
311,60,73668,1,0,0:0:0:0:
167,64,73908,2,0,P|136:112|144:200,1,140
352,144,74388,2,0,P|376:208|352:288,1,140
181,222,74868,5,0,0:0:0:0:
196,64,75108,1,0,0:0:0:0:
354,210,75348,1,0,0:0:0:0:
130,160,75588,1,0,0:0:0:0:
410,222,75828,2,0,L|271:283,1,140
115,97,76308,2,0,L|267:67,1,140
374,196,76788,5,0,0:0:0:0:
135,177,77028,1,0,0:0:0:0:
273,36,77268,1,0,0:0:0:0:
307,251,77508,1,0,0:0:0:0:
406,148,77748,2,0,B|392:90|354:87|265:107,1,140
185,167,78228,2,0,B|199:225|236:227|326:208,1,140
453,201,78708,5,0,0:0:0:0:
224,99,78948,1,0,0:0:0:0:
413,132,79188,1,0,0:0:0:0:
195,210,79428,1,0,0:0:0:0:
299,45,79668,2,0,L|296:213,1,140
122,301,80148,2,0,L|122:130,1,140
167,138,80628,5,0,0:0:0:0:
341,260,80868,1,0,0:0:0:0:
343,128,81108,1,0,0:0:0:0:
187,250,81348,1,0,0:0:0:0:
233,77,81588,5,0,0:0:0:0:
233,77,81828,1,0,0:0:0:0:
400,205,82068,1,0,0:0:0:0:
400,205,82308,1,0,0:0:0:0:
188,273,82548,5,0,0:0:0:0:
269,66,82788,1,0,0:0:0:0:
398,292,83028,1,0,0:0:0:0:
140,165,83268,1,0,0:0:0:0:
409,149,83508,5,0,0:0:0:0:
373,184,83748,1,0,0:0:0:0:
273,35,83988,1,0,0:0:0:0:
231,76,84228,1,0,0:0:0:0:
116,169,84468,5,0,0:0:0:0:
432,125,84708,1,0,0:0:0:0:
168,288,84948,1,0,0:0:0:0:
260,51,85188,1,0,0:0:0:0:
377,270,85428,5,0,0:0:0:0:
134,172,85668,1,0,0:0:0:0:
388,65,85908,1,0,0:0:0:0:
224,300,86148,1,0,0:0:0:0:
250,57,86388,5,0,0:0:0:0:
414,279,86628,1,0,0:0:0:0:
123,228,86868,1,0,0:0:0:0:
408,112,87108,1,0,0:0:0:0:
214,67,87348,6,0,P|169:138|278:275,1,280
243,146,87828,2,0,P|339:203|302:346,1,280
344,38,88308,6,0,P|349:92|304:144,1,105.000004005432
263,167,88548,2,0,P|221:204|209:251,1,105.000004005432
215,319,88788,2,0,P|270:335|349:310,1,105.000004005432
377,297,89028,2,0,L|375:166,1,105.000004005432
368,122,89268,6,0,L|254:73,1,105.000004005432
211,59,89508,2,0,L|142:179,1,105.000004005432
135,209,89748,2,0,P|142:264|206:322,1,105.000004005432
224,339,89988,2,0,L|286:209,1,105.000004005432
310,149,90228,5,0,0:0:0:0:
376,35,90468,1,0,0:0:0:0:
177,66,90708,2,0,P|99:159|160:246,1,210.000008010865
258,315,91188,5,0,0:0:0:0:
398,145,91428,1,0,0:0:0:0:
240,45,91668,2,0,L|83:213,1,210.000008010865
119,46,92148,6,0,L|229:142,1,105.000004005432
328,226,92388,2,0,L|214:182,1,105.000004005432
78,111,92628,2,0,L|164:219,1,105.000004005432
210,278,92868,2,0,L|211:155,1,105.000004005432
220,69,93108,6,0,L|356:144,1,105.000004005432
427,172,93348,2,0,L|356:306,1,105.000004005432
316,344,93588,2,0,L|209:263,1,105.000004005432
138,195,93828,2,0,L|242:124,1,105.000004005432
369,59,94068,5,0,0:0:0:0:
312,121,94188,1,0,0:0:0:0:
231,144,94308,1,0,0:0:0:0:
147,138,94428,1,0,0:0:0:0:
80,102,94548,6,0,L|85:215,1,105.000004005432
97,320,94788,2,0,L|241:328,1,105.000004005432
314,328,95028,2,0,L|355:198,1,105.000004005432
335,66,95268,2,0,L|231:138,1,105.000004005432
118,166,95508,2,0,L|257:223,1,105.000004005432
372,262,95748,2,0,L|245:311,1,105.000004005432
93,278,95988,6,0,L|209:218,1,105.000004005432
279,198,96228,1,0,0:0:0:0:
241,155,96348,1,0,0:0:0:0:
197,115,96468,1,0,0:0:0:0:
144,85,96588,1,0,0:0:0:0:
92,72,96708,2,0,P|73:114|80:185,1,105.000004005432
80,296,96948,6,0,L|202:294,1,105.000004005432
282,272,97188,2,0,L|322:164,1,105.000004005432
335,60,97428,2,0,L|209:118,1,105.000004005432
136,189,97668,2,0,L|218:290,1,105.000004005432
290,342,97908,6,0,L|363:227,1,105.000004005432
405,175,98148,2,0,L|312:117,1,105.000004005432
249,75,98388,2,0,L|122:137,1,105.000004005432
63,181,98628,2,0,L|188:241,1,105.000004005432
344,136,98868,6,0,L|259:251,1,105.000004005432
202,286,99108,2,0,L|149:165,1,105.000004005432
120,81,99348,2,0,L|260:63,1,105.000004005432
400,43,99588,2,0,L|408:186,1,105.000004005432
412,290,99828,5,0,0:0:0:0:
111,283,100068,1,0,0:0:0:0:
243,102,100308,1,0,0:0:0:0:
392,169,100548,1,0,0:0:0:0:
213,241,100788,5,0,0:0:0:0:
57,138,101028,1,0,0:0:0:0:
330,62,101268,1,0,0:0:0:0:
103,268,101508,1,0,0:0:0:0:
341,309,101748,5,0,0:0:0:0:
172,130,101988,1,0,0:0:0:0:
372,61,102228,1,0,0:0:0:0:
236,227,102468,1,0,0:0:0:0:
89,81,102708,5,0,0:0:0:0:
300,50,102948,1,0,0:0:0:0:
336,202,103188,1,0,0:0:0:0:
139,157,103428,1,0,0:0:0:0:
152,297,103668,6,0,P|147:208|198:147,1,140
266,64,104148,5,0,0:0:0:0:
392,48,104268,1,0,0:0:0:0:
290,176,104388,1,0,0:0:0:0:
408,152,104508,1,0,0:0:0:0:
320,288,104628,2,0,P|288:304|271:298,2,35
184,287,104868,5,0,0:0:0:0:
124,198,104988,1,0,0:0:0:0:
184,101,105108,2,0,P|217:78|264:79,1,70
354,90,105348,5,0,0:0:0:0:
278,199,105468,1,0,0:0:0:0:
138,214,105588,2,0,P|116:180|133:140,1,70
195,47,105828,5,0,0:0:0:0:
243,140,105948,1,0,0:0:0:0:
203,237,106068,1,0,0:0:0:0:
243,140,106188,5,0,0:0:0:0:
331,83,106308,1,0,0:0:0:0:
435,88,106428,1,0,0:0:0:0:
496,173,106548,2,0,P|473:211|427:217,1,70
281,230,106788,5,0,0:0:0:0:
116,197,106908,1,0,0:0:0:0:
281,230,107028,1,0,0:0:0:0:
168,157,107148,1,0,0:0:0:0:
281,230,107268,1,0,0:0:0:0:
231,138,107388,1,0,0:0:0:0:
281,230,107508,6,0,L|360:265,1,70
204,245,107748,2,0,L|152:304,1,70
291,147,107988,2,0,L|280:233,1,70
158,174,108228,2,0,L|202:236,1,70
247,306,108468,5,0,0:0:0:0:
248,236,108588,1,0,0:0:0:0:
318,236,108708,1,0,0:0:0:0:
319,166,108828,1,0,0:0:0:0:
259,129,108948,5,0,0:0:0:0:
210,68,109068,1,0,0:0:0:0:
276,28,109188,1,0,0:0:0:0:
352,34,109308,1,0,0:0:0:0:
435,40,109428,5,0,0:0:0:0:
387,109,109548,1,0,0:0:0:0:
321,161,109668,1,0,0:0:0:0:
250,206,109788,1,0,0:0:0:0:
210,132,109908,5,0,0:0:0:0:
147,188,110028,1,0,0:0:0:0:
94,253,110148,1,0,0:0:0:0:
72,334,110268,1,0,0:0:0:0:
162,336,110388,5,0,0:0:0:0:
204,255,110508,1,0,0:0:0:0:
251,332,110628,1,0,0:0:0:0:
296,252,110748,1,0,0:0:0:0:
339,331,110868,1,0,0:0:0:0:
381,250,110988,1,0,0:0:0:0:
422,330,111108,1,0,0:0:0:0:
467,250,111228,1,0,0:0:0:0:
142,60,111348,6,0,P|92:131|114:189,1,140
190,316,111828,1,0,0:0:0:0:
267,186,111948,1,0,0:0:0:0:
293,333,112068,1,0,0:0:0:0:
325,192,112188,1,0,0:0:0:0:
406,102,112308,2,0,L|377:81,6,23.3333333333333
273,37,112668,5,0,0:0:0:0:
183,101,112788,2,0,L|204:189,1,70
231,281,113028,1,0,0:0:0:0:
363,169,113148,1,0,0:0:0:0:
358,79,113268,2,0,P|336:46|276:40,1,70
46,59,113508,5,0,0:0:0:0:
106,180,113628,1,0,0:0:0:0:
108,60,113748,1,0,0:0:0:0:
106,180,113868,1,0,0:0:0:0:
153,97,113988,1,0,0:0:0:0:
106,180,114108,1,0,0:0:0:0:
186,146,114228,2,0,P|256:139|260:131,1,70
381,112,114468,5,0,0:0:0:0:
299,257,114588,1,0,0:0:0:0:
238,129,114708,1,0,0:0:0:0:
299,257,114828,1,0,0:0:0:0:
310,58,114948,1,0,0:0:0:0:
299,257,115068,1,0,0:0:0:0:
72,96,115188,6,0,L|78:175,1,70
163,139,115428,2,0,L|169:221,1,70
247,59,115668,2,0,L|256:140,1,70
368,138,115908,2,0,L|379:223,1,70
61,155,116148,5,0,0:0:0:0:
100,213,116268,1,0,0:0:0:0:
158,252,116388,1,0,0:0:0:0:
223,277,116508,1,0,0:0:0:0:
266,222,116628,5,0,0:0:0:0:
305,280,116748,1,0,0:0:0:0:
363,319,116868,1,0,0:0:0:0:
428,344,116988,1,0,0:0:0:0:
437,261,117108,2,0,L|418:227,14,35
238,222,118068,2,0,L|219:188,14,35
319,101,119028,5,0,0:0:0:0:
346,122,119088,1,0,0:0:0:0:
366,150,119148,1,0,0:0:0:0:
380,181,119208,1,0,0:0:0:0:
386,209,119268,2,0,P|370:264|311:307,1,105.000004005432
282,319,119508,2,0,P|220:320|181:286,1,105.000004005432
147,240,119748,5,0,0:0:0:0:
134,207,119808,1,0,0:0:0:0:
130,172,119868,1,0,0:0:0:0:
135,137,119928,1,0,0:0:0:0:
144,104,119988,2,0,P|173:71|251:43,1,105.000004005432
293,50,120228,2,0,L|362:78,1,70
245,133,120468,2,0,L|128:220,1,105.000004005432
350,162,120708,5,0,0:0:0:0:
322,183,120768,1,0,0:0:0:0:
293,203,120828,1,0,0:0:0:0:
265,224,120888,1,0,0:0:0:0:
241,244,120948,2,0,L|133:332,1,105.000004005432
264,74,121188,6,0,P|312:105|320:188,1,105.000004005432
166,198,121428,2,0,P|176:304|198:314,1,105.000004005432
386,306,121668,2,0,P|457:218|460:193,1,105.000004005432
388,80,121908,2,0,P|331:51|288:70,1,105.000004005432
146,125,122148,2,0,P|133:181|184:239,1,105.000004005432
316,189,122388,2,0,P|322:261|278:299,1,105.000004005432
37,216,122628,2,0,P|42:298|95:314,1,105.000004005432
72,77,122868,6,0,L|99:196,1,105.000004005432
196,286,123108,5,0,0:0:0:0:
211,254,123168,1,0,0:0:0:0:
220,220,123228,1,0,0:0:0:0:
212,185,123288,1,0,0:0:0:0:
212,148,123348,2,0,P|220:90|260:67,1,105.000004005432
383,155,123588,6,0,P|369:93|325:72,1,105.000004005432
242,66,123828,2,0,B|186:45|147:92|139:104,1,105.000004005432
98,159,124068,5,0,0:0:0:0:
86,192,124128,1,0,0:0:0:0:
86,227,124188,1,0,0:0:0:0:
101,258,124248,1,0,0:0:0:0:
131,283,124308,2,0,P|178:307|240:288,1,105.000004005432
473,136,124548,2,0,L|405:228,1,105.000004005432
362,272,124788,6,0,P|279:244|264:134,1,210.000008010865
354,163,125268,2,0,P|317:79|205:53,1,210.000008010865
151,131,125748,2,0,P|121:191|201:295,1,210.000008010865
384,281,126228,2,0,B|397:180|393:132|312:102,1,210.000008010865
121,117,126708,6,0,L|156:220,1,105.000004005432
207,314,126948,1,0,0:0:0:0:
234,292,127008,1,0,0:0:0:0:
259,267,127068,1,0,0:0:0:0:
282,241,127128,1,0,0:0:0:0:
306,214,127188,2,0,L|378:118,1,105.000004005432
427,55,127428,2,0,L|318:48,1,105.000004005432
129,51,127668,6,0,L|102:165,1,105.000004005432
92,320,127908,1,0,0:0:0:0:
115,294,127968,1,0,0:0:0:0:
137,267,128028,1,0,0:0:0:0:
159,240,128088,1,0,0:0:0:0:
182,210,128148,2,0,L|254:114,1,105.000004005432
288,68,128388,6,0,L|398:74,1,105.000004005432
161,92,128628,2,0,L|48:111,1,105.000004005432
308,140,128868,2,0,L|412:122,1,105.000004005432
189,165,129108,2,0,L|66:185,1,105.000004005432
308,140,129348,2,0,L|244:239,1,105.000004005432
369,81,129588,6,0,P|286:28|261:44,1,105.000004005432
235,95,129828,2,0,P|238:148|297:181,1,105.000004005432
127,208,130068,2,0,P|165:286|204:299,1,105.000004005432
322,315,130308,2,0,P|404:282|409:248,1,105.000004005432
142,94,130548,6,0,P|236:56|283:54,1,105.000004005432
336,75,130788,5,0,0:0:0:0:
334,104,130848,1,0,0:0:0:0:
331,133,130908,1,0,0:0:0:0:
327,162,130968,1,0,0:0:0:0:
323,190,131028,2,0,P|295:234|238:237,1,105.000004005432
164,230,131268,5,0,0:0:0:0:
165,201,131328,1,0,0:0:0:0:
168,172,131388,1,0,0:0:0:0:
173,143,131448,1,0,0:0:0:0:
176,115,131508,2,0,P|204:70|261:68,1,105.000004005432
360,87,131748,5,0,0:0:0:0:
358,103,131808,1,0,0:0:0:0:
355,118,131868,1,0,0:0:0:0:
353,135,131928,1,0,0:0:0:0:
350,152,131988,2,0,L|332:261,1,105.000004005432
179,240,132228,5,0,0:0:0:0:
181,224,132288,1,0,0:0:0:0:
184,208,132348,1,0,0:0:0:0:
186,191,132408,1,0,0:0:0:0:
188,175,132468,2,0,L|206:66,1,105.000004005432
93,133,132708,6,0,P|86:203|141:217,1,105.000004005432
257,129,132948,2,0,P|275:202|221:224,1,105.000004005432
83,160,133188,2,0,P|75:217|137:249,1,105.000004005432
265,156,133428,2,0,P|325:211|300:241,1,105.000004005432
86,201,133668,2,0,P|111:262|174:275,1,105.000004005432
275,181,133908,2,0,P|320:233|293:257,1,105.000004005432
99,236,134148,2,0,P|147:292|183:299,1,105.000004005432
150,62,134388,6,0,L|181:112,2,46.6666666666667
377,92,134628,2,0,L|337:161,2,46.6666666666667
178,178,134868,2,0,L|242:232,2,46.6666666666667
408,178,135108,2,0,L|361:236,2,46.6666666666667
87,182,135348,6,0,L|152:233,2,46.6666666666667
262,65,135588,2,0,L|264:139,2,46.6666666666667
154,287,135828,2,0,L|212:267,2,46.6666666666667
369,182,136068,2,0,B|358:222|358:222|323:257,2,70.0000026702882
130,96,136308,6,0,L|149:145,2,46.6666666666667
266,93,136548,2,0,L|288:177,2,46.6666666666667
179,238,136788,2,0,L|263:255,2,46.6666666666667
337,171,137028,2,0,B|346:209|346:209|329:245,2,70.0000026702882
98,108,137268,6,0,L|152:100,2,46.6666666666667
230,157,137508,2,0,L|174:166,2,46.6666666666667
127,249,137748,2,0,L|202:237,2,46.6666666666667
359,169,137988,2,0,B|347:202|347:202|361:243,2,70.0000026702882
84,66,138228,6,0,L|151:60,2,46.6666666666667
339,61,138468,2,0,L|271:64,2,46.6666666666667
139,157,138708,2,0,L|203:156,2,46.6666666666667
412,143,138948,2,0,L|349:146,2,46.6666666666667
175,243,139188,6,0,L|254:238,2,46.6666666666667
439,241,139428,2,0,L|365:244,2,46.6666666666667
227,328,139668,2,0,L|287:326,2,46.6666666666667
371,207,139908,2,0,B|340:184|340:184|321:133,2,70.0000026702882
105,64,140148,6,0,L|108:131,2,46.6666666666667
188,130,140388,2,0,L|190:202,2,46.6666666666667
292,201,140628,2,0,L|293:278,2,46.6666666666667
73,213,140868,2,0,B|92:252|92:252|129:261,2,70.0000026702882
320,72,141108,6,0,L|310:141,2,46.6666666666667
164,232,141348,2,0,L|226:202,2,46.6666666666667
417,279,141588,2,0,L|369:218,2,46.6666666666667
150,66,141828,2,0,L|212:106,1,46.6666666666667
310,195,142068,5,0,0:0:0:0:
282,157,142148,1,0,0:0:0:0:
240,135,142228,1,0,0:0:0:0:
193,128,142308,1,0,0:0:0:0:
150,146,142388,1,0,0:0:0:0:
126,186,142468,1,0,0:0:0:0:
126,232,142548,6,0,L|74:179,2,46.6666666666667
91,315,142788,2,0,L|37:333,2,46.6666666666667
168,286,143028,5,0,0:0:0:0:
210,266,143108,1,0,0:0:0:0:
244,234,143188,1,0,0:0:0:0:
269,195,143268,1,0,0:0:0:0:
280,149,143348,1,0,0:0:0:0:
275,102,143428,1,0,0:0:0:0:
262,56,143508,6,0,L|331:64,2,46.6666666666667
154,46,143748,2,0,L|195:17,2,46.6666666666667
74,110,143988,5,0,0:0:0:0:
91,153,144068,1,0,0:0:0:0:
121,188,144148,1,0,0:0:0:0:
164,205,144228,1,0,0:0:0:0:
210,209,144308,1,0,0:0:0:0:
255,199,144388,1,0,0:0:0:0:
296,177,144468,6,0,L|342:151,2,46.6666666666667
326,84,144708,2,0,L|392:85,2,46.6666666666667
104,92,144948,5,0,0:0:0:0:
274,170,145068,1,0,0:0:0:0:
93,215,145188,1,0,0:0:0:0:
274,170,145308,1,0,0:0:0:0:
104,92,145428,1,0,0:0:0:0:
274,170,145548,1,0,0:0:0:0:
93,215,145668,1,0,0:0:0:0:
274,170,145788,1,0,0:0:0:0:
104,92,145908,5,0,0:0:0:0:
103,138,145988,1,0,0:0:0:0:
115,183,146068,1,0,0:0:0:0:
138,223,146148,1,0,0:0:0:0:
178,245,146228,1,0,0:0:0:0:
222,257,146308,1,0,0:0:0:0:
269,258,146388,6,0,L|341:285,2,46.6666666666667
91,206,146628,2,0,L|123:150,2,46.6666666666667
343,79,146868,5,0,0:0:0:0:
296,73,146948,1,0,0:0:0:0:
250,84,147028,1,0,0:0:0:0:
217,111,147108,1,0,0:0:0:0:
192,148,147188,1,0,0:0:0:0:
184,194,147268,1,0,0:0:0:0:
187,239,147348,6,0,L|233:277,2,46.6666666666667
335,288,147588,2,0,L|346:225,2,46.6666666666667
361,87,147828,5,0,0:0:0:0:
315,95,147908,1,0,0:0:0:0:
277,122,147988,1,0,0:0:0:0:
248,159,148068,1,0,0:0:0:0:
234,203,148148,1,0,0:0:0:0:
231,249,148228,1,0,0:0:0:0:
245,293,148308,6,0,L|211:329,2,46.6666666666667
58,280,148548,2,0,L|101:201,2,46.6666666666667
161,45,148788,5,0,0:0:0:0:
349,94,148908,1,0,0:0:0:0:
193,228,149028,1,0,0:0:0:0:
257,45,149148,1,0,0:0:0:0:
126,182,149268,1,0,0:0:0:0:
342,166,149388,1,0,0:0:0:0:
103,121,149508,1,0,0:0:0:0:
314,59,149628,1,0,0:0:0:0:
389,78,149748,5,0,0:0:0:0:
388,124,149828,1,0,0:0:0:0:
379,169,149908,1,0,0:0:0:0:
349,204,149988,1,0,0:0:0:0:
305,219,150068,1,0,0:0:0:0:
260,203,150148,1,0,0:0:0:0:
215,188,150228,6,0,L|162:204,2,46.6666666666667
93,235,150468,2,0,L|107:169,2,46.6666666666667
110,61,150708,5,0,0:0:0:0:
160,57,150788,1,0,0:0:0:0:
206,67,150868,1,0,0:0:0:0:
249,85,150948,1,0,0:0:0:0:
293,108,151028,1,0,0:0:0:0:
335,136,151108,1,0,0:0:0:0:
367,168,151188,6,0,L|407:211,2,46.6666666666667
283,223,151428,2,0,L|332:275,2,46.6666666666667
130,298,151668,5,0,0:0:0:0:
126,250,151748,1,0,0:0:0:0:
138,204,151828,1,0,0:0:0:0:
161,157,151908,1,0,0:0:0:0:
190,115,151988,1,0,0:0:0:0:
223,73,152068,1,0,0:0:0:0:
263,49,152148,2,0,L|314:43,2,46.6666666666667
357,114,152388,2,0,L|299:155,2,46.6666666666667
158,272,152628,5,0,0:0:0:0:
221,117,152748,1,0,0:0:0:0:
292,278,152868,1,0,0:0:0:0:
353,111,152988,1,0,0:0:0:0:
292,278,153108,1,0,0:0:0:0:
221,117,153228,1,0,0:0:0:0:
158,272,153348,1,0,0:0:0:0:
92,117,153468,1,0,0:0:0:0:
60,220,153588,5,0,0:0:0:0:
101,248,153668,1,0,0:0:0:0:
146,264,153748,1,0,0:0:0:0:
197,281,153828,1,0,0:0:0:0:
245,292,153908,1,0,0:0:0:0:
295,301,153988,1,0,0:0:0:0:
341,306,154068,6,0,L|409:292,2,46.6666666666667
396,209,154308,2,0,L|339:190,2,46.6666666666667
357,82,154548,5,0,0:0:0:0:
307,75,154628,1,0,0:0:0:0:
256,75,154708,1,0,0:0:0:0:
206,83,154788,1,0,0:0:0:0:
161,102,154868,1,0,0:0:0:0:
121,128,154948,1,0,0:0:0:0:
89,157,155028,6,0,L|62:200,2,46.6666666666667
139,283,155268,2,0,L|191:242,2,46.6666666666667
299,273,155508,5,0,0:0:0:0:
323,232,155588,1,0,0:0:0:0:
335,182,155668,1,0,0:0:0:0:
338,138,155748,1,0,0:0:0:0:
331,90,155828,1,0,0:0:0:0:
298,57,155908,1,0,0:0:0:0:
256,50,155988,6,0,P|222:91|226:95,2,46.6666666666667
137,186,156228,2,0,L|207:162,2,46.6666666666667
190,285,156468,6,0,L|193:204,1,70
239,281,156588,2,0,L|219:213,1,70
279,270,156708,2,0,L|250:198,1,70
318,252,156828,2,0,L|278:181,1,70
360,236,156948,2,0,L|309:170,1,70
398,214,157068,2,0,L|337:153,1,70
434,188,157188,2,0,L|376:133,1,70
467,155,157308,2,0,L|400:107,1,70
92,113,157428,5,0,0:0:0:0:
158,122,157548,1,0,0:0:0:0:
222,133,157668,1,0,0:0:0:0:
287,145,157788,1,0,0:0:0:0:
353,157,157908,1,0,0:0:0:0:
418,170,158028,1,0,0:0:0:0:
486,184,158148,2,0,L|475:272,1,70
470,320,158388,5,0,0:0:0:0:
403,313,158508,1,0,0:0:0:0:
339,304,158628,1,0,0:0:0:0:
274,294,158748,1,0,0:0:0:0:
207,285,158868,1,0,0:0:0:0:
142,274,158988,1,0,0:0:0:0:
73,262,159108,2,0,L|80:173,1,70
153,57,159348,5,0,0:0:0:0:
185,137,159468,1,0,0:0:0:0:
236,63,159588,1,0,0:0:0:0:
274,148,159708,5,0,0:0:0:0:
306,228,159828,1,0,0:0:0:0:
357,154,159948,1,0,0:0:0:0:
402,237,160068,2,0,L|469:200,1,70
435,73,160308,5,0,0:0:0:0:
357,77,160428,1,0,0:0:0:0:
357,154,160548,1,0,0:0:0:0:
279,157,160668,5,0,0:0:0:0:
276,79,160788,1,0,0:0:0:0:
201,81,160908,1,0,0:0:0:0:
127,86,161028,2,0,P|87:134|98:165,1,70
133,259,161268,6,0,L|195:255,1,35
201,324,161388,2,0,L|269:322,1,35
245,255,161508,2,0,L|293:254,1,35
313,325,161628,2,0,L|369:321,1,35
357,250,161748,2,0,L|401:245,1,35
413,318,161868,2,0,L|469:312,1,35
474,238,161988,2,0,L|444:156,1,70
323,49,162228,6,0,L|325:101,1,35
272,90,162348,2,0,L|277:142,1,35
226,132,162468,2,0,L|229:178,1,35
179,174,162588,2,0,L|181:219,1,35
132,213,162708,2,0,L|131:259,1,35
86,259,162828,2,0,L|85:308,1,35
158,316,162948,2,0,L|232:311,1,70
348,206,163188,6,0,L|322:181,1,35
348,206,163308,2,0,L|396:174,1,35
348,206,163428,2,0,L|391:246,1,35
348,206,163548,2,0,L|307:241,1,35
348,206,163668,2,0,L|305:185,1,35
348,206,163788,2,0,L|350:163,1,35
342,93,163908,2,0,L|262:92,1,70
125,118,164148,6,0,L|122:178,1,35
119,224,164268,2,0,L|181:223,1,35
221,223,164388,2,0,L|223:177,1,35
221,119,164508,2,0,L|159:116,1,35
125,118,164628,2,0,L|122:169,1,35
118,223,164748,2,0,L|158:224,1,35
221,223,164868,2,0,L|307:222,1,70
389,69,165108,5,0,0:0:0:0:
370,137,165228,1,0,0:0:0:0:
313,179,165348,1,0,0:0:0:0:
246,195,165468,1,0,0:0:0:0:
179,178,165588,1,0,0:0:0:0:
134,127,165708,1,0,0:0:0:0:
107,65,165828,2,0,P|115:28|161:39,1,70
249,88,166068,5,0,0:0:0:0:
338,54,166188,1,0,0:0:0:0:
249,88,166308,1,0,0:0:0:0:
332,148,166428,1,0,0:0:0:0:
249,88,166548,1,0,0:0:0:0:
338,54,166668,1,0,0:0:0:0:
249,88,166788,2,0,P|196:111|179:135,1,70
98,183,167028,5,0,0:0:0:0:
132,273,167148,1,0,0:0:0:0:
186,181,167268,1,0,0:0:0:0:
213,273,167388,1,0,0:0:0:0:
268,184,167508,1,0,0:0:0:0:
299,274,167628,1,0,0:0:0:0:
364,188,167748,2,0,L|362:103,1,70
416,40,167988,5,0,0:0:0:0:
348,78,168108,1,0,0:0:0:0:
282,117,168228,1,0,0:0:0:0:
214,151,168348,1,0,0:0:0:0:
151,189,168468,1,0,0:0:0:0:
88,225,168588,1,0,0:0:0:0:
28,264,168708,2,0,L|98:311,1,70
410,114,168948,6,0,L|413:173,1,35
343,159,169068,2,0,L|347:224,1,35
277,203,169188,2,0,L|277:244,1,35
212,240,169308,2,0,L|215:288,1,35
153,277,169428,2,0,L|154:327,1,35
91,310,169548,2,0,L|92:348,1,35
27,349,169668,2,0,L|29:264,1,70
184,93,169908,6,0,L|158:135,1,35
232,147,170028,2,0,L|171:164,1,35
227,221,170148,2,0,L|171:194,1,35
161,270,170268,2,0,L|155:232,1,35
80,235,170388,2,0,L|125:211,1,35
62,161,170508,2,0,L|126:182,1,35
108,105,170628,2,0,L|162:182,1,70
361,90,170868,6,0,L|352:145,1,35
348,192,170988,2,0,L|297:187,1,35
246,189,171108,2,0,L|242:229,1,35
243,286,171228,2,0,L|202:281,1,35
140,278,171348,2,0,L|150:221,1,35
153,175,171468,2,0,L|159:111,1,35
165,73,171588,2,0,L|257:77,1,70
384,76,171828,6,0,L|377:111,3,23.3333333333333
180,88,172068,2,0,L|173:123,3,23.3333333333333
419,180,172308,2,0,L|412:215,3,23.3333333333333
258,218,172548,2,0,L|251:253,3,23.3333333333333
248,59,172788,5,0,0:0:0:0:
256,85,172848,1,0,0:0:0:0:
274,105,172908,1,0,0:0:0:0:
298,118,172968,1,0,0:0:0:0:
328,121,173028,2,0,P|358:111|381:87,2,52.5000020027161
272,176,173268,2,0,P|255:188|255:225,2,52.5000020027161
352,192,173508,2,0,P|379:192|409:206,2,52.5000020027161
280,120,173748,5,0,0:0:0:0:
256,120,173808,1,0,0:0:0:0:
232,112,173868,1,0,0:0:0:0:
216,96,173928,1,0,0:0:0:0:
200,72,173988,2,0,P|200:32|184:24,2,52.5000020027161
119,211,174228,2,0,L|129:248,2,35
216,216,174468,2,0,P|224:248|256:264,2,52.5000020027161
219,90,174708,2,0,L|162:71,2,35
328,96,174948,2,0,P|336:40|368:32,2,52.5000020027161
368,168,175188,6,0,P|376:184|352:224,2,52.5000020027161
256,304,175428,2,0,P|280:328|306:321,2,52.5000020027161
304,80,175668,2,0,P|304:104|288:136,2,52.5000020027161
208,208,175908,2,0,P|216:240|208:266,2,52.5000020027161
96,64,176148,2,0,P|88:88|96:120,2,52.5000020027161
128,248,176388,2,0,P|112:280|112:306,2,52.5000020027161
272,112,176628,2,0,P|288:128|296:160,6,52.5000020027161
255,194,177108,6,0,L|306:254,2,52.5000020027161
200,259,177348,2,0,L|236:298,2,52.5000020027161
136,173,177588,5,0,0:0:0:0:
152,150,177648,1,0,0:0:0:0:
176,136,177708,1,0,0:0:0:0:
203,135,177768,1,0,0:0:0:0:
232,139,177828,2,0,P|254:153|320:153,2,52.5000020027161
176,36,178068,5,0,0:0:0:0:
200,49,178128,1,0,2:0:0:0:
227,48,178188,1,0,2:0:0:0:
272,110,178308,5,0,0:0:0:0:
296,123,178368,1,0,2:0:0:0:
323,122,178428,1,0,2:0:0:0:
387,68,178548,6,0,L|423:38,2,35
222,212,178788,6,0,L|185:223,2,35
358,179,179028,6,0,P|363:202|342:235,2,52.5000020027161
256,304,179268,2,0,P|280:328|306:321,2,52.5000020027161
304,80,179508,2,0,P|304:104|288:136,2,52.5000020027161
208,208,179748,2,0,P|216:240|208:266,2,52.5000020027161
96,64,179988,2,0,P|88:88|96:120,2,52.5000020027161
128,248,180228,2,0,P|112:280|112:306,2,52.5000020027161
293,45,180468,5,0,0:0:0:0:
300,64,180528,1,0,0:0:0:0:
304,80,180588,1,0,0:0:0:0:
307,93,180648,1,0,0:0:0:0:
312,105,180708,1,0,0:0:0:0:
316,118,180768,1,0,0:0:0:0:
318,131,180828,1,0,0:0:0:0:
321,144,180888,1,0,0:0:0:0:
324,164,180948,6,0,L|336:218,2,35
209,250,181188,2,0,P|227:256|253:280,2,35
76,252,181428,5,0,0:0:0:0:
61,237,181488,1,0,0:0:0:0:
53,217,181548,1,0,0:0:0:0:
51,196,181608,1,0,0:0:0:0:
57,176,181668,1,0,0:0:0:0:
71,160,181728,1,0,0:0:0:0:
86,146,181788,1,0,0:0:0:0:
105,138,181848,1,0,0:0:0:0:
125,138,181908,6,0,L|168:100,2,52.5000020027161
184,176,182148,2,0,L|229:132,2,52.5000020027161
96,256,182388,2,0,L|25:278,2,52.5000020027161
288,192,182628,2,0,L|336:144,2,52.5000020027161
184,304,182868,2,0,L|120:344,2,52.5000020027161
400,168,183108,2,0,L|456:128,2,52.5000020027161
264,289,183348,2,0,L|240:352,2,52.5000020027161
296,80,183588,2,0,L|328:24,2,52.5000020027161
192,272,183828,2,0,L|152:320,2,52.5000020027161
368,96,184068,2,0,L|400:48,2,52.5000020027161
334,141,184308,5,0,0:0:0:0:
316,164,184368,1,0,0:0:0:0:
299,188,184428,1,0,0:0:0:0:
286,212,184488,1,0,0:0:0:0:
273,240,184548,2,0,L|310:284,2,52.5000020027161
158,148,184788,6,0,L|105:75,2,52.5000020027161
196,257,185028,2,0,L|194:322,2,52.5000020027161
255,149,185268,5,0,0:0:0:0:
277,165,185328,1,0,0:0:0:0:
295,186,185388,1,0,0:0:0:0:
317,203,185448,1,0,0:0:0:0:
345,223,185508,2,0,L|390:263,2,52.5000020027161
206,105,185748,6,0,L|165:64,2,52.5000020027161
387,263,185988,2,0,L|390:315,2,52.5000020027161
383,110,186228,2,0,L|434:77,2,52.5000020027161
205,214,186468,2,0,L|162:261,2,52.5000020027161
295,84,186708,2,0,L|333:23,2,52.5000020027161
280,228,186948,2,0,L|274:290,2,52.5000020027161
218,95,187188,2,0,L|192:36,2,52.5000020027161
361,281,187428,2,0,L|398:328,2,52.5000020027161
150,133,187668,2,0,L|106:78,2,52.5000020027161
276,301,187908,2,0,L|316:354,2,52.5000020027161
432,50,188148,5,0,0:0:0:0:
432,50,188268,1,0,0:0:0:0:
432,50,188388,1,0,0:0:0:0:
432,50,188508,1,0,0:0:0:0:
432,50,188628,6,0,B|349:75|349:75|332:137|332:137|280:171,1,186.666666666667
270,174,188988,5,0,0:0:0:0:
270,174,189108,1,0,0:0:0:0:
270,174,189228,1,0,0:0:0:0:
270,174,189348,1,0,0:0:0:0:
270,174,189468,1,0,0:0:0:0:
270,174,189588,2,0,B|198:225|198:225|149:195|149:195|97:246,1,186.666666666667
96,240,189948,5,0,0:0:0:0:
143,300,190068,1,0,0:0:0:0:
219,307,190188,1,0,0:0:0:0:
282,264,190308,1,0,0:0:0:0:
295,188,190428,1,0,0:0:0:0:
253,123,190548,2,0,P|128:128|93:212,1,186.666666666667
90,192,190908,5,0,0:0:0:0:
143,237,191028,1,0,0:0:0:0:
209,215,191148,1,0,0:0:0:0:
214,145,191268,1,0,0:0:0:0:
271,105,191388,1,0,0:0:0:0:
339,117,191508,1,0,0:0:0:0:
385,169,191628,1,0,0:0:0:0:
369,237,191748,1,0,0:0:0:0:
314,280,191868,1,0,0:0:0:0:
244,277,191988,1,0,0:0:0:0:
181,245,192108,1,0,0:0:0:0:
161,177,192228,1,0,0:0:0:0:
185,111,192348,1,0,0:0:0:0:
235,62,192468,2,0,B|310:41|373:73|416:120,1,175
455,159,192828,5,0,0:0:0:0:
455,159,192948,1,0,0:0:0:0:
455,159,193068,1,0,0:0:0:0:
455,159,193188,1,0,0:0:0:0:
455,159,193308,1,0,0:0:0:0:
455,243,193428,2,0,P|378:272|302:202,1,186.666666666667
316,144,193788,5,0,0:0:0:0:
341,133,193908,1,0,0:0:0:0:
367,134,194028,1,0,0:0:0:0:
352,155,194148,1,0,0:0:0:0:
326,176,194268,5,0,0:0:0:0:
296,190,194388,2,0,B|244:226|164:200|129:179|97:138|99:85,1,233.333333333333
98,101,194868,5,0,0:0:0:0:
76,58,194988,1,0,0:0:0:0:
125,59,195108,1,0,0:0:0:0:
98,101,195228,1,0,0:0:0:0:
51,191,195348,5,0,0:0:0:0:
6,245,195468,1,0,0:0:0:0:
75,251,195588,1,0,0:0:0:0:
51,191,195708,1,0,0:0:0:0:
51,191,195828,6,0,P|80:135|143:138,1,105.000004005432
196,133,196068,2,0,P|179:181|199:252,1,105.000004005432
231,282,196308,2,0,P|279:308|392:191,1,210.000008010865
87,207,196788,5,0,0:0:0:0:
224,183,196908,1,0,0:0:0:0:
98,121,197028,1,0,0:0:0:0:
224,183,197148,5,0,0:0:0:0:
123,286,197268,1,0,0:0:0:0:
273,249,197388,1,0,0:0:0:0:
82,162,197508,5,0,0:0:0:0:
215,81,197628,1,0,0:0:0:0:
51,191,197748,6,0,L|173:190,1,105.000004005432
344,179,197988,2,0,L|240:241,1,105.000004005432
183,273,198228,2,0,P|85:180|138:140,1,210.000008010865
298,271,198708,5,0,0:0:0:0:
366,201,198828,1,0,0:0:0:0:
232,232,198948,1,0,0:0:0:0:
295,137,199068,1,0,0:0:0:0:
162,240,199188,1,0,0:0:0:0:
188,101,199308,1,0,0:0:0:0:
111,290,199428,1,0,0:0:0:0:
86,116,199548,1,0,0:0:0:0:
189,304,199668,6,0,L|306:235,1,105.000004005432
421,134,199908,2,0,L|309:139,1,105.000004005432
166,132,200148,2,0,B|120:157|117:265|141:275|203:314,1,210.000008010865
213,250,200628,5,0,0:0:0:0:
105,167,200748,1,0,0:0:0:0:
213,250,200868,1,0,0:0:0:0:
175,93,200988,1,0,0:0:0:0:
213,250,201108,1,0,0:0:0:0:
283,70,201228,1,0,0:0:0:0:
213,250,201348,1,0,0:0:0:0:
371,106,201468,1,0,0:0:0:0:
247,284,201588,6,0,B|192:309|151:296|108:302,4,105.000004005432
50,274,202428,5,0,0:0:0:0:
83,186,202548,1,0,0:0:0:0:
130,274,202668,1,0,0:0:0:0:
164,168,202788,1,0,0:0:0:0:
210,274,202908,1,0,0:0:0:0:
246,145,203028,1,0,0:0:0:0:
291,272,203148,1,0,0:0:0:0:
325,126,203268,1,0,0:0:0:0:
372,269,203388,1,0,0:0:0:0:
412,115,203508,6,0,L|466:232,1,105.000004005432
428,322,203748,2,0,L|376:223,1,105.000004005432
325,72,203988,2,0,L|167:234,1,210.000008010865
120,240,204468,5,0,0:0:0:0:
178,222,204588,1,0,0:0:0:0:
191,160,204708,1,0,0:0:0:0:
239,120,204828,1,0,0:0:0:0:
274,171,204948,1,0,0:0:0:0:
291,231,205068,1,0,0:0:0:0:
352,245,205188,1,0,0:0:0:0:
379,188,205308,1,0,0:0:0:0:
376,125,205428,6,0,P|352:81|298:66,1,105.000004005432
245,93,205668,2,0,P|211:142|217:199,1,105.000004005432
246,237,205908,2,0,B|269:289|194:316|151:305|114:253|120:203,1,210.000008010865
154,105,206388,5,0,0:0:0:0:
216,110,206508,1,0,0:0:0:0:
259,155,206628,1,0,0:0:0:0:
247,216,206748,1,0,0:0:0:0:
298,251,206868,1,0,0:0:0:0:
354,223,206988,1,0,0:0:0:0:
361,160,207108,1,0,0:0:0:0:
324,108,207228,1,0,0:0:0:0:
270,74,207348,6,0,P|216:67|178:100,1,105.000004005432
162,158,207588,2,0,P|163:221|213:248,1,105.000004005432
248,275,207828,2,0,P|347:276|364:168,1,210.000008010865
321,66,208308,5,0,0:0:0:0:
260,83,208428,1,0,0:0:0:0:
243,143,208548,1,0,0:0:0:0:
283,191,208668,1,0,0:0:0:0:
271,252,208788,1,0,0:0:0:0:
214,280,208908,1,0,0:0:0:0:
159,248,209028,1,0,0:0:0:0:
163,185,209148,1,0,0:0:0:0:
210,144,209268,6,0,P|274:133|310:155,1,105.000004005432
350,196,209508,2,0,P|394:276|361:309,1,105.000004005432
358,328,209748,2,0,P|275:341|225:235,1,210.000008010865
50,163,210228,5,0,0:0:0:0:
76,231,210348,1,0,0:0:0:0:
141,264,210468,1,0,0:0:0:0:
186,206,210588,5,0,0:0:0:0:
221,270,210708,1,0,0:0:0:0:
287,300,210828,1,0,0:0:0:0:
356,277,210948,1,0,0:0:0:0:
405,222,211068,1,0,0:0:0:0:
