osu file format v14

[General]
AudioFilename: Soulless Derp.mp3
AudioLeadIn: 0
PreviewTime: -1
Countdown: 0
SampleSet: None
StackLeniency: 0.7
Mode: 3
LetterboxInBreaks: 1
SpecialStyle: 0
WidescreenStoryboard: 1

[Editor]
DistanceSpacing: 0.8
BeatDivisor: 2
GridSize: 4
TimelineZoom: 1.399999

[Metadata]
Title:Soulless 4
TitleUnicode:Soulless 4
Artist:ExileLord
ArtistUnicode:ExileLord
Creator:Stats-Kun
Version:Machinations A
Source:Guitar Hero 3
Tags:
BeatmapID:1617070
BeatmapSetID:768993

[Difficulty]
HPDrainRate:0
CircleSize:4
OverallDifficulty:0
ApproachRate:5
SliderMultiplier:1.4
SliderTickRate:1

[Events]
//Background and Video events
0,0,"Nope.png",0,0
//Break Periods
//Storyboard Layer 0 (Background)
//Storyboard Layer 1 (Fail)
//Storyboard Layer 2 (Pass)
//Storyboard Layer 3 (Foreground)
//Storyboard Sound Samples

[TimingPoints]
3814,240,4,2,0,0,1,0
734854,240,4,2,0,0,1,0

[HitObjects]
320,192,234214,5,0,0:0:0:0:
192,192,234334,1,0,0:0:0:0:
192,192,234454,1,0,0:0:0:0:
320,192,234574,1,0,0:0:0:0:
192,192,234694,1,0,0:0:0:0:
192,192,234814,1,0,0:0:0:0:
320,192,234934,1,0,0:0:0:0:
192,192,235054,1,0,0:0:0:0:
320,192,235174,1,0,0:0:0:0:
192,192,235294,1,0,0:0:0:0:
192,192,235414,1,0,0:0:0:0:
320,192,235534,1,0,0:0:0:0:
192,192,235654,1,0,0:0:0:0:
192,192,235774,1,0,0:0:0:0:
320,192,235894,1,0,0:0:0:0:
192,192,236014,1,0,0:0:0:0:
320,192,236134,1,0,0:0:0:0:
192,192,236254,1,0,0:0:0:0:
192,192,236374,1,0,0:0:0:0:
320,192,236494,1,0,0:0:0:0:
192,192,236614,1,0,0:0:0:0:
192,192,236734,1,0,0:0:0:0:
320,192,236854,1,0,0:0:0:0:
192,192,236974,1,0,0:0:0:0:
448,192,237094,1,0,0:0:0:0:
64,192,237154,1,0,0:0:0:0:
320,192,237214,1,0,0:0:0:0:
64,192,237274,1,0,0:0:0:0:
320,192,237334,1,0,0:0:0:0:
64,192,237394,1,0,0:0:0:0:
192,192,237454,1,0,0:0:0:0:
64,192,237514,1,0,0:0:0:0:
448,192,237574,1,0,0:0:0:0:
64,192,237634,1,0,0:0:0:0:
320,192,237694,1,0,0:0:0:0:
64,192,237754,1,0,0:0:0:0:
320,192,237814,1,0,0:0:0:0:
64,192,237874,1,0,0:0:0:0:
192,192,237934,1,0,0:0:0:0:
64,192,237994,1,0,0:0:0:0:
320,192,238054,1,0,0:0:0:0:
192,192,238174,1,0,0:0:0:0:
192,192,238294,1,0,0:0:0:0:
320,192,238414,1,0,0:0:0:0:
192,192,238534,1,0,0:0:0:0:
192,192,238654,1,0,0:0:0:0:
320,192,238774,1,0,0:0:0:0:
192,192,238894,1,0,0:0:0:0:
320,192,239014,1,0,0:0:0:0:
192,192,239134,1,0,0:0:0:0:
192,192,239254,1,0,0:0:0:0:
320,192,239374,1,0,0:0:0:0:
192,192,239494,1,0,0:0:0:0:
192,192,239614,1,0,0:0:0:0:
320,192,239734,1,0,0:0:0:0:
192,192,239854,1,0,0:0:0:0:
320,192,239974,1,0,0:0:0:0:
192,192,240094,1,0,0:0:0:0:
192,192,240214,1,0,0:0:0:0:
320,192,240334,1,0,0:0:0:0:
192,192,240454,1,0,0:0:0:0:
192,192,240574,1,0,0:0:0:0:
320,192,240694,1,0,0:0:0:0:
192,192,240814,1,0,0:0:0:0:
448,192,240934,1,0,0:0:0:0:
64,192,241054,1,0,0:0:0:0:
320,192,241174,1,0,0:0:0:0:
64,192,241294,1,0,0:0:0:0:
320,192,241414,1,0,0:0:0:0:
64,192,241534,1,0,0:0:0:0:
192,192,241654,1,0,0:0:0:0:
64,192,241774,1,0,0:0:0:0:
320,192,241894,1,0,0:0:0:0:
192,192,242014,1,0,0:0:0:0:
192,192,242134,1,0,0:0:0:0:
320,192,242254,1,0,0:0:0:0:
192,192,242374,1,0,0:0:0:0:
192,192,242494,1,0,0:0:0:0:
320,192,242614,1,0,0:0:0:0:
192,192,242734,1,0,0:0:0:0:
320,192,242854,1,0,0:0:0:0:
192,192,242974,1,0,0:0:0:0:
192,192,243094,1,0,0:0:0:0:
320,192,243214,1,0,0:0:0:0:
192,192,243334,1,0,0:0:0:0:
192,192,243454,1,0,0:0:0:0:
320,192,243574,1,0,0:0:0:0:
192,192,243694,1,0,0:0:0:0:
320,192,243814,1,0,0:0:0:0:
192,192,243934,1,0,0:0:0:0:
192,192,244054,1,0,0:0:0:0:
320,192,244174,1,0,0:0:0:0:
192,192,244294,1,0,0:0:0:0:
192,192,244414,1,0,0:0:0:0:
320,192,244534,1,0,0:0:0:0:
192,192,244654,1,0,0:0:0:0:
448,192,244774,1,0,0:0:0:0:
64,192,244834,1,0,0:0:0:0:
320,192,244894,1,0,0:0:0:0:
64,192,244954,1,0,0:0:0:0:
320,192,245014,1,0,0:0:0:0:
64,192,245074,1,0,0:0:0:0:
192,192,245134,1,0,0:0:0:0:
64,192,245194,1,0,0:0:0:0:
448,192,245254,1,0,0:0:0:0:
64,192,245314,1,0,0:0:0:0:
320,192,245374,1,0,0:0:0:0:
64,192,245434,1,0,0:0:0:0:
320,192,245494,1,0,0:0:0:0:
64,192,245554,1,0,0:0:0:0:
192,192,245614,1,0,0:0:0:0:
64,192,245674,1,0,0:0:0:0:
320,192,245734,1,0,0:0:0:0:
192,192,245854,1,0,0:0:0:0:
192,192,245974,1,0,0:0:0:0:
320,192,246094,1,0,0:0:0:0:
192,192,246214,1,0,0:0:0:0:
192,192,246334,1,0,0:0:0:0:
320,192,246454,1,0,0:0:0:0:
192,192,246574,1,0,0:0:0:0:
320,192,246694,1,0,0:0:0:0:
192,192,246814,1,0,0:0:0:0:
192,192,246934,1,0,0:0:0:0:
320,192,247054,1,0,0:0:0:0:
192,192,247174,1,0,0:0:0:0:
192,192,247294,1,0,0:0:0:0:
320,192,247414,1,0,0:0:0:0:
192,192,247534,1,0,0:0:0:0:
320,192,247654,1,0,0:0:0:0:
192,192,247774,1,0,0:0:0:0:
192,192,247894,1,0,0:0:0:0:
320,192,248014,1,0,0:0:0:0:
192,192,248134,1,0,0:0:0:0:
192,192,248254,1,0,0:0:0:0:
320,192,248374,1,0,0:0:0:0:
192,192,248494,1,0,0:0:0:0:
448,192,248614,1,0,0:0:0:0:
64,192,248734,1,0,0:0:0:0:
320,192,248854,1,0,0:0:0:0:
64,192,248974,1,0,0:0:0:0:
320,192,249094,1,0,0:0:0:0:
64,192,249214,1,0,0:0:0:0:
192,192,249334,1,0,0:0:0:0:
64,192,249454,1,0,0:0:0:0:
