osu file format v14

[General]
AudioFilename: audio.mp3
AudioLeadIn: 0
PreviewTime: 161500
Countdown: 1
SampleSet: None
StackLeniency: 0.7
Mode: 3
LetterboxInBreaks: 0
SpecialStyle: 0
WidescreenStoryboard: 1

[Editor]
DistanceSpacing: 2
BeatDivisor: 4
GridSize: 4
TimelineZoom: 1

[Metadata]
Title:Another Me
TitleUnicode:Another Me
Artist:Excision, Wooli, Seven Lions, Dylan Matthew
ArtistUnicode:Excision, Wooli, Seven Lions, Dylan Matthew
Creator:Ederurlo
Version:Normal
Source:
Tags:
BeatmapID:4275440
BeatmapSetID:2047767

[Difficulty]
HPDrainRate:8
CircleSize:4
OverallDifficulty:8
ApproachRate:5
SliderMultiplier:1.4
SliderTickRate:1

[Events]
//Background and Video events
0,0,"2019-09-14.png",0,0
//Break Periods
//Storyboard Layer 0 (Background)
//Storyboard Layer 1 (Fail)
//Storyboard Layer 2 (Pass)
//Storyboard Layer 3 (Foreground)
//Storyboard Layer 4 (Overlay)
//Storyboard Sound Samples

[TimingPoints]
3300,400,4,1,0,100,1,0
172900,-100,4,1,0,100,0,1
195300,-100,4,1,0,100,0,0

[Colours]
Combo1 : 64,0,64
Combo2 : 255,128,0
Combo3 : 128,0,128
Combo4 : 232,75,0

[HitObjects]
448,192,3300,128,0,6500:0:0:0:0:
192,192,4100,1,0,0:0:0:0:
320,192,4300,1,0,0:0:0:0:
192,192,4500,1,0,0:0:0:0:
64,192,4700,1,0,0:0:0:0:
192,192,4900,1,0,0:0:0:0:
320,192,5300,1,0,0:0:0:0:
192,192,5500,1,0,0:0:0:0:
320,192,5700,1,0,0:0:0:0:
192,192,5900,1,0,0:0:0:0:
64,192,6100,1,0,0:0:0:0:
64,192,6500,128,0,9700:0:0:0:0:
192,192,7300,1,0,0:0:0:0:
448,192,7500,1,0,0:0:0:0:
320,192,7700,1,0,0:0:0:0:
192,192,7900,1,0,0:0:0:0:
448,192,8100,1,0,0:0:0:0:
192,192,8500,1,0,0:0:0:0:
320,192,8700,1,0,0:0:0:0:
448,192,8900,1,0,0:0:0:0:
192,192,9100,1,0,0:0:0:0:
320,192,9300,1,0,0:0:0:0:
320,192,9700,128,0,12900:0:0:0:0:
192,192,10400,1,0,0:0:0:0:
64,192,10600,1,0,0:0:0:0:
448,192,10800,1,0,0:0:0:0:
192,192,11000,1,0,0:0:0:0:
448,192,11200,1,0,0:0:0:0:
192,192,11650,1,0,0:0:0:0:
64,192,11900,1,0,0:0:0:0:
448,192,12100,1,0,0:0:0:0:
192,192,12300,1,0,0:0:0:0:
64,192,12500,1,0,0:0:0:0:
192,192,12900,128,0,14500:0:0:0:0:
320,192,13300,1,0,0:0:0:0:
448,192,13500,1,0,0:0:0:0:
448,192,14500,128,0,16100:0:0:0:0:
64,192,14700,1,0,0:0:0:0:
320,192,14900,128,0,15700:0:0:0:0:
64,192,15700,1,0,0:0:0:0:
192,192,15900,1,0,0:0:0:0:
64,192,16100,128,0,19300:0:0:0:0:
192,192,16900,1,0,0:0:0:0:
448,192,17100,1,0,0:0:0:0:
320,192,17300,1,0,0:0:0:0:
192,192,17500,1,0,0:0:0:0:
320,192,17700,1,0,0:0:0:0:
192,192,18100,1,0,0:0:0:0:
320,192,18300,1,0,0:0:0:0:
448,192,18500,1,0,0:0:0:0:
192,192,18700,1,0,0:0:0:0:
320,192,18900,1,0,0:0:0:0:
320,192,19300,128,0,22500:0:0:0:0:
192,192,20100,1,0,0:0:0:0:
64,192,20300,1,0,0:0:0:0:
192,192,20500,1,0,0:0:0:0:
448,192,20700,1,0,0:0:0:0:
192,192,20900,1,0,0:0:0:0:
192,192,21300,1,0,0:0:0:0:
64,192,21500,1,0,0:0:0:0:
192,192,21700,1,0,0:0:0:0:
64,192,21900,1,0,0:0:0:0:
192,192,22100,1,0,0:0:0:0:
192,192,22500,128,0,27300:0:0:0:0:
320,192,23300,1,0,0:0:0:0:
448,192,23500,1,0,0:0:0:0:
320,192,23700,1,0,0:0:0:0:
64,192,23900,1,0,0:0:0:0:
320,192,24100,1,0,0:0:0:0:
448,192,24300,1,0,0:0:0:0:
320,192,24500,1,0,0:0:0:0:
448,192,24700,1,0,0:0:0:0:
320,192,24900,1,0,0:0:0:0:
64,192,25100,1,0,0:0:0:0:
320,192,25300,1,0,0:0:0:0:
320,192,26100,1,0,0:0:0:0:
448,192,26300,1,0,0:0:0:0:
448,192,27300,128,0,28900:0:0:0:0:
64,192,27300,1,0,0:0:0:0:
320,192,27566,1,0,0:0:0:0:
192,192,27833,1,0,0:0:0:0:
64,192,28100,1,0,0:0:0:0:
192,192,28366,1,0,0:0:0:0:
320,192,28633,1,0,0:0:0:0:
64,192,28900,1,0,0:0:0:0:
192,192,29700,1,0,0:0:0:0:
320,192,29700,1,0,0:0:0:0:
64,192,30500,1,0,0:0:0:0:
192,192,30500,1,0,0:0:0:0:
448,192,30766,1,0,0:0:0:0:
192,192,31033,1,0,0:0:0:0:
320,192,31300,1,0,0:0:0:0:
448,192,31300,1,0,0:0:0:0:
192,192,31566,1,0,0:0:0:0:
448,192,31833,1,0,0:0:0:0:
64,192,32100,1,0,0:0:0:0:
320,192,32100,1,0,0:0:0:0:
192,192,32900,1,0,0:0:0:0:
448,192,32900,1,0,0:0:0:0:
192,192,33700,1,0,0:0:0:0:
320,192,33700,1,0,0:0:0:0:
320,192,33966,1,0,0:0:0:0:
192,192,34233,1,0,0:0:0:0:
448,192,34500,1,0,0:0:0:0:
64,192,34500,1,0,0:0:0:0:
192,192,34766,1,0,0:0:0:0:
320,192,35033,1,0,0:0:0:0:
192,192,35300,1,0,0:0:0:0:
448,192,35300,1,0,0:0:0:0:
64,192,36100,1,0,0:0:0:0:
192,192,36100,1,0,0:0:0:0:
320,192,36900,1,0,0:0:0:0:
192,192,36900,1,0,0:0:0:0:
320,192,37700,1,0,0:0:0:0:
448,192,37700,1,0,0:0:0:0:
64,192,37900,1,0,0:0:0:0:
192,192,38100,1,0,0:0:0:0:
64,192,38300,1,0,0:0:0:0:
192,192,38500,1,0,0:0:0:0:
320,192,38500,1,0,0:0:0:0:
320,192,38900,1,0,0:0:0:0:
448,192,39100,1,0,0:0:0:0:
64,192,39300,1,0,0:0:0:0:
192,192,39300,1,0,0:0:0:0:
320,192,39700,1,0,0:0:0:0:
448,192,39900,1,0,0:0:0:0:
320,192,40100,1,0,0:0:0:0:
192,192,40100,1,0,0:0:0:0:
320,192,40700,1,0,0:0:0:0:
64,192,40900,1,0,0:0:0:0:
192,192,40900,1,0,0:0:0:0:
448,192,41200,1,0,0:0:0:0:
192,192,41500,1,0,0:0:0:0:
64,192,41700,1,0,0:0:0:0:
320,192,41700,128,0,42500:0:0:0:0:
192,192,42100,1,0,0:0:0:0:
448,192,42500,1,0,0:0:0:0:
192,192,42500,128,0,42900:0:0:0:0:
64,192,42900,1,0,0:0:0:0:
448,192,43100,1,0,0:0:0:0:
320,192,43300,1,0,0:0:0:0:
448,192,43566,1,0,0:0:0:0:
320,192,43833,1,0,0:0:0:0:
448,192,44100,1,0,0:0:0:0:
320,192,44366,1,0,0:0:0:0:
192,192,44633,1,0,0:0:0:0:
320,192,44900,128,0,45700:0:0:0:0:
64,192,45300,1,0,0:0:0:0:
448,192,45700,1,0,0:0:0:0:
192,192,45700,128,0,46100:0:0:0:0:
64,192,46100,1,0,0:0:0:0:
448,192,46300,1,0,0:0:0:0:
320,192,46500,1,0,0:0:0:0:
192,192,46766,1,0,0:0:0:0:
320,192,47033,1,0,0:0:0:0:
64,192,47300,1,0,0:0:0:0:
448,192,47566,1,0,0:0:0:0:
192,192,47833,1,0,0:0:0:0:
320,192,48100,128,0,48900:0:0:0:0:
448,192,48100,1,0,0:0:0:0:
192,192,48300,1,0,0:0:0:0:
64,192,48500,1,0,0:0:0:0:
192,192,48700,1,0,0:0:0:0:
448,192,48900,128,0,50900:0:0:0:0:
64,192,48900,1,0,0:0:0:0:
192,192,49100,1,0,0:0:0:0:
64,192,49300,1,0,0:0:0:0:
320,192,49500,1,0,0:0:0:0:
192,192,49600,1,0,0:0:0:0:
64,192,49700,1,0,0:0:0:0:
192,192,49900,1,0,0:0:0:0:
320,192,50100,1,0,0:0:0:0:
64,192,50300,1,0,0:0:0:0:
192,192,50500,1,0,0:0:0:0:
320,192,50700,1,0,0:0:0:0:
320,192,50900,128,0,51300:0:0:0:0:
192,192,50900,1,0,0:0:0:0:
64,192,51100,1,0,0:0:0:0:
192,192,51200,1,0,0:0:0:0:
448,192,51300,1,0,0:0:0:0:
320,192,51500,1,0,0:0:0:0:
192,192,51700,1,0,0:0:0:0:
64,192,51900,1,0,0:0:0:0:
320,192,52100,1,0,0:0:0:0:
448,192,52300,1,0,0:0:0:0:
320,192,52500,1,0,0:0:0:0:
192,192,52700,1,0,0:0:0:0:
64,192,52900,128,0,53300:0:0:0:0:
192,192,53300,128,0,53500:0:0:0:0:
448,192,53500,128,0,54100:0:0:0:0:
320,192,54100,128,0,54300:0:0:0:0:
192,192,54300,128,0,54500:0:0:0:0:
320,192,54500,128,0,55300:0:0:0:0:
448,192,54500,128,0,55300:0:0:0:0:
64,192,54900,1,0,0:0:0:0:
64,192,55300,1,0,0:0:0:0:
192,192,55300,1,0,0:0:0:0:
64,192,56100,128,0,56900:0:0:0:0:
192,192,56100,128,0,56900:0:0:0:0:
448,192,56500,1,0,0:0:0:0:
320,192,56900,1,0,0:0:0:0:
448,192,56900,1,0,0:0:0:0:
192,192,57300,1,0,0:0:0:0:
64,192,57700,128,0,60900:0:0:0:0:
448,192,57700,1,0,0:0:0:0:
320,192,57700,1,0,0:0:0:0:
192,192,57900,1,0,0:0:0:0:
320,192,58100,1,0,0:0:0:0:
448,192,58300,1,0,0:0:0:0:
320,192,58500,1,0,0:0:0:0:
192,192,58700,1,0,0:0:0:0:
320,192,58900,1,0,0:0:0:0:
192,192,59100,1,0,0:0:0:0:
320,192,59300,1,0,0:0:0:0:
448,192,59500,1,0,0:0:0:0:
320,192,59700,1,0,0:0:0:0:
448,192,59900,1,0,0:0:0:0:
320,192,60100,1,0,0:0:0:0:
192,192,60300,1,0,0:0:0:0:
320,192,60500,1,0,0:0:0:0:
448,192,60700,1,0,0:0:0:0:
192,192,60900,128,0,61700:0:0:0:0:
320,192,60900,128,0,61700:0:0:0:0:
448,192,61300,1,0,0:0:0:0:
64,192,61700,1,0,0:0:0:0:
192,192,61966,1,0,0:0:0:0:
320,192,62233,1,0,0:0:0:0:
448,192,62500,128,0,63300:0:0:0:0:
64,192,62500,128,0,63300:0:0:0:0:
192,192,62900,1,0,0:0:0:0:
192,192,63300,1,0,0:0:0:0:
320,192,63566,1,0,0:0:0:0:
192,192,63833,1,0,0:0:0:0:
448,192,64100,128,0,67300:0:0:0:0:
64,192,64100,128,0,64500:0:0:0:0:
192,192,64500,128,0,64900:0:0:0:0:
64,192,64900,1,0,0:0:0:0:
320,192,65100,1,0,0:0:0:0:
192,192,65300,1,0,0:0:0:0:
64,192,65500,128,0,66100:0:0:0:0:
320,192,65700,1,0,0:0:0:0:
320,192,66100,1,0,0:0:0:0:
192,192,66300,1,0,0:0:0:0:
64,192,66500,1,0,0:0:0:0:
320,192,66900,1,0,0:0:0:0:
192,192,67100,1,0,0:0:0:0:
320,192,67300,128,0,68100:0:0:0:0:
64,192,67300,128,0,68100:0:0:0:0:
192,192,67700,1,0,0:0:0:0:
192,192,68100,1,0,0:0:0:0:
448,192,68100,1,0,0:0:0:0:
192,192,68900,128,0,69700:0:0:0:0:
448,192,68900,128,0,69700:0:0:0:0:
320,192,69300,1,0,0:0:0:0:
64,192,69700,1,0,0:0:0:0:
320,192,69700,1,0,0:0:0:0:
448,192,70100,1,0,0:0:0:0:
64,192,70500,128,0,73700:0:0:0:0:
192,192,70500,1,0,0:0:0:0:
320,192,70700,1,0,0:0:0:0:
192,192,70900,1,0,0:0:0:0:
320,192,71100,1,0,0:0:0:0:
448,192,71300,1,0,0:0:0:0:
320,192,71500,1,0,0:0:0:0:
448,192,71700,1,0,0:0:0:0:
320,192,71900,1,0,0:0:0:0:
192,192,72100,1,0,0:0:0:0:
320,192,72300,1,0,0:0:0:0:
192,192,72500,1,0,0:0:0:0:
320,192,72700,1,0,0:0:0:0:
448,192,72900,1,0,0:0:0:0:
320,192,73100,1,0,0:0:0:0:
448,192,73300,1,0,0:0:0:0:
192,192,73500,1,0,0:0:0:0:
320,192,73700,128,0,74500:0:0:0:0:
64,192,74100,1,0,0:0:0:0:
448,192,74500,1,0,0:0:0:0:
192,192,74766,1,0,0:0:0:0:
64,192,75033,1,0,0:0:0:0:
448,192,75300,128,0,76100:0:0:0:0:
320,192,75700,1,0,0:0:0:0:
192,192,76100,1,0,0:0:0:0:
320,192,76366,1,0,0:0:0:0:
448,192,76633,1,0,0:0:0:0:
64,192,76900,128,0,80100:0:0:0:0:
192,192,76900,1,0,0:0:0:0:
320,192,77100,1,0,0:0:0:0:
448,192,77300,1,0,0:0:0:0:
192,192,77500,1,0,0:0:0:0:
448,192,77700,1,0,0:0:0:0:
320,192,77900,1,0,0:0:0:0:
192,192,78100,1,0,0:0:0:0:
448,192,78300,1,0,0:0:0:0:
192,192,78500,1,0,0:0:0:0:
320,192,78700,1,0,0:0:0:0:
448,192,78900,1,0,0:0:0:0:
192,192,79100,1,0,0:0:0:0:
448,192,79300,1,0,0:0:0:0:
320,192,79500,1,0,0:0:0:0:
192,192,79700,1,0,0:0:0:0:
448,192,79900,1,0,0:0:0:0:
320,192,80100,128,0,80900:0:0:0:0:
64,192,80700,1,0,0:0:0:0:
192,192,80900,128,0,81300:0:0:0:0:
448,192,81300,1,0,0:0:0:0:
320,192,81500,1,0,0:0:0:0:
64,192,81700,1,0,0:0:0:0:
192,192,81966,1,0,0:0:0:0:
320,192,82233,1,0,0:0:0:0:
448,192,82500,1,0,0:0:0:0:
64,192,82766,1,0,0:0:0:0:
192,192,83033,1,0,0:0:0:0:
320,192,83300,128,0,84100:0:0:0:0:
448,192,83300,1,0,0:0:0:0:
192,192,83900,1,0,0:0:0:0:
448,192,84100,128,0,84500:0:0:0:0:
320,192,84500,1,0,0:0:0:0:
64,192,84700,1,0,0:0:0:0:
320,192,84900,128,0,85300:0:0:0:0:
448,192,84900,1,0,0:0:0:0:
320,192,85500,1,0,0:0:0:0:
192,192,85700,1,0,0:0:0:0:
448,192,86000,1,0,0:0:0:0:
320,192,86300,1,0,0:0:0:0:
192,192,86500,1,0,0:0:0:0:
64,192,86500,1,0,0:0:0:0:
320,192,86700,1,0,0:0:0:0:
448,192,86900,1,0,0:0:0:0:
320,192,87100,1,0,0:0:0:0:
192,192,87300,1,0,0:0:0:0:
64,192,87500,1,0,0:0:0:0:
192,192,87700,1,0,0:0:0:0:
320,192,87900,1,0,0:0:0:0:
192,192,88000,1,0,0:0:0:0:
64,192,88100,1,0,0:0:0:0:
320,192,88300,1,0,0:0:0:0:
448,192,88500,1,0,0:0:0:0:
192,192,88700,1,0,0:0:0:0:
64,192,88900,1,0,0:0:0:0:
320,192,89100,1,0,0:0:0:0:
448,192,89300,1,0,0:0:0:0:
320,192,89500,1,0,0:0:0:0:
192,192,89600,1,0,0:0:0:0:
64,192,89700,1,0,0:0:0:0:
448,192,89700,1,0,0:0:0:0:
320,192,89900,1,0,0:0:0:0:
192,192,90100,1,0,0:0:0:0:
64,192,90100,1,0,0:0:0:0:
448,192,90300,1,0,0:0:0:0:
192,192,90500,1,0,0:0:0:0:
320,192,90500,1,0,0:0:0:0:
64,192,90700,1,0,0:0:0:0:
320,192,90900,1,0,0:0:0:0:
448,192,90900,1,0,0:0:0:0:
64,192,91100,1,0,0:0:0:0:
192,192,91300,128,0,91700:0:0:0:0:
320,192,91700,128,0,91900:0:0:0:0:
448,192,91900,128,0,92500:0:0:0:0:
192,192,92500,128,0,92700:0:0:0:0:
320,192,92700,128,0,92900:0:0:0:0:
448,192,92900,128,0,93700:0:0:0:0:
192,192,92900,128,0,93700:0:0:0:0:
64,192,93700,1,0,0:0:0:0:
64,192,94100,1,0,0:0:0:0:
448,192,94500,1,0,0:0:0:0:
320,192,94500,1,0,0:0:0:0:
64,192,94900,1,0,0:0:0:0:
320,192,95300,1,0,0:0:0:0:
448,192,95300,1,0,0:0:0:0:
64,192,95700,1,0,0:0:0:0:
320,192,96100,1,0,0:0:0:0:
448,192,96100,1,0,0:0:0:0:
448,192,96500,1,0,0:0:0:0:
320,192,96700,1,0,0:0:0:0:
64,192,96900,1,0,0:0:0:0:
192,192,96900,1,0,0:0:0:0:
448,192,97300,1,0,0:0:0:0:
64,192,97700,1,0,0:0:0:0:
192,192,97700,1,0,0:0:0:0:
64,192,98100,1,0,0:0:0:0:
192,192,98300,1,0,0:0:0:0:
320,192,98500,128,0,98900:0:0:0:0:
448,192,98500,1,0,0:0:0:0:
448,192,98900,128,0,99300:0:0:0:0:
64,192,99300,128,0,100100:0:0:0:0:
192,192,99300,128,0,100100:0:0:0:0:
448,192,100100,1,0,0:0:0:0:
320,192,100100,1,0,0:0:0:0:
64,192,100500,1,0,0:0:0:0:
448,192,100900,1,0,0:0:0:0:
320,192,100900,1,0,0:0:0:0:
64,192,101300,1,0,0:0:0:0:
448,192,101700,1,0,0:0:0:0:
320,192,101700,1,0,0:0:0:0:
64,192,102100,1,0,0:0:0:0:
448,192,102500,1,0,0:0:0:0:
320,192,102500,1,0,0:0:0:0:
64,192,102900,128,0,103300:0:0:0:0:
448,192,103300,1,0,0:0:0:0:
320,192,103300,1,0,0:0:0:0:
64,192,103700,1,0,0:0:0:0:
448,192,104100,1,0,0:0:0:0:
64,192,104100,128,0,104500:0:0:0:0:
320,192,104100,1,0,0:0:0:0:
192,192,104500,128,0,104700:0:0:0:0:
320,192,104700,128,0,105300:0:0:0:0:
192,192,105300,128,0,105500:0:0:0:0:
64,192,105500,128,0,105700:0:0:0:0:
448,192,105700,128,0,106500:0:0:0:0:
320,192,105700,128,0,106500:0:0:0:0:
64,192,106500,1,0,0:0:0:0:
192,192,106500,1,0,0:0:0:0:
192,192,106900,1,0,0:0:0:0:
64,192,107100,1,0,0:0:0:0:
192,192,107300,1,0,0:0:0:0:
320,192,107300,1,0,0:0:0:0:
192,192,107700,1,0,0:0:0:0:
320,192,107900,1,0,0:0:0:0:
448,192,108100,1,0,0:0:0:0:
192,192,108100,1,0,0:0:0:0:
64,192,108300,1,0,0:0:0:0:
192,192,108500,1,0,0:0:0:0:
320,192,108700,1,0,0:0:0:0:
448,192,108900,1,0,0:0:0:0:
192,192,108900,1,0,0:0:0:0:
320,192,109300,1,0,0:0:0:0:
448,192,109500,1,0,0:0:0:0:
320,192,109700,1,0,0:0:0:0:
64,192,109700,1,0,0:0:0:0:
192,192,109900,1,0,0:0:0:0:
320,192,110100,1,0,0:0:0:0:
448,192,110300,1,0,0:0:0:0:
64,192,110500,1,0,0:0:0:0:
192,192,110500,1,0,0:0:0:0:
320,192,110900,1,0,0:0:0:0:
448,192,111100,1,0,0:0:0:0:
192,192,111300,1,0,0:0:0:0:
64,192,111300,128,0,111700:0:0:0:0:
192,192,111700,128,0,112100:0:0:0:0:
320,192,112100,128,0,112900:0:0:0:0:
64,192,112100,128,0,112900:0:0:0:0:
192,192,112900,1,0,0:0:0:0:
448,192,112900,1,0,0:0:0:0:
320,192,113300,1,0,0:0:0:0:
64,192,113500,1,0,0:0:0:0:
192,192,113700,1,0,0:0:0:0:
448,192,113700,1,0,0:0:0:0:
320,192,114100,128,0,114500:0:0:0:0:
64,192,114500,1,0,0:0:0:0:
192,192,114500,1,0,0:0:0:0:
448,192,114700,1,0,0:0:0:0:
320,192,114900,1,0,0:0:0:0:
192,192,115100,1,0,0:0:0:0:
320,192,115300,1,0,0:0:0:0:
448,192,115300,128,0,118500:0:0:0:0:
192,192,117700,1,0,0:0:0:0:
64,192,118100,1,0,0:0:0:0:
320,192,118300,1,0,0:0:0:0:
192,192,118500,128,0,121700:0:0:0:0:
320,192,119300,1,0,0:0:0:0:
448,192,119500,1,0,0:0:0:0:
320,192,119700,1,0,0:0:0:0:
448,192,119900,1,0,0:0:0:0:
320,192,120100,1,0,0:0:0:0:
64,192,120500,1,0,0:0:0:0:
320,192,120700,1,0,0:0:0:0:
448,192,120900,1,0,0:0:0:0:
320,192,121100,1,0,0:0:0:0:
64,192,121300,1,0,0:0:0:0:
448,192,121700,128,0,124900:0:0:0:0:
192,192,122500,1,0,0:0:0:0:
64,192,122700,1,0,0:0:0:0:
320,192,122900,1,0,0:0:0:0:
192,192,123100,1,0,0:0:0:0:
64,192,123300,1,0,0:0:0:0:
192,192,123700,1,0,0:0:0:0:
320,192,123900,1,0,0:0:0:0:
192,192,124100,1,0,0:0:0:0:
64,192,124300,1,0,0:0:0:0:
192,192,124500,1,0,0:0:0:0:
64,192,124900,128,0,129700:0:0:0:0:
192,192,125700,1,0,0:0:0:0:
320,192,125900,1,0,0:0:0:0:
192,192,126100,1,0,0:0:0:0:
448,192,126300,1,0,0:0:0:0:
320,192,126500,1,0,0:0:0:0:
320,192,126900,1,0,0:0:0:0:
192,192,127100,1,0,0:0:0:0:
448,192,127300,1,0,0:0:0:0:
320,192,127500,1,0,0:0:0:0:
448,192,127700,1,0,0:0:0:0:
320,192,128500,1,0,0:0:0:0:
320,192,129500,1,0,0:0:0:0:
448,192,129700,128,0,131300:0:0:0:0:
192,192,129700,128,0,130100:0:0:0:0:
64,192,130100,128,0,130500:0:0:0:0:
320,192,130500,128,0,130900:0:0:0:0:
192,192,130900,128,0,131300:0:0:0:0:
320,192,131300,128,0,134500:0:0:0:0:
192,192,131900,1,0,0:0:0:0:
64,192,132100,1,0,0:0:0:0:
192,192,132300,1,0,0:0:0:0:
448,192,132500,1,0,0:0:0:0:
192,192,132700,1,0,0:0:0:0:
64,192,132900,1,0,0:0:0:0:
192,192,133700,1,0,0:0:0:0:
64,192,133900,1,0,0:0:0:0:
192,192,134100,1,0,0:0:0:0:
448,192,134500,128,0,137700:0:0:0:0:
192,192,135100,1,0,0:0:0:0:
320,192,135300,1,0,0:0:0:0:
192,192,135500,1,0,0:0:0:0:
64,192,135700,1,0,0:0:0:0:
192,192,135900,1,0,0:0:0:0:
320,192,136100,1,0,0:0:0:0:
192,192,136500,1,0,0:0:0:0:
64,192,136700,1,0,0:0:0:0:
320,192,136900,1,0,0:0:0:0:
64,192,137100,1,0,0:0:0:0:
192,192,137300,1,0,0:0:0:0:
64,192,137700,128,0,142500:0:0:0:0:
320,192,138300,1,0,0:0:0:0:
448,192,138500,1,0,0:0:0:0:
320,192,138700,1,0,0:0:0:0:
448,192,138900,1,0,0:0:0:0:
320,192,139100,1,0,0:0:0:0:
448,192,139300,1,0,0:0:0:0:
192,192,139700,1,0,0:0:0:0:
320,192,139900,1,0,0:0:0:0:
448,192,140100,1,0,0:0:0:0:
192,192,140300,1,0,0:0:0:0:
320,192,140500,128,0,141300:0:0:0:0:
448,192,141300,128,0,141700:0:0:0:0:
320,192,141700,128,0,142100:0:0:0:0:
448,192,142100,128,0,142500:0:0:0:0:
192,192,142500,1,0,0:0:0:0:
320,192,142766,1,0,0:0:0:0:
64,192,143033,1,0,0:0:0:0:
192,192,143300,1,0,0:0:0:0:
320,192,143566,1,0,0:0:0:0:
448,192,143833,1,0,0:0:0:0:
320,192,144100,1,0,0:0:0:0:
64,192,144100,1,0,0:0:0:0:
192,192,144900,1,0,0:0:0:0:
448,192,144900,1,0,0:0:0:0:
192,192,145700,1,0,0:0:0:0:
320,192,145700,1,0,0:0:0:0:
64,192,145966,1,0,0:0:0:0:
320,192,146233,1,0,0:0:0:0:
448,192,146500,1,0,0:0:0:0:
64,192,146500,1,0,0:0:0:0:
192,192,146766,1,0,0:0:0:0:
320,192,147033,1,0,0:0:0:0:
64,192,147300,1,0,0:0:0:0:
448,192,147300,1,0,0:0:0:0:
448,192,147700,1,0,0:0:0:0:
320,192,148100,1,0,0:0:0:0:
448,192,148100,1,0,0:0:0:0:
448,192,148500,1,0,0:0:0:0:
64,192,148900,1,0,0:0:0:0:
320,192,148900,1,0,0:0:0:0:
192,192,149166,1,0,0:0:0:0:
64,192,149433,1,0,0:0:0:0:
192,192,149700,1,0,0:0:0:0:
448,192,149700,1,0,0:0:0:0:
320,192,149966,1,0,0:0:0:0:
448,192,150233,1,0,0:0:0:0:
64,192,150500,1,0,0:0:0:0:
192,192,150500,1,0,0:0:0:0:
64,192,150900,1,0,0:0:0:0:
320,192,151300,1,0,0:0:0:0:
64,192,151300,1,0,0:0:0:0:
64,192,151700,1,0,0:0:0:0:
448,192,152100,1,0,0:0:0:0:
64,192,152100,1,0,0:0:0:0:
64,192,152500,1,0,0:0:0:0:
64,192,152900,1,0,0:0:0:0:
448,192,152900,1,0,0:0:0:0:
320,192,153100,1,0,0:0:0:0:
192,192,153300,1,0,0:0:0:0:
64,192,153500,1,0,0:0:0:0:
192,192,153700,1,0,0:0:0:0:
320,192,153700,1,0,0:0:0:0:
448,192,154100,1,0,0:0:0:0:
320,192,154300,1,0,0:0:0:0:
64,192,154500,1,0,0:0:0:0:
192,192,154500,1,0,0:0:0:0:
320,192,154900,1,0,0:0:0:0:
192,192,155100,1,0,0:0:0:0:
320,192,155300,1,0,0:0:0:0:
448,192,155300,1,0,0:0:0:0:
448,192,155700,1,0,0:0:0:0:
320,192,156100,1,0,0:0:0:0:
448,192,156100,1,0,0:0:0:0:
192,192,156366,1,0,0:0:0:0:
64,192,156633,1,0,0:0:0:0:
320,192,156900,1,0,0:0:0:0:
448,192,156900,1,0,0:0:0:0:
192,192,157300,1,0,0:0:0:0:
64,192,157700,1,0,0:0:0:0:
192,192,157700,1,0,0:0:0:0:
320,192,158100,1,0,0:0:0:0:
192,192,158300,1,0,0:0:0:0:
320,192,158500,1,0,0:0:0:0:
448,192,158766,1,0,0:0:0:0:
64,192,159033,1,0,0:0:0:0:
192,192,159300,1,0,0:0:0:0:
64,192,159566,1,0,0:0:0:0:
448,192,159833,1,0,0:0:0:0:
320,192,160100,1,0,0:0:0:0:
64,192,160100,1,0,0:0:0:0:
448,192,160500,1,0,0:0:0:0:
192,192,160900,1,0,0:0:0:0:
64,192,160900,1,0,0:0:0:0:
320,192,161300,1,0,0:0:0:0:
64,192,161500,1,0,0:0:0:0:
320,192,161700,1,0,0:0:0:0:
192,192,161966,1,0,0:0:0:0:
64,192,162233,1,0,0:0:0:0:
320,192,162500,1,0,0:0:0:0:
448,192,162766,1,0,0:0:0:0:
320,192,163033,1,0,0:0:0:0:
64,192,163300,128,0,164100:0:0:0:0:
192,192,163300,1,0,0:0:0:0:
320,192,163500,1,0,0:0:0:0:
192,192,163700,1,0,0:0:0:0:
320,192,163900,1,0,0:0:0:0:
448,192,164100,128,0,166100:0:0:0:0:
192,192,164100,1,0,0:0:0:0:
64,192,164300,1,0,0:0:0:0:
192,192,164500,1,0,0:0:0:0:
64,192,164700,1,0,0:0:0:0:
192,192,164800,1,0,0:0:0:0:
320,192,164900,1,0,0:0:0:0:
192,192,165100,1,0,0:0:0:0:
64,192,165300,1,0,0:0:0:0:
320,192,165500,1,0,0:0:0:0:
192,192,165700,1,0,0:0:0:0:
64,192,165900,1,0,0:0:0:0:
320,192,166100,128,0,166500:0:0:0:0:
192,192,166100,1,0,0:0:0:0:
64,192,166300,1,0,0:0:0:0:
192,192,166400,1,0,0:0:0:0:
448,192,166500,1,0,0:0:0:0:
192,192,166700,1,0,0:0:0:0:
320,192,166900,1,0,0:0:0:0:
448,192,166900,1,0,0:0:0:0:
192,192,167100,1,0,0:0:0:0:
320,192,167300,1,0,0:0:0:0:
448,192,167300,1,0,0:0:0:0:
192,192,167500,1,0,0:0:0:0:
320,192,167700,1,0,0:0:0:0:
448,192,167700,1,0,0:0:0:0:
192,192,167900,1,0,0:0:0:0:
320,192,168100,128,0,168500:0:0:0:0:
192,192,168500,128,0,168700:0:0:0:0:
64,192,168700,128,0,169300:0:0:0:0:
192,192,169300,128,0,169500:0:0:0:0:
320,192,169500,128,0,169700:0:0:0:0:
64,192,169700,128,0,170100:0:0:0:0:
192,192,169700,128,0,170100:0:0:0:0:
320,192,170100,128,0,170500:0:0:0:0:
448,192,170100,128,0,170500:0:0:0:0:
64,192,170500,128,0,171300:0:0:0:0:
192,192,171300,128,0,171700:0:0:0:0:
320,192,171300,128,0,171700:0:0:0:0:
448,192,171700,128,0,172100:0:0:0:0:
64,192,171700,128,0,172100:0:0:0:0:
192,192,172100,128,0,172900:0:0:0:0:
64,192,172900,128,0,176100:0:0:0:0:
320,192,172900,1,0,0:0:0:0:
192,192,173100,1,0,0:0:0:0:
320,192,173300,1,0,0:0:0:0:
448,192,173500,1,0,0:0:0:0:
192,192,173700,1,0,0:0:0:0:
320,192,173700,1,0,0:0:0:0:
448,192,173900,1,0,0:0:0:0:
320,192,174100,1,0,0:0:0:0:
192,192,174300,1,0,0:0:0:0:
320,192,174500,1,0,0:0:0:0:
448,192,174500,1,0,0:0:0:0:
192,192,174700,1,0,0:0:0:0:
320,192,174900,1,0,0:0:0:0:
448,192,175100,1,0,0:0:0:0:
192,192,175300,1,0,0:0:0:0:
320,192,175300,1,0,0:0:0:0:
448,192,175500,1,0,0:0:0:0:
192,192,175700,1,0,0:0:0:0:
320,192,175900,1,0,0:0:0:0:
192,192,176100,128,0,176500:0:0:0:0:
448,192,176100,128,0,176500:0:0:0:0:
320,192,176500,128,0,176900:0:0:0:0:
64,192,176500,128,0,176900:0:0:0:0:
192,192,176900,1,0,0:0:0:0:
320,192,177166,1,0,0:0:0:0:
448,192,177433,1,0,0:0:0:0:
64,192,177700,128,0,178100:0:0:0:0:
192,192,177700,128,0,178100:0:0:0:0:
320,192,178100,128,0,178500:0:0:0:0:
448,192,178100,128,0,178500:0:0:0:0:
192,192,178500,1,0,0:0:0:0:
64,192,178766,1,0,0:0:0:0:
320,192,179033,1,0,0:0:0:0:
448,192,179300,128,0,182500:0:0:0:0:
192,192,179300,128,0,179700:0:0:0:0:
64,192,179700,128,0,180100:0:0:0:0:
320,192,180100,1,0,0:0:0:0:
192,192,180100,1,0,0:0:0:0:
64,192,180300,1,0,0:0:0:0:
192,192,180500,1,0,0:0:0:0:
64,192,180700,128,0,181300:0:0:0:0:
192,192,181300,128,0,181500:0:0:0:0:
320,192,181500,128,0,182100:0:0:0:0:
192,192,182100,128,0,182300:0:0:0:0:
64,192,182300,128,0,182500:0:0:0:0:
192,192,182500,128,0,182900:0:0:0:0:
320,192,182500,128,0,182900:0:0:0:0:
448,192,182900,128,0,183300:0:0:0:0:
64,192,182900,128,0,183300:0:0:0:0:
192,192,183300,128,0,183700:0:0:0:0:
320,192,183700,128,0,184100:0:0:0:0:
64,192,184100,128,0,184500:0:0:0:0:
448,192,184100,128,0,184500:0:0:0:0:
320,192,184500,128,0,184900:0:0:0:0:
192,192,184500,128,0,184900:0:0:0:0:
64,192,184900,1,0,0:0:0:0:
320,192,185300,1,0,0:0:0:0:
64,192,185700,128,0,188900:0:0:0:0:
192,192,185700,1,0,0:0:0:0:
320,192,185900,1,0,0:0:0:0:
448,192,186100,1,0,0:0:0:0:
192,192,186300,1,0,0:0:0:0:
320,192,186500,1,0,0:0:0:0:
448,192,186500,1,0,0:0:0:0:
192,192,186700,1,0,0:0:0:0:
320,192,186900,1,0,0:0:0:0:
192,192,187100,1,0,0:0:0:0:
320,192,187300,1,0,0:0:0:0:
448,192,187300,1,0,0:0:0:0:
192,192,187500,1,0,0:0:0:0:
320,192,187700,1,0,0:0:0:0:
448,192,187900,1,0,0:0:0:0:
192,192,188100,1,0,0:0:0:0:
320,192,188100,1,0,0:0:0:0:
448,192,188300,1,0,0:0:0:0:
320,192,188500,1,0,0:0:0:0:
192,192,188700,1,0,0:0:0:0:
320,192,188900,128,0,189300:0:0:0:0:
448,192,189300,128,0,189700:0:0:0:0:
64,192,189700,1,0,0:0:0:0:
192,192,189966,1,0,0:0:0:0:
320,192,190233,1,0,0:0:0:0:
192,192,190500,128,0,190900:0:0:0:0:
64,192,190900,128,0,191300:0:0:0:0:
320,192,191300,1,0,0:0:0:0:
192,192,191566,1,0,0:0:0:0:
64,192,191833,1,0,0:0:0:0:
448,192,192100,128,0,195300:0:0:0:0:
192,192,192100,128,0,192500:0:0:0:0:
320,192,192500,128,0,192900:0:0:0:0:
64,192,192900,1,0,0:0:0:0:
192,192,192900,1,0,0:0:0:0:
320,192,193100,1,0,0:0:0:0:
192,192,193300,1,0,0:0:0:0:
64,192,193500,128,0,194100:0:0:0:0:
192,192,194100,128,0,194300:0:0:0:0:
320,192,194300,128,0,194900:0:0:0:0:
192,192,194900,128,0,195100:0:0:0:0:
64,192,195100,128,0,195300:0:0:0:0:
320,192,195300,1,0,0:0:0:0:
