osu file format v14

[General]
AudioFilename: audio.mp3
AudioLeadIn: 0
PreviewTime: 50582
Countdown: 0
SampleSet: None
StackLeniency: 0.7
Mode: 0
LetterboxInBreaks: 0
WidescreenStoryboard: 0

[Editor]
Bookmarks: 21205,173809
DistanceSpacing: 1.5
BeatDivisor: 4
GridSize: 8
TimelineZoom: 1

[Metadata]
Title:Bring the Madness
TitleUnicode:Bring the Madness
Artist:Excision & Pegboard Nerds
ArtistUnicode:Excision & Pegboard Nerds
Creator:Ameyy
Version:Rage
Source:
Tags:
BeatmapID:1213189
BeatmapSetID:572569

[Difficulty]
HPDrainRate:7
CircleSize:4.5
OverallDifficulty:8
ApproachRate:9.2
SliderMultiplier:1.8
SliderTickRate:1

[Events]
//Background and Video events
0,0,"IMG_390531.jpg",0,0
//Break Periods
2,72378,81772
2,92705,93840
2,95246,96699
2,97786,98922
//Storyboard Layer 0 (Background)
//Storyboard Layer 1 (Fail)
//Storyboard Layer 2 (Pass)
//Storyboard Layer 3 (Foreground)
//Storyboard Sound Samples

[TimingPoints]
1038,317.594749100148,4,1,0,100,1,0
11201,-100,4,2,0,80,0,0
19934,-125,4,2,0,80,0,0
20728,-142.857142857143,4,2,0,80,0,0
21364,-90.9090909090909,4,2,0,80,0,0
21681,-100,4,2,0,80,0,0
31368,-125,4,2,0,80,0,0
41690,-111.111111111111,4,2,0,80,0,0
50582,-111.111111111111,4,3,0,100,0,0
51853,-66.6666666666667,4,3,0,100,0,1
52488,-90.9090909090909,4,3,0,100,0,1
54393,-66.6666666666667,4,3,0,100,0,1
54711,-90.9090909090909,4,3,0,100,0,1
56934,-66.6666666666667,4,3,0,100,0,1
57252,-90.9090909090909,4,3,0,100,0,1
61698,-90.9090909090909,4,1,0,100,0,1
62016,-66.6666666666667,4,3,0,100,0,1
62492,-90.9090909090909,4,3,0,100,0,1
64556,-66.6666666666667,4,3,0,100,0,1
64874,-90.9090909090909,4,3,0,100,0,1
67097,-66.6666666666667,4,3,0,100,0,1
67415,-90.9090909090909,4,3,0,100,0,1
72179,-100,4,3,0,100,0,0
122994,-50,4,3,0,100,0,0
123311,-90.9090909090909,4,3,0,100,0,0
125535,-50,4,3,0,100,0,0
125852,-90.9090909090909,4,3,0,100,0,0

[HitObjects]
256,192,8660,12,0,10883,0:0:0:0:
268,112,11201,6,0,L|356:184,1,90
364,64,11518,1,0,0:0:0:0:
392,224,11677,1,0,0:0:0:0:
208,64,11836,2,0,P|192:116|224:172,1,90
275,33,12153,2,0,B|241:-24|168:0,1,90
364,64,12471,5,0,0:0:0:0:
208,63,12630,1,0,0:0:0:0:
336,166,12789,1,0,0:0:0:0:
455,44,12947,1,0,0:0:0:0:
264,167,13106,2,0,B|266:222|330:241,1,90
364,64,13424,2,0,L|270:87,1,90
486,185,13741,6,0,L|310:236,1,180
403,304,14218,1,0,0:0:0:0:
414,122,14376,1,0,0:0:0:0:
459,348,14535,2,0,P|406:375|354:352,1,90
259,228,14853,5,0,0:0:0:0:
403,304,15012,1,0,0:0:0:0:
266,377,15170,1,0,0:0:0:0:
335,230,15329,2,0,L|319:130,1,90
246,154,15647,2,0,L|232:51,1,90
407,241,15964,2,0,P|365:298|319:297,1,90
75,275,16282,6,0,P|149:261|259:281,1,180
67,191,16758,2,0,P|60:250|90:288,1,90
177,185,17076,1,0,0:0:0:0:
198,46,17235,1,0,0:0:0:0:
73,97,17394,1,0,0:0:0:0:
157,257,17552,2,0,P|209:253|250:205,1,90
198,46,17870,6,0,L|249:142,1,90
286,28,18188,2,0,L|335:123,1,90
328,256,18505,1,0,0:0:0:0:
458,139,18664,1,0,0:0:0:0:
241,238,18823,6,0,B|292:241|331:258|331:258|370:238|419:237,1,180
191,183,19299,2,0,B|147:222|182:295,1,90
328,257,19617,1,0,0:0:0:0:
250,122,19776,1,0,0:0:0:0:
223,360,19934,6,0,L|250:286,1,72
397,357,20252,1,0,0:0:0:0:
328,257,20411,1,0,0:0:0:0:
462,258,20570,1,0,0:0:0:0:
246,293,20728,2,0,B|168:266|123:329|38:265,1,188.999994232178
328,257,21364,6,0,P|332:322|285:378,1,99.0000030212403
316,173,21681,1,0,0:0:0:0:
408,283,21840,1,0,0:0:0:0:
345,106,21999,2,0,B|278:86|238:158,1,90
149,225,22316,2,0,B|216:245|256:173,1,90
316,173,22634,1,0,0:0:0:0:
174,152,22793,1,0,0:0:0:0:
345,106,22952,1,0,0:0:0:0:
141,85,23110,2,0,P|105:122|113:189,1,90
345,106,23428,5,0,0:0:0:0:
229,71,23587,2,0,L|126:87,1,90
345,106,23904,1,0,0:0:0:0:
402,212,24063,2,0,L|505:228,1,90
345,106,24381,1,0,0:0:0:0:
233,244,24540,2,0,B|211:197|211:197|231:56,1,180
345,106,25016,6,0,P|391:120|447:85,2,90
169,22,25492,1,0,0:0:0:0:
387,47,25651,1,0,0:0:0:0:
226,69,25810,2,0,L|139:133,1,90
387,47,26127,1,0,0:0:0:0:
244,184,26286,2,0,L|141:260,1,90
226,69,26604,5,0,0:0:0:0:
313,162,26763,2,0,P|312:214|259:256,1,90
403,125,27080,1,0,0:0:0:0:
226,69,27239,1,0,0:0:0:0:
375,224,27398,1,0,0:0:0:0:
417,52,27557,2,0,P|471:88|475:134,1,90
375,224,27874,1,0,0:0:0:0:
240,237,28033,6,0,L|330:286,1,90
186,308,28351,1,0,0:0:0:0:
375,224,28509,1,0,0:0:0:0:
214,113,28668,1,0,0:0:0:0:
123,342,28827,2,0,P|166:378|209:375,1,90
240,237,29145,5,0,0:0:0:0:
113,191,29303,1,0,0:0:0:0:
214,113,29462,2,0,L|170:228,2,90
340,63,29939,2,0,P|398:97|411:146,1,90
365,243,30256,2,0,P|341:173|357:136,1,90
452,242,30574,1,0,0:0:0:0:
308,306,30891,2,0,B|222:274|222:327|110:291,1,180
64,177,31368,5,0,0:0:0:0:
138,98,31527,2,0,L|170:184,1,72
269,144,31844,1,0,0:0:0:0:
341,294,32162,2,0,L|373:208,1,72
269,144,32479,1,0,0:0:0:0:
449,115,32797,2,0,B|405:104|353:116,1,72
269,144,33115,1,0,0:0:0:0:
449,115,33432,2,0,B|405:126|353:114,1,72
269,144,33750,2,0,B|225:133|173:145,1,72
147,236,34067,5,0,0:0:0:0:
334,282,34385,2,0,L|262:240,1,72
147,236,34703,1,0,0:0:0:0:
335,282,35020,2,0,L|289:355,1,72
147,236,35338,1,0,0:0:0:0:
335,283,35655,2,0,L|406:317,1,72
147,236,35973,2,0,L|225:278,1,72
181,48,36291,2,0,P|145:90|128:130,1,72
316,79,36608,5,0,0:0:0:0:
368,222,36926,2,0,L|388:140,1,72
316,79,37243,1,0,0:0:0:0:
432,255,37561,2,0,P|384:292|347:286,1,72
316,79,37878,1,0,0:0:0:0:
375,291,38196,2,0,L|314:231,1,72
316,79,38514,2,0,L|379:151,1,72
261,169,38831,5,0,0:0:0:0:
163,121,38990,1,0,0:0:0:0:
121,220,39149,5,0,0:0:0:0:
121,220,39466,5,0,0:0:0:0:
121,220,39784,5,0,0:0:0:0:
121,220,40102,5,0,0:0:0:0:
121,220,40419,2,0,L|163:278,1,72
260,327,40737,2,0,L|261:228,1,72
354,201,41054,2,0,P|311:197|265:171,1,72
382,137,41372,2,0,P|418:175|422:216,1,72
378,292,41690,5,0,0:0:0:0:
260,327,41848,1,0,0:0:0:0:
144,287,42007,1,0,0:0:0:0:
46,214,42166,2,0,L|95:134,1,80.9999975280763
207,115,42484,2,0,L|206:215,1,80.9999975280763
139,94,42801,1,0,0:0:0:0:
257,64,42960,1,0,0:0:0:0:
292,180,43119,6,0,L|343:102,1,80.9999975280763
452,76,43436,1,0,0:0:0:0:
452,76,43595,1,0,0:0:0:0:
434,196,43754,1,0,0:0:0:0:
434,196,43913,1,0,0:0:0:0:
362,294,44072,1,0,0:0:0:0:
362,294,44230,2,0,P|306:317|223:274,2,121.499996292114
459,367,44866,5,0,0:0:0:0:
301,236,45024,1,0,0:0:0:0:
205,161,45183,2,0,L|119:220,1,80.9999975280763
271,100,45501,1,0,0:0:0:0:
377,238,45660,2,0,P|354:292|314:308,1,80.9999975280763
271,100,45977,2,0,P|288:53|311:35,1,80.9999975280763
307,185,46295,2,0,L|219:252,1,80.9999975280763
463,141,46612,5,0,0:0:0:0:
415,85,46771,1,0,0:0:0:0:
371,143,46930,1,0,0:0:0:0:
325,85,47089,1,0,0:0:0:0:
283,144,47248,1,0,0:0:0:0:
121,193,47406,5,0,0:0:0:0:
180,269,47565,1,0,0:0:0:0:
238,190,47724,1,0,0:0:0:0:
291,271,47883,1,0,0:0:0:0:
349,193,48042,5,0,0:0:0:0:
376,318,48200,1,0,0:0:0:0:
252,358,48359,1,0,0:0:0:0:
147,280,48518,1,0,0:0:0:0:
213,168,48677,5,0,0:0:0:0:
376,318,48836,1,0,0:0:0:0:
406,105,48994,1,0,0:0:0:0:
213,168,49153,1,0,0:0:0:0:
312,200,49312,5,0,0:0:0:0:
300,224,49391,1,0,0:0:0:0:
272,253,49470,1,0,0:0:0:0:
236,270,49549,1,0,0:0:0:0:
196,271,49629,1,0,0:0:0:0:
158,257,49708,1,0,0:0:0:0:
129,229,49787,1,0,0:0:0:0:
114,191,49867,1,0,0:0:0:0:
114,151,49946,1,0,0:0:0:0:
129,114,50026,1,0,0:0:0:0:
158,86,50105,1,0,0:0:0:0:
196,72,50184,1,0,0:0:0:0:
236,73,50264,1,0,0:0:0:0:
272,90,50343,1,0,0:0:0:0:
300,120,50423,1,0,0:0:0:0:
313,158,50502,1,0,0:0:0:0:
310,198,50581,5,0,0:0:0:0:
188,292,51853,6,0,P|84:268|212:92,1,405.000015449525
294,184,52488,1,0,0:0:0:0:
145,191,52647,2,0,L|243:130,1,99.0000030212403
356,62,52964,5,0,0:0:0:0:
294,184,53123,1,0,0:0:0:0:
416,99,53282,2,0,P|419:30|397:4,1,99.0000030212403
286,101,53599,1,0,0:0:0:0:
384,212,53758,2,0,L|419:316,1,99.0000030212403
266,296,54076,2,0,L|350:376,1,99.0000030212403
384,212,54393,6,0,B|308:205|248:229|248:229|177:202|86:212,1,270.000010299683
248,136,54870,1,0,0:0:0:0:
195,307,55029,1,0,0:0:0:0:
367,138,55187,1,0,0:0:0:0:
119,208,55346,2,0,P|104:148|119:97,1,99.0000030212403
367,138,55664,5,0,0:0:0:0:
264,77,55823,1,0,0:0:0:0:
366,227,55981,1,0,0:0:0:0:
306,2,56140,1,0,0:0:0:0:
316,282,56299,2,0,P|379:303|419:279,1,99.0000030212403
457,128,56617,2,0,P|410:115|366:137,1,99.0000030212403
315,281,56934,6,0,P|186:343|157:241,1,270.000010299683
414,282,57411,2,0,L|314:281,1,99.0000030212403
450,210,57728,1,0,0:0:0:0:
364,363,57887,1,0,0:0:0:0:
494,149,58046,2,0,P|429:138|382:175,1,99.0000030212403
290,197,58363,1,0,0:0:0:0:
450,210,58522,5,0,0:0:0:0:
379,55,58681,1,0,0:0:0:0:
215,210,58840,2,0,P|252:266|298:273,1,99.0000030212403
187,98,59157,2,0,P|150:42|104:35,1,99.0000030212403
18,203,59475,6,0,B|121:241|121:178|214:209,1,198.000006042481
329,117,59951,1,0,0:0:0:0:
329,117,60110,1,0,0:0:0:0:
321,265,60269,1,0,0:0:0:0:
461,191,60428,1,0,0:0:0:0:
348,49,60587,2,0,P|283:63|259:115,1,99.0000030212403
401,238,60904,5,0,0:0:0:0:
329,117,61063,1,0,0:0:0:0:
386,307,61222,2,0,P|437:299|470:246,1,99.0000030212403
455,113,61539,1,0,0:0:0:0:
401,238,61698,1,0,0:0:0:0:
503,60,61857,2,0,P|441:44|429:49,1,49.5000015106202
348,49,62016,6,0,P|245:59|375:220,1,405.000015449525
142,196,62651,2,0,P|136:118|145:81,1,99.0000030212403
303,143,62968,1,0,0:0:0:0:
143,273,63127,2,0,L|21:292,1,99.0000030212403
182,347,63445,1,0,0:0:0:0:
63,199,63604,1,0,0:0:0:0:
238,175,63762,1,0,0:0:0:0:
13,145,63921,2,0,P|-7:220|21:259,1,99.0000030212403
288,227,64239,2,0,P|308:152|280:113,1,99.0000030212403
139,64,64556,6,0,P|223:101|404:45,1,270.000010299683
387,207,65033,1,0,0:0:0:0:
482,92,65192,2,0,L|383:56,1,99.0000030212403
263,138,65509,1,0,0:0:0:0:
387,207,65668,1,0,0:0:0:0:
306,82,65827,2,0,P|235:73|195:118,1,99.0000030212403
165,226,66144,5,0,0:0:0:0:
263,138,66303,1,0,0:0:0:0:
212,277,66462,2,0,P|141:291|103:256,1,99.0000030212403
297,273,66780,2,0,P|368:259|406:294,1,99.0000030212403
106,351,67097,6,0,B|47:310|-16:308|-16:308|24:235|34:111,1,270.000010299683
162,115,67574,1,0,0:0:0:0:
298,171,67732,1,0,0:0:0:0:
163,45,67891,2,0,P|106:72|93:134,1,99.0000030212403
161,235,68209,1,0,0:0:0:0:
298,171,68368,1,0,0:0:0:0:
299,318,68526,1,0,0:0:0:0:
420,232,68685,5,0,0:0:0:0:
161,235,68844,1,0,0:0:0:0:
298,171,69003,2,0,L|360:77,1,99.0000030212403
299,318,69320,2,0,L|172:345,1,99.0000030212403
420,232,69638,6,0,L|186:252,1,198.000006042481
441,164,70114,2,0,P|486:206|488:255,1,99.0000030212403
380,115,70432,1,0,0:0:0:0:
367,317,70591,1,0,0:0:0:0:
307,159,70750,2,0,L|187:98,1,99.0000030212403
380,115,71067,1,0,0:0:0:0:
149,102,71226,6,0,P|160:155|202:182,1,99.0000030212403
179,33,71544,2,0,P|112:36|78:88,1,99.0000030212403
37,159,71782,2,0,B|66:212|47:281|47:281|128:264|186:350,1,247.500007553101
406,190,82342,5,0,0:0:0:0:
271,192,82500,2,0,L|232:295,1,90
164,162,82818,2,0,L|134:59,1,90
352,93,83136,1,0,0:0:0:0:
352,93,83294,2,0,P|277:107|226:95,1,90
366,16,83612,5,0,0:0:0:0:
410,186,83771,1,0,0:0:0:0:
224,30,83930,1,0,0:0:0:0:
277,230,84088,1,0,0:0:0:0:
451,123,84247,2,0,P|484:185|469:234,1,90
277,230,84565,5,0,0:0:0:0:
410,186,84724,2,0,L|408:295,1,90
277,230,85041,1,0,0:0:0:0:
466,311,85200,2,0,P|418:343|359:318,1,90
277,230,85518,6,0,B|183:206|183:249|95:221,1,180
209,144,85994,1,0,0:0:0:0:
212,298,86153,1,0,0:0:0:0:
164,88,86312,2,0,P|206:73|260:93,1,90
329,192,86629,1,0,0:0:0:0:
209,144,86788,2,0,L|126:203,1,90
329,192,87106,1,0,0:0:0:0:
207,250,87264,2,0,L|103:326,1,90
328,116,87582,5,0,0:0:0:0:
328,116,87741,2,0,P|376:132|402:197,1,90
410,297,88058,1,0,0:0:0:0:
281,339,88217,1,0,0:0:0:0:
314,207,88376,1,0,0:0:0:0:
446,234,88535,2,0,P|482:292|466:338,1,90
281,339,88852,5,0,0:0:0:0:
410,297,89011,1,0,0:0:0:0:
234,275,89170,2,0,L|154:334,1,90
314,206,89488,1,0,0:0:0:0:
359,370,89646,1,0,0:0:0:0:
174,223,89805,1,0,0:0:0:0:
356,268,89964,6,0,P|389:207|379:170,1,90
297,86,90282,1,0,0:0:0:0:
314,206,90440,1,0,0:0:0:0:
242,35,90599,2,0,L|157:67,1,90
366,121,90917,2,0,L|451:89,1,90
396,213,91234,1,0,0:0:0:0:
296,87,91393,5,0,0:0:0:0:
267,216,91552,1,0,0:0:0:0:
267,216,91870,2,0,B|182:227|182:227|146:211|76:197,1,180
91,200,92505,1,0,0:0:0:0:
256,192,94410,5,0,0:0:0:0:
336,256,94728,1,0,0:0:0:0:
416,328,95046,1,0,0:0:0:0:
384,112,97269,5,0,0:0:0:0:
200,40,97586,1,0,0:0:0:0:
136,304,99492,5,0,0:0:0:0:
352,216,99809,1,0,0:0:0:0:
144,136,100127,1,0,0:0:0:0:
256,192,101397,12,0,102668,0:0:0:0:
256,192,103303,5,0,0:0:0:0:
256,192,103938,5,0,0:0:0:0:
256,192,104573,5,0,0:0:0:0:
464,368,104891,1,0,0:0:0:0:
496,96,105209,1,0,0:0:0:0:
232,64,105526,5,0,0:0:0:0:
96,296,105844,5,0,0:0:0:0:
360,264,106161,5,0,0:0:0:0:
120,144,106479,5,0,0:0:0:0:
384,192,106797,6,0,P|432:248|424:296,1,90
304,304,107114,1,0,0:0:0:0:
376,40,107432,6,0,L|288:104,1,90
248,216,107749,5,0,0:0:0:0:
32,56,108067,1,0,0:0:0:0:
128,304,108385,1,0,0:0:0:0:
176,40,108702,1,0,0:0:0:0:
264,296,109020,1,0,0:0:0:0:
334,35,109337,1,0,0:0:0:0:
106,180,109655,6,0,L|213:159,1,90
93,252,109972,2,0,P|47:224|33:183,1,90
116,84,110290,5,0,0:0:0:0:
235,326,110608,1,0,0:0:0:0:
364,89,110925,1,0,0:0:0:0:
153,258,111243,5,0,0:0:0:0:
422,252,111560,1,0,0:0:0:0:
152,225,111878,1,0,0:0:0:0:
422,222,112196,1,0,0:0:0:0:
154,191,112513,1,0,0:0:0:0:
404,89,112831,6,0,L|359:181,1,90
294,54,113148,2,0,L|244:148,1,90
108,295,113466,6,0,L|153:203,1,90
218,330,113783,2,0,L|265:232,1,90
367,328,114101,1,0,0:0:0:0:
330,197,114260,1,0,0:0:0:0:
458,239,114419,2,0,L|451:341,1,90
404,114,114736,2,0,L|399:211,1,90
473,90,115054,5,0,0:0:0:0:
337,90,115213,1,0,0:0:0:0:
253,196,115372,2,0,P|186:223|143:225,2,90
219,65,115848,5,0,0:0:0:0:
337,90,116007,2,0,L|222:136,1,90
70,132,116324,2,0,L|185:86,1,90
68,204,116642,1,0,0:0:0:0:
26,75,116801,1,0,0:0:0:0:
134,228,116960,6,0,P|79:273|37:267,1,90
198,277,117277,2,0,L|235:180,1,90
299,310,117595,2,0,L|338:198,1,90
445,157,117912,5,0,0:0:0:0:
334,79,118071,1,0,0:0:0:0:
201,54,118230,1,0,0:0:0:0:
73,97,118389,1,0,0:0:0:0:
32,225,118548,1,0,0:0:0:0:
126,320,118706,5,0,0:0:0:0:
219,222,118865,1,0,0:0:0:0:
310,122,119024,1,0,0:0:0:0:
354,249,119183,5,0,0:0:0:0:
219,222,119342,1,0,0:0:0:0:
310,122,119500,1,0,0:0:0:0:
208,33,119659,5,0,0:0:0:0:
117,133,119817,1,0,0:0:0:0:
252,160,119976,1,0,0:0:0:0:
91,64,120136,2,0,P|46:104|51:168,1,90
79,260,120453,5,0,0:0:0:0:
104,285,120533,1,0,0:0:0:0:
133,305,120612,1,0,0:0:0:0:
166,318,120691,1,0,0:0:0:0:
201,325,120771,1,0,0:0:0:0:
236,327,120850,1,0,0:0:0:0:
272,328,120930,1,0,0:0:0:0:
307,325,121009,1,0,0:0:0:0:
342,318,121088,1,0,0:0:0:0:
376,307,121168,1,0,0:0:0:0:
406,288,121247,1,0,0:0:0:0:
431,262,121327,1,0,0:0:0:0:
446,229,121406,1,0,0:0:0:0:
451,193,121485,1,0,0:0:0:0:
439,149,121565,1,0,0:0:0:0:
416,110,121644,5,0,0:0:0:0:
229,180,122994,6,0,P|123:175|243:250,1,360
370,214,123470,1,0,0:0:0:0:
314,75,123629,2,0,L|299:199,1,99.0000030212403
235,39,123947,1,0,0:0:0:0:
370,214,124105,1,0,0:0:0:0:
231,111,124264,2,0,P|171:72|165:33,1,99.0000030212403
217,189,124582,5,0,0:0:0:0:
370,214,124741,1,0,0:0:0:0:
274,326,124899,2,0,L|156:289,1,99.0000030212403
327,277,125217,2,0,P|343:338|317:383,1,99.0000030212403
370,214,125535,6,0,P|382:134|219:197,1,360
68,180,126011,5,0,0:0:0:0:
100,325,126170,1,0,0:0:0:0:
208,223,126329,1,0,0:0:0:0:
83,109,126487,2,0,P|20:124|-3:161,1,99.0000030212403
100,325,126805,2,0,L|133:210,1,99.0000030212403
180,127,127123,2,0,L|213:242,1,99.0000030212403
