osu file format v14

[General]
AudioFilename: _Drumstep_ - Excision _ Pegboard Nerds - Bring The Madness _feat. Mayor Apeshit_ _Monstercat_.mp3
AudioLeadIn: 0
PreviewTime: 54843
Countdown: 0
SampleSet: Soft
StackLeniency: 0.3
Mode: 0
LetterboxInBreaks: 1
EpilepsyWarning: 1
WidescreenStoryboard: 1

[Editor]
Bookmarks: 12084,34153,45187,100360,111394,122429,177601,185877,188636
DistanceSpacing: 1.1
BeatDivisor: 4
GridSize: 4
TimelineZoom: 1.1

[Metadata]
Title:Bring The Madness (feat. Mayor Apeshit)
TitleUnicode:Bring The Madness (feat. Mayor Apeshit)
Artist:Excision & Pegboard Nerds
ArtistUnicode:Excision & Pegboard Nerds
Creator:J1NX1337
Version:Shadren's Light Insane
Source:
Tags:electronic drumstep dubstep drum and bass dnb drop heavy monstercat hullahopp fcl poggo shadren p_i_k_u darky1 pringles
BeatmapID:894163
BeatmapSetID:307176

[Difficulty]
HPDrainRate:6
CircleSize:4
OverallDifficulty:7
ApproachRate:8.5
SliderMultiplier:2.8
SliderTickRate:1

[Events]
//Background and Video events
0,0,"background.jpg",0,0
//Break Periods
2,100560,110719
//Storyboard Layer 0 (Background)
Sprite,Background,Centre,"sb\high.png",0,0 M,0,156222,156308,232,312,239.6067,349.6683 F,2,156222,156694,1,0 S,2,156222,156694,1,0.8 P,0,156222,156694,A M,0,156308,156394,239.6067,349.6683,240.3056,388.0887
Sprite,Background,Centre,"sb\high.png",232,312 S,0,156222,,3 F,2,156222,156694,0.5,0 P,0,156222,156694,A
Sprite,Background,Centre,"sb\high.png",0,0 M,0,156567,156653,328,296,328.0006,257.5895 F,2,156567,157039,1,0 S,2,156567,157039,1,0.8 P,0,156567,157039,A M,0,156653,156739,328.0006,257.5895,335.8115,219.9945
Sprite,Background,Centre,"sb\high.png",328,296 S,0,156567,,3 F,2,156567,157039,0.5,0 P,0,156567,157039,A
Sprite,Background,Centre,"sb\high.png",0,0 M,0,156912,156998,416,188,454.4603,189.7482 F,2,156912,157384,1,0 S,2,156912,157384,1,0.8 P,0,156912,157384,A M,0,156998,157084,454.4603,189.7482,492.9206,191.4964
Sprite,Background,Centre,"sb\high.png",416,188 S,0,156912,,3 F,2,156912,157384,0.5,0 P,0,156912,157384,A
Sprite,Background,Centre,"sb\high.png",0,0 M,0,157256,157342,528,116,489.5518,114.0027 F,2,157256,157728,1,0 S,2,157256,157728,1,0.8 P,0,157256,157728,A M,0,157342,157428,489.5518,114.0027,451.1037,112.0054
Sprite,Background,Centre,"sb\high.png",528,116 S,0,157256,,3 F,2,157256,157728,0.5,0 P,0,157256,157728,A
Sprite,Background,Centre,"sb\high.png",0,0 M,0,157601,157687,372,84,333.6911,80.16911 F,2,157601,158073,1,0 S,2,157601,158073,1,0.8 P,0,157601,158073,A M,0,157687,157773,333.6911,80.16911,295.9141,87.21717
Sprite,Background,Centre,"sb\high.png",372,84 S,0,157601,,3 F,2,157601,158073,0.5,0 P,0,157601,158073,A
Sprite,Background,Centre,"sb\high.png",0,0 M,0,157946,158032,200,192,161.8617,188.3006 F,2,157946,158418,1,0 S,2,157946,158418,1,0.8 P,0,157946,158418,A M,0,158032,158118,161.8617,188.3006,126.514,173.5086
Sprite,Background,Centre,"sb\high.png",200,192 S,0,157946,,3 F,2,157946,158418,0.5,0 P,0,157946,158418,A
Sprite,Background,Centre,"sb\high.png",124,264 F,2,158808,159108,1,0 S,2,158808,159108,1,0.8 P,0,158808,159108,A
Sprite,Background,Centre,"sb\high.png",124,264 S,0,158808,,3 F,2,158808,159108,0.5,0 P,0,158808,159108,A
Sprite,Background,Centre,"sb\high.png",0,0 M,0,158981,159067,247,352,254.8653,389.6162 F,2,158981,159453,1,0 S,2,158981,159453,1,0.8 P,0,158981,159453,A M,0,159067,159153,254.8653,389.6162,251.6681,427.9832
Sprite,Background,Centre,"sb\high.png",247,352 S,0,158981,,3 F,2,158981,159453,0.5,0 P,0,158981,159453,A
Sprite,Background,Centre,"sb\high.png",0,0 M,0,159325,159411,351,333,343.1347,295.3838 F,2,159325,159797,1,0 S,2,159325,159797,1,0.8 P,0,159325,159797,A M,0,159411,159497,343.1347,295.3838,346.3319,257.0168
Sprite,Background,Centre,"sb\high.png",351,333 S,0,159325,,3 F,2,159325,159797,0.5,0 P,0,159325,159797,A
Sprite,Background,Centre,"sb\high.png",0,0 M,0,159670,159756,399,190,437.3358,190.524 F,2,159670,160142,1,0 S,2,159670,160142,1,0.8 P,0,159670,160142,A M,0,159756,159842,437.3358,190.524,473.9795,201.6912
Sprite,Background,Centre,"sb\high.png",399,190 S,0,159670,,3 F,2,159670,160142,0.5,0 P,0,159670,160142,A
Sprite,Background,Centre,"sb\high.png",0,0 M,0,160015,160101,316,152,340.7059,122.907 F,2,160015,160487,1,0 S,2,160015,160487,1,0.8 P,0,160015,160487,A M,0,160101,160187,340.7059,122.907,374.6781,105.6311
Sprite,Background,Centre,"sb\high.png",316,152 S,0,160015,,3 F,2,160015,160487,0.5,0 P,0,160015,160487,A
Sprite,Background,Centre,"sb\high.png",0,0 M,0,160360,160446,228,180,224.6026,142.0325 F,2,160360,160832,1,0 S,2,160360,160832,1,0.8 P,0,160360,160832,A M,0,160446,160532,224.6026,142.0325,237.0988,106.0818
Sprite,Background,Centre,"sb\high.png",228,180 S,0,160360,,3 F,2,160360,160832,0.5,0 P,0,160360,160832,A
Sprite,Background,Centre,"sb\high.png",0,0 M,0,160705,160791,140,224,154.7952,259.2151 F,2,160705,161177,1,0 S,2,160705,161177,1,0.8 P,0,160705,161177,A M,0,160791,160877,154.7952,259.2151,155.6357,297.3852
Sprite,Background,Centre,"sb\high.png",140,224 S,0,160705,,3 F,2,160705,161177,0.5,0 P,0,160705,161177,A
Sprite,Background,Centre,"sb\high.png",0,0 M,0,161739,161825,480,320,487.676,282.5556 F,2,161739,162211,1,0 S,2,161739,162211,1,0.8 P,0,161739,162211,A M,0,161825,161911,487.676,282.5556,481.7795,244.7957
Sprite,Background,Centre,"sb\high.png",480,320 S,0,161739,,3 F,2,161739,162211,0.5,0 P,0,161739,162211,A
Sprite,Background,Centre,"sb\high.png",0,0 M,0,162084,162170,420,184,416.1691,145.6911 F,2,162084,162556,1,0 S,2,162084,162556,1,0.8 P,0,162084,162556,A M,0,162170,162256,416.1691,145.6911,423.2172,107.9141
Sprite,Background,Centre,"sb\high.png",420,184 S,0,162084,,3 F,2,162084,162556,0.5,0 P,0,162084,162556,A
Sprite,Background,Centre,"sb\high.png",0,0 M,0,162429,162515,316,176,321.2018,214.147 F,2,162429,162901,1,0 S,2,162429,162901,1,0.8 P,0,162429,162901,A M,0,162515,162601,321.2018,214.147,326.4037,252.2939
Sprite,Background,Centre,"sb\high.png",316,176 S,0,162429,,3 F,2,162429,162901,0.5,0 P,0,162429,162901,A
Sprite,Background,Centre,"sb\high.png",0,0 M,0,162774,162860,208,208,211.8309,169.6911 F,2,162774,163246,1,0 S,2,162774,163246,1,0.8 P,0,162774,163246,A M,0,162860,162946,211.8309,169.6911,215.6618,131.3821
Sprite,Background,Centre,"sb\high.png",208,208 S,0,162774,,3 F,2,162774,163246,0.5,0 P,0,162774,163246,A
Sprite,Background,Centre,"sb\high.png",0,0 M,0,163118,163204,108,216,111.6501,254.3266 F,2,163118,163590,1,0 S,2,163118,163590,1,0.8 P,0,163118,163590,A M,0,163204,163290,111.6501,254.3266,115.3003,292.6531
Sprite,Background,Centre,"sb\high.png",108,216 S,0,163118,,3 F,2,163118,163590,0.5,0 P,0,163118,163590,A
Sprite,Background,Centre,"sb\high.png",0,0 M,0,163463,163549,180,348,218.3486,348.0088 F,2,163463,163935,1,0 S,2,163463,163935,1,0.8 P,0,163463,163935,A M,0,163549,163635,218.3486,348.0088,255.37,338.019
Sprite,Background,Centre,"sb\high.png",180,348 S,0,163463,,3 F,2,163463,163935,0.5,0 P,0,163463,163935,A
Sprite,Background,Centre,"sb\high.png",136,248 F,2,167257,167557,1,0 S,2,167257,167557,1,0.8 P,0,167257,167557,A
Sprite,Background,Centre,"sb\high.png",136,248 S,0,167257,,3 F,2,167257,167557,0.5,0 P,0,167257,167557,A
Sprite,Background,Centre,"sb\high.png",72,192 F,2,167429,167729,1,0 S,2,167429,167729,1,0.8 P,0,167429,167729,A
Sprite,Background,Centre,"sb\high.png",72,192 S,0,167429,,3 F,2,167429,167729,0.5,0 P,0,167429,167729,A
Sprite,Background,Centre,"sb\high.png",224,252 F,2,167602,167902,1,0 S,2,167602,167902,1,0.8 P,0,167602,167902,A
Sprite,Background,Centre,"sb\high.png",224,252 S,0,167602,,3 F,2,167602,167902,0.5,0 P,0,167602,167902,A
Sprite,Background,Centre,"sb\high.png",92,320 F,2,167774,168074,1,0 S,2,167774,168074,1,0.8 P,0,167774,168074,A
Sprite,Background,Centre,"sb\high.png",92,320 S,0,167774,,3 F,2,167774,168074,0.5,0 P,0,167774,168074,A
Sprite,Background,Centre,"sb\high.png",0,0 M,0,167946,168032,188,164,226.1309,160.1424 F,2,167946,168418,1,0 S,2,167946,168418,1,0.8 P,0,167946,168418,A M,0,168032,168118,226.1309,160.1424,263.7866,167.1747
Sprite,Background,Centre,"sb\high.png",188,164 S,0,167946,,3 F,2,167946,168418,0.5,0 P,0,167946,168418,A
Sprite,Background,Centre,"sb\high.png",432,204 F,2,168292,168592,1,0 S,2,168292,168592,1,0.8 P,0,168292,168592,A
Sprite,Background,Centre,"sb\high.png",432,204 S,0,168292,,3 F,2,168292,168592,0.5,0 P,0,168292,168592,A
Sprite,Background,Centre,"sb\high.png",360,248 F,2,168464,168764,1,0 S,2,168464,168764,1,0.8 P,0,168464,168764,A
Sprite,Background,Centre,"sb\high.png",360,248 S,0,168464,,3 F,2,168464,168764,0.5,0 P,0,168464,168764,A
Sprite,Background,Centre,"sb\high.png",0,0 M,0,168636,168722,448,104,485.7523,96.44952 F,2,168636,169108,1,0 S,2,168636,169108,1,0.8 P,0,168636,169108,A M,0,168722,168808,485.7523,96.44952,524.0828,99.0069
Sprite,Background,Centre,"sb\high.png",448,104 S,0,168636,,3 F,2,168636,169108,0.5,0 P,0,168636,169108,A
Sprite,Background,Centre,"sb\high.png",0,0 M,0,168981,169067,364,80,328.189,94.13591 F,2,168981,169453,1,0 S,2,168981,169453,1,0.8 P,0,168981,169453,A M,0,169067,169153,328.189,94.13591,290.0651,98.90598
Sprite,Background,Centre,"sb\high.png",364,80 S,0,168981,,3 F,2,168981,169453,0.5,0 P,0,168981,169453,A
Sprite,Background,Centre,"sb\high.png",76,304 F,2,169843,170143,1,0 S,2,169843,170143,1,0.8 P,0,169843,170143,A
Sprite,Background,Centre,"sb\high.png",76,304 S,0,169843,,3 F,2,169843,170143,0.5,0 P,0,169843,170143,A
Sprite,Background,Centre,"sb\high.png",0,0 M,0,170015,170101,212,216,246.7572,200.6111 F,2,170015,170487,1,0 S,2,170015,170487,1,0.8 P,0,170015,170487,A M,0,170101,170187,246.7572,200.6111,284.6337,202.9709
Sprite,Background,Centre,"sb\high.png",212,216 S,0,170015,,3 F,2,170015,170487,0.5,0 P,0,170015,170487,A
Sprite,Background,Centre,"sb\high.png",0,0 M,0,170361,170447,296,120,332.529,130.5831 F,2,170361,170833,1,0 S,2,170361,170833,1,0.8 P,0,170361,170833,A M,0,170447,170533,332.529,130.5831,360.3229,156.4845
Sprite,Background,Centre,"sb\high.png",296,120 S,0,170361,,3 F,2,170361,170833,0.5,0 P,0,170361,170833,A
Sprite,Background,Centre,"sb\high.png",0,0 M,0,170705,170791,420,96,441.8558,127.0489 F,2,170705,171177,1,0 S,2,170705,171177,1,0.8 P,0,170705,171177,A M,0,170791,170877,441.8558,127.0489,446.2035,164.715
Sprite,Background,Centre,"sb\high.png",420,96 S,0,170705,,3 F,2,170705,171177,0.5,0 P,0,170705,171177,A
Sprite,Background,Centre,"sb\high.png",0,0 M,0,171050,171136,532,160,528.3704,197.8297 F,2,171050,171522,1,0 S,2,171050,171522,1,0.8 P,0,171050,171522,A M,0,171136,171222,528.3704,197.8297,507.6232,229.5984
Sprite,Background,Centre,"sb\high.png",532,160 S,0,171050,,3 F,2,171050,171522,0.5,0 P,0,171050,171522,A
Sprite,Background,Centre,"sb\high.png",0,0 M,0,171395,171481,576,280,549.1396,306.868 F,2,171395,171867,1,0 S,2,171395,171867,1,0.8 P,0,171395,171867,A M,0,171481,171567,549.1396,306.868,512.868,317.9838
Sprite,Background,Centre,"sb\high.png",576,280 S,0,171395,,3 F,2,171395,171867,0.5,0 P,0,171395,171867,A
Sprite,Background,Centre,"sb\high.png",0,0 M,0,171740,171826,428,308,393.4757,291.5154 F,2,171740,172212,1,0 S,2,171740,172212,1,0.8 P,0,171740,172212,A M,0,171826,171912,393.4757,291.5154,355.4488,287.2716
Sprite,Background,Centre,"sb\high.png",428,308 S,0,171740,,3 F,2,171740,172212,0.5,0 P,0,171740,172212,A
Sprite,Background,Centre,"sb\high.png",304,168 F,2,172774,173074,1,0 S,2,172774,173074,1,0.8 P,0,172774,173074,A
Sprite,Background,Centre,"sb\high.png",304,168 S,0,172774,,3 F,2,172774,173074,0.5,0 P,0,172774,173074,A
Sprite,Background,Centre,"sb\high.png",220,184 F,2,172947,173247,1,0 S,2,172947,173247,1,0.8 P,0,172947,173247,A
Sprite,Background,Centre,"sb\high.png",220,184 S,0,172947,,3 F,2,172947,173247,0.5,0 P,0,172947,173247,A
Sprite,Background,Centre,"sb\high.png",384,208 F,2,173119,173419,1,0 S,2,173119,173419,1,0.8 P,0,173119,173419,A
Sprite,Background,Centre,"sb\high.png",384,208 S,0,173119,,3 F,2,173119,173419,0.5,0 P,0,173119,173419,A
Sprite,Background,Centre,"sb\high.png",312,88 F,2,173292,173592,1,0 S,2,173292,173592,1,0.8 P,0,173292,173592,A
Sprite,Background,Centre,"sb\high.png",312,88 S,0,173292,,3 F,2,173292,173592,0.5,0 P,0,173292,173592,A
Sprite,Background,Centre,"sb\high.png",0,0 M,0,173464,173550,248,264,253.9804,301.7759 F,2,173464,173936,1,0 S,2,173464,173936,1,0.8 P,0,173464,173936,A M,0,173550,173636,253.9804,301.7759,272.4052,335.2431
Sprite,Background,Centre,"sb\high.png",248,264 S,0,173464,,3 F,2,173464,173936,0.5,0 P,0,173464,173936,A
Sprite,Background,Centre,"sb\high.png",440,272 F,2,173809,174109,1,0 S,2,173809,174109,1,0.8 P,0,173809,174109,A
Sprite,Background,Centre,"sb\high.png",440,272 S,0,173809,,3 F,2,173809,174109,0.5,0 P,0,173809,174109,A
Sprite,Background,Centre,"sb\high.png",384,208 F,2,173981,174281,1,0 S,2,173981,174281,1,0.8 P,0,173981,174281,A
Sprite,Background,Centre,"sb\high.png",384,208 S,0,173981,,3 F,2,173981,174281,0.5,0 P,0,173981,174281,A
Sprite,Background,Centre,"sb\high.png",0,0 M,0,174154,174240,496,336,503.5505,373.7523 F,2,174154,174626,1,0 S,2,174154,174626,1,0.8 P,0,174154,174626,A M,0,174240,174326,503.5505,373.7523,500.3972,412.0281
Sprite,Background,Centre,"sb\high.png",496,336 S,0,174154,,3 F,2,174154,174626,0.5,0 P,0,174154,174626,A
Sprite,Background,Centre,"sb\high.png",0,0 M,0,174498,174584,384,208,380.1691,169.6911 F,2,174498,174970,1,0 S,2,174498,174970,1,0.8 P,0,174498,174970,A M,0,174584,174670,380.1691,169.6911,383.6618,131.3821
Sprite,Background,Centre,"sb\high.png",384,208 S,0,174498,,3 F,2,174498,174970,0.5,0 P,0,174498,174970,A
//Storyboard Layer 1 (Fail)
//Storyboard Layer 2 (Pass)
//Storyboard Layer 3 (Foreground)
Sprite,Foreground,Centre,"sb\high.png",0,0 C,0,56912,,255,170,13 M,0,56912,56998,224,220,216.3236,257.535 F,2,56912,57384,1,0 S,2,56912,57384,1,0.8 P,0,56912,57384,A M,0,56998,57084,216.3236,257.535,219.9293,295.6856
Sprite,Foreground,Centre,"sb\high.png",0,0 C,0,57256,,255,170,13 M,0,57256,57342,140,200,133.8228,162.1711 F,2,57256,57728,1,0 S,2,57256,57728,1,0.8 P,0,57256,57728,A M,0,57342,57428,133.8228,162.1711,117.3521,127.5529
Sprite,Foreground,Centre,"sb\high.png",0,0 C,0,57601,,255,170,13 M,0,57601,57687,196,96,234.1131,90.55528 F,2,57601,58245,1,0 S,2,57601,58245,1,0.8 P,0,57601,58245,A M,0,57687,57773,234.1131,90.55528,272.1019,91.65489 M,0,57773,57859,272.1019,91.65489,310.1004,94.23746 M,0,57859,57945,310.1004,94.23746,348.3031,89.46211
Sprite,Foreground,Centre,"sb\high.png",432,80 C,0,58118,,255,170,13 F,2,58118,58418,1,0 S,2,58118,58418,1,0.8 P,0,58118,58418,A
Sprite,Foreground,Centre,"sb\high.png",0,0 C,0,58291,,255,170,13 M,0,58291,58377,508,120,519.2936,156.5912 F,2,58291,58763,1,0 S,2,58291,58763,1,0.8 P,0,58291,58763,A M,0,58377,58463,519.2936,156.5912,518.8812,194.8587
Sprite,Foreground,Centre,"sb\high.png",0,0 C,0,58636,,255,170,13 M,0,58636,58722,444,316,445.7482,277.5397 F,2,58636,59108,1,0 S,2,58636,59108,1,0.8 P,0,58636,59108,A M,0,58722,58808,445.7482,277.5397,447.4964,239.0794
Sprite,Foreground,Centre,"sb\high.png",120,288 C,0,59670,,213,86,33 F,2,59670,59970,1,0 S,2,59670,59970,1,0.8 P,0,59670,59970,A
Sprite,Foreground,Centre,"sb\high.png",0,0 C,0,59843,,213,86,33 M,0,59843,59929,72,128,101.3278,103.5715 F,2,59843,60315,1,0 S,2,59843,60315,1,0.8 P,0,59843,60315,A M,0,59929,60015,101.3278,103.5715,137.8551,92.72616
Sprite,Foreground,Centre,"sb\high.png",220,112 C,0,60187,,213,86,33 F,2,60187,60487,1,0 S,2,60187,60487,1,0.8 P,0,60187,60487,A
Sprite,Foreground,Centre,"sb\high.png",0,0 C,0,60360,,213,86,33 M,0,60360,60446,300,88,338.452,86.0774 F,2,60360,60832,1,0 S,2,60360,60832,1,0.8 P,0,60360,60832,A M,0,60446,60532,338.452,86.0774,376.9039,84.1548
Sprite,Foreground,Centre,"sb\high.png",0,0 C,0,60705,,213,86,33 M,0,60705,60791,392,168,430.4468,165.9765 F,2,60705,61177,1,0 S,2,60705,61177,1,0.8 P,0,60705,61177,A M,0,60791,60877,430.4468,165.9765,468,164
Sprite,Foreground,Centre,"sb\high.png",536,112 C,0,61049,,213,86,33 F,2,61049,61349,1,0 S,2,61049,61349,1,0.8 P,0,61049,61349,A
Sprite,Foreground,Centre,"sb\high.png",0,0 C,0,61394,,213,86,33 M,0,61394,61480,440,284,401.7304,282.8735 F,2,61394,61866,1,0 S,2,61394,61866,1,0.8 P,0,61394,61866,A M,0,61480,61566,401.7304,282.8735,365.7665,269.8497
Sprite,Foreground,Centre,"sb\high.png",0,0 C,0,62429,,0,210,11 M,0,62429,62515,120,308,109.1032,271.2443 F,2,62429,62901,1,0 S,2,62429,62901,1,0.8 P,0,62429,62901,A M,0,62515,62601,109.1032,271.2443,108.8662,232.9389
Sprite,Foreground,Centre,"sb\high.png",0,0 C,0,62774,,0,210,11 M,0,62774,62860,168,172,179.3041,135.3688 F,2,62774,63246,1,0 S,2,62774,63246,1,0.8 P,0,62774,63246,A M,0,62860,62946,179.3041,135.3688,180.1065,97.0361
Sprite,Foreground,Centre,"sb\high.png",0,0 C,0,63118,,0,210,11 M,0,63118,63204,264,96,302.3232,99.68493 F,2,63118,63762,1,0 S,2,63118,63762,1,0.8 P,0,63118,63762,A M,0,63204,63290,302.3232,99.68493,340.4366,97.01035 M,0,63290,63376,340.4366,97.01035,378.6046,93.43189 M,0,63376,63462,378.6046,93.43189,417.0852,94.6535
Sprite,Foreground,Centre,"sb\high.png",484,148 C,0,63636,,0,210,11 F,2,63636,63936,1,0 S,2,63636,63936,1,0.8 P,0,63636,63936,A
Sprite,Foreground,Centre,"sb\high.png",0,0 C,0,63808,,0,210,11 M,0,63808,63894,432,216,418.1418,251.6297 F,2,63808,64280,1,0 S,2,63808,64280,1,0.8 P,0,63808,64280,A M,0,63894,63980,418.1418,251.6297,417.9943,289.8054
Sprite,Foreground,Centre,"sb\high.png",0,0 C,0,64153,,0,210,11 M,0,64153,64239,328,396,323.5905,357.9359 F,2,64153,64625,1,0 S,2,64153,64625,1,0.8 P,0,64153,64625,A M,0,64239,64325,323.5905,357.9359,308.4944,322.7089
Sprite,Foreground,Centre,"sb\high.png",504,248 C,0,67946,,213,86,33 F,2,67946,68246,1,0 S,2,67946,68246,1,0.8 P,0,67946,68246,A
Sprite,Foreground,Centre,"sb\high.png",568,304 C,0,68118,,213,86,33 F,2,68118,68418,1,0 S,2,68118,68418,1,0.8 P,0,68118,68418,A
Sprite,Foreground,Centre,"sb\high.png",416,244 C,0,68291,,213,86,33 F,2,68291,68591,1,0 S,2,68291,68591,1,0.8 P,0,68291,68591,A
Sprite,Foreground,Centre,"sb\high.png",548,176 C,0,68463,,213,86,33 F,2,68463,68763,1,0 S,2,68463,68763,1,0.8 P,0,68463,68763,A
Sprite,Foreground,Centre,"sb\high.png",0,0 C,0,68636,,0,210,11 M,0,68636,68722,452,332,413.8691,335.8576 F,2,68636,69108,1,0 S,2,68636,69108,1,0.8 P,0,68636,69108,A M,0,68722,68808,413.8691,335.8576,376.2134,328.8253
Sprite,Foreground,Centre,"sb\high.png",208,292 C,0,68981,,0,210,11 F,2,68981,69281,1,0 S,2,68981,69281,1,0.8 P,0,68981,69281,A
Sprite,Foreground,Centre,"sb\high.png",280,248 C,0,69153,,0,210,11 F,2,69153,69453,1,0 S,2,69153,69453,1,0.8 P,0,69153,69453,A
Sprite,Foreground,Centre,"sb\high.png",0,0 C,0,69325,,0,210,11 M,0,69325,69411,192,392,154.2477,399.5505 F,2,69325,69797,1,0 S,2,69325,69797,1,0.8 P,0,69325,69797,A M,0,69411,69497,154.2477,399.5505,115.9172,396.9931
Sprite,Foreground,Centre,"sb\high.png",0,0 C,0,69670,,0,210,11 M,0,69670,69756,276,416,311.811,401.8641 F,2,69670,70142,1,0 S,2,69670,70142,1,0.8 P,0,69670,70142,A M,0,69756,69842,311.811,401.8641,349.9349,397.094
Sprite,Foreground,Centre,"sb\high.png",564,192 C,0,70532,,245,20,16 F,2,70532,70832,1,0 S,2,70532,70832,1,0.8 P,0,70532,70832,A
Sprite,Foreground,Centre,"sb\high.png",0,0 C,0,70705,,245,20,16 M,0,70705,70791,428,280,393.2428,295.3889 F,2,70705,71177,1,0 S,2,70705,71177,1,0.8 P,0,70705,71177,A M,0,70791,70877,393.2428,295.3889,355.3663,293.0291
Sprite,Foreground,Centre,"sb\high.png",0,0 C,0,71050,,245,20,16 M,0,71050,71136,344,376,307.471,365.4169 F,2,71050,71522,1,0 S,2,71050,71522,1,0.8 P,0,71050,71522,A M,0,71136,71222,307.471,365.4169,279.6771,339.5155
Sprite,Foreground,Centre,"sb\high.png",0,0 C,0,71394,,255,170,13 M,0,71394,71480,220,400,197.548,369.4089 F,2,71394,71866,1,0 S,2,71394,71866,1,0.8 P,0,71394,71866,A M,0,71480,71566,197.548,369.4089,192.9264,331.7247
Sprite,Foreground,Centre,"sb\high.png",0,0 C,0,71739,,255,170,13 M,0,71739,71825,108,336,111.6296,298.1703 F,2,71739,72211,1,0 S,2,71739,72211,1,0.8 P,0,71739,72211,A M,0,71825,71911,111.6296,298.1703,132.3768,266.4016
Sprite,Foreground,Centre,"sb\high.png",0,0 C,0,72084,,255,170,13 M,0,72084,72170,127,177,90.68379,188.0017 F,2,72084,72556,1,0 S,2,72084,72556,1,0.8 P,0,72084,72556,A M,0,72170,72256,90.68379,188.0017,64.37597,215.3761
Sprite,Foreground,Centre,"sb\high.png",0,0 C,0,72429,,255,170,13 M,0,72429,72515,212,188,246.5243,204.4846 F,2,72429,72901,1,0 S,2,72429,72901,1,0.8 P,0,72429,72901,A M,0,72515,72601,246.5243,204.4846,284.5512,208.7284
Sprite,Foreground,Centre,"sb\high.png",336,328 C,0,73463,,213,86,33 F,2,73463,73763,1,0 S,2,73463,73763,1,0.8 P,0,73463,73763,A
Sprite,Foreground,Centre,"sb\high.png",420,312 C,0,73636,,213,86,33 F,2,73636,73936,1,0 S,2,73636,73936,1,0.8 P,0,73636,73936,A
Sprite,Foreground,Centre,"sb\high.png",256,288 C,0,73808,,213,86,33 F,2,73808,74108,1,0 S,2,73808,74108,1,0.8 P,0,73808,74108,A
Sprite,Foreground,Centre,"sb\high.png",328,408 C,0,73981,,213,86,33 F,2,73981,74281,1,0 S,2,73981,74281,1,0.8 P,0,73981,74281,A
Sprite,Foreground,Centre,"sb\high.png",0,0 C,0,74153,,0,210,11 M,0,74153,74239,392,232,386.0196,194.2241 F,2,74153,74625,1,0 S,2,74153,74625,1,0.8 P,0,74153,74625,A M,0,74239,74325,386.0196,194.2241,367.5948,160.7569
Sprite,Foreground,Centre,"sb\high.png",200,224 C,0,74498,,0,210,11 F,2,74498,74798,1,0 S,2,74498,74798,1,0.8 P,0,74498,74798,A
Sprite,Foreground,Centre,"sb\high.png",256,288 C,0,74670,,0,210,11 F,2,74670,74970,1,0 S,2,74670,74970,1,0.8 P,0,74670,74970,A
Sprite,Foreground,Centre,"sb\high.png",0,0 C,0,74843,,0,210,11 M,0,74843,74929,144,160,136.4495,122.2476 F,2,74843,75315,1,0 S,2,74843,75315,1,0.8 P,0,74843,75315,A M,0,74929,75015,136.4495,122.2476,139.6028,83.97185
Sprite,Foreground,Centre,"sb\high.png",0,0 C,0,75187,,0,210,11 M,0,75187,75273,256,288,259.8309,326.3089 F,2,75187,75659,1,0 S,2,75187,75659,1,0.8 P,0,75187,75659,A M,0,75273,75359,259.8309,326.3089,256.3382,364.6179
Sprite,Foreground,Centre,"sb\high.png",360,268 C,0,134153,,255,170,13 F,2,134153,134453,1,0 S,2,134153,134453,1,0.8 P,0,134153,134453,A
Sprite,Foreground,Centre,"sb\high.png",0,0 C,0,134325,,255,170,13 M,0,134325,134411,212,204,170.7232,200.5438 F,2,134325,134797,1,0 S,2,134325,134797,1,0.8 P,0,134325,134797,A M,0,134411,134497,170.7232,200.5438,133.088,217.5697
Sprite,Foreground,Centre,"sb\high.png",0,0 C,0,134670,,255,170,13 M,0,134670,134756,264,128,301.2413,146.863 F,2,134670,135142,1,0 S,2,134670,135142,1,0.8 P,0,134670,135142,A M,0,134756,134842,301.2413,146.863,342.5643,152.4256
Sprite,Foreground,Centre,"sb\high.png",420,104 C,0,135015,,213,86,33 F,2,135015,135315,1,0 S,2,135015,135315,1,0.8 P,0,135015,135315,A
Sprite,Foreground,Centre,"sb\high.png",0,0 C,0,135187,,213,86,33 M,0,135187,135273,492,160,493.6786,201.9664 F,2,135187,135659,1,0 S,2,135187,135659,1,0.8 P,0,135187,135659,A M,0,135273,135359,493.6786,201.9664,495.3573,243.9329
Sprite,Foreground,Centre,"sb\high.png",0,0 C,0,135532,,213,86,33 M,0,135532,135618,436,312,394.6775,319.5132 F,2,135532,136004,1,0 S,2,135532,136004,1,0.8 P,0,135532,136004,A M,0,135618,135704,394.6775,319.5132,352.9163,316.0916
Sprite,Foreground,Centre,"sb\high.png",0,0 C,0,135877,,213,86,33 M,0,135877,135963,212,264,253.3225,256.4868 F,2,135877,136349,1,0 S,2,135877,136349,1,0.8 P,0,135877,136349,A M,0,135963,136049,253.3225,256.4868,295.0837,259.9084
Sprite,Foreground,Centre,"sb\high.png",0,0 C,0,136222,,0,210,11 M,0,136222,136308,192,356,154.2461,338.4956 F,2,136222,136866,1,0 S,2,136222,136866,1,0.8 P,0,136222,136866,A M,0,136308,136394,154.2461,338.4956,128.2157,306.0574 M,0,136394,136480,128.2157,306.0574,119.3135,265.452 M,0,136480,136566,119.3135,265.452,129.2782,225.0803
Sprite,Foreground,Centre,"sb\high.png",164,140 C,0,136739,,0,210,11 F,2,136739,137039,1,0 S,2,136739,137039,1,0.8 P,0,136739,137039,A
Sprite,Foreground,Centre,"sb\high.png",212,264 C,0,136912,,0,210,11 F,2,136912,137212,1,0 S,2,136912,137212,1,0.8 P,0,136912,137212,A
Sprite,Foreground,Centre,"sb\high.png",252,180 C,0,137084,,0,210,11 F,2,137084,137384,1,0 S,2,137084,137384,1,0.8 P,0,137084,137384,A
Sprite,Foreground,Centre,"sb\high.png",72,160 C,0,137256,,0,210,11 F,2,137256,137556,1,0 S,2,137256,137556,1,0.8 P,0,137256,137556,A
Sprite,Foreground,Centre,"sb\high.png",164,140 C,0,137429,,0,210,11 F,2,137429,137729,1,0 S,2,137429,137729,1,0.8 P,0,137429,137729,A
Sprite,Foreground,Centre,"sb\high.png",132,312 C,0,137601,,245,20,16 F,2,137601,137901,1,0 S,2,137601,137901,1,0.8 P,0,137601,137901,A
Sprite,Foreground,Centre,"sb\high.png",64,248 C,0,137774,,245,20,16 F,2,137774,138074,1,0 S,2,137774,138074,1,0.8 P,0,137774,138074,A
Sprite,Foreground,Centre,"sb\high.png",220,308 C,0,137946,,245,20,16 F,2,137946,138246,1,0 S,2,137946,138246,1,0.8 P,0,137946,138246,A
Sprite,Foreground,Centre,"sb\high.png",180,392 C,0,138118,,245,20,16 F,2,138118,138418,1,0 S,2,138118,138418,1,0.8 P,0,138118,138418,A
Sprite,Foreground,Centre,"sb\high.png",0,0 C,0,138291,,245,20,16 M,0,138291,138377,224,228,263.937,215.3852 F,2,138291,138763,1,0 S,2,138291,138763,1,0.8 P,0,138291,138763,A M,0,138377,138463,263.937,215.3852,305.674,211.9383
Sprite,Foreground,Centre,"sb\high.png",0,0 C,0,138636,,245,20,16 M,0,138636,138722,444,152,402.1194,152.2305 F,2,138636,139108,1,0 S,2,138636,139108,1,0.8 P,0,138636,139108,A M,0,138722,138808,402.1194,152.2305,361.5306,141.9437
Sprite,Foreground,Centre,"sb\high.png",288,88 C,0,138981,,255,170,13 F,2,138981,139281,1,0 S,2,138981,139281,1,0.8 P,0,138981,139281,A
Sprite,Foreground,Centre,"sb\high.png",0,0 C,0,139325,,255,170,13 M,0,139325,139411,512,200,510.1756,241.9604 F,2,139325,139797,1,0 S,2,139325,139797,1,0.8 P,0,139325,139797,A M,0,139411,139497,510.1756,241.9604,508.3513,283.9207
Sprite,Foreground,Centre,"sb\high.png",352,368 C,0,139670,,255,170,13 F,2,139670,139970,1,0 S,2,139670,139970,1,0.8 P,0,139670,139970,A
Sprite,Foreground,Centre,"sb\high.png",444,376 C,0,139843,,255,170,13 F,2,139843,140143,1,0 S,2,139843,140143,1,0.8 P,0,139843,140143,A
Sprite,Foreground,Centre,"sb\high.png",268,312 C,0,140015,,255,170,13 F,2,140015,140315,1,0 S,2,140015,140315,1,0.8 P,0,140015,140315,A
Sprite,Foreground,Centre,"sb\high.png",264,404 C,0,140187,,255,170,13 F,2,140187,140487,1,0 S,2,140187,140487,1,0.8 P,0,140187,140487,A
Sprite,Foreground,Centre,"sb\high.png",0,0 C,0,140360,,213,86,33 M,0,140360,140446,336,236,328.7934,194.949 F,2,140360,140832,1,0 S,2,140360,140832,1,0.8 P,0,140360,140832,A M,0,140446,140532,328.7934,194.949,307.0553,159.4615
Sprite,Foreground,Centre,"sb\high.png",220,128 C,0,140705,,213,86,33 F,2,140705,141005,1,0 S,2,140705,141005,1,0.8 P,0,140705,141005,A
Sprite,Foreground,Centre,"sb\high.png",0,0 C,0,140877,,213,86,33 M,0,140877,140963,392,100,433.9677,100.3578 F,2,140877,141349,1,0 S,2,140877,141349,1,0.8 P,0,140877,141349,A M,0,140963,141049,433.9677,100.3578,475.2903,107.871
Sprite,Foreground,Centre,"sb\high.png",548,164 C,0,141222,,213,86,33 F,2,141222,141522,1,0 S,2,141222,141522,1,0.8 P,0,141222,141522,A
Sprite,Foreground,Centre,"sb\high.png",0,0 C,0,141394,,213,86,33 M,0,141394,141480,484,228,469.4009,266.9778 F,2,141394,141866,1,0 S,2,141394,141866,1,0.8 P,0,141394,141866,A M,0,141480,141566,469.4009,266.9778,471.1299,308.5533
Sprite,Foreground,Centre,"sb\high.png",0,0 C,0,141739,,0,210,11 M,0,141739,141825,556,344,531.1816,377.4134 F,2,141739,142383,1,0 S,2,141739,142383,1,0.8 P,0,141739,142383,A M,0,141825,141911,531.1816,377.4134,494.3465,396.7159 M,0,141911,141997,494.3465,396.7159,452.8137,398.1039 M,0,141997,142083,452.8137,398.1039,414.8224,381.3252
Sprite,Foreground,Centre,"sb\high.png",0,0 C,0,142256,,0,210,11 M,0,142256,142342,336,332,295.8397,320.9331 F,2,142256,142900,1,0 S,2,142256,142900,1,0.8 P,0,142256,142900,A M,0,142342,142428,295.8397,320.9331,254.7008,327.1941 M,0,142428,142514,254.7008,327.1941,219.7152,349.668 M,0,142514,142600,219.7152,349.668,196.9428,384.4402
Sprite,Foreground,Centre,"sb\high.png",0,0 C,0,142774,,0,210,11 M,0,142774,142860,116,336,114.0929,294.0433 F,2,142774,143246,1,0 S,2,142774,143246,1,0.8 P,0,142774,143246,A M,0,142860,142946,114.0929,294.0433,112.1858,252.0866
Sprite,Foreground,Centre,"sb\high.png",0,0 C,0,143118,,245,20,16 M,0,143118,143204,180,104,177.9782,145.9513 F,2,143118,143590,1,0 S,2,143118,143590,1,0.8 P,0,143118,143590,A M,0,143204,143290,177.9782,145.9513,176,187
Sprite,Foreground,Centre,"sb\high.png",244,248 C,0,143463,,245,20,16 F,2,143463,143763,1,0 S,2,143463,143763,1,0.8 P,0,143463,143763,A
Sprite,Foreground,Centre,"sb\high.png",0,0 C,0,143636,,245,20,16 M,0,143636,143722,324,204,365.8275,200.1975 F,2,143636,144108,1,0 S,2,143636,144108,1,0.8 P,0,143636,144108,A M,0,143722,143808,365.8275,200.1975,406.6297,209.6574
Sprite,Foreground,Centre,"sb\high.png",444,292 C,0,143981,,245,20,16 F,2,143981,144281,1,0 S,2,143981,144281,1,0.8 P,0,143981,144281,A
Sprite,Foreground,Centre,"sb\high.png",0,0 C,0,144153,,255,170,13 M,0,144153,144239,532,168,528.8335,133.2207 F,2,144153,144625,1,0 S,2,144153,144625,1,0.8 P,0,144153,144625,A M,0,144239,144325,528.8335,133.2207,518.3014,99.93607
Sprite,Foreground,Centre,"sb\high.png",180,152 C,0,145187,,213,86,33 F,2,145187,145487,1,0 S,2,145187,145487,1,0.8 P,0,145187,145487,A
Sprite,Foreground,Centre,"sb\high.png",264,112 C,0,145360,,213,86,33 F,2,145360,145660,1,0 S,2,145360,145660,1,0.8 P,0,145360,145660,A
Sprite,Foreground,Centre,"sb\high.png",148,240 C,0,145532,,213,86,33 F,2,145532,145832,1,0 S,2,145532,145832,1,0.8 P,0,145532,145832,A
Sprite,Foreground,Centre,"sb\high.png",88,172 C,0,145705,,213,86,33 F,2,145705,146005,1,0 S,2,145705,146005,1,0.8 P,0,145705,146005,A
Sprite,Foreground,Centre,"sb\high.png",0,0 C,0,145877,,0,210,11 M,0,145877,145963,236,248,251.4402,286.7955 F,2,145877,146349,1,0 S,2,145877,146349,1,0.8 P,0,145877,146349,A M,0,145963,146049,251.4402,286.7955,253.6176,328.4491
Sprite,Foreground,Centre,"sb\high.png",188,392 C,0,146222,,0,210,11 F,2,146222,146522,1,0 S,2,146222,146522,1,0.8 P,0,146222,146522,A
Sprite,Foreground,Centre,"sb\high.png",148,308 C,0,146394,,0,210,11 F,2,146394,146694,1,0 S,2,146394,146694,1,0.8 P,0,146394,146694,A
Sprite,Foreground,Centre,"sb\high.png",0,0 C,0,146567,,0,210,11 M,0,146567,146653,320,392,361.8275,395.8025 F,2,146567,147039,1,0 S,2,146567,147039,1,0.8 P,0,146567,147039,A M,0,146653,146739,361.8275,395.8025,402.6297,386.3426
Sprite,Foreground,Centre,"sb\high.png",0,0 C,0,146912,,0,210,11 M,0,146912,146998,476,328,477.8244,286.0396 F,2,146912,147384,1,0 S,2,146912,147384,1,0.8 P,0,146912,147384,A M,0,146998,147084,477.8244,286.0396,479.6487,244.0793
Sprite,Foreground,Centre,"sb\high.png",88,160 C,0,147946,,245,20,16 F,2,147946,148246,1,0 S,2,147946,148246,1,0.8 P,0,147946,148246,A
Sprite,Foreground,Centre,"sb\high.png",156,96 C,0,148118,,245,20,16 F,2,148118,148418,1,0 S,2,148118,148418,1,0.8 P,0,148118,148418,A
Sprite,Foreground,Centre,"sb\high.png",176,272 C,0,148291,,245,20,16 F,2,148291,148591,1,0 S,2,148291,148591,1,0.8 P,0,148291,148591,A
Sprite,Foreground,Centre,"sb\high.png",92,236 C,0,148463,,245,20,16 F,2,148463,148763,1,0 S,2,148463,148763,1,0.8 P,0,148463,148763,A
Sprite,Foreground,Centre,"sb\high.png",264,308 C,0,148636,,255,170,13 F,2,148636,148936,1,0 S,2,148636,148936,1,0.8 P,0,148636,148936,A
Sprite,Foreground,Centre,"sb\high.png",220,388 C,0,148808,,255,170,13 F,2,148808,149108,1,0 S,2,148808,149108,1,0.8 P,0,148808,149108,A
Sprite,Foreground,Centre,"sb\high.png",245,233 C,0,148981,,255,170,13 F,2,148981,149281,1,0 S,2,148981,149281,1,0.8 P,0,148981,149281,A
Sprite,Foreground,Centre,"sb\high.png",352,340 C,0,149153,,255,170,13 F,2,149153,149453,1,0 S,2,149153,149453,1,0.8 P,0,149153,149453,A
Sprite,Foreground,Centre,"sb\high.png",0,0 C,0,149325,,255,170,13 M,0,149325,149411,176,304,134.3019,306.7404 F,2,149325,149797,1,0 S,2,149325,149797,1,0.8 P,0,149325,149797,A M,0,149411,149497,134.3019,306.7404,95.39737,321.8795
Sprite,Foreground,Centre,"sb\high.png",0,0 C,0,149670,,255,170,13 M,0,149670,149756,245,233,285.2845,244.1497 F,2,149670,150142,1,0 S,2,149670,150142,1,0.8 P,0,149670,150142,A M,0,149756,149842,285.2845,244.1497,327.0266,242.9617
Sprite,Foreground,Centre,"sb\high.png",168,224 C,0,150705,,213,86,33 F,2,150705,151005,1,0 S,2,150705,151005,1,0.8 P,0,150705,151005,A
Sprite,Foreground,Centre,"sb\high.png",260,220 C,0,150877,,213,86,33 F,2,150877,151177,1,0 S,2,150877,151177,1,0.8 P,0,150877,151177,A
Sprite,Foreground,Centre,"sb\high.png",100,168 C,0,151049,,213,86,33 F,2,151049,151349,1,0 S,2,151049,151349,1,0.8 P,0,151049,151349,A
Sprite,Foreground,Centre,"sb\high.png",140,308 C,0,151222,,213,86,33 F,2,151222,151522,1,0 S,2,151222,151522,1,0.8 P,0,151222,151522,A
Sprite,Foreground,Centre,"sb\high.png",0,0 C,0,151394,,0,210,11 M,0,151394,151480,212,140,251.772,127.6873 F,2,151394,152038,1,0 S,2,151394,152038,1,0.8 P,0,151394,152038,A M,0,151480,151566,251.772,127.6873,292.9208,133.9081 M,0,151566,151652,292.9208,133.9081,327.247,157.4078 M,0,151652,151738,327.247,157.4078,347.9167,193.491
Sprite,Foreground,Centre,"sb\high.png",260,220 C,0,151912,,0,210,11 F,2,151912,152212,1,0 S,2,151912,152212,1,0.8 P,0,151912,152212,A
Sprite,Foreground,Centre,"sb\high.png",0,0 C,0,152084,,0,210,11 M,0,152084,152170,404,136,445.1938,128.1837 F,2,152084,152556,1,0 S,2,152084,152556,1,0.8 P,0,152084,152556,A M,0,152170,152256,445.1938,128.1837,486.7054,134.5701
Sprite,Foreground,Centre,"sb\high.png",0,0 C,0,152429,,0,210,11 M,0,152429,152515,260,220,218.8062,227.8163 F,2,152429,152901,1,0 S,2,152429,152901,1,0.8 P,0,152429,152901,A M,0,152515,152601,218.8062,227.8163,177.2946,221.4299
Sprite,Foreground,Centre,"sb\ring.png",444,316 S,22,58636,59326,0.1,1.5 F,0,58981,59326,1,0
Sprite,Foreground,Centre,"sb\ring.png",440,284 S,22,61394,62084,0.1,1.5 F,0,61739,62084,1,0
Sprite,Foreground,Centre,"sb\ring.png",328,396 S,22,64153,64843,0.1,1.5 F,0,64498,64843,1,0
Sprite,Foreground,Centre,"sb\ring.png",276,416 S,22,69670,70360,0.1,1.5 F,0,70015,70360,1,0
Sprite,Foreground,Centre,"sb\ring.png",212,188 S,22,72429,73119,0.1,1.5 F,0,72774,73119,1,0
Sprite,Foreground,Centre,"sb\ring.png",256,288 S,22,75187,75877,0.1,1.5 F,0,75532,75877,1,0
Sprite,Foreground,Centre,"sb\ring.png",212,264 S,22,135877,136567,0.1,1.5 F,0,136222,136567,1,0
Sprite,Foreground,Centre,"sb\ring.png",444,152 S,22,138636,139326,0.1,1.5 F,0,138981,139326,1,0
Sprite,Foreground,Centre,"sb\ring.png",336,236 S,22,140360,141050,0.1,1.5 F,0,140705,141050,1,0
Sprite,Foreground,Centre,"sb\ring.png",392,100 S,22,140877,141567,0.1,1.5 F,0,141222,141567,1,0
Sprite,Foreground,Centre,"sb\ring.png",484,228 S,22,141394,142084,0.1,1.5 F,0,141739,142084,1,0
Sprite,Foreground,Centre,"sb\ring.png",556,344 S,22,141739,142429,0.1,1.5 F,0,142084,142429,1,0
Sprite,Foreground,Centre,"sb\ring.png",336,332 S,22,142256,142946,0.1,1.5 F,0,142601,142946,1,0
Sprite,Foreground,Centre,"sb\ring.png",116,336 S,22,142774,143464,0.1,1.5 F,0,143119,143464,1,0
Sprite,Foreground,Centre,"sb\ring.png",180,104 S,22,143118,143808,0.1,1.5 F,0,143463,143808,1,0
Sprite,Foreground,Centre,"sb\ring.png",176,187 S,22,143291,143981,0.1,1.5 F,0,143636,143981,1,0
Sprite,Foreground,Centre,"sb\ring.png",244,248 S,22,143463,144153,0.1,1.5 F,0,143808,144153,1,0
Sprite,Foreground,Centre,"sb\ring.png",324,204 S,22,143636,144326,0.1,1.5 F,0,143981,144326,1,0
Sprite,Foreground,Centre,"sb\ring.png",532,168 S,22,144153,144843,0.1,1.5 F,0,144498,144843,1,0
Sprite,Foreground,Centre,"sb\ring.png",476,328 S,22,146912,147602,0.1,1.5 F,0,147257,147602,1,0
Sprite,Foreground,Centre,"sb\ring.png",245,233 S,22,149670,150360,0.1,1.5 F,0,150015,150360,1,0
Sprite,Foreground,Centre,"sb\ring.png",260,220 S,22,152429,153119,0.1,1.5 F,0,152774,153119,1,0
Sprite,Foreground,Centre,"sb\ring.png",200,192 S,22,157946,158291,0.1,1.5
Sprite,Foreground,Centre,"sb\ring.png",140,224 S,22,160705,161050,0.1,1.5
Sprite,Foreground,Centre,"sb\ring.png",180,348 S,22,163463,163808,0.1,1.5
Sprite,Foreground,Centre,"sb\ring.png",364,80 S,22,168981,169326,0.1,1.5
Sprite,Foreground,Centre,"sb\ring.png",428,308 S,22,171739,172084,0.1,1.5
Sprite,Foreground,Centre,"sb\ring.png",384,208 S,22,174498,174843,0.1,1.5
Sprite,Foreground,TopLeft,"sb\c\mapshadren.png",0,395 S,0,103118,,0.75 MX,19,103118,103463,97,-8 F,0,111394,,1
Sprite,Foreground,Centre,"sb\yes\cheeseonion.png",0,0 R,0,103118,103518,-1,-2 MX,0,103118,103518,757,467 MY,16,103118,103518,300,190 F,0,104498,,0.2 S,0,104498,,0.18
Sprite,Foreground,Centre,"sb\yes\hidetheminplainsight.png",0,0 F,0,110360,,0.3 S,0,110360,,0.1 M,0,110360,111050,460,180,500,210 R,0,110360,111050,1.570796,0.5 P,0,110360,111050,H
Sprite,Foreground,Centre,"sb\yes\dinomask.png",497,170 F,0,100360,103118,0,1 S,0,101050,,0.675 F,0,111394,,1
Sprite,Foreground,Centre,"sb\high.png",400,360 C,0,53463,,213,86,33 F,2,53463,55063,1,0 S,2,53463,55063,1,0.6 P,0,53463,55063,A
Sprite,Foreground,Centre,"sb\high.png",419,367 C,0,53549,,213,86,33 F,2,53549,55149,1,0 S,2,53549,55149,1,0.6 P,0,53549,55149,A
Sprite,Foreground,Centre,"sb\high.png",440,370 C,0,53635,,213,86,33 F,2,53635,55235,1,0 S,2,53635,55235,1,0.6 P,0,53635,55235,A
Sprite,Foreground,Centre,"sb\high.png",461,369 C,0,53721,,213,86,33 F,2,53721,55321,1,0 S,2,53721,55321,1,0.6 P,0,53721,55321,A
Sprite,Foreground,Centre,"sb\high.png",481,364 C,0,53807,,213,86,33 F,2,53807,55407,1,0 S,2,53807,55407,1,0.6 P,0,53807,55407,A
Sprite,Foreground,Centre,"sb\high.png",500,355 C,0,53894,,213,86,33 F,2,53894,55494,1,0 S,2,53894,55494,1,0.6 P,0,53894,55494,A
Sprite,Foreground,Centre,"sb\high.png",516,342 C,0,53980,,213,86,33 F,2,53980,55580,1,0 S,2,53980,55580,1,0.6 P,0,53980,55580,A
Sprite,Foreground,Centre,"sb\high.png",530,326 C,0,54066,,213,86,33 F,2,54066,55666,1,0 S,2,54066,55666,1,0.6 P,0,54066,55666,A
Sprite,Foreground,Centre,"sb\high.png",0,0 C,0,54153,,0,210,11 M,0,54153,54325,540,308 F,2,54153,56011,1,0 S,2,54153,56011,1,0.6 P,0,54153,56011,A M,0,54325,54411,540,308,543.4827,273.1737
Sprite,Foreground,Centre,"sb\high.png",0,0 C,0,54498,,0,210,11 M,0,54498,54670,480,232 F,2,54498,56356,1,0 S,2,54498,56356,1,0.6 P,0,54498,56356,A M,0,54670,54756,480,232,476.5174,197.1737
Sprite,Foreground,Centre,"sb\high.png",428,376 C,0,130704,,213,86,33 F,2,130704,132304,1,0 S,2,130704,132304,1,0.2 P,0,130704,132304,A
Sprite,Foreground,Centre,"sb\high.png",409,386 C,0,130790,,213,86,33 F,2,130790,132390,1,0 S,2,130790,132390,1,0.2 P,0,130790,132390,A
Sprite,Foreground,Centre,"sb\high.png",389,392 C,0,130876,,213,86,33 F,2,130876,132476,1,0 S,2,130876,132476,1,0.2 P,0,130876,132476,A
Sprite,Foreground,Centre,"sb\high.png",368,396 C,0,130962,,213,86,33 F,2,130962,132562,1,0 S,2,130962,132562,1,0.2 P,0,130962,132562,A
Sprite,Foreground,Centre,"sb\high.png",348,394 C,0,131048,,213,86,33 F,2,131048,132648,1,0 S,2,131048,132648,1,0.2 P,0,131048,132648,A
Sprite,Foreground,Centre,"sb\high.png",328,388 C,0,131135,,213,86,33 F,2,131135,132735,1,0 S,2,131135,132735,1,0.2 P,0,131135,132735,A
Sprite,Foreground,Centre,"sb\high.png",310,378 C,0,131221,,213,86,33 F,2,131221,132821,1,0 S,2,131221,132821,1,0.2 P,0,131221,132821,A
Sprite,Foreground,Centre,"sb\high.png",293,365 C,0,131307,,213,86,33 F,2,131307,132907,1,0 S,2,131307,132907,1,0.2 P,0,131307,132907,A
Sprite,Foreground,Centre,"sb\high.png",0,0 C,0,131394,,0,210,11 M,0,131394,131480,280,349,276.2381,314.2028 F,2,131394,133252,1,0 S,2,131394,133252,1,0.2 P,0,131394,133252,A M,0,131480,131566,276.2381,314.2028,280,349 M,0,131566,131652,280,349,276.2381,314.2028
Sprite,Foreground,Centre,"sb\high.png",0,0 C,0,131739,,0,210,11 M,0,131739,131825,340,272,343.4826,237.1737 F,2,131739,133597,1,0 S,2,131739,133597,1,0.2 P,0,131739,133597,A M,0,131825,131911,343.4826,237.1737,340,272 M,0,131911,131997,340,272,343.4826,237.1737
Sprite,Foreground,Centre,"sb\high.png",574,157 F,2,188636,189436,1,0 S,2,188636,189436,2,0.4 P,0,188636,189436,A
Sprite,Foreground,Centre,"sb\high.png",522,312 F,2,189325,190125,1,0 S,2,189325,190125,2,0.4 P,0,189325,190125,A
Sprite,Foreground,Centre,"sb\high.png",0,0 M,0,190015,190101,387,240,369.998,235.8734 F,2,190015,191504,1,0 S,2,190015,191504,2,0.4 P,0,190015,191504,A M,0,190101,190187,369.998,235.8734,352.7686,232.8409 M,0,190187,190273,352.7686,232.8409,335.3821,230.9145 M,0,190273,190359,335.3821,230.9145,317.9092,230.102 M,0,190359,190446,317.9092,230.102,300.4209,230.4065 M,0,190446,190532,300.4209,230.4065,282.9884,231.8268 M,0,190532,190618,282.9884,231.8268,265.6827,234.357 M,0,190618,190704,265.6827,234.357,248.546,237.8734
Sprite,Foreground,Centre,"sb\high.png",144,352 F,2,191394,192194,1,0 S,2,191394,192194,2,0.4 P,0,191394,192194,A
Sprite,Foreground,Centre,"sb\high.png",100,204 F,2,192084,192884,1,0 S,2,192084,192884,2,0.4 P,0,192084,192884,A
Sprite,Foreground,Centre,"sb\high.png",0,0 M,0,192774,192860,224,292,235.6879,305.0122 F,2,192774,194263,1,0 S,2,192774,194263,2,0.4 P,0,192774,194263,A M,0,192860,192946,235.6879,305.0122,245.5578,319.4424 M,0,192946,193032,245.5578,319.4424,252.6809,335.3924 M,0,193032,193118,252.6809,335.3924,255.9056,352.543 M,0,193118,193205,255.9056,352.543,270.0239,356.5615 M,0,193205,193291,270.0239,356.5615,287.4585,355.2078 M,0,193291,193377,287.4585,355.2078,304.5582,351.5476 M,0,193377,193463,304.5582,351.5476,321.0418,345.7055
Sprite,Foreground,Centre,"sb\high.png",472,312 F,2,194153,194953,1,0 S,2,194153,194953,2,0.4 P,0,194153,194953,A
Sprite,Foreground,Centre,"sb\high.png",328,252 F,2,194843,195643,1,0 S,2,194843,195643,2,0.4 P,0,194843,195643,A
Sprite,Foreground,Centre,"sb\high.png",0,0 M,0,195595,195710,364,132,380.412,125.955 F,2,195595,196856,1,0 S,2,195595,196856,2,0.4 P,0,195595,196856,A M,0,195710,195825,380.412,125.955,397.3804,121.7229 M,0,195825,195941,397.3804,121.7229,414.7056,119.3533 M,0,195941,196056,414.7056,119.3533,432.1839,118.8735
Sprite,Foreground,Centre,"sb\high.png",0,0 M,0,196518,196654,272,196,254.5105,195.5794 F,2,196518,197863,1,0 S,2,196518,197863,2,0.4 P,0,196518,197863,A M,0,196654,196790,254.5105,195.5794,237.0943,193.948 M,0,196790,196927,237.0943,193.948,219.8347,191.1138 M,0,196927,197063,219.8347,191.1138,202.8143,187.0905
Sprite,Foreground,Centre,"sb\high.png",0,0 M,0,197608,197750,320,296,334.609,290.6927 F,2,197608,199050,1,0 S,2,197608,199050,2,0.4 P,0,197608,199050,A M,0,197750,197893,334.609,290.6927,349.5368,286.389 M,0,197893,198036,349.5368,286.389,364.7673,283.3028 M,0,198036,198179,364.7673,283.3028,380.2026,281.433 M,0,198179,198250,380.2026,281.433,387.9677,281.0018
Sprite,Foreground,Centre,"sb\high.png",0,0 M,0,198750,198906,264,384,246.5168,383.3373 F,2,198750,200175,1,0 S,2,198750,200175,2,0.4 P,0,198750,200175,A M,0,198906,199062,246.5168,383.3373,229.1232,381.4554 M,0,199062,199218,229.1232,381.4554,211.9043,378.3635 M,0,199218,199375,211.9043,378.3635,194.9369,374.0986
Sprite,Foreground,Centre,"sb\high.png",320,248 F,2,200000,202500,1,0 S,2,200000,202500,2,0.4 P,0,200000,202500,A
//Storyboard Layer 4 (Overlay)
//Storyboard Sound Samples

[TimingPoints]
1050,689.655172413793,4,1,1,60,1,0
50705,-100,4,1,2,60,0,0
56222,-90.9090909090909,4,1,1,60,0,1
64498,-100,4,1,1,60,0,0
67256,-90.9090909090909,4,1,1,60,0,1
75532,-100,4,1,1,60,0,0
127946,-100,4,1,2,60,0,0
133463,-83.3333333333333,4,3,1,60,0,1
144153,-100,4,1,1,60,0,0
144498,-83.3333333333333,4,3,1,60,0,1
152774,-100,4,1,1,60,0,0
155532,-90.9090909090909,4,1,1,60,0,1
163808,-100,4,1,1,60,0,0
166567,-90.9090909090909,4,1,1,60,0,1
174843,-100,4,1,1,60,0,0
177601,-105.263157894737,4,1,1,60,0,0
188636,-200,4,2,1,60,0,0
195595,923.076923076923,4,2,1,60,1,0
195595,-200,4,2,1,60,0,0
196518,1090.90909090909,4,2,1,60,1,0
196518,-200,4,2,1,60,0,0
197608,1142.85714285714,4,2,1,60,1,0
197608,-225,4,2,1,60,0,0
198750,1250,4,2,1,60,1,0
198750,-200,4,2,1,60,0,0

[Colours]
Combo1 : 255,170,13
Combo2 : 213,86,33
Combo3 : 0,210,11
Combo4 : 245,20,16

[HitObjects]
256,192,7946,12,0,10705,0:0:0:0:
456,48,12084,6,0,L|452:196,1,140,4|0,0:0|0:0,0:0:0:0:
388,228,12601,1,0,0:0:0:0:
312,244,12774,2,0,P|274:238|236:236,1,70,8|0,0:0|0:0,0:0:0:0:
104,292,13118,1,0,0:0:0:0:
180,312,13291,1,0,0:0:0:0:
88,216,13463,5,0,0:0:0:0:
28,268,13636,1,0,0:0:0:0:
156,176,13808,2,0,P|152:140|124:92,1,70,4|0,0:0|0:0,0:0:0:0:
292,40,14153,2,0,P|252:88|264:180,1,140,8|0,0:0|0:0,0:0:0:0:
420,228,14843,6,0,P|399:149|329:131,1,140,4|0,0:3|0:3,0:0:0:0:
342,207,15360,1,0,0:0:0:0:
472,112,15532,2,0,L|476:36,1,70,8|0,0:0|0:0,0:0:0:0:
504,188,15877,2,0,P|504:236|492:276,1,70,0|0,0:0|0:0,0:0:0:0:
332,288,16222,5,0,0:0:0:0:
380,228,16394,1,0,0:0:0:0:
344,364,16567,1,4,0:0:0:0:
272,340,16739,1,0,0:0:0:0:
380,228,16912,2,0,B|384:176|384:176|376:136|376:136|380:80,1,140,8|0,0:0|0:0,0:0:0:0:
176,84,17601,6,0,P|180:118|196:149,1,70,4|0,0:0|0:0,0:0:0:0:
248,208,17946,2,0,P|248:244|236:280,1,70,0|0,0:0|0:0,0:0:0:0:
104,316,18291,1,8,0:0:0:0:
132,244,18463,1,0,0:0:0:0:
252,352,18636,2,0,L|340:344,1,70,0|0,0:0|0:0,0:0:0:0:
392,316,18981,6,0,L|464:320,1,70,0|0,0:0|0:0,0:0:0:0:
500,256,19325,2,0,P|508:216|504:176,1,70,4|0,0:0|0:0,0:0:0:0:
444,140,19670,2,0,B|396:132|352:144|352:144|356:120|340:80,1,140,8|0,0:0|0:0,0:0:0:0:
276,132,20187,1,0,0:0:0:0:
400,224,20360,6,0,B|396:280|404:324|404:324|380:320|352:336,1,140,4|0,0:0|0:0,0:0:0:0:
292,352,20877,1,0,0:0:0:0:
152,264,21049,1,8,0:0:0:0:
228,244,21222,1,0,0:0:0:0:
124,336,21394,1,0,0:0:0:0:
76,276,21567,1,0,0:0:0:0:
220,332,21739,6,0,P|256:344|296:340,1,70,0|0,0:0|0:0,0:0:0:0:
356,304,22084,2,0,P|392:296|436:300,1,70,0|0,0:0|0:0,0:0:0:0:
500,292,22429,2,0,B|500:248|460:228|460:228|496:184|488:152|488:152|492:140|484:132|484:132|492:108|488:92,1,210,0|0,0:0|0:0,0:0:0:0:
440,48,23118,6,0,P|368:52|320:120,1,140,4|0,0:0|0:0,0:0:0:0:
348,172,23636,1,0,0:0:0:0:
308,240,23808,2,0,L|304:328,1,70,8|0,0:0|0:0,0:0:0:0:
200,360,24153,2,0,P|188:328|192:276,1,70,0|0,0:0|0:0,0:0:0:0:
248,148,24498,5,0,0:0:0:0:
176,172,24670,1,0,0:0:0:0:
356,192,24843,1,4,0:0:0:0:
320,124,25015,1,0,0:0:0:0:
264,280,25187,2,0,P|268:324|284:364,1,70,8|0,0:0|0:0,0:0:0:0:
159,238,25532,2,0,P|172:205|175:162,1,70,0|0,0:0|0:0,0:0:0:0:
168,40,25877,6,0,P|236:64|316:60,1,140,4|0,0:0|0:0,0:0:0:0:
372,32,26394,1,0,0:0:0:0:
320,164,26567,2,0,P|284:168|244:184,1,70,8|0,0:0|0:0,0:0:0:0:
184,216,26912,2,0,P|147:214|104:200,1,70,0|0,0:0|0:0,0:0:0:0:
44,60,27256,5,0,0:0:0:0:
108,104,27429,1,0,0:0:0:0:
28,220,27601,2,0,L|32:296,1,70,4|0,0:0|0:0,0:0:0:0:
96,332,27946,2,0,P|172:336|224:296,1,140,8|0,0:0|0:0,0:0:0:0:
244,224,28463,1,0,0:0:0:0:
308,180,28636,6,0,P|348:184|388:200,1,70,4|0,0:0|0:0,0:0:0:0:
496,128,28981,2,0,P|460:136|420:132,1,70,0|0,0:0|0:0,0:0:0:0:
280,44,29325,1,8,0:0:0:0:
356,32,29498,1,0,0:0:0:0:
308,180,29670,1,0,0:0:0:0:
260,120,29843,1,0,0:0:0:0:
384,180,30015,5,0,0:0:0:0:
264,244,30187,1,0,0:0:0:0:
348,96,30360,2,0,P|384:88|432:100,1,70,4|0,0:0|0:0,0:0:0:0:
260,120,30705,2,0,B|208:124|208:124|168:116|168:116|112:120,1,140,8|0,0:0|0:0,0:0:0:0:
60,72,31222,1,0,0:0:0:0:
28,208,31394,6,0,P|32:248|48:280,1,70,4|4,0:0|0:0,0:0:0:0:
144,348,31739,2,0,P|164:316|172:276,1,70,0|0,0:0|0:0,0:0:0:0:
288,312,32084,2,0,P|268:232|276:168,1,140,8|0,0:0|0:0,0:0:0:0:
316,112,32601,1,0,0:0:0:0:
144,84,32774,5,4,0:0:0:0:
168,256,32946,1,4,0:0:0:0:
188,252,33463,1,8,0:0:0:0:
208,248,34153,5,4,0:0:0:0:
304,264,34843,1,4,0:0:0:0:
400,280,35532,1,4,0:0:0:0:
372,184,36222,1,4,0:0:0:0:
340,88,36912,6,0,B|328:80|328:80|324:64|324:64|272:96|196:84,1,140,4|0,0:0|0:0,0:0:0:0:
144,72,37429,1,0,0:0:0:0:
76,108,37601,2,0,L|72:188,1,70,4|0,0:0|0:0,0:0:0:0:
308,320,38291,6,0,B|316:272|316:272|308:232|308:232|316:172,1,140,4|0,0:0|0:0,0:0:0:0:
368,124,38808,1,0,0:0:0:0:
232,200,38981,2,0,P|192:196|156:176,1,70,4|0,0:0|0:0,0:0:0:0:
32,152,39325,2,0,P|64:144|116:144,1,70,0|0,0:0|0:0,0:0:0:0:
164,280,39670,5,4,0:0:0:0:
416,252,40360,1,4,0:0:0:0:
192,176,41049,6,0,P|168:104|216:40,1,140,4|0,0:0|0:0,0:0:0:0:
272,36,41567,1,0,0:0:0:0:
96,80,41739,2,0,B|20:76,1,70,4|0,0:0|0:0,0:0:0:0:
252,116,42084,2,0,L|336:112,1,70,0|0,0:0|0:0,0:0:0:0:
464,52,42429,5,4,0:0:0:0:
496,248,43118,1,4,0:0:0:0:
296,184,43808,1,4,0:0:0:0:
416,144,44498,1,4,0:0:0:0:
272,292,45187,6,0,P|200:304|136:272,1,140,4|0,0:0|0:0,0:0:0:0:
116,204,45705,1,0,0:0:0:0:
160,140,45877,2,0,P|152:104|128:64,1,70,0|0,0:0|0:0,0:0:0:0:
276,24,46222,2,0,P|260:60|264:116,1,70,0|0,0:0|0:0,0:0:0:0:
300,156,46567,6,0,B|348:160|348:160|392:148|392:148|448:152,1,140,0|0,0:0|0:0,0:0:0:0:
508,116,47084,1,0,0:0:0:0:
472,284,47256,1,0,0:0:0:0:
420,224,47429,1,0,0:0:0:0:
436,360,47601,1,0,0:0:0:0:
512,352,47774,1,0,0:0:0:0:
360,300,47946,6,0,P|324:304|288:320,1,70,0|0,0:0|0:0,0:0:0:0:
224,352,48291,2,0,P|188:352|144:336,1,70,0|0,0:0|0:0,0:0:0:0:
88,192,48636,1,0,0:0:0:0:
164,204,48808,1,0,0:0:0:0:
36,252,48981,1,0,0:0:0:0:
8,180,49153,1,0,0:0:0:0:
124,268,49325,5,0,0:0:0:0:
68,320,49498,1,0,0:0:0:0:
136,128,49670,1,0,0:0:0:0:
200,272,49843,1,0,0:0:0:0:
60,188,50015,2,0,P|44:156|44:108,1,70,0|0,0:0|0:0,0:0:0:0:
116,264,50360,2,0,P|108:304|80:348,1,70,0|0,0:0|0:0,0:0:0:0:
216,212,50705,6,0,B|264:208|264:208|304:216|304:216|368:212,1,140,8|8,0:0|0:0,0:0:0:0:
420,172,51222,1,0,0:0:0:0:
484,216,51394,2,0,P|492:255|492:296,1,70,8|0,0:0|0:0,0:0:0:0:
420,172,51739,2,0,P|420:136|432:92,1,70,8|0,0:0|0:0,0:0:0:0:
292,40,52084,5,8,0:0:0:0:
308,116,52256,1,0,0:0:0:0:
148,56,52429,1,8,0:0:0:0:
216,20,52601,1,0,0:0:0:0:
160,180,52774,2,0,P|124:188|76:184,1,70,8|0,0:0|0:0,0:0:0:0:
212,240,53118,2,0,P|248:240|288:252,1,70,8|0,0:0|0:0,0:0:0:0:
336,304,53463,5,8,0:0:0:0:
355,311,53549,1,0,0:0:0:0:
376,314,53635,1,8,0:0:0:0:
397,313,53721,1,0,0:0:0:0:
417,308,53807,1,8,0:0:0:0:
436,299,53894,1,0,0:0:0:0:
452,286,53980,1,8,0:0:0:0:
466,270,54066,1,0,0:0:0:0:
476,252,54153,6,0,L|480:212,3,35,8|0|8|0,0:0|0:0|0:0|0:0,0:0:0:0:
416,176,54498,2,0,L|412:136,3,35,8|0|8|0,0:0|0:0|0:0|0:0,0:0:0:0:
464,88,54843,5,4,0:0:0:0:
444,96,56222,6,0,B|400:100|376:84|376:84|328:132|288:104|288:104|264:108|264:108|248:104|220:120,1,231.000007049561,4|0,0:0|0:0,0:0:0:0:
160,164,56912,2,0,P|152:204|156:240,1,77.0000023498536,8|0,0:0|0:0,0:0:0:0:
76,144,57256,2,0,P|69:103|53:71,1,77.0000023498536,0|0,0:0|0:0,0:0:0:0:
132,40,57601,2,0,B|188:32|188:32|232:40|232:40|296:32,1,154.000004699707,0|0,0:0|0:0,0:0:0:0:
368,24,58118,1,0,0:0:0:0:
444,64,58291,2,0,P|456:104|452:152,1,77.0000023498536,8|0,0:0|0:0,0:0:0:0:
380,260,58636,2,0,L|384:172,1,77.0000023498536,4|0,0:0|0:0,0:0:0:0:
244,136,58981,6,0,B|184:144|160:128|160:128|136:160|108:168|108:168|76:140|8:156,1,231.000007049561,4|0,0:0|0:0,0:0:0:0:
56,232,59670,1,8,0:0:0:0:
8,72,59843,2,0,P|36:48|84:36,1,77.0000023498536,0|0,0:0|0:0,0:0:0:0:
156,56,60187,1,0,0:0:0:0:
236,32,60360,2,0,L|316:28,1,77.0000023498536,0|0,0:0|0:0,0:0:0:0:
328,112,60705,2,0,L|404:108,1,77.0000023498536
472,56,61049,1,8,0:0:0:0:
376,228,61394,2,0,P|337:227|292:208,1,77.0000023498536,4|0,0:0|0:0,0:0:0:0:
236,160,61739,6,0,B|196:224|244:276|244:276|196:256|136:268,1,231.000007049561,4|0,0:0|0:0,0:0:0:0:
56,252,62429,2,0,P|44:208|48:160,1,77.0000023498536,8|0,0:0|0:0,0:0:0:0:
104,116,62774,2,0,P|116:76|116:40,1,77.0000023498536,0|0,0:0|0:0,0:0:0:0:
200,40,63118,2,0,B|252:45|252:45|301:37|301:37|364:39,1,154.000004699707,0|0,0:0|0:0,0:0:0:0:
420,92,63636,1,0,0:0:0:0:
368,160,63808,2,0,P|352:216|356:244,1,77.0000023498536,8|4,0:0|0:0,0:0:0:0:
264,340,64153,2,0,P|259:299|240:260,1,77.0000023498536,0|0,0:0|0:0,0:0:0:0:
176,232,64498,6,0,P|112:192|112:112,1,140,4|4,0:0|0:0,0:0:0:0:
180,152,65015,1,0,0:0:0:0:
128,316,65187,1,8,0:0:0:0:
68,268,65360,1,4,0:0:0:0:
240,304,65532,2,0,P|276:304|328:284,1,70,0|0,0:0|0:0,0:0:0:0:
328,284,65791,1,0,0:0:0:0:
346,272,65877,5,4,0:0:0:0:
380,204,66050,2,0,L|372:132,1,70,0|4,0:0|0:0,0:0:0:0:
416,72,66394,1,4,0:0:0:0:
284,152,66567,2,0,B|248:156|248:156|208:152,1,70,8|0,0:0|0:0,0:0:0:0:
76,120,66912,2,0,B|112:116|112:116|152:120,1,70,0|0,0:0|0:0,0:0:0:0:
220,248,67256,6,0,B|228:288|256:300|256:300|244:332|264:352|264:352|300:368|340:344|340:344|376:336|404:360,1,231.000007049561,4|0,0:0|0:0,0:0:0:0:
440,192,67946,1,8,0:0:0:0:
504,248,68118,1,0,0:0:0:0:
352,188,68291,1,0,0:0:0:0:
484,120,68463,1,0,0:0:0:0:
388,276,68636,6,0,P|348:280|292:264,1,77.0000023498536,0|0,0:0|0:0,0:0:0:0:
144,236,68981,1,0,0:0:0:0:
216,192,69153,1,0,0:0:0:0:
128,336,69325,2,0,B|88:344|88:344|40:340,1,77.0000023498536,8|0,0:0|0:0,0:0:0:0:
212,360,69670,2,0,B|250:345|250:345|296:340,1,77.0000023498536,4|0,0:0|0:0,0:0:0:0:
448,352,70015,6,0,B|471:317|453:288|453:288|467:265|467:265|449:243|461:192,1,154.000004699707,4|0,0:0|0:0,0:0:0:0:
500,136,70532,1,0,0:0:0:0:
364,224,70705,2,0,P|328:240|272:228,1,77.0000023498536,8|0,0:0|0:0,0:0:0:0:
280,320,71050,2,0,P|242:309|206:263,1,77.0000023498536,0|0,0:0|0:0,0:0:0:0:
156,344,71394,6,0,P|133:313|129:275,1,77.0000023498536
44,280,71739,2,0,P|48:240|86:198,1,77.0000023498536,0|0,0:0|0:0,0:0:0:0:
63,121,72084,2,0,P|26:132|0:160,1,77.0000023498536,8|0,0:0|0:0,0:0:0:0:
148,132,72429,2,0,P|180:148|228:152,1,77.0000023498536,4|0,0:0|0:0,0:0:0:0:
296,116,72774,6,0,P|388:104|444:228,1,231.000007049561,4|0,0:0|0:0,0:0:0:0:
272,272,73463,1,8,0:0:0:0:
356,256,73636,1,0,0:0:0:0:
192,232,73808,1,0,0:0:0:0:
264,352,73981,1,0,0:0:0:0:
328,176,74153,6,0,P|320:132|296:96,1,77.0000023498536,0|0,0:0|0:0,0:0:0:0:
136,168,74498,1,0,0:0:0:0:
192,232,74670,1,0,0:0:0:0:
80,104,74843,2,0,B|72:64|72:64|76:24,1,77.0000023498536,8|4,0:0|0:0,0:0:0:0:
192,232,75187,2,0,B|196:272|196:272|192:312,1,77.0000023498536,0|0,0:0|0:0,0:0:0:0:
116,208,75532,6,0,P|168:156|244:172,1,140,4|4,0:0|0:0,0:0:0:0:
192,232,76050,1,0,0:0:0:0:
68,128,76222,2,0,P|64:88|68:40,1,70,8|4,0:0|0:0,0:0:0:0:
140,40,76567,1,0,0:0:0:0:
212,72,76739,1,0,0:0:0:0:
232,68,76825,1,0,0:0:0:0:
252,64,76912,5,4,0:0:0:0:
316,108,77084,2,0,P|348:116|388:116,1,70,0|4,0:0|0:0,0:0:0:0:
460,100,77429,1,4,0:0:0:0:
384,224,77601,2,0,B|384:260|384:260|392:300,1,70,8|0,0:0|0:0,0:0:0:0:
464,324,77946,1,0,0:0:0:0:
312,352,78118,1,0,0:0:0:0:
289,209,78291,6,0,L|293:129,1,70,4|0,0:0|0:0,0:0:0:0:
211,37,78636,2,0,L|219:121,1,70
56,154,78981,1,8,0:0:0:0:
60,78,79153,1,0,0:0:0:0:
113,210,79325,1,0,0:0:0:0:
40,231,79498,1,0,0:0:0:0:
192,260,79670,5,0,0:0:0:0:
131,308,79843,1,0,0:0:0:0:
186,184,80015,1,0,0:0:0:0:
262,287,80187,1,0,0:0:0:0:
113,210,80360,2,0,P|112:160|136:124,1,70,8|0,0:0|0:0,0:0:0:0:
188,108,80705,1,4,0:0:0:0:
262,287,80877,1,0,0:0:0:0:
344,176,81050,6,0,P|376:168|420:164,1,70,4|0,0:0|0:0,0:0:0:0:
272,204,81394,2,0,P|239:200|196:189,1,70,0|0,0:0|0:0,0:0:0:0:
116,68,81739,1,8,0:0:0:0:
180,28,81912,1,0,0:0:0:0:
92,148,82084,1,0,0:0:0:0:
42,90,82256,1,0,0:0:0:0:
212,120,82429,6,0,P|248:120|288:112,1,70,0|0,0:0|0:0,0:0:0:0:
352,88,82774,2,0,P|384:88|424:96,1,70,0|0,0:0|0:0,0:0:0:0:
456,252,83118,1,8,0:0:0:0:
316,224,83291,1,0,0:0:0:0:
364,340,83463,1,4,0:0:0:0:
248,320,83636,1,0,0:0:0:0:
388,196,83808,6,0,P|360:160|320:148,1,70,4|0,0:0|0:0,0:0:0:0:
296,84,84153,2,0,P|336:72|384:88,1,70,0|0,0:0|0:0,0:0:0:0:
256,180,84498,1,8,0:0:0:0:
180,172,84670,1,0,0:0:0:0:
116,132,84843,1,0,0:0:0:0:
92,60,85015,1,0,0:0:0:0:
224,108,85187,5,0,0:0:0:0:
180,172,85360,1,0,0:0:0:0:
180,248,85532,1,0,0:0:0:0:
216,316,85705,1,0,0:0:0:0:
388,296,85877,1,8,0:0:0:0:
332,352,86050,1,4,0:0:0:0:
284,200,86222,2,0,P|292:164|312:136,1,70,0|0,0:0|0:0,0:0:0:0:
177,188,86567,6,0,P|213:244|213:324,1,140,4|4,0:0|0:0,0:0:0:0:
148,352,87084,1,0,0:0:0:0:
296,292,87256,2,0,B|332:288|332:288|368:296,1,70,8|4,0:0|0:0,0:0:0:0:
436,324,87601,1,0,0:0:0:0:
485,264,87774,1,0,0:0:0:0:
488,243,87860,1,0,0:0:0:0:
490,223,87946,5,4,0:0:0:0:
344,152,88118,1,0,0:0:0:0:
300,212,88291,1,4,0:0:0:0:
416,128,88463,1,4,0:0:0:0:
272,72,88636,2,0,B|220:88|184:68|184:68|164:88|164:104|164:104|128:88|84:108,1,210,8|0,0:0|0:0,0:0:0:0:
48,168,89325,6,0,P|64:240|48:320,1,140,4|0,0:0|0:0,0:0:0:0:
12,368,89843,1,0,0:0:0:0:
148,312,90015,2,0,P|184:316|216:328,1,70,8|0,0:0|0:0,0:0:0:0:
284,360,90360,1,0,0:0:0:0:
360,360,90532,1,0,0:0:0:0:
428,324,90705,5,0,0:0:0:0:
468,260,90877,1,0,0:0:0:0:
432,192,91050,2,0,P|432:156|444:116,1,70,0|0,0:0|0:0,0:0:0:0:
340,44,91394,2,0,P|352:76|356:120,1,70,8|0,0:0|0:0,0:0:0:0:
296,160,91739,2,0,B|260:168|260:168|216:168,1,70,4|0,0:0|0:0,0:0:0:0:
152,148,92084,6,0,B|124:120|76:120|60:176|44:228|100:224|128:232|124:276|116:312,1,210,4|0,0:0|0:0,0:0:0:0:
168,324,92774,2,0,P|203:322|240:312,1,70,8|0,0:0|0:0,0:0:0:0:
300,272,93118,2,0,P|332:272|384:288,1,70,0|0,0:0|0:0,0:0:0:0:
440,312,93463,5,0,0:0:0:0:
424,236,93636,1,0,0:0:0:0:
424,160,93808,1,0,0:0:0:0:
458,90,93981,1,0,0:0:0:0:
339,41,94153,1,8,0:0:0:0:
306,232,94498,1,4,0:0:0:0:
92,136,94843,6,0,P|40:204|128:208,1,210,4|0,0:0|0:0,0:0:0:0:
188,168,95532,2,0,P|224:171|264:184,1,70,8|0,0:0|0:0,0:0:0:0:
320,224,95877,2,0,B|356:228|356:228|404:216,1,70,0|0,0:0|0:0,0:0:0:0:
452,172,96222,1,0,0:0:0:0:
452,96,96394,1,0,0:0:0:0:
408,32,96567,1,0,0:0:0:0:
332,20,96739,1,4,0:0:0:0:
268,64,96912,2,0,P|232:72|192:72,1,70,8|4,0:0|0:0,0:0:0:0:
80,116,97256,2,0,P|116:120|156:132,1,70,0|0,0:0|0:0,0:0:0:0:
200,188,97601,6,0,B|204:240|204:240|196:276|196:276|200:328,1,140,4|4,0:0|0:0,0:0:0:0:
272,360,98118,1,0,0:0:0:0:
124,312,98291,2,0,B|88:308|88:308|52:312,1,70,8|4,0:0|0:0,0:0:0:0:
276,256,98636,2,0,B|312:260|312:260|348:256,1,70,0|0,0:0|0:0,0:0:0:0:
384,192,98981,6,0,P|420:248|384:320,1,140,4|4,0:0|0:0,0:0:0:0:
320,332,99498,1,4,0:0:0:0:
304,182,99670,1,8,0:0:0:0:
492,347,100015,1,0,0:0:0:0:
256,192,100360,5,0,0:0:0:0:
304,136,111394,5,4,0:0:0:0:
208,120,112084,1,4,0:0:0:0:
112,104,112773,1,4,0:0:0:0:
140,200,113463,1,4,0:0:0:0:
172,296,114153,6,0,P|224:340|312:324,1,140,4|0,0:0|0:0,0:0:0:0:
368,316,114670,1,0,0:0:0:0:
436,276,114842,2,0,L|432:196,1,70,4|0,0:0|0:0,0:0:0:0:
204,64,115532,6,0,B|196:112|196:112|204:152|204:152|196:212,1,140,4|0,0:0|0:0,0:0:0:0:
144,260,116049,1,0,0:0:0:0:
280,184,116222,2,0,P|320:188|356:208,1,70,4|0,0:0|0:0,0:0:0:0:
480,232,116566,2,0,P|448:240|396:240,1,70,0|0,0:0|0:0,0:0:0:0:
348,104,116911,5,4,0:0:0:0:
96,132,117601,1,4,0:0:0:0:
320,208,118291,6,0,P|344:280|300:344,1,140,4|0,0:0|0:0,0:0:0:0:
240,348,118808,1,0,0:0:0:0:
416,304,118980,2,0,B|492:308,1,70,4|0,0:0|0:0,0:0:0:0:
260,268,119325,2,0,L|176:272,1,70,0|0,0:0|0:0,0:0:0:0:
48,332,119670,5,4,0:0:0:0:
16,136,120359,1,4,0:0:0:0:
240,92,121049,1,4,0:0:0:0:
156,276,121739,1,4,0:0:0:0:
240,92,122429,6,0,P|312:80|376:112,1,140,4|0,0:0|0:0,0:0:0:0:
396,180,122946,1,0,0:0:0:0:
352,244,123118,2,0,P|344:284|348:336,1,70,0|0,0:0|0:0,0:0:0:0:
256,280,123463,2,0,P|252:240|228:200,1,70,0|0,0:0|0:0,0:0:0:0:
172,184,123808,6,0,B|124:180|124:180|80:192|80:192|24:188,1,140,0|0,0:0|0:0,0:0:0:0:
0,256,124325,1,0,0:0:0:0:
40,100,124497,1,0,0:0:0:0:
116,108,124670,1,0,0:0:0:0:
88,36,124842,1,0,0:0:0:0:
12,28,125015,1,0,0:0:0:0:
192,132,125187,6,0,P|228:128|264:112,1,70,0|0,0:0|0:0,0:0:0:0:
324,72,125532,2,0,P|360:72|404:88,1,70,0|0,0:0|0:0,0:0:0:0:
420,244,125877,1,0,0:0:0:0:
478,194,126049,1,0,0:0:0:0:
344,219,126222,1,0,0:0:0:0:
356,296,126394,1,0,0:0:0:0:
411,160,126566,5,0,0:0:0:0:
336,144,126739,1,0,0:0:0:0:
420,244,126911,1,0,0:0:0:0:
476,120,127084,1,0,0:0:0:0:
344,219,127256,2,0,P|308:228|264:224,1,70,0|0,0:0|0:0,0:0:0:0:
216,280,127601,2,0,P|182:268|148:266,1,70,0|0,0:0|0:0,0:0:0:0:
72,288,127946,6,0,B|68:240|68:240|76:200|76:200|72:136,1,140,8|8,0:0|0:0,0:0:0:0:
20,92,128463,1,0,0:0:0:0:
72,36,128635,2,0,P|111:28|152:28,1,70,8|0,0:0|0:0,0:0:0:0:
276,72,128980,2,0,P|240:72|196:60,1,70,8|0,0:0|0:0,0:0:0:0:
140,104,129325,5,8,0:0:0:0:
288,176,129497,1,0,0:0:0:0:
216,204,129670,1,8,0:0:0:0:
276,72,129842,1,0,0:0:0:0:
364,188,130015,2,0,P|398:188|432:180,1,70,8|0,0:0|0:0,0:0:0:0:
508,308,130359,2,0,P|474:299|439:299,1,70,8|0,0:0|0:0,0:0:0:0:
364,320,130704,5,8,0:0:0:0:
345,330,130790,1,0,0:0:0:0:
325,336,130876,1,8,0:0:0:0:
304,340,130962,1,0,0:0:0:0:
284,338,131048,1,8,0:0:0:0:
264,332,131135,1,0,0:0:0:0:
246,322,131221,1,8,0:0:0:0:
229,309,131307,1,0,0:0:0:0:
216,293,131394,6,0,L|212:256,3,35,8|0|8|0,0:0|0:0|0:0|0:0,0:0:0:0:
276,216,131739,2,0,L|280:176,3,35,8|0|8|0,0:0|0:0|0:0|0:0,0:0:0:0:
344,248,132084,5,4,0:0:0:0:
120,224,133463,5,4,0:0:0:0:
128,236,133808,2,0,P|168:248|212:244,1,83.9999974365235,8|0,0:0|0:0,0:0:0:0:
296,212,134153,1,0,0:0:0:0:
148,148,134325,2,0,P|92:148|52:180,1,83.9999974365235,4|8,0:0|0:0,0:0:0:0:
200,72,134670,2,0,P|240:92|288:96,1,83.9999974365235,0|4,0:0|0:0,0:0:0:0:
356,48,135015,5,0,0:0:0:0:
428,104,135187,2,0,L|432:204,1,83.9999974365235,8|0,0:0|0:0,0:0:0:0:
372,256,135532,2,0,B|328:264|328:264|288:260,1,83.9999974365235,0|4,0:0|0:0,0:0:0:0:
148,208,135877,2,0,B|192:200|192:200|232:204,1,83.9999974365235,8|0,0:0|0:0,0:0:0:0:
128,300,136222,6,0,P|60:240|68:164,1,167.999994873047,4|8,0:0|0:0,0:0:0:0:
100,84,136739,1,0,0:0:0:0:
148,208,136912,1,0,0:0:0:0:
188,124,137084,1,4,0:0:0:0:
8,104,137256,1,8,0:0:0:0:
100,84,137429,1,0,0:0:0:0:
68,256,137601,5,4,0:0:0:0:
0,192,137774,1,0,0:0:0:0:
156,252,137946,1,8,0:0:0:0:
116,336,138118,1,0,0:0:0:0:
160,172,138291,2,0,P|196:160|244:156,1,83.9999974365235,0|4,0:0|0:0,0:0:0:0:
380,96,138636,2,0,P|336:96|284:80,1,83.9999974365235,8|0,0:0|0:0,0:0:0:0:
224,32,138981,5,4,0:0:0:0:
448,144,139325,2,0,L|444:236,1,83.9999974365235,8|0,0:0|0:0,0:0:0:0:
288,312,139670,1,0,0:0:0:0:
380,320,139843,1,4,0:0:0:0:
204,256,140015,1,8,0:0:0:0:
200,348,140187,1,0,0:0:0:0:
272,180,140360,6,0,P|264:136|236:96,1,83.9999974365235,4|0,0:0|0:0,0:0:0:0:
156,72,140705,1,8,0:0:0:0:
328,44,140877,2,0,B|368:44|368:44|412:52,1,83.9999974365235,0|0,0:0|0:0,0:0:0:0:
484,108,141222,1,4,0:0:0:0:
420,172,141394,2,0,P|404:220|408:256,1,83.9999974365235,8|0,0:0|0:0,0:0:0:0:
492,288,141739,6,0,P|408:344|336:312,1,167.999994873047,4|8,0:0|0:0,0:0:0:0:
272,276,142256,2,0,P|188:272|128:344,1,167.999994873047,4|0,0:0|0:0,0:0:0:0:
52,280,142774,2,0,L|48:192,1,83.9999974365235,8|0,0:0|0:0,0:0:0:0:
116,48,143118,6,0,L|112:131,1,83.9999974365235,8|4,0:0|0:0,0:0:0:0:
180,192,143463,1,4,0:0:0:0:
260,148,143636,2,0,B|304:144|304:144|352:156,1,83.9999974365235,8|0,0:0|0:0,0:0:0:0:
380,236,143981,1,4,0:0:0:0:
468,112,144153,6,0,P|464:73|444:24,1,70,8|0,0:0|0:0,0:0:0:0:
380,236,144498,6,0,P|372:280|376:328,1,83.9999974365235,4|0,0:0|0:0,0:0:0:0:
264,224,144843,2,0,P|280:188|280:136,1,83.9999974365235,8|0,0:0|0:0,0:0:0:0:
116,96,145187,1,0,0:0:0:0:
200,56,145360,1,4,0:0:0:0:
84,184,145532,1,8,0:0:0:0:
24,116,145705,1,0,0:0:0:0:
172,192,145877,6,0,P|188:232|188:284,1,83.9999974365235,4|0,0:0|0:0,0:0:0:0:
124,336,146222,1,8,0:0:0:0:
84,252,146394,1,0,0:0:0:0:
256,336,146567,2,0,B|300:340|300:340|348:328,1,83.9999974365235,0|4,0:0|0:0,0:0:0:0:
412,272,146912,2,0,L|416:180,1,83.9999974365235,8|0,0:0|0:0,0:0:0:0:
332,56,147256,6,0,P|344:96|336:156,1,83.9999974365235,4|0,0:0|0:0,0:0:0:0:
264,188,147601,2,0,B|220:188|220:188|176:176,1,83.9999974365235,8|0,0:0|0:0,0:0:0:0:
24,104,147946,1,0,0:0:0:0:
92,40,148118,1,4,0:0:0:0:
112,216,148291,1,8,0:0:0:0:
28,180,148463,1,0,0:0:0:0:
200,252,148636,5,4,0:0:0:0:
156,332,148808,1,0,0:0:0:0:
181,177,148981,1,8,0:0:0:0:
288,284,149153,1,0,0:0:0:0:
112,248,149325,2,0,P|64:252|16:276,1,83.9999974365235,0|4,0:0|0:0,0:0:0:0:
181,177,149670,2,0,P|227:189|280:183,1,83.9999974365235,8|0,0:0|0:0,0:0:0:0:
364,100,150015,6,0,P|404:84|456:80,1,83.9999974365235,4|0,0:0|0:0,0:0:0:0:
288,48,150360,2,0,L|200:40,1,83.9999974365235,8|0,0:0|0:0,0:0:0:0:
104,168,150705,1,0,0:0:0:0:
196,164,150877,1,4,0:0:0:0:
36,112,151049,1,8,0:0:0:0:
76,252,151222,1,0,0:0:0:0:
148,84,151394,6,0,P|248:88|288:160,1,167.999994873047,4|8,0:0|0:0,0:0:0:0:
196,164,151912,1,0,0:0:0:0:
340,80,152084,2,0,B|380:72|380:72|432:80,1,83.9999974365235,0|4,0:0|0:0,0:0:0:0:
196,164,152429,2,0,B|156:172|156:172|104:164,1,83.9999974365235,8|0,0:0|0:0,0:0:0:0:
229,251,152774,6,0,P|281:203|277:123,1,140,4|8,0:0|0:0,0:0:0:0:
196,164,153291,2,0,P|142:210|143:290,1,140,0|4,0:0|0:0,0:0:0:0:
196,324,153808,2,0,P|252:328|284:308,1,70,8|0,0:0|0:0,0:0:0:0:
284,308,154067,1,0,0:0:0:0:
308,300,154153,6,0,P|344:299|384:304,1,70,4|0,0:0|0:0,0:0:0:0:
440,256,154498,1,0,0:0:0:0:
396,192,154670,1,0,0:0:0:0:
448,136,154843,2,0,P|446:100|432:60,1,70,0|4,0:0|0:0,0:0:0:0:
364,40,155187,2,0,B|328:40|328:40|288:52,1,70,0|0,0:0|0:0,0:0:0:0:
228,100,155532,6,0,B|192:112|180:140|180:140|140:124|88:128|88:128|116:168|104:224,1,231.000007049561,4|0,0:0|0:0,0:0:0:0:
168,256,156222,2,0,P|176:296|176:336,1,77.0000023498536,10|2,0:0|0:0,0:0:0:0:
264,240,156567,2,0,P|264:200|276:152,1,77.0000023498536,2|2,0:0|0:0,0:0:0:0:
352,132,156912,6,0,L|440:136,1,77.0000023498536,2|2,0:0|0:0,0:0:0:0:
464,60,157256,2,0,L|387:56,1,77.0000023498536,2|2,0:0|0:0,0:0:0:0:
308,28,157601,2,0,B|268:24|268:24|228:32,1,77.0000023498536,10|2,0:0|0:0,0:0:0:0:
136,136,157946,2,0,P|96:132|60:116,1,77.0000023498536,4|0,0:0|0:0,0:0:0:0:
216,108,158291,6,0,P|204:188|132:220,1,154.000004699707,4|0,0:0|0:0,0:0:0:0:
60,208,158808,1,2,0:0:0:0:
183,296,158981,2,0,B|191:332|191:332|187:380,1,77.0000023498536,10|2,0:0|0:0,0:0:0:0:
287,277,159325,2,0,B|279:241|279:241|283:193,1,77.0000023498536,2|2,0:0|0:0,0:0:0:0:
335,134,159670,6,0,P|371:134|419:150,1,77.0000023498536,2|2,0:0|0:0,0:0:0:0:
252,96,160015,2,0,P|280:64|322:47,1,77.0000023498536,2|2,0:0|0:0,0:0:0:0:
164,124,160360,2,0,P|161:81|180:40,1,77.0000023498536,10|2,0:0|0:0,0:0:0:0:
76,168,160705,2,0,P|92:208|88:256,1,77.0000023498536,4|0,0:0|0:0,0:0:0:0:
140,312,161049,6,0,B|192:304|224:328|224:328|240:296|272:280|272:280|300:312|372:296,1,231.000007049561,4|0,0:0|0:0,0:0:0:0:
416,264,161739,2,0,P|424:224|416:184,1,77.0000023498536,10|2,0:0|0:0,0:0:0:0:
356,128,162084,2,0,B|352:88|352:88|360:48,1,77.0000023498536,2|2,0:0|0:0,0:0:0:0:
252,120,162429,6,0,L|264:208,1,77.0000023498536,2|2,0:0|0:0,0:0:0:0:
144,152,162774,2,0,L|152:72,1,77.0000023498536,2|2,0:0|0:0,0:0:0:0:
44,160,163118,2,0,L|52:244,1,77.0000023498536,10|6,0:0|0:0,0:0:0:0:
116,292,163463,2,0,P|156:292|196:280,1,77.0000023498536,0|0,0:0|0:0,0:0:0:0:
240,224,163808,6,0,P|311:207|370:269,1,140,4|4,0:0|0:0,0:0:0:0:
292,284,164325,1,0,0:0:0:0:
184,164,164498,2,0,L|192:88,1,70,8|4,0:0|0:0,0:0:0:0:
132,48,164843,1,0,0:0:0:0:
272,76,165015,1,0,0:0:0:0:
292,80,165101,1,0,0:0:0:0:
312,84,165187,5,4,0:0:0:0:
384,108,165360,1,0,0:0:0:0:
428,44,165532,1,4,0:0:0:0:
492,84,165705,1,4,0:0:0:0:
452,148,165877,2,0,B|454:196|454:196|446:235|446:235|448:292,1,140,8|0,0:0|0:0,0:0:0:0:
292,136,166567,6,0,B|284:96|256:84|256:84|268:52|248:32|248:32|212:16|172:40|172:40|136:48|108:24,1,231.000007049561,4|0,0:0|0:0,0:0:0:0:
72,192,167257,1,10,0:0:0:0:
8,136,167429,1,2,0:0:0:0:
160,196,167602,1,2,0:0:0:0:
28,264,167774,1,2,0:0:0:0:
124,108,167946,6,0,P|164:104|220:120,1,77.0000023498536,2|2,0:0|0:0,0:0:0:0:
368,148,168292,1,2,0:0:0:0:
296,192,168464,1,2,0:0:0:0:
384,48,168636,2,0,B|424:40|424:40|472:44,1,77.0000023498536,10|2,0:0|0:0,0:0:0:0:
300,24,168981,2,0,B|262:39|262:39|216:44,1,77.0000023498536,4|0,0:0|0:0,0:0:0:0:
64,32,169326,6,0,B|41:67|59:96|59:96|45:119|45:119|63:141|51:192,1,154.000004699707,4|0,0:0|0:0,0:0:0:0:
12,248,169843,1,2,0:0:0:0:
148,160,170015,2,0,P|184:144|240:156,1,77.0000023498536,10|2,0:0|0:0,0:0:0:0:
232,64,170361,2,0,P|270:75|306:121,1,77.0000023498536,2|2,0:0|0:0,0:0:0:0:
356,40,170705,6,0,P|379:73|376:130,1,77.0000023498536,2|2,0:0|0:0,0:0:0:0:
468,104,171050,2,0,P|464:144|426:186,1,77.0000023498536,2|2,0:0|0:0,0:0:0:0:
512,224,171395,2,0,P|484:252|427:260,1,77.0000023498536,10|2,0:0|0:0,0:0:0:0:
364,252,171740,2,0,P|332:236|284:232,1,77.0000023498536,4|0,0:0|0:0,0:0:0:0:
216,268,172085,6,0,P|124:280|68:156,1,231.000007049561,4|0,0:0|0:0,0:0:0:0:
240,112,172774,1,10,0:0:0:0:
156,128,172947,1,2,0:0:0:0:
320,152,173119,1,2,0:0:0:0:
248,32,173292,1,2,0:0:0:0:
184,208,173464,6,0,P|192:252|216:288,1,77.0000023498536,2|2,0:0|0:0,0:0:0:0:
376,216,173809,1,2,0:0:0:0:
320,152,173981,1,2,0:0:0:0:
432,280,174154,2,0,B|440:320|440:320|436:360,1,77.0000023498536,10|6,0:0|0:0,0:0:0:0:
320,152,174498,2,0,B|316:112|316:112|320:72,1,77.0000023498536,0|0,0:0|0:0,0:0:0:0:
376,216,174843,6,0,P|308:236|244:184,1,140,4|4,0:0|0:0,0:0:0:0:
228,128,175360,1,0,0:0:0:0:
192,276,175532,2,0,B|176:312|188:344|188:344|156:324|107:336,1,140,8|0,0:0|0:0,0:0:0:0:
48,304,176049,1,0,0:0:0:0:
44,284,176136,1,0,0:0:0:0:
40,264,176222,5,4,0:0:0:0:
28,188,176394,1,0,0:0:0:0:
44,112,176567,1,4,0:0:0:0:
108,68,176739,1,4,0:0:0:0:
184,76,176912,2,0,P|220:88|256:88,1,70,8|0,0:0|0:0,0:0:0:0:
392,64,177256,2,0,P|356:56|308:56,1,70,0|0,0:0|0:0,0:0:0:0:
392,144,177601,6,0,P|432:136|460:104,1,66.4999982242585,4|0,0:0|0:0,0:0:0:0:
328,200,177946,2,0,P|292:192|242:197,1,66.4999982242585
148,320,178291,1,8,0:0:0:0:
222,338,178463,1,0,0:0:0:0:
93,265,178636,1,0,0:0:0:0:
74,339,178808,1,0,0:0:0:0:
156,208,178981,6,0,P|148:172|128:142,1,66.4999982242585
244,48,179325,2,0,P|232:80|233:126,1,66.4999982242585
279,173,179670,2,0,B|315:173|315:173|353:165,1,66.4999982242585,8|0,0:0|0:0,0:0:0:0:
476,72,180015,1,4,0:0:0:0:
344,56,180187,1,0,0:0:0:0:
468,192,180360,6,0,P|468:232|461:269,1,66.4999982242585,4|0,0:0|0:0,0:0:0:0:
399,301,180705,2,0,B|363:301|363:301|325:291,1,66.4999982242585
236,164,181049,1,8,0:0:0:0:
320,188,181222,1,0,0:0:0:0:
164,208,181394,1,0,0:0:0:0:
228,80,181567,1,0,0:0:0:0:
244,264,181739,6,0,L|240:338,1,66.4999982242585
164,208,182084,2,0,L|160:136,1,66.4999982242585
116,76,182429,2,0,B|80:72|80:72|30:78,1,66.4999982242585,8|0,0:0|0:0,0:0:0:0:
228,80,182774,2,0,B|264:84|264:84|315:78,1,66.4999982242585,4|0,0:0|0:0,0:0:0:0:
372,60,183118,6,0,B|372:112|392:132|392:132|372:168|372:192|372:192|400:224|391:268,1,199.499994672775,4|0,0:0|0:0,0:0:0:0:
316,248,183808,2,0,L|230:244,1,66.4999982242585,8|0,0:0|0:0,0:0:0:0:
184,196,184153,2,0,B|148:196|148:196|107:204,1,66.4999982242585
48,356,184498,5,0,0:0:0:0:
8,292,184670,1,0,0:0:0:0:
128,352,184843,1,0,0:0:0:0:
88,288,185015,1,0,0:0:0:0:
208,352,185187,2,0,P|244:348|276:334,1,66.4999982242585,8|4,0:0|0:0,0:0:0:0:
340,292,185532,2,0,P|380:296|411:308,1,66.4999982242585
488,168,185877,6,0,P|424:204|350:187,1,132.999996448517,4|4,0:0|0:0,0:0:0:0:
311,142,186394,1,0,0:0:0:0:
246,98,186567,2,0,P|212:101|169:119,1,66.4999982242585,8|4,0:0|0:0,0:0:0:0:
126,166,186912,1,0,0:0:0:0:
60,125,187084,1,0,0:0:0:0:
56,105,187170,1,0,0:0:0:0:
52,85,187256,5,4,0:0:0:0:
108,31,187429,1,0,0:0:0:0:
185,39,187601,1,4,0:0:0:0:
260,18,187774,1,4,0:0:0:0:
319,69,187946,2,0,B|367:77|403:57|403:57|415:81|415:109|415:109|451:89|497:98,1,199.499994672775,8|0,0:0|0:0,0:0:0:0:
510,101,188636,5,2,0:0:0:0:
458,256,189325,1,2,0:0:0:0:
323,184,190015,2,0,P|253:174|184:182,1,140,2|2,0:0|0:0,0:0:0:0:
80,296,191394,5,2,0:0:0:0:
36,148,192084,1,2,0:0:0:0:
160,236,192774,2,0,B|192:268|192:300|192:300|236:304|276:280,1,140,2|2,0:0|0:0,0:0:0:0:
408,256,194153,5,2,0:0:0:0:
264,196,194843,1,2,0:0:0:0:
300,76,195595,6,0,P|344:64|384:64,1,70,2|0,0:0|0:0,0:0:0:0:
208,140,196518,6,0,P|160:136|128:128,1,70,2|0,0:0|0:0,0:0:0:0:
256,240,197608,6,0,P|296:228|324:225,1,70,2|0,0:0|0:0,0:0:0:0:
200,328,198750,6,0,P|156:324|124:316,1,70,2|0,0:0|0:0,0:0:0:0:
256,192,200000,12,2,202500,0:0:0:0:
