osu file format v14

[General]
AudioFilename: _Drumstep_ - Excision _ Pegboard Nerds - Bring The Madness _feat. Mayor Apeshit_ _Monstercat_.mp3
AudioLeadIn: 0
PreviewTime: 54843
Countdown: 0
SampleSet: Normal
StackLeniency: 0.7
Mode: 0
LetterboxInBreaks: 1
EpilepsyWarning: 1
WidescreenStoryboard: 1

[Editor]
Bookmarks: 9375,100410
DistanceSpacing: 1.6
BeatDivisor: 8
GridSize: 4
TimelineZoom: 2

[Metadata]
Title:Bring The Madness (feat. Mayor Apeshit)
TitleUnicode:Bring The Madness (feat. Mayor Apeshit)
Artist:Excision & Pegboard Nerds
ArtistUnicode:Excision & Pegboard Nerds
Creator:J1NX1337
Version:Poggo's Extra
Source:
Tags:electronic drumstep dubstep drum and bass dnb drop heavy monstercat hullahopp fcl poggo shadren p_i_k_u darky1 pringles
BeatmapID:800802
BeatmapSetID:307176

[Difficulty]
HPDrainRate:7
CircleSize:4
OverallDifficulty:8
ApproachRate:9.3
SliderMultiplier:2.2
SliderTickRate:1

[Events]
//Background and Video events
0,0,"background.jpg",0,0
//Break Periods
2,100559,101875
2,103318,104978
2,106076,107392
//Storyboard Layer 0 (Background)
Sprite,Background,Centre,"sb\high.png",489,241 F,2,156222,156522,1,0 S,2,156222,156522,1,0.8 P,0,156222,156522,A
Sprite,Background,Centre,"sb\high.png",489,241 S,0,156222,,3 F,2,156222,156522,0.5,0 P,0,156222,156522,A
Sprite,Background,Centre,"sb\high.png",413,113 F,2,156394,156694,1,0 S,2,156394,156694,1,0.8 P,0,156394,156694,A
Sprite,Background,Centre,"sb\high.png",413,113 S,0,156394,,3 F,2,156394,156694,0.5,0 P,0,156394,156694,A
Sprite,Background,Centre,"sb\high.png",152,241 F,2,156567,156867,1,0 S,2,156567,156867,1,0.8 P,0,156567,156867,A
Sprite,Background,Centre,"sb\high.png",152,241 S,0,156567,,3 F,2,156567,156867,0.5,0 P,0,156567,156867,A
Sprite,Background,Centre,"sb\high.png",228,113 F,2,156739,157039,1,0 S,2,156739,157039,1,0.8 P,0,156739,157039,A
Sprite,Background,Centre,"sb\high.png",228,113 S,0,156739,,3 F,2,156739,157039,0.5,0 P,0,156739,157039,A
Sprite,Background,Centre,"sb\high.png",388,390 F,2,156912,157212,1,0 S,2,156912,157212,1,0.8 P,0,156912,157212,A
Sprite,Background,Centre,"sb\high.png",388,390 S,0,156912,,3 F,2,156912,157212,0.5,0 P,0,156912,157212,A
Sprite,Background,Centre,"sb\high.png",388,390 F,2,157084,157384,1,0 S,2,157084,157384,1,0.8 P,0,157084,157384,A
Sprite,Background,Centre,"sb\high.png",388,390 S,0,157084,,3 F,2,157084,157384,0.5,0 P,0,157084,157384,A
Sprite,Background,Centre,"sb\high.png",489,241 F,2,157256,157556,1,0 S,2,157256,157556,1,0.8 P,0,157256,157556,A
Sprite,Background,Centre,"sb\high.png",489,241 S,0,157256,,3 F,2,157256,157556,0.5,0 P,0,157256,157556,A
Sprite,Background,Centre,"sb\high.png",152,241 F,2,157429,157729,1,0 S,2,157429,157729,1,0.8 P,0,157429,157729,A
Sprite,Background,Centre,"sb\high.png",152,241 S,0,157429,,3 F,2,157429,157729,0.5,0 P,0,157429,157729,A
Sprite,Background,Centre,"sb\high.png",321,129 F,2,157601,157901,1,0 S,2,157601,157901,1,0.8 P,0,157601,157901,A
Sprite,Background,Centre,"sb\high.png",321,129 S,0,157601,,3 F,2,157601,157901,0.5,0 P,0,157601,157901,A
Sprite,Background,Centre,"sb\high.png",255,385 F,2,157774,158074,1,0 S,2,157774,158074,1,0.8 P,0,157774,158074,A
Sprite,Background,Centre,"sb\high.png",255,385 S,0,157774,,3 F,2,157774,158074,0.5,0 P,0,157774,158074,A
Sprite,Background,Centre,"sb\high.png",0,0 M,0,157946,158032,152,241,221.6087,230.4957 F,2,157946,158504,1,0 S,2,157946,158504,1,0.8 P,0,157946,158504,A M,0,158032,158118,221.6087,230.4957,287.2886,222.6813 M,0,158118,158204,287.2886,222.6813,357.774,209.5709
Sprite,Background,Centre,"sb\high.png",152,241 S,0,157946,,3 F,2,157946,158504,0.5,0 P,0,157946,158504,A
Sprite,Background,Centre,"sb\high.png",404,424 F,2,158981,159281,1,0 S,2,158981,159281,1,0.8 P,0,158981,159281,A
Sprite,Background,Centre,"sb\high.png",404,424 S,0,158981,,3 F,2,158981,159281,0.5,0 P,0,158981,159281,A
Sprite,Background,Centre,"sb\high.png",320,300 F,2,159153,159453,1,0 S,2,159153,159453,1,0.8 P,0,159153,159453,A
Sprite,Background,Centre,"sb\high.png",320,300 S,0,159153,,3 F,2,159153,159453,0.5,0 P,0,159153,159453,A
Sprite,Background,Centre,"sb\high.png",236,424 F,2,159325,159625,1,0 S,2,159325,159625,1,0.8 P,0,159325,159625,A
Sprite,Background,Centre,"sb\high.png",236,424 S,0,159325,,3 F,2,159325,159625,0.5,0 P,0,159325,159625,A
Sprite,Background,Centre,"sb\high.png",404,332 F,2,159498,159798,1,0 S,2,159498,159798,1,0.8 P,0,159498,159798,A
Sprite,Background,Centre,"sb\high.png",404,332 S,0,159498,,3 F,2,159498,159798,0.5,0 P,0,159498,159798,A
Sprite,Background,Centre,"sb\high.png",188,175 F,2,159670,159970,1,0 S,2,159670,159970,1,0.8 P,0,159670,159970,A
Sprite,Background,Centre,"sb\high.png",188,175 S,0,159670,,3 F,2,159670,159970,0.5,0 P,0,159670,159970,A
Sprite,Background,Centre,"sb\high.png",188,175 F,2,159843,160143,1,0 S,2,159843,160143,1,0.8 P,0,159843,160143,A
Sprite,Background,Centre,"sb\high.png",188,175 S,0,159843,,3 F,2,159843,160143,0.5,0 P,0,159843,160143,A
Sprite,Background,Centre,"sb\high.png",454,175 F,2,160015,160315,1,0 S,2,160015,160315,1,0.8 P,0,160015,160315,A
Sprite,Background,Centre,"sb\high.png",454,175 S,0,160015,,3 F,2,160015,160315,0.5,0 P,0,160015,160315,A
Sprite,Background,Centre,"sb\high.png",238,331 F,2,160187,160487,1,0 S,2,160187,160487,1,0.8 P,0,160187,160487,A
Sprite,Background,Centre,"sb\high.png",238,331 S,0,160187,,3 F,2,160187,160487,0.5,0 P,0,160187,160487,A
Sprite,Background,Centre,"sb\high.png",321,78 F,2,160360,160660,1,0 S,2,160360,160660,1,0.8 P,0,160360,160660,A
Sprite,Background,Centre,"sb\high.png",321,78 S,0,160360,,3 F,2,160360,160660,0.5,0 P,0,160360,160660,A
Sprite,Background,Centre,"sb\high.png",404,332 F,2,160532,160832,1,0 S,2,160532,160832,1,0.8 P,0,160532,160832,A
Sprite,Background,Centre,"sb\high.png",404,332 S,0,160532,,3 F,2,160532,160832,0.5,0 P,0,160532,160832,A
Sprite,Background,Centre,"sb\high.png",0,0 M,0,160705,160791,188,175,253.0549,202.1207 F,2,160705,161265,1,0 S,2,160705,161265,1,0.8 P,0,160705,161265,A M,0,160791,160877,253.0549,202.1207,275.2457,268.8665 M,0,160877,160965,275.2457,268.8665,237.9362,329.9835
Sprite,Background,Centre,"sb\high.png",188,175 S,0,160705,,3 F,2,160705,161265,0.5,0 P,0,160705,161265,A
Sprite,Background,Centre,"sb\high.png",456,100 F,2,161739,162039,1,0 S,2,161739,162039,1,0.8 P,0,161739,162039,A
Sprite,Background,Centre,"sb\high.png",456,100 S,0,161739,,3 F,2,161739,162039,0.5,0 P,0,161739,162039,A
Sprite,Background,Centre,"sb\high.png",548,216 F,2,161912,162212,1,0 S,2,161912,162212,1,0.8 P,0,161912,162212,A
Sprite,Background,Centre,"sb\high.png",548,216 S,0,161912,,3 F,2,161912,162212,0.5,0 P,0,161912,162212,A
Sprite,Background,Centre,"sb\high.png",404,248 F,2,162084,162384,1,0 S,2,162084,162384,1,0.8 P,0,162084,162384,A
Sprite,Background,Centre,"sb\high.png",404,248 S,0,162084,,3 F,2,162084,162384,0.5,0 P,0,162084,162384,A
Sprite,Background,Centre,"sb\high.png",540,132 F,2,162256,162556,1,0 S,2,162256,162556,1,0.8 P,0,162256,162556,A
Sprite,Background,Centre,"sb\high.png",540,132 S,0,162256,,3 F,2,162256,162556,0.5,0 P,0,162256,162556,A
Sprite,Background,Centre,"sb\high.png",485,269 F,2,162429,162729,1,0 S,2,162429,162729,1,0.8 P,0,162429,162729,A
Sprite,Background,Centre,"sb\high.png",485,269 S,0,162429,,3 F,2,162429,162729,0.5,0 P,0,162429,162729,A
Sprite,Background,Centre,"sb\high.png",485,269 F,2,162601,162901,1,0 S,2,162601,162901,1,0.8 P,0,162601,162901,A
Sprite,Background,Centre,"sb\high.png",485,269 S,0,162601,,3 F,2,162601,162901,0.5,0 P,0,162601,162901,A
Sprite,Background,Centre,"sb\high.png",385,159 F,2,162774,163074,1,0 S,2,162774,163074,1,0.8 P,0,162774,163074,A
Sprite,Background,Centre,"sb\high.png",385,159 S,0,162774,,3 F,2,162774,163074,0.5,0 P,0,162774,163074,A
Sprite,Background,Centre,"sb\high.png",320,396 F,2,162946,163246,1,0 S,2,162946,163246,1,0.8 P,0,162946,163246,A
Sprite,Background,Centre,"sb\high.png",320,396 S,0,162946,,3 F,2,162946,163246,0.5,0 P,0,162946,163246,A
Sprite,Background,Centre,"sb\high.png",255,159 F,2,163118,163418,1,0 S,2,163118,163418,1,0.8 P,0,163118,163418,A
Sprite,Background,Centre,"sb\high.png",255,159 S,0,163118,,3 F,2,163118,163418,0.5,0 P,0,163118,163418,A
Sprite,Background,Centre,"sb\high.png",158,333 F,2,163291,163591,1,0 S,2,163291,163591,1,0.8 P,0,163291,163591,A
Sprite,Background,Centre,"sb\high.png",158,333 S,0,163291,,3 F,2,163291,163591,0.5,0 P,0,163291,163591,A
Sprite,Background,Centre,"sb\high.png",0,0 M,0,163463,163549,404,352,356.9473,299.0842 F,2,163463,164021,1,0 S,2,163463,164021,1,0.8 P,0,163463,164021,A M,0,163549,163635,356.9473,299.0842,286.1655,297.827 M,0,163635,163721,286.1655,297.827,237.2547,349.0058
Sprite,Background,Centre,"sb\high.png",404,352 S,0,163463,,3 F,2,163463,164021,0.5,0 P,0,163463,164021,A
Sprite,Background,Centre,"sb\high.png",280,428 F,2,167256,167556,1,0 S,2,167256,167556,1,0.8 P,0,167256,167556,A
Sprite,Background,Centre,"sb\high.png",280,428 S,0,167256,,3 F,2,167256,167556,0.5,0 P,0,167256,167556,A
Sprite,Background,Centre,"sb\high.png",280,194 F,2,167429,167729,1,0 S,2,167429,167729,1,0.8 P,0,167429,167729,A
Sprite,Background,Centre,"sb\high.png",280,194 S,0,167429,,3 F,2,167429,167729,0.5,0 P,0,167429,167729,A
Sprite,Background,Centre,"sb\high.png",163,311 F,2,167601,167901,1,0 S,2,167601,167901,1,0.8 P,0,167601,167901,A
Sprite,Background,Centre,"sb\high.png",163,311 S,0,167601,,3 F,2,167601,167901,0.5,0 P,0,167601,167901,A
Sprite,Background,Centre,"sb\high.png",396,311 F,2,167774,168074,1,0 S,2,167774,168074,1,0.8 P,0,167774,168074,A
Sprite,Background,Centre,"sb\high.png",396,311 S,0,167774,,3 F,2,167774,168074,0.5,0 P,0,167774,168074,A
Sprite,Background,Centre,"sb\high.png",282,279 F,2,167946,168246,1,0 S,2,167946,168246,1,0.8 P,0,167946,168246,A
Sprite,Background,Centre,"sb\high.png",282,279 S,0,167946,,3 F,2,167946,168246,0.5,0 P,0,167946,168246,A
Sprite,Background,Centre,"sb\high.png",282,279 F,2,168118,168418,1,0 S,2,168118,168418,1,0.8 P,0,168118,168418,A
Sprite,Background,Centre,"sb\high.png",282,279 S,0,168118,,3 F,2,168118,168418,0.5,0 P,0,168118,168418,A
Sprite,Background,Centre,"sb\high.png",513,312 F,2,168291,168591,1,0 S,2,168291,168591,1,0.8 P,0,168291,168591,A
Sprite,Background,Centre,"sb\high.png",513,312 S,0,168291,,3 F,2,168291,168591,0.5,0 P,0,168291,168591,A
Sprite,Background,Centre,"sb\high.png",376,163 F,2,168463,168763,1,0 S,2,168463,168763,1,0.8 P,0,168463,168763,A
Sprite,Background,Centre,"sb\high.png",376,163 S,0,168463,,3 F,2,168463,168763,0.5,0 P,0,168463,168763,A
Sprite,Background,Centre,"sb\high.png",437,426 F,2,168636,168936,1,0 S,2,168636,168936,1,0.8 P,0,168636,168936,A
Sprite,Background,Centre,"sb\high.png",437,426 S,0,168636,,3 F,2,168636,168936,0.5,0 P,0,168636,168936,A
Sprite,Background,Centre,"sb\high.png",490,202 F,2,168808,169108,1,0 S,2,168808,169108,1,0.8 P,0,168808,169108,A
Sprite,Background,Centre,"sb\high.png",490,202 S,0,168808,,3 F,2,168808,169108,0.5,0 P,0,168808,169108,A
Sprite,Background,Centre,"sb\high.png",0,0 M,0,168981,169067,396,311,355.3407,366.0766 F,2,168981,169539,1,0 S,2,168981,169539,1,0.8 P,0,168981,169539,A M,0,169067,169153,355.3407,366.0766,289.5416,347.471 M,0,169153,169239,289.5416,347.471,283.6649,279.3436
Sprite,Background,Centre,"sb\high.png",396,311 S,0,168981,,3 F,2,168981,169539,0.5,0 P,0,168981,169539,A
Sprite,Background,Centre,"sb\high.png",180,280 F,2,170015,170315,1,0 S,2,170015,170315,1,0.8 P,0,170015,170315,A
Sprite,Background,Centre,"sb\high.png",180,280 S,0,170015,,3 F,2,170015,170315,0.5,0 P,0,170015,170315,A
Sprite,Background,Centre,"sb\high.png",320,88 F,2,170187,170487,1,0 S,2,170187,170487,1,0.8 P,0,170187,170487,A
Sprite,Background,Centre,"sb\high.png",320,88 S,0,170187,,3 F,2,170187,170487,0.5,0 P,0,170187,170487,A
Sprite,Background,Centre,"sb\high.png",460,280 F,2,170360,170660,1,0 S,2,170360,170660,1,0.8 P,0,170360,170660,A
Sprite,Background,Centre,"sb\high.png",460,280 S,0,170360,,3 F,2,170360,170660,0.5,0 P,0,170360,170660,A
Sprite,Background,Centre,"sb\high.png",187,138 F,2,170532,170832,1,0 S,2,170532,170832,1,0.8 P,0,170532,170832,A
Sprite,Background,Centre,"sb\high.png",187,138 S,0,170532,,3 F,2,170532,170832,0.5,0 P,0,170532,170832,A
Sprite,Background,Centre,"sb\high.png",464,137 F,2,170705,171005,1,0 S,2,170705,171005,1,0.8 P,0,170705,171005,A
Sprite,Background,Centre,"sb\high.png",464,137 S,0,170705,,3 F,2,170705,171005,0.5,0 P,0,170705,171005,A
Sprite,Background,Centre,"sb\high.png",464,137 F,2,170877,171177,1,0 S,2,170877,171177,1,0.8 P,0,170877,171177,A
Sprite,Background,Centre,"sb\high.png",464,137 S,0,170877,,3 F,2,170877,171177,0.5,0 P,0,170877,171177,A
Sprite,Background,Centre,"sb\high.png",320,344 F,2,171049,171349,1,0 S,2,171049,171349,1,0.8 P,0,171049,171349,A
Sprite,Background,Centre,"sb\high.png",320,344 S,0,171049,,3 F,2,171049,171349,0.5,0 P,0,171049,171349,A
Sprite,Background,Centre,"sb\high.png",320,192 F,2,171222,171522,1,0 S,2,171222,171522,1,0.8 P,0,171222,171522,A
Sprite,Background,Centre,"sb\high.png",320,192 S,0,171222,,3 F,2,171222,171522,0.5,0 P,0,171222,171522,A
Sprite,Background,Centre,"sb\high.png",432,400 F,2,171394,171694,1,0 S,2,171394,171694,1,0.8 P,0,171394,171694,A
Sprite,Background,Centre,"sb\high.png",432,400 S,0,171394,,3 F,2,171394,171694,0.5,0 P,0,171394,171694,A
Sprite,Background,Centre,"sb\high.png",208,400 F,2,171567,171867,1,0 S,2,171567,171867,1,0.8 P,0,171567,171867,A
Sprite,Background,Centre,"sb\high.png",208,400 S,0,171567,,3 F,2,171567,171867,0.5,0 P,0,171567,171867,A
Sprite,Background,Centre,"sb\high.png",0,0 M,0,171739,171825,319,192,247.8801,207.8974 F,2,171739,172297,1,0 S,2,171739,172297,1,0.8 P,0,171739,172297,A M,0,171825,171911,247.8801,207.8974,203.2984,161.9573 M,0,171911,171997,203.2984,161.9573,135.256,140.5648
Sprite,Background,Centre,"sb\high.png",319,192 S,0,171739,,3 F,2,171739,172297,0.5,0 P,0,171739,172297,A
Sprite,Background,Centre,"sb\high.png",404,368 F,2,172774,173074,1,0 S,2,172774,173074,1,0.8 P,0,172774,173074,A
Sprite,Background,Centre,"sb\high.png",404,368 S,0,172774,,3 F,2,172774,173074,0.5,0 P,0,172774,173074,A
Sprite,Background,Centre,"sb\high.png",532,296 F,2,172946,173246,1,0 S,2,172946,173246,1,0.8 P,0,172946,173246,A
Sprite,Background,Centre,"sb\high.png",532,296 S,0,172946,,3 F,2,172946,173246,0.5,0 P,0,172946,173246,A
Sprite,Background,Centre,"sb\high.png",384,272 F,2,173118,173418,1,0 S,2,173118,173418,1,0.8 P,0,173118,173418,A
Sprite,Background,Centre,"sb\high.png",384,272 S,0,173118,,3 F,2,173118,173418,0.5,0 P,0,173118,173418,A
Sprite,Background,Centre,"sb\high.png",516,204 F,2,173291,173591,1,0 S,2,173291,173591,1,0.8 P,0,173291,173591,A
Sprite,Background,Centre,"sb\high.png",516,204 S,0,173291,,3 F,2,173291,173591,0.5,0 P,0,173291,173591,A
Sprite,Background,Centre,"sb\high.png",236,128 F,2,173463,173763,1,0 S,2,173463,173763,1,0.8 P,0,173463,173763,A
Sprite,Background,Centre,"sb\high.png",236,128 S,0,173463,,3 F,2,173463,173763,0.5,0 P,0,173463,173763,A
Sprite,Background,Centre,"sb\high.png",236,128 F,2,173636,173936,1,0 S,2,173636,173936,1,0.8 P,0,173636,173936,A
Sprite,Background,Centre,"sb\high.png",236,128 S,0,173636,,3 F,2,173636,173936,0.5,0 P,0,173636,173936,A
Sprite,Background,Centre,"sb\high.png",108,200 F,2,173808,174108,1,0 S,2,173808,174108,1,0.8 P,0,173808,174108,A
Sprite,Background,Centre,"sb\high.png",108,200 S,0,173808,,3 F,2,173808,174108,0.5,0 P,0,173808,174108,A
Sprite,Background,Centre,"sb\high.png",256,224 F,2,173981,174281,1,0 S,2,173981,174281,1,0.8 P,0,173981,174281,A
Sprite,Background,Centre,"sb\high.png",256,224 S,0,173981,,3 F,2,173981,174281,0.5,0 P,0,173981,174281,A
Sprite,Background,Centre,"sb\high.png",124,292 F,2,174153,174453,1,0 S,2,174153,174453,1,0.8 P,0,174153,174453,A
Sprite,Background,Centre,"sb\high.png",124,292 S,0,174153,,3 F,2,174153,174453,0.5,0 P,0,174153,174453,A
Sprite,Background,Centre,"sb\high.png",236,128 F,2,174325,174625,1,0 S,2,174325,174625,1,0.8 P,0,174325,174625,A
Sprite,Background,Centre,"sb\high.png",236,128 S,0,174325,,3 F,2,174325,174625,0.5,0 P,0,174325,174625,A
Sprite,Background,Centre,"sb\high.png",0,0 M,0,174498,174584,321,391,305.987,319.6882 F,2,174498,175056,1,0 S,2,174498,175056,1,0.8 P,0,174498,175056,A M,0,174584,174670,305.987,319.6882,335.4934,256.1367 M,0,174670,174756,335.4934,256.1367,319.8685,184.9565
Sprite,Background,Centre,"sb\high.png",321,391 S,0,174498,,3 F,2,174498,175056,0.5,0 P,0,174498,175056,A
//Storyboard Layer 1 (Fail)
//Storyboard Layer 2 (Pass)
//Storyboard Layer 3 (Foreground)
Sprite,Foreground,Centre,"sb\high.png",464,164 C,0,56912,,245,20,16 F,2,56912,57212,1,0 S,2,56912,57212,1,0.8 P,0,56912,57212,A
Sprite,Foreground,Centre,"sb\high.png",320,348 C,0,57084,,245,20,16 F,2,57084,57384,1,0 S,2,57084,57384,1,0.8 P,0,57084,57384,A
Sprite,Foreground,Centre,"sb\high.png",176,164 C,0,57256,,245,20,16 F,2,57256,57556,1,0 S,2,57256,57556,1,0.8 P,0,57256,57556,A
Sprite,Foreground,Centre,"sb\high.png",432,272 C,0,57429,,245,20,16 F,2,57429,57729,1,0 S,2,57429,57729,1,0.8 P,0,57429,57729,A
Sprite,Foreground,Centre,"sb\high.png",208,272 C,0,57601,,245,20,16 F,2,57601,57901,1,0 S,2,57601,57901,1,0.8 P,0,57601,57901,A
Sprite,Foreground,Centre,"sb\high.png",208,272 C,0,57946,,255,170,13 F,2,57946,58246,1,0 S,2,57946,58246,1,0.8 P,0,57946,58246,A
Sprite,Foreground,Centre,"sb\high.png",320,101 C,0,58118,,255,170,13 F,2,58118,58418,1,0 S,2,58118,58418,1,0.8 P,0,58118,58418,A
Sprite,Foreground,Centre,"sb\high.png",432,272 C,0,58291,,255,170,13 F,2,58291,58591,1,0 S,2,58291,58591,1,0.8 P,0,58291,58591,A
Sprite,Foreground,Centre,"sb\high.png",220,392 C,0,58463,,255,170,13 F,2,58463,58763,1,0 S,2,58463,58763,1,0.8 P,0,58463,58763,A
Sprite,Foreground,Centre,"sb\high.png",0,0 C,0,58636,,255,170,13 M,0,58636,58722,420,391,473.6108,384.7379 F,2,58636,59108,1,0 S,2,58636,59108,1,0.8 P,0,58636,59108,A M,0,58722,58808,473.6108,384.7379,513.5538,348.4597
Sprite,Foreground,Centre,"sb\high.png",0,0 C,0,59670,,0,210,11 M,0,59670,59756,200,352,240.6926,350.546 F,2,59670,60142,1,0 S,2,59670,60142,1,0.8 P,0,59670,60142,A M,0,59756,59842,240.6926,350.546,275.8669,330.2375
Sprite,Foreground,Centre,"sb\high.png",0,0 C,0,60015,,0,210,11 M,0,60015,60101,216,128,217.454,168.6926 F,2,60015,60487,1,0 S,2,60015,60487,1,0.8 P,0,60015,60487,A M,0,60101,60187,217.454,168.6926,237.7624,203.8669
Sprite,Foreground,Centre,"sb\high.png",0,0 C,0,60360,,0,210,11 M,0,60360,60446,424,368,422.546,327.3074 F,2,60360,60832,1,0 S,2,60360,60832,1,0.8 P,0,60360,60832,A M,0,60446,60532,422.546,327.3074,402.2375,292.1331
Sprite,Foreground,Centre,"sb\high.png",216,128 C,0,60705,,0,210,11 F,2,60705,61005,1,0 S,2,60705,61005,1,0.8 P,0,60705,61005,A
Sprite,Foreground,Centre,"sb\high.png",472,296 C,0,60877,,0,210,11 F,2,60877,61177,1,0 S,2,60877,61177,1,0.8 P,0,60877,61177,A
Sprite,Foreground,Centre,"sb\high.png",168,200 C,0,61049,,0,210,11 F,2,61049,61349,1,0 S,2,61049,61349,1,0.8 P,0,61049,61349,A
Sprite,Foreground,Centre,"sb\high.png",285,393 C,0,61222,,0,210,11 F,2,61222,61522,1,0 S,2,61222,61522,1,0.8 P,0,61222,61522,A
Sprite,Foreground,Centre,"sb\high.png",0,0 C,0,61394,,0,210,11 M,0,61394,61480,424,368,377.9233,316.03 F,2,61394,61952,1,0 S,2,61394,61952,1,0.8 P,0,61394,61952,A M,0,61480,61566,377.9233,316.03,309.791,328.3776 M,0,61566,61652,309.791,328.3776,285.3317,393.2108
Sprite,Foreground,Centre,"sb\high.png",0,0 C,0,62429,,255,170,13 M,0,62429,62515,124,104,130.368,144.7555 F,2,62429,62901,1,0 S,2,62429,62901,1,0.8 P,0,62429,62901,A M,0,62515,62601,130.368,144.7555,136.7361,185.511
Sprite,Foreground,Centre,"sb\high.png",0,0 C,0,62774,,255,170,13 M,0,62774,62860,224,396,230.368,355.2445 F,2,62774,63246,1,0 S,2,62774,63246,1,0.8 P,0,62774,63246,A M,0,62860,62946,230.368,355.2445,236.7361,314.489
Sprite,Foreground,Centre,"sb\high.png",0,0 C,0,63118,,255,170,13 M,0,63118,63204,424,108,417.632,148.7555 F,2,63118,63590,1,0 S,2,63118,63590,1,0.8 P,0,63118,63590,A M,0,63204,63290,417.632,148.7555,411.2639,189.511
Sprite,Foreground,Centre,"sb\high.png",516,396 C,0,63463,,255,170,13 F,2,63463,63763,1,0 S,2,63463,63763,1,0.8 P,0,63463,63763,A
Sprite,Foreground,Centre,"sb\high.png",0,0 C,0,63636,,255,170,13 M,0,63636,63722,516,396,522.368,355.2445 F,2,63636,64108,1,0 S,2,63636,64108,1,0.8 P,0,63636,64108,A M,0,63722,63808,522.368,355.2445,528.7361,314.489
Sprite,Foreground,Centre,"sb\high.png",424,108 C,0,63981,,255,170,13 F,2,63981,64281,1,0 S,2,63981,64281,1,0.8 P,0,63981,64281,A
Sprite,Foreground,Centre,"sb\high.png",320,332 C,0,64153,,255,170,13 F,2,64153,64453,1,0 S,2,64153,64453,1,0.8 P,0,64153,64453,A
Sprite,Foreground,Centre,"sb\high.png",360,332 C,0,67946,,245,20,16 F,2,67946,68246,1,0 S,2,67946,68246,1,0.8 P,0,67946,68246,A
Sprite,Foreground,Centre,"sb\high.png",360,91 C,0,68118,,245,20,16 F,2,68118,68418,1,0 S,2,68118,68418,1,0.8 P,0,68118,68418,A
Sprite,Foreground,Centre,"sb\high.png",218,286 C,0,68291,,245,20,16 F,2,68291,68591,1,0 S,2,68291,68591,1,0.8 P,0,68291,68591,A
Sprite,Foreground,Centre,"sb\high.png",447,211 C,0,68463,,245,20,16 F,2,68463,68763,1,0 S,2,68463,68763,1,0.8 P,0,68463,68763,A
Sprite,Foreground,Centre,"sb\high.png",211,140 C,0,68636,,245,20,16 F,2,68636,68936,1,0 S,2,68636,68936,1,0.8 P,0,68636,68936,A
Sprite,Foreground,Centre,"sb\high.png",390,330 C,0,68981,,255,170,13 F,2,68981,69281,1,0 S,2,68981,69281,1,0.8 P,0,68981,69281,A
Sprite,Foreground,Centre,"sb\high.png",360,91 C,0,69154,,255,170,13 F,2,69154,69454,1,0 S,2,69154,69454,1,0.8 P,0,69154,69454,A
Sprite,Foreground,Centre,"sb\high.png",244,302 C,0,69326,,255,170,13 F,2,69326,69626,1,0 S,2,69326,69626,1,0.8 P,0,69326,69626,A
Sprite,Foreground,Centre,"sb\high.png",447,211 C,0,69499,,255,170,13 F,2,69499,69799,1,0 S,2,69499,69799,1,0.8 P,0,69499,69799,A
Sprite,Foreground,Centre,"sb\high.png",0,0 C,0,69670,,255,170,13 M,0,69670,69756,340,200,329.5022,253.9888 F,2,69670,70142,1,0 S,2,69670,70142,1,0.8 P,0,69670,70142,A M,0,69756,69842,329.5022,253.9888,319.0043,307.9777
Sprite,Foreground,Centre,"sb\high.png",488,176 C,0,70705,,0,210,11 F,2,70705,71005,1,0 S,2,70705,71005,1,0.8 P,0,70705,71005,A
Sprite,Foreground,Centre,"sb\high.png",392,100 C,0,70877,,0,210,11 F,2,70877,71177,1,0 S,2,70877,71177,1,0.8 P,0,70877,71177,A
Sprite,Foreground,Centre,"sb\high.png",152,176 C,0,71050,,0,210,11 F,2,71050,71350,1,0 S,2,71050,71350,1,0.8 P,0,71050,71350,A
Sprite,Foreground,Centre,"sb\high.png",248,100 C,0,71222,,0,210,11 F,2,71222,71522,1,0 S,2,71222,71522,1,0.8 P,0,71222,71522,A
Sprite,Foreground,Centre,"sb\high.png",412,296 C,0,71394,,0,210,11 F,2,71394,71694,1,0 S,2,71394,71694,1,0.8 P,0,71394,71694,A
Sprite,Foreground,Centre,"sb\high.png",320,148 C,0,71567,,0,210,11 F,2,71567,71867,1,0 S,2,71567,71867,1,0.8 P,0,71567,71867,A
Sprite,Foreground,Centre,"sb\high.png",228,296 C,0,71739,,0,210,11 F,2,71739,72039,1,0 S,2,71739,72039,1,0.8 P,0,71739,72039,A
Sprite,Foreground,Centre,"sb\high.png",320,148 C,0,71912,,0,210,11 F,2,71912,72212,1,0 S,2,71912,72212,1,0.8 P,0,71912,72212,A
Sprite,Foreground,Centre,"sb\high.png",0,0 C,0,72084,,0,210,11 M,0,72084,72170,320,416,320,374.75 F,2,72084,72556,1,0 S,2,72084,72556,1,0.8 P,0,72084,72556,A M,0,72170,72256,320,374.75,320,333.5
Sprite,Foreground,Centre,"sb\high.png",0,0 C,0,72429,,0,210,11 M,0,72429,72515,392,100,433.929,154.8958 F,2,72429,72987,1,0 S,2,72429,72987,1,0.8 P,0,72429,72987,A M,0,72515,72601,433.929,154.8958,470.7119,204.1327 M,0,72601,72687,470.7119,204.1327,514,259
Sprite,Foreground,Centre,"sb\high.png",392,100 C,0,73463,,255,170,13 F,2,73463,73763,1,0 S,2,73463,73763,1,0.8 P,0,73463,73763,A
Sprite,Foreground,Centre,"sb\high.png",235,316 C,0,73636,,255,170,13 F,2,73636,73936,1,0 S,2,73636,73936,1,0.8 P,0,73636,73936,A
Sprite,Foreground,Centre,"sb\high.png",488,233 C,0,73808,,255,170,13 F,2,73808,74108,1,0 S,2,73808,74108,1,0.8 P,0,73808,74108,A
Sprite,Foreground,Centre,"sb\high.png",235,151 C,0,73981,,255,170,13 F,2,73981,74281,1,0 S,2,73981,74281,1,0.8 P,0,73981,74281,A
Sprite,Foreground,Centre,"sb\high.png",392,367 C,0,74153,,255,170,13 F,2,74153,74453,1,0 S,2,74153,74453,1,0.8 P,0,74153,74453,A
Sprite,Foreground,Centre,"sb\high.png",344,236 C,0,74498,,213,86,33 F,2,74498,74798,1,0 S,2,74498,74798,1,0.8 P,0,74498,74798,A
Sprite,Foreground,Centre,"sb\high.png",235,151 C,0,74670,,213,86,33 F,2,74670,74970,1,0 S,2,74670,74970,1,0.8 P,0,74670,74970,A
Sprite,Foreground,Centre,"sb\high.png",284,369 C,0,74843,,213,86,33 F,2,74843,75143,1,0 S,2,74843,75143,1,0.8 P,0,74843,75143,A
Sprite,Foreground,Centre,"sb\high.png",445,225 C,0,75015,,213,86,33 F,2,75015,75315,1,0 S,2,75015,75315,1,0.8 P,0,75015,75315,A
Sprite,Foreground,Centre,"sb\high.png",0,0 C,0,75187,,213,86,33 M,0,75187,75273,220,265,182.6254,205.5815 F,2,75187,75745,1,0 S,2,75187,75745,1,0.8 P,0,75187,75745,A M,0,75273,75359,182.6254,205.5815,112.9788,198.4172 M,0,75359,75445,112.9788,198.4172,64.68158,249.1061
Sprite,Foreground,Centre,"sb\high.png",168,248 C,0,133981,,0,210,11 F,2,133981,134281,1,0 S,2,133981,134281,1,0.8 P,0,133981,134281,A
Sprite,Foreground,Centre,"sb\high.png",319,108 C,0,134153,,0,210,11 F,2,134153,134453,1,0 S,2,134153,134453,1,0.8 P,0,134153,134453,A
Sprite,Foreground,Centre,"sb\high.png",472,248 C,0,134325,,0,210,11 F,2,134325,134625,1,0 S,2,134325,134625,1,0.8 P,0,134325,134625,A
Sprite,Foreground,Centre,"sb\high.png",0,0 C,0,134498,,0,210,11 M,0,134498,134584,321,388,280.2297,394.2724 F,2,134498,134970,1,0 S,2,134498,134970,1,0.8 P,0,134498,134970,A M,0,134584,134670,280.2297,394.2724,239.4593,400.5447
Sprite,Foreground,Centre,"sb\high.png",0,0 C,0,134843,,0,210,11 M,0,134843,134929,319,108,359.7703,101.7276 F,2,134843,135315,1,0 S,2,134843,135315,1,0.8 P,0,134843,135315,A M,0,134929,135015,359.7703,101.7276,400.5406,95.45528
Sprite,Foreground,Centre,"sb\high.png",0,0 C,0,135187,,0,210,11 M,0,135187,135273,320,388,296.0239,354.4335 F,2,135187,135659,1,0 S,2,135187,135659,1,0.8 P,0,135187,135659,A M,0,135273,135359,296.0239,354.4335,272.0479,320.867
Sprite,Foreground,Centre,"sb\high.png",0,0 C,0,135532,,0,210,11 M,0,135532,135618,320,108,343.9761,141.5665 F,2,135532,136004,1,0 S,2,135532,136004,1,0.8 P,0,135532,136004,A M,0,135618,135704,343.9761,141.5665,367.9521,175.133
Sprite,Foreground,Centre,"sb\high.png",0,0 C,0,135877,,0,210,11 M,0,135877,135963,508,316,470.7144,353.7648 F,2,135877,136349,1,0 S,2,135877,136349,1,0.8 P,0,135877,136349,A M,0,135963,136049,470.7144,353.7648,417.9083,350.219
Sprite,Foreground,Centre,"sb\high.png",0,0 C,0,136222,,245,20,16 M,0,136222,136308,132,316,146.5506,338.9832 F,2,136222,136866,1,0 S,2,136222,136866,1,0.8 P,0,136222,136866,A M,0,136308,136394,146.5506,338.9832,169.2856,353.7648 M,0,136394,136480,169.2856,353.7648,196.0992,358.1728 M,0,136480,136566,196.0992,358.1728,222.0917,350.219
Sprite,Foreground,Centre,"sb\high.png",208,204 C,0,136739,,255,170,13 F,2,136739,137039,1,0 S,2,136739,137039,1,0.8 P,0,136739,137039,A
Sprite,Foreground,Centre,"sb\high.png",320,108 C,0,136912,,255,170,13 F,2,136912,137212,1,0 S,2,136912,137212,1,0.8 P,0,136912,137212,A
Sprite,Foreground,Centre,"sb\high.png",432,204 C,0,137084,,255,170,13 F,2,137084,137384,1,0 S,2,137084,137384,1,0.8 P,0,137084,137384,A
Sprite,Foreground,Centre,"sb\high.png",0,0 C,0,137256,,255,170,13 M,0,137256,137342,384,344,397.9785,382.1841 F,2,137256,137728,1,0 S,2,137256,137728,1,0.8 P,0,137256,137728,A M,0,137342,137428,397.9785,382.1841,428.8036,408.531
Sprite,Foreground,Centre,"sb\high.png",0,0 C,0,137601,,255,170,13 M,0,137601,137687,256,344,242.0215,382.1841 F,2,137601,138073,1,0 S,2,137601,138073,1,0.8 P,0,137601,138073,A M,0,137687,137773,242.0215,382.1841,211.1964,408.531
Sprite,Foreground,Centre,"sb\high.png",128,288 C,0,137946,,255,170,13 F,2,137946,138246,1,0 S,2,137946,138246,1,0.8 P,0,137946,138246,A
Sprite,Foreground,Centre,"sb\high.png",232,104 C,0,138118,,255,170,13 F,2,138118,138418,1,0 S,2,138118,138418,1,0.8 P,0,138118,138418,A
Sprite,Foreground,Centre,"sb\high.png",512,288 C,0,138291,,255,170,13 F,2,138291,138591,1,0 S,2,138291,138591,1,0.8 P,0,138291,138591,A
Sprite,Foreground,Centre,"sb\high.png",408,104 C,0,138463,,255,170,13 F,2,138463,138763,1,0 S,2,138463,138763,1,0.8 P,0,138463,138763,A
Sprite,Foreground,Centre,"sb\high.png",0,0 C,0,138636,,255,170,13 M,0,138636,138722,320,284,320,229 F,2,138636,139108,1,0 S,2,138636,139108,1,0.8 P,0,138636,139108,A M,0,138722,138808,320,229,320,174
Sprite,Foreground,Centre,"sb\high.png",0,0 C,0,138981,,213,86,33 M,0,138981,139067,128,84,128,111.5 F,2,138981,139625,1,0 S,2,138981,139625,1,0.8 P,0,138981,139625,A M,0,139067,139153,128,111.5,128,139 M,0,139153,139239,128,139,128,166.5 M,0,139239,139325,128,166.5,128,194
Sprite,Foreground,Centre,"sb\high.png",160,340 C,0,139498,,213,86,33 F,2,139498,139798,1,0 S,2,139498,139798,1,0.8 P,0,139498,139798,A
Sprite,Foreground,Centre,"sb\high.png",280,428 C,0,139670,,0,210,11 F,2,139670,139970,1,0 S,2,139670,139970,1,0.8 P,0,139670,139970,A
Sprite,Foreground,Centre,"sb\high.png",320,284 C,0,139843,,0,210,11 F,2,139843,140143,1,0 S,2,139843,140143,1,0.8 P,0,139843,140143,A
Sprite,Foreground,Centre,"sb\high.png",0,0 C,0,140015,,0,210,11 M,0,140015,140101,432,380,460.3692,351.3892 F,2,140015,140487,1,0 S,2,140015,140487,1,0.8 P,0,140015,140487,A M,0,140101,140187,460.3692,351.3892,465.1491,311.5711
Sprite,Foreground,Centre,"sb\high.png",0,0 C,0,140360,,0,210,11 M,0,140360,140446,320,284,320.0286,243.6999 F,2,140360,140832,1,0 S,2,140360,140832,1,0.8 P,0,140360,140832,A M,0,140446,140532,320.0286,243.6999,295.5785,211.8989
Sprite,Foreground,Centre,"sb\high.png",0,0 C,0,140705,,0,210,11 M,0,140705,140791,168,276,139.3892,247.6308 F,2,140705,141177,1,0 S,2,140705,141177,1,0.8 P,0,140705,141177,A M,0,140791,140877,139.3892,247.6308,99.57109,242.8509
Sprite,Foreground,Centre,"sb\high.png",140,100 C,0,141049,,0,210,11 F,2,141049,141349,1,0 S,2,141049,141349,1,0.8 P,0,141049,141349,A
Sprite,Foreground,Centre,"sb\high.png",288,120 C,0,141222,,0,210,11 F,2,141222,141522,1,0 S,2,141222,141522,1,0.8 P,0,141222,141522,A
Sprite,Foreground,Centre,"sb\high.png",168,276 C,0,141394,,0,210,11 F,2,141394,141694,1,0 S,2,141394,141694,1,0.8 P,0,141394,141694,A
Sprite,Foreground,Centre,"sb\high.png",320,284 C,0,141567,,0,210,11 F,2,141567,141867,1,0 S,2,141567,141867,1,0.8 P,0,141567,141867,A
Sprite,Foreground,Centre,"sb\high.png",0,0 C,0,141739,,245,20,16 M,0,141739,141825,416,400,456.4426,406.0244 F,2,141739,142383,1,0 S,2,141739,142383,1,0.8 P,0,141739,142383,A M,0,141825,141911,456.4426,406.0244,495.4146,393.6884 M,0,141911,141997,495.4146,393.6884,525.0087,365.505 M,0,141997,142083,525.0087,365.505,539.2245,327.201
Sprite,Foreground,Centre,"sb\high.png",412,252 C,0,142256,,245,20,16 F,2,142256,142556,1,0 S,2,142256,142556,1,0.8 P,0,142256,142556,A
Sprite,Foreground,Centre,"sb\high.png",0,0 C,0,142429,,245,20,16 M,0,142429,142515,295,344,258.7643,362.6459 F,2,142429,142901,1,0 S,2,142429,142901,1,0.8 P,0,142429,142901,A M,0,142515,142601,258.7643,362.6459,218.0144,363.0028
Sprite,Foreground,Centre,"sb\high.png",0,0 C,0,142774,,245,20,16 M,0,142774,142860,124,248,159.7393,228.5025 F,2,142774,143246,1,0 S,2,142774,143246,1,0.8 P,0,142774,143246,A M,0,142860,142946,159.7393,228.5025,200.4421,227.8856
Sprite,Foreground,Centre,"sb\high.png",0,0 C,0,143118,,245,20,16 M,0,143118,143204,240,72,203.6266,90.44115 F,2,143118,143762,1,0 S,2,143118,143762,1,0.8 P,0,143118,143762,A M,0,143204,143290,203.6266,90.44115,162.8573,91.16312 M,0,143290,143376,162.8573,91.16312,203.6266,90.44115 M,0,143376,143462,203.6266,90.44115,240,72
Sprite,Foreground,Centre,"sb\high.png",0,0 C,0,143636,,245,20,16 M,0,143636,143722,400,72,436.2357,90.64589 F,2,143636,144280,1,0 S,2,143636,144280,1,0.8 P,0,143636,144280,A M,0,143722,143808,436.2357,90.64589,476.9856,91.00285 M,0,143808,143894,476.9856,91.00285,436.2357,90.64589 M,0,143894,143980,436.2357,90.64589,400,72
Sprite,Foreground,Centre,"sb\high.png",0,0 C,0,144153,,255,170,13 M,0,144153,144239,320,404,308.4759,350.2209 F,2,144153,144625,1,0 S,2,144153,144625,1,0.8 P,0,144153,144625,A M,0,144239,144325,308.4759,350.2209,319.8566,296.6216
Sprite,Foreground,Centre,"sb\high.png",216,296 C,0,145187,,0,210,11 F,2,145187,145487,1,0 S,2,145187,145487,1,0.8 P,0,145187,145487,A
Sprite,Foreground,Centre,"sb\high.png",180,152 C,0,145360,,0,210,11 F,2,145360,145660,1,0 S,2,145360,145660,1,0.8 P,0,145360,145660,A
Sprite,Foreground,Centre,"sb\high.png",0,0 C,0,145532,,0,210,11 M,0,145532,145618,321,191,358.3801,173.556 F,2,145532,146004,1,0 S,2,145532,146004,1,0.8 P,0,145532,146004,A M,0,145618,145704,358.3801,173.556,395.7601,156.1119
Sprite,Foreground,Centre,"sb\high.png",0,0 C,0,145877,,0,210,11 M,0,145877,145963,472,372,430.7925,373.8731 F,2,145877,146349,1,0 S,2,145877,146349,1,0.8 P,0,145877,146349,A M,0,145963,146049,430.7925,373.8731,389.5851,375.7461
Sprite,Foreground,Centre,"sb\high.png",0,0 C,0,146222,,0,210,11 M,0,146222,146308,168,372,209.2075,373.8731 F,2,146222,146694,1,0 S,2,146222,146694,1,0.8 P,0,146222,146694,A M,0,146308,146394,209.2075,373.8731,250.4149,375.7461
Sprite,Foreground,Centre,"sb\high.png",0,0 C,0,146567,,0,210,11 M,0,146567,146653,319,191,280.6006,175.9319 F,2,146567,147039,1,0 S,2,146567,147039,1,0.8 P,0,146567,147039,A M,0,146653,146739,280.6006,175.9319,242.2012,160.8638
Sprite,Foreground,Centre,"sb\high.png",0,0 C,0,146912,,0,210,11 M,0,146912,146998,108,308,156.6834,284.7408 F,2,146912,147384,1,0 S,2,146912,147384,1,0.8 P,0,146912,147384,A M,0,146998,147084,156.6834,284.7408,209.6317,294.6335
Sprite,Foreground,Centre,"sb\high.png",472,248 C,0,147774,,255,170,13 F,2,147774,148074,1,0 S,2,147774,148074,1,0.8 P,0,147774,148074,A
Sprite,Foreground,Centre,"sb\high.png",234,210 C,0,147946,,255,170,13 F,2,147946,148246,1,0 S,2,147946,148246,1,0.8 P,0,147946,148246,A
Sprite,Foreground,Centre,"sb\high.png",448,101 C,0,148118,,255,170,13 F,2,148118,148418,1,0 S,2,148118,148418,1,0.8 P,0,148118,148418,A
Sprite,Foreground,Centre,"sb\high.png",339,315 C,0,148291,,255,170,13 F,2,148291,148591,1,0 S,2,148291,148591,1,0.8 P,0,148291,148591,A
Sprite,Foreground,Centre,"sb\high.png",302,78 C,0,148463,,255,170,13 F,2,148463,148763,1,0 S,2,148463,148763,1,0.8 P,0,148463,148763,A
Sprite,Foreground,Centre,"sb\high.png",360,192 C,0,148636,,213,86,33 F,2,148636,148936,1,0 S,2,148636,148936,1,0.8 P,0,148636,148936,A
Sprite,Foreground,Centre,"sb\high.png",82,288 C,0,148808,,213,86,33 F,2,148808,149108,1,0 S,2,148808,149108,1,0.8 P,0,148808,149108,A
Sprite,Foreground,Centre,"sb\high.png",385,324 C,0,148981,,213,86,33 F,2,148981,149281,1,0 S,2,148981,149281,1,0.8 P,0,148981,149281,A
Sprite,Foreground,Centre,"sb\high.png",241,128 C,0,149153,,213,86,33 F,2,149153,149453,1,0 S,2,149153,149453,1,0.8 P,0,149153,149453,A
Sprite,Foreground,Centre,"sb\high.png",140,407 C,0,149325,,213,86,33 F,2,149325,149625,1,0 S,2,149325,149625,1,0.8 P,0,149325,149625,A
Sprite,Foreground,Centre,"sb\high.png",124,180 C,0,149498,,213,86,33 F,2,149498,149798,1,0 S,2,149498,149798,1,0.8 P,0,149498,149798,A
Sprite,Foreground,Centre,"sb\high.png",0,0 C,0,149670,,0,210,11 M,0,149670,149756,252,336,282.9535,290.537 F,2,149670,150142,1,0 S,2,149670,150142,1,0.8 P,0,149670,150142,A M,0,149756,149842,282.9535,290.537,313.907,245.0741
Sprite,Foreground,Centre,"sb\high.png",320,416 C,0,150705,,255,170,13 F,2,150705,151005,1,0 S,2,150705,151005,1,0.8 P,0,150705,151005,A
Sprite,Foreground,Centre,"sb\high.png",176,380 C,0,150877,,255,170,13 F,2,150877,151177,1,0 S,2,150877,151177,1,0.8 P,0,150877,151177,A
Sprite,Foreground,Centre,"sb\high.png",0,0 C,0,151049,,255,170,13 M,0,151049,151135,184,232,192.5746,192.1201 F,2,151049,151521,1,0 S,2,151049,151521,1,0.8 P,0,151049,151521,A M,0,151135,151221,192.5746,192.1201,181.0676,153.0342
Sprite,Foreground,Centre,"sb\high.png",0,0 C,0,151394,,255,170,13 M,0,151394,151480,458,152,447.4236,191.3536 F,2,151394,151866,1,0 S,2,151394,151866,1,0.8 P,0,151394,151866,A M,0,151480,151566,447.4236,191.3536,455.671,231.2548
Sprite,Foreground,Centre,"sb\high.png",0,0 C,0,151739,,255,170,13 M,0,151739,151825,320,336,320,294.75 F,2,151739,152383,1,0 S,2,151739,152383,1,0.8 P,0,151739,152383,A M,0,151825,151911,320,294.75,320,253.5 M,0,151911,151997,320,253.5,320,294.75 M,0,151997,152083,320,294.75,320,336
Sprite,Foreground,Centre,"sb\high.png",460,392 C,0,152256,,255,170,13 F,2,152256,152556,1,0 S,2,152256,152556,1,0.8 P,0,152256,152556,A
Sprite,Foreground,Centre,"sb\high.png",0,0 C,0,152429,,255,170,13 M,0,152429,152515,520,216,472.4956,241.5463 F,2,152429,152901,1,0 S,2,152429,152901,1,0.8 P,0,152429,152901,A M,0,152515,152601,472.4956,241.5463,419.0956,234.0856
Sprite,Foreground,Centre,"sb\ring.png",420,391 S,22,58636,59326,0.1,1.5 F,0,58981,59326,1,0
Sprite,Foreground,Centre,"sb\ring.png",424,368 S,22,61394,62084,0.1,1.5 F,0,61739,62084,1,0
Sprite,Foreground,Centre,"sb\ring.png",320,332 S,22,64153,64843,0.1,1.5 F,0,64498,64843,1,0
Sprite,Foreground,Centre,"sb\ring.png",340,200 S,22,69670,70360,0.1,1.5 F,0,70015,70360,1,0
Sprite,Foreground,Centre,"sb\ring.png",392,100 S,22,72429,73119,0.1,1.5 F,0,72774,73119,1,0
Sprite,Foreground,Centre,"sb\ring.png",220,265 S,22,75187,75877,0.1,1.5 F,0,75532,75877,1,0
Sprite,Foreground,Centre,"sb\ring.png",508,316 S,22,135877,136567,0.1,1.5 F,0,136222,136567,1,0
Sprite,Foreground,Centre,"sb\ring.png",320,284 S,22,138636,139326,0.1,1.5 F,0,138981,139326,1,0
Sprite,Foreground,Centre,"sb\ring.png",320,284 S,22,140360,141050,0.1,1.5 F,0,140705,141050,1,0
Sprite,Foreground,Centre,"sb\ring.png",99.76382,242.8082 S,22,140877,141567,0.1,1.5 F,0,141222,141567,1,0
Sprite,Foreground,Centre,"sb\ring.png",168,276 S,22,141394,142084,0.1,1.5 F,0,141739,142084,1,0
Sprite,Foreground,Centre,"sb\ring.png",416,400 S,22,141739,142429,0.1,1.5 F,0,142084,142429,1,0
Sprite,Foreground,Centre,"sb\ring.png",412,252 S,22,142256,142946,0.1,1.5 F,0,142601,142946,1,0
Sprite,Foreground,Centre,"sb\ring.png",124,248 S,22,142774,143464,0.1,1.5 F,0,143119,143464,1,0
Sprite,Foreground,Centre,"sb\ring.png",240,72 S,22,143118,143808,0.1,1.5 F,0,143463,143808,1,0
Sprite,Foreground,Centre,"sb\ring.png",163.1328,91.21553 S,22,143291,143981,0.1,1.5 F,0,143636,143981,1,0
Sprite,Foreground,Centre,"sb\ring.png",240,72 S,22,143463,144153,0.1,1.5 F,0,143808,144153,1,0
Sprite,Foreground,Centre,"sb\ring.png",400,72 S,22,143636,144326,0.1,1.5 F,0,143981,144326,1,0
Sprite,Foreground,Centre,"sb\ring.png",320,404 S,22,144153,144843,0.1,1.5 F,0,144498,144843,1,0
Sprite,Foreground,Centre,"sb\ring.png",108,308 S,22,146912,147602,0.1,1.5 F,0,147257,147602,1,0
Sprite,Foreground,Centre,"sb\ring.png",252,336 S,22,149670,150360,0.1,1.5 F,0,150015,150360,1,0
Sprite,Foreground,Centre,"sb\ring.png",520,216 S,22,152429,153119,0.1,1.5 F,0,152774,153119,1,0
Sprite,Foreground,Centre,"sb\ring.png",152,241 S,22,157946,158291,0.1,1.5
Sprite,Foreground,Centre,"sb\ring.png",188,175 S,22,160705,161050,0.1,1.5
Sprite,Foreground,Centre,"sb\ring.png",404,352 S,22,163463,163808,0.1,1.5
Sprite,Foreground,Centre,"sb\ring.png",396,311 S,22,168981,169326,0.1,1.5
Sprite,Foreground,Centre,"sb\ring.png",319,192 S,22,171739,172084,0.1,1.5
Sprite,Foreground,Centre,"sb\ring.png",321,391 S,22,174498,174843,0.1,1.5
Sprite,Foreground,TopLeft,"sb\c\mappoggo.png",0,395 S,0,103118,,0.75 MX,19,103118,103463,97,-8 F,0,111394,,1
Sprite,Foreground,Centre,"sb\yes\hotspicy.png",0,0 R,0,103118,103518,-1,-2 MX,0,103118,103518,757,467 MY,16,103118,103518,300,190 F,0,104498,,0.2 S,0,104498,,0.18
Sprite,Foreground,Centre,"sb\yes\hidetheminplainsight.png",0,0 F,0,110360,,0.3 S,0,110360,,0.1 M,0,110360,111050,460,180,500,210 R,0,110360,111050,1.570796,0.5 P,0,110360,111050,H
Sprite,Foreground,Centre,"sb\yes\dinomask.png",497,170 F,0,100360,103118,0,1 S,0,101050,,0.675 F,0,111394,,1
Sprite,Foreground,Centre,"sb\high.png",216,140 C,0,53463,,255,170,13 F,2,53463,55063,1,0 S,2,53463,55063,1,0.6 P,0,53463,55063,A
Sprite,Foreground,Centre,"sb\high.png",168,124 C,0,53549,,255,170,13 F,2,53549,55149,1,0 S,2,53549,55149,1,0.6 P,0,53549,55149,A
Sprite,Foreground,Centre,"sb\high.png",120,136 C,0,53636,,255,170,13 F,2,53636,55236,1,0 S,2,53636,55236,1,0.6 P,0,53636,55236,A
Sprite,Foreground,Centre,"sb\high.png",96,180 C,0,53722,,255,170,13 F,2,53722,55322,1,0 S,2,53722,55322,1,0.6 P,0,53722,55322,A
Sprite,Foreground,Centre,"sb\high.png",96,228 C,0,53808,,255,170,13 F,2,53808,55408,1,0 S,2,53808,55408,1,0.6 P,0,53808,55408,A
Sprite,Foreground,Centre,"sb\high.png",124,268 C,0,53894,,255,170,13 F,2,53894,55494,1,0 S,2,53894,55494,1,0.6 P,0,53894,55494,A
Sprite,Foreground,Centre,"sb\high.png",172,284 C,0,53981,,255,170,13 F,2,53981,55581,1,0 S,2,53981,55581,1,0.6 P,0,53981,55581,A
Sprite,Foreground,Centre,"sb\high.png",220,272 C,0,54067,,255,170,13 F,2,54067,55667,1,0 S,2,54067,55667,1,0.6 P,0,54067,55667,A
Sprite,Foreground,Centre,"sb\high.png",256,236 C,0,54153,,255,170,13 F,2,54153,55753,1,0 S,2,54153,55753,1,0.6 P,0,54153,55753,A
Sprite,Foreground,Centre,"sb\high.png",304,228 C,0,54239,,255,170,13 F,2,54239,55839,1,0 S,2,54239,55839,1,0.6 P,0,54239,55839,A
Sprite,Foreground,Centre,"sb\high.png",344,256 C,0,54325,,255,170,13 F,2,54325,55925,1,0 S,2,54325,55925,1,0.6 P,0,54325,55925,A
Sprite,Foreground,Centre,"sb\high.png",360,304 C,0,54412,,255,170,13 F,2,54412,56012,1,0 S,2,54412,56012,1,0.6 P,0,54412,56012,A
Sprite,Foreground,Centre,"sb\high.png",344,352 C,0,54498,,255,170,13 F,2,54498,56098,1,0 S,2,54498,56098,1,0.6 P,0,54498,56098,A
Sprite,Foreground,Centre,"sb\high.png",300,376 C,0,54584,,255,170,13 F,2,54584,56184,1,0 S,2,54584,56184,1,0.6 P,0,54584,56184,A
Sprite,Foreground,Centre,"sb\high.png",252,368 C,0,54670,,255,170,13 F,2,54670,56270,1,0 S,2,54670,56270,1,0.6 P,0,54670,56270,A
Sprite,Foreground,Centre,"sb\high.png",224,328 C,0,54756,,255,170,13 F,2,54756,56356,1,0 S,2,54756,56356,1,0.6 P,0,54756,56356,A
Sprite,Foreground,Centre,"sb\high.png",320,88 C,0,130705,,0,210,11 F,2,130705,132305,1,0 S,2,130705,132305,1,0.2 P,0,130705,132305,A
Sprite,Foreground,Centre,"sb\high.png",355,66 C,0,130791,,0,210,11 F,2,130791,132391,1,0 S,2,130791,132391,1,0.2 P,0,130791,132391,A
Sprite,Foreground,Centre,"sb\high.png",395,60 C,0,130877,,0,210,11 F,2,130877,132477,1,0 S,2,130877,132477,1,0.2 P,0,130877,132477,A
Sprite,Foreground,Centre,"sb\high.png",435,69 C,0,130963,,0,210,11 F,2,130963,132563,1,0 S,2,130963,132563,1,0.2 P,0,130963,132563,A
Sprite,Foreground,Centre,"sb\high.png",468,93 C,0,131049,,0,210,11 F,2,131049,132649,1,0 S,2,131049,132649,1,0.2 P,0,131049,132649,A
Sprite,Foreground,Centre,"sb\high.png",490,127 C,0,131136,,0,210,11 F,2,131136,132736,1,0 S,2,131136,132736,1,0.2 P,0,131136,132736,A
Sprite,Foreground,Centre,"sb\high.png",497,168 C,0,131222,,0,210,11 F,2,131222,132822,1,0 S,2,131222,132822,1,0.2 P,0,131222,132822,A
Sprite,Foreground,Centre,"sb\high.png",489,208 C,0,131308,,0,210,11 F,2,131308,132908,1,0 S,2,131308,132908,1,0.2 P,0,131308,132908,A
Sprite,Foreground,Centre,"sb\high.png",465,242 C,0,131394,,245,20,16 F,2,131394,132994,1,0 S,2,131394,132994,1,0.2 P,0,131394,132994,A
Sprite,Foreground,Centre,"sb\high.png",428,256 C,0,131481,,245,20,16 F,2,131481,133081,1,0 S,2,131481,133081,1,0.2 P,0,131481,133081,A
Sprite,Foreground,Centre,"sb\high.png",391,273 C,0,131567,,245,20,16 F,2,131567,133167,1,0 S,2,131567,133167,1,0.2 P,0,131567,133167,A
Sprite,Foreground,Centre,"sb\high.png",365,305 C,0,131653,,245,20,16 F,2,131653,133253,1,0 S,2,131653,133253,1,0.2 P,0,131653,133253,A
Sprite,Foreground,Centre,"sb\high.png",357,345 C,0,131739,,245,20,16 F,2,131739,133339,1,0 S,2,131739,133339,1,0.2 P,0,131739,133339,A
Sprite,Foreground,Centre,"sb\high.png",367,385 C,0,131825,,245,20,16 F,2,131825,133425,1,0 S,2,131825,133425,1,0.2 P,0,131825,133425,A
Sprite,Foreground,Centre,"sb\high.png",394,415 C,0,131912,,245,20,16 F,2,131912,133512,1,0 S,2,131912,133512,1,0.2 P,0,131912,133512,A
Sprite,Foreground,Centre,"sb\high.png",432,431 C,0,131998,,245,20,16 F,2,131998,133598,1,0 S,2,131998,133598,1,0.2 P,0,131998,133598,A
Sprite,Foreground,Centre,"sb\high.png",0,0 M,0,188636,188722,504,364,500.0449,336.841 F,2,188636,189780,1,0 S,2,188636,189780,2,0.4 P,0,188636,189780,A M,0,188722,188808,500.0449,336.841,501.1666,309.434 M,0,188808,188894,501.1666,309.434,507.3228,282.7124 M,0,188894,188980,507.3228,282.7124,518.1947,257.5326
Sprite,Foreground,Centre,"sb\high.png",0,0 M,0,189325,189411,320,80,320,107.5 F,2,189325,190469,1,0 S,2,189325,190469,2,0.4 P,0,189325,190469,A M,0,189411,189497,320,107.5,320,135 M,0,189497,189583,320,135,320,162.5 M,0,189583,189669,320,162.5,320,190
Sprite,Foreground,Centre,"sb\high.png",0,0 M,0,190015,190101,136,364,139.9551,336.841 F,2,190015,191159,1,0 S,2,190015,191159,2,0.4 P,0,190015,191159,A M,0,190101,190187,139.9551,336.841,138.8334,309.434 M,0,190187,190273,138.8334,309.434,132.6772,282.7124 M,0,190273,190359,132.6772,282.7124,121.8053,257.5326
Sprite,Foreground,Centre,"sb\high.png",0,0 M,0,190705,190791,371,143,346.5892,155.3445 F,2,190705,191849,1,0 S,2,190705,191849,2,0.4 P,0,190705,191849,A M,0,190791,190877,346.5892,155.3445,319.6228,159.6923 M,0,190877,190963,319.6228,159.6923,292.6353,155.6538 M,0,190963,191049,292.6353,155.6538,268,144
Sprite,Foreground,Centre,"sb\high.png",208,384 F,2,191394,192194,1,0 S,2,191394,192194,2,0.4 P,0,191394,192194,A
Sprite,Foreground,Centre,"sb\high.png",372,412 F,2,191739,192539,1,0 S,2,191739,192539,2,0.4 P,0,191739,192539,A
Sprite,Foreground,Centre,"sb\high.png",372,84 F,2,192084,192884,1,0 S,2,192084,192884,2,0.4 P,0,192084,192884,A
Sprite,Foreground,Centre,"sb\high.png",208,112 F,2,192429,193229,1,0 S,2,192429,193229,2,0.4 P,0,192429,193229,A
Sprite,Foreground,Centre,"sb\high.png",0,0 M,0,192774,192860,520,248,499.5292,266.1205 F,2,192774,193918,1,0 S,2,192774,193918,2,0.4 P,0,192774,193918,A M,0,192860,192946,499.5292,266.1205,474.5325,277.0833 M,0,192946,193032,474.5325,277.0833,447.3952,280.0113 M,0,193032,193118,447.3952,280.0113,420.7526,274.033
Sprite,Foreground,Centre,"sb\high.png",0,0 M,0,193463,193549,120,248,140.4707,229.8795 F,2,193463,194607,1,0 S,2,193463,194607,2,0.4 P,0,193463,194607,A M,0,193549,193635,140.4707,229.8795,165.4675,218.9167 M,0,193635,193721,165.4675,218.9167,192.6048,215.9887 M,0,193721,193807,192.6048,215.9887,219.2475,221.967
Sprite,Foreground,Centre,"sb\high.png",0,0 M,0,194153,194239,520,392,493.4285,384.9143 F,2,194153,195297,1,0 S,2,194153,195297,2,0.4 P,0,194153,195297,A M,0,194239,194325,493.4285,384.9143,466.8571,377.8286 M,0,194325,194411,466.8571,377.8286,451.7134,357.3552 M,0,194411,194497,451.7134,357.3552,440.5446,332.2254
Sprite,Foreground,Centre,"sb\high.png",0,0 M,0,194843,194929,120,104,144.4622,107.7634 F,2,194843,195987,1,0 S,2,194843,195987,2,0.4 P,0,194843,195987,A M,0,194929,195015,144.4622,107.7634,168.9244,111.5268 M,0,195015,195101,168.9244,111.5268,181.6769,131.3538 M,0,195101,195187,181.6769,131.3538,192.7454,153.4909
Sprite,Foreground,Centre,"sb\high.png",0,0 M,0,195595,195710,520,104,492.8198,108.1816 F,2,195595,196856,1,0 S,2,195595,196856,2,0.4 P,0,195595,196856,A M,0,195710,195825,492.8198,108.1816,466.6406,113.9636 M,0,195825,195941,466.6406,113.9636,450.9873,136.5739 M,0,195941,196056,450.9873,136.5739,435.334,159.1841
Sprite,Foreground,Centre,"sb\high.png",0,0 M,0,196518,196654,120,392,147.1802,387.8184 F,2,196518,197863,1,0 S,2,196518,197863,2,0.4 P,0,196518,197863,A M,0,196654,196790,147.1802,387.8184,173.3247,382.0129 M,0,196790,196927,173.3247,382.0129,188.579,359.1315 M,0,196927,197063,188.579,359.1315,203.8333,336.2501
Sprite,Foreground,Centre,"sb\high.png",0,0 M,0,197608,197750,364,80,338.4684,79.90051 F,2,197608,199050,1,0 S,2,197608,199050,2,0.4 P,0,197608,199050,A M,0,197750,197893,338.4684,79.90051,316.3197,92.53273 M,0,197893,198036,316.3197,92.53273,303.4409,114.5016 M,0,198036,198179,303.4409,114.5016,303.2381,139.936 M,0,198179,198250,303.2381,139.936,307.9284,151.9138
Sprite,Foreground,Centre,"sb\high.png",0,0 M,0,198750,198906,276,416,303.0245,414.4227 F,2,198750,200175,1,0 S,2,198750,200175,2,0.4 P,0,198750,200175,A M,0,198906,199062,303.0245,414.4227,325.5899,399.6904 M,0,199062,199218,325.5899,399.6904,337.8141,375.7435 M,0,199218,199375,337.8141,375.7435,336.7571,348.8578
Sprite,Foreground,Centre,"sb\high.png",320,248 F,2,200000,202500,1,0 S,2,200000,202500,2,0.4 P,0,200000,202500,A
//Storyboard Layer 4 (Overlay)
//Storyboard Sound Samples

[TimingPoints]
1050,689.655172413793,4,1,1,100,1,0
12084,-100,4,1,1,70,0,0
22429,-200,4,1,1,100,0,0
22946,-200,4,1,1,5,0,0
23118,-66.6666666666667,4,1,1,60,0,0
33463,-100,4,1,1,60,0,0
33981,-100,4,1,1,5,0,0
34153,-66.6666666666667,4,1,1,60,0,0
45187,-66.6666666666667,4,1,1,40,0,0
50705,-66.6666666666667,4,1,2,50,0,0
52084,-66.6666666666667,4,1,2,55,0,0
53463,-66.6666666666667,4,1,2,60,0,0
53808,-66.6666666666667,4,1,2,65,0,0
54153,-66.6666666666667,4,1,2,70,0,0
54498,-66.6666666666667,4,1,2,80,0,0
55877,-66.6666666666667,4,1,1,40,0,0
56222,-114.942528735632,4,1,1,60,0,1
56739,-114.942528735632,4,1,1,5,0,1
56912,-66.6666666666667,4,1,1,60,0,1
58463,-50,4,1,1,60,0,1
58981,-153.846153846153,4,1,1,60,0,1
59498,-66.6666666666667,4,1,1,60,0,1
61222,-37.7358490566038,4,1,1,60,0,1
61653,-37.7358490566038,4,1,1,5,0,1
61739,-117.647058823529,4,1,1,60,0,1
62256,-117.647058823529,4,1,1,5,0,1
62429,-66.6666666666667,4,1,1,60,0,1
64498,-66.6666666666667,4,1,1,70,0,0
67256,-114.942528735632,4,1,1,60,0,1
67774,-114.942528735632,4,1,1,5,0,1
67946,-66.6666666666667,4,1,1,60,0,1
69670,-50,4,1,1,60,0,1
70015,-153.846153846153,4,1,1,60,0,1
70532,-66.6666666666667,4,1,1,60,0,1
72429,-37.7358490566038,4,1,1,60,0,1
72687,-37.7358490566038,4,1,1,5,0,1
72774,-153.846153846154,4,1,1,60,0,1
73291,-153.846153846154,4,1,1,5,0,1
73463,-66.6666666666667,4,1,1,60,0,1
75187,-37.7358490566038,4,1,1,60,0,1
75446,-37.7358490566038,4,1,1,5,0,1
75532,-66.6666666666667,4,1,1,60,0,0
77601,-153.846153846154,4,1,1,60,0,0
78291,-100,4,1,1,60,0,0
80360,-50,4,1,1,60,0,0
81050,-100,4,1,1,60,0,0
83118,-50,4,1,1,60,0,0
83808,-100,4,1,1,60,0,0
85877,-50,4,1,1,60,0,0
86567,-100,4,1,1,60,0,0
88636,-149.253731343284,4,1,1,60,0,0
89153,-149.253731343284,4,1,1,5,0,0
89325,-100,4,1,1,60,0,0
91394,-50,4,1,1,60,0,0
92084,-100,4,1,1,60,0,0
94153,-50,4,1,1,60,0,0
94843,-100,4,1,1,60,0,0
96912,-50,4,1,1,60,0,0
97601,-100,4,1,1,60,0,0
99670,-153.846153846154,4,1,1,60,0,0
100360,-100,4,1,1,50,0,0
111394,-66.6666666666667,4,1,1,60,0,0
122429,-66.6666666666667,4,1,1,40,0,0
127946,-66.6666666666667,4,1,2,50,0,0
129325,-66.6666666666667,4,1,2,55,0,0
130705,-66.6666666666667,4,1,2,60,0,0
131049,-66.6666666666667,4,1,2,65,0,0
131394,-66.6666666666667,4,1,2,70,0,0
131739,-66.6666666666667,4,1,2,75,0,0
132084,-66.6666666666667,4,1,1,80,0,0
133291,-66.6666666666667,4,1,1,50,0,0
133463,-66.6666666666667,4,3,1,60,0,1
135877,-50,4,3,1,60,0,1
136222,-100,4,3,1,60,0,1
136567,-66.6666666666667,4,3,1,60,0,1
138636,-50,4,3,1,60,0,1
138981,-100,4,3,1,60,0,1
139325,-66.6666666666667,4,3,1,60,0,1
144153,-50,4,3,1,60,0,0
144498,-133.333333333333,4,3,1,60,0,1
145015,-133.333333333333,4,3,1,5,0,1
145187,-66.6666666666667,4,3,1,60,0,1
146912,-50,4,3,1,60,0,1
147256,-100,4,3,1,60,0,1
147601,-66.6666666666667,4,3,1,60,0,1
149670,-50,4,3,1,60,0,1
150015,-100,4,3,1,60,0,1
150532,-100,4,3,1,5,0,1
150705,-66.6666666666667,4,3,1,60,0,1
152429,-50,4,3,1,60,0,1
152774,-100,4,3,1,60,0,0
155360,-100,4,3,1,5,0,0
155532,-149.253731343284,4,1,1,60,0,1
156049,-149.253731343284,4,1,1,5,0,1
156222,-66.6666666666667,4,1,1,60,0,1
157774,-37.7358490566038,4,1,1,60,0,1
158205,-37.7358490566038,4,1,1,5,0,1
158291,-133.333333333333,4,1,1,60,0,1
158981,-66.6666666666667,4,1,1,60,0,1
160532,-37.7358490566038,4,1,1,60,0,1
160963,-37.7358490566038,4,1,1,5,0,1
161049,-100,4,1,1,60,0,1
161739,-66.6666666666667,4,1,1,60,0,1
163291,-37.7358490566038,4,1,1,60,0,1
163722,-37.7358490566038,4,1,1,5,0,1
163808,-100,4,1,1,60,0,0
166394,-100,4,1,1,5,0,0
166567,-100,4,1,1,60,0,1
167084,-100,4,1,1,5,0,1
167256,-66.6666666666667,4,1,1,60,0,1
168808,-37.7358490566038,4,1,1,60,0,1
169239,-37.7358490566038,4,1,1,5,0,1
169325,-133.333333333333,4,1,1,60,0,1
169843,-66.6666666666667,4,1,1,60,0,1
171567,-37.7358490566038,4,1,1,60,0,1
171998,-37.7358490566038,4,1,1,5,0,1
172084,-100,4,1,1,60,0,1
172774,-66.6666666666667,4,1,1,60,0,1
174325,-37.7358490566038,4,1,1,60,0,1
174756,-37.7358490566038,4,1,1,5,0,1
174843,-100,4,1,1,60,0,0
177429,-100,4,1,1,5,0,0
177601,-80,4,1,1,60,0,0
179670,-50,4,1,1,60,0,0
180360,-80,4,1,1,60,0,0
182429,-50,4,1,1,60,0,0
183118,-80,4,1,1,60,0,0
185877,-50,4,1,1,60,0,0
187946,-133.333333333333,4,1,1,60,0,0
188463,-133.333333333333,4,1,1,5,0,0
188636,-100,4,2,1,60,0,0
194843,-111.111111111111,4,2,1,60,0,0
195595,923.076923076923,4,2,1,55,1,0
196518,1090.90909090909,4,2,1,50,1,0
197608,1142.85714285714,4,2,1,45,1,0
197608,-106.382978723404,4,2,1,70,0,0
198750,1250,4,2,1,40,1,0
202500,-100,4,2,1,30,0,0

[Colours]
Combo1 : 255,170,13
Combo2 : 213,86,33
Combo3 : 0,210,11
Combo4 : 245,20,16

[HitObjects]
256,192,9325,12,0,10705,0:0:0:0:
328,56,12084,6,0,P|368:104|360:152,1,110,4|0,0:0|0:0,0:0:0:0:
184,328,12774,2,0,P|144:280|152:232,1,110,8|0,0:0|0:0,0:0:0:0:
192,100,13463,1,0,0:0:0:0:
320,284,13636,1,0,0:0:0:0:
248,36,13808,1,4,0:0:0:0:
264,348,13981,1,0,0:0:0:0:
320,76,14153,1,8,0:0:0:0:
336,88,14498,1,0,0:0:0:0:
356,104,14843,6,0,B|404:140|404:140|460:128,1,110,4|0,0:0|0:0,0:0:0:0:
156,280,15532,2,0,B|108:244|108:244|52:256,1,110,8|0,0:0|0:0,0:0:0:0:
96,116,16222,2,0,P|128:96|148:60,1,55,0|0,0:0|0:0,0:0:0:0:
416,116,16567,2,0,P|384:96|364:60,1,55,4|0,0:0|0:0,0:0:0:0:
256,24,16912,1,8,0:0:0:0:
256,36,17256,1,0,0:0:0:0:
256,44,17601,6,0,P|232:112|176:104,1,110,4|0,0:0|0:0,0:0:0:0:
256,340,18291,2,0,P|280:272|336:280,1,110,8|0,0:0|0:0,0:0:0:0:
440,208,18981,1,0,0:0:0:0:
440,30,19153,1,0,0:0:0:0:
335,174,19325,1,4,0:0:0:0:
504,119,19498,1,0,0:0:0:0:
335,64,19670,1,8,0:0:0:0:
80,192,20015,1,0,0:0:0:0:
132,324,20187,1,0,0:0:0:0:
276,332,20360,6,0,P|336:348|352:340,1,55,4|0,0:0|0:0,0:0:0:0:
340,256,20705,2,0,P|393:224|399:207,1,55,0|0,0:0|0:0,0:0:0:0:
320,156,21049,2,0,P|336:96|328:80,1,55,8|0,0:0|0:0,0:0:0:0:
244,92,21394,2,0,P|212:38|195:32,1,55,0|0,0:0|0:0,0:0:0:0:
144,117,21739,2,0,P|84:101|68:109,1,55,0|0,0:0|0:0,0:0:0:0:
80,192,22084,2,0,P|26:223|20:240,1,55,0|0,0:0|0:0,0:0:0:0:
112,336,22429,6,0,B|152:348|152:348|200:336,1,82.5,0|0,0:0|0:0,0:0:0:0:
276,328,23118,6,0,P|308:308|388:316,1,82.5000031471254,4|0,0:0|0:0,0:0:0:0:
424,192,23463,1,0,0:0:0:0:
351,80,23636,1,0,0:0:0:0:
365,307,23808,2,0,P|330:328|290:332,1,82.5000031471254,8|0,0:0|0:0,0:0:0:0:
80,192,24153,1,0,0:0:0:0:
120,316,24325,2,0,L|192:360,1,82.5000031471254,0|0,0:0|0:0,0:0:0:0:
256,104,24670,2,0,L|256:12,2,82.5000031471254,0|4|0,0:0|0:0|0:0,0:0:0:0:
360,188,25187,1,8,0:0:0:0:
152,188,25360,1,0,0:0:0:0:
392,316,25532,2,0,L|320:360,1,82.5000031471254,0|0,0:0|0:0,0:0:0:0:
152,188,25877,6,0,P|112:152|112:104,1,82.5000031471254,4|0,0:0|0:0,0:0:0:0:
256,104,26222,2,0,P|292:64|340:64,1,82.5000031471254,0|0,0:0|0:0,0:0:0:0:
360,188,26567,2,0,P|400:224|400:272,1,82.5000031471254,8|0,0:0|0:0,0:0:0:0:
256,284,26912,2,0,P|219:324|172:324,1,82.5000031471254,0|0,0:0|0:0,0:0:0:0:
68,252,27256,1,0,0:0:0:0:
48,104,27429,1,0,0:0:0:0:
176,180,27601,1,4,0:0:0:0:
160,32,27774,1,0,0:0:0:0:
283,112,27946,2,0,P|396:81|463:176,1,247.500009441376,8|0,0:0|0:0,0:0:0:0:
346,285,28636,6,0,B|376:316|376:316|416:316,2,82.5000031471254,4|0|0,0:0|0:0|0:0,0:0:0:0:
256,168,29153,1,0,0:0:0:0:
165,285,29325,2,0,B|136:316|136:316|96:316,2,82.5000031471254,8|0|0,0:0|0:0|0:0,0:0:0:0:
330,67,29843,1,0,0:0:0:0:
256,296,30015,1,0,0:0:0:0:
181,67,30187,1,0,0:0:0:0:
376,208,30360,1,4,0:0:0:0:
135,208,30532,1,0,0:0:0:0:
256,12,30705,2,0,L|256:196,1,165.000006294251,8|0,0:0|0:0,0:0:0:0:
256,296,31222,1,0,0:0:0:0:
400,336,31394,6,0,P|448:304|476:240,1,82.5000031471254,4|4,0:0|0:0,0:0:0:0:
400,48,31739,2,0,P|448:80|476:144,1,82.5000031471254,0|0,0:0|0:0,0:0:0:0:
328,232,32084,2,0,B|312:192|312:192|325:154,1,82.5000031471254,8|0,0:0|0:0,0:0:0:0:
186,154,32429,2,0,B|200:192|200:192|184:232,1,82.5000031471254,0|0,0:0|0:0,0:0:0:0:
112,336,32774,2,0,P|76:315|49:284,1,82.5000031471254,4|4,0:0|0:0,0:0:0:0:
112,47,33118,2,0,P|76:68|49:99,1,82.5000031471254,0|0,0:0|0:0,0:0:0:0:
256,264,33463,6,0,L|256:60,1,165,8|0,0:0|0:0,0:0:0:0:
256,72,34153,5,4,0:0:0:0:
480,348,34843,1,4,0:0:0:0:
32,348,35532,1,4,0:0:0:0:
108,220,35877,1,0,0:0:0:0:
196,340,36222,1,4,0:0:0:0:
316,44,36912,5,4,0:0:0:0:
316,340,37601,1,4,0:0:0:0:
196,44,38291,1,4,0:0:0:0:
108,164,38636,1,0,0:0:0:0:
32,36,38981,1,4,0:0:0:0:
480,348,39670,6,0,P|400:296|464:104,1,330.000012588501,4|4,0:0|0:0,0:0:0:0:
256,136,40705,1,0,0:0:0:0:
50,104,41049,2,0,P|134:233|32:348,1,330.000012588501,4|4,0:0|0:0,0:0:0:0:
256,304,42084,1,0,0:0:0:0:
378,44,42429,6,0,B|316:60|256:148|256:148|196:56|131:44,2,330.000012588501,4|4|4,0:0|0:0|0:0,0:0:0:0:
144,160,44153,1,0,0:0:0:0:
368,160,44498,1,4,0:0:0:0:
256,24,44843,1,0,0:0:0:0:
256,296,45187,6,0,P|328:344|424:340,1,165.000006294251,4|0,0:0|0:0,0:0:0:0:
204,220,45877,2,0,P|132:172|36:176,1,165.000006294251,0|0,0:0|0:0,0:0:0:0:
256,144,46567,2,0,P|328:192|424:188,1,165.000006294251,0|0,0:0|0:0,0:0:0:0:
204,68,47257,2,0,P|132:20|36:24,1,165.000006294251,0|0,0:0|0:0,0:0:0:0:
60,316,47946,5,0,0:0:0:0:
204,352,48291,1,0,0:0:0:0:
452,68,48636,1,0,0:0:0:0:
308,32,48981,1,0,0:0:0:0:
308,352,49325,5,0,0:0:0:0:
452,316,49670,1,0,0:0:0:0:
204,32,50015,1,0,0:0:0:0:
60,68,50360,1,0,0:0:0:0:
188,336,50705,6,0,L|160:240,1,82.5000031471254,8|0,0:0|0:0,0:0:0:0:
324,48,51049,2,0,L|352:144,1,82.5000031471254,8|0,0:0|0:0,0:0:0:0:
324,336,51394,2,0,L|352:240,1,82.5000031471254,8|0,0:0|0:0,0:0:0:0:
188,48,51739,2,0,L|160:144,1,82.5000031471254,8|0,0:0|0:0,0:0:0:0:
188,336,52084,5,8,0:0:0:0:
324,48,52256,1,0,0:0:0:0:
132,264,52429,1,8,0:0:0:0:
380,120,52601,1,0,0:0:0:0:
128,168,52774,1,8,0:0:0:0:
384,216,52946,1,0,0:0:0:0:
152,84,53118,1,8,0:0:0:0:
360,300,53291,1,0,0:0:0:0:
152,84,53463,5,8,0:0:0:0:
104,68,53549,1,0,0:0:0:0:
56,80,53636,1,8,0:0:0:0:
32,124,53722,1,0,0:0:0:0:
32,172,53808,1,8,0:0:0:0:
60,212,53894,1,0,0:0:0:0:
108,228,53981,1,8,0:0:0:0:
156,216,54067,1,0,0:0:0:0:
192,180,54153,1,8,0:0:0:0:
240,172,54239,1,0,0:0:0:0:
280,200,54325,1,8,0:0:0:0:
296,248,54412,1,0,0:0:0:0:
280,296,54498,1,8,0:0:0:0:
236,320,54584,1,0,0:0:0:0:
188,312,54670,1,8,0:0:0:0:
160,272,54756,1,0,0:0:0:0:
156,216,54843,5,4,0:0:0:0:
256,192,55015,12,0,55877,0:0:0:0:
480,203,56222,6,0,P|448:256|367:251,1,143.55000120472,4|0,0:0|0:0,0:0:0:0:
400,108,56912,5,8,0:0:0:0:
256,292,57084,1,0,0:0:0:0:
112,108,57256,1,0,0:0:0:0:
368,216,57429,1,0,0:0:0:0:
144,216,57601,1,0,0:0:0:0:
144,216,57946,5,0,0:0:0:0:
256,45,58118,1,0,0:0:0:0:
368,216,58291,1,8,0:0:0:0:
156,336,58463,1,0,0:0:0:0:
356,335,58636,2,0,P|412:328|452:288,1,110,4|0,0:0|0:0,0:0:0:0:
376,88,58981,6,0,P|320:95|284:131,1,107.249995090485,4|0,0:0|0:0,0:0:0:0:
136,296,59670,6,0,P|192:289|224:260,1,82.5000031471254,8|0,0:0|0:0,0:0:0:0:
152,72,60015,2,0,P|159:128|188:160,1,82.5000031471254,0|0,0:0|0:0,0:0:0:0:
360,312,60360,2,0,P|353:256|324:224,1,82.5000031471254,0|0,0:0|0:0,0:0:0:0:
152,72,60705,1,0,0:0:0:0:
408,240,60877,1,0,0:0:0:0:
104,144,61049,1,8,0:0:0:0:
221,337,61222,1,0,0:0:0:0:
360,312,61394,6,0,P|277:257|231:364,1,218.62500917387,4|0,0:0|0:0,0:0:0:0:
292,328,61739,6,0,L|268:184,1,140.250002675057,4|0,0:0|0:0,0:0:0:0:
60,48,62429,6,0,L|80:176,1,82.5000031471254,8|0,0:0|0:0,0:0:0:0:
160,340,62774,2,0,L|180:212,1,82.5000031471254,0|0,0:0|0:0,0:0:0:0:
360,52,63118,2,0,L|340:180,1,82.5000031471254,0|0,0:0|0:0,0:0:0:0:
452,340,63463,1,0,0:0:0:0:
452,340,63636,2,0,L|472:212,1,82.5000031471254,0|8,0:0|0:0,0:0:0:0:
360,52,63981,1,4,0:0:0:0:
256,276,64153,1,0,0:0:0:0:
152,52,64325,1,0,0:0:0:0:
324,232,64498,6,0,P|336:288|308:336,1,82.5000031471254,4|0,0:0|0:0,0:0:0:0:
183,310,64843,2,0,P|175:270|188:232,1,82.5000031471254,4|0,0:0|0:0,0:0:0:0:
439,101,65187,2,0,L|429:207,1,82.5000031471254,8|4,0:0|0:0,0:0:0:0:
80,183,65532,2,0,L|73:101,1,82.5000031471254
295,48,65877,2,0,P|256:37|217:49,1,82.5000031471254,4|0,0:0|0:0,0:0:0:0:
217,241,66222,2,0,P|256:252|296:241,1,82.5000031471254,4|4,0:0|0:0,0:0:0:0:
325,61,66567,2,0,P|256:22|186:58,1,165.000006294251,8|0,0:0|0:0,0:0:0:0:
336,372,67256,6,0,P|380:352|400:262,1,143.55000120472,4|0,0:0|0:0,0:0:0:0:
296,276,67946,5,8,0:0:0:0:
296,35,68118,1,0,0:0:0:0:
154,230,68291,1,0,0:0:0:0:
383,155,68463,1,0,0:0:0:0:
147,84,68636,1,0,0:0:0:0:
326,274,68981,5,0,0:0:0:0:
296,35,69154,1,0,0:0:0:0:
180,246,69326,1,8,0:0:0:0:
383,155,69499,1,0,0:0:0:0:
276,144,69670,2,0,L|248:288,1,110,4|0,0:0|0:0,0:0:0:0:
436,344,70015,6,0,L|456:224,1,107.249995090485,4|0,0:0|0:0,0:0:0:0:
424,120,70705,5,8,0:0:0:0:
328,44,70877,1,0,0:0:0:0:
88,120,71050,1,0,0:0:0:0:
184,44,71222,1,0,0:0:0:0:
348,240,71394,1,0,0:0:0:0:
256,92,71567,1,0,0:0:0:0:
164,240,71739,1,0,0:0:0:0:
256,92,71912,1,0,0:0:0:0:
256,360,72084,2,0,L|256:268,1,82.5000031471254,8|0,0:0|0:0,0:0:0:0:
328,44,72429,6,0,B|352:92|352:92|404:112|404:112|400:176|450:203,1,218.62500917387,4|0,0:0|0:0,0:0:0:0:
488,116,72774,6,0,P|464:52|416:32,1,107.249995090485,4|0,0:0|0:0,0:0:0:0:
328,44,73463,5,8,0:0:0:0:
171,260,73636,1,0,0:0:0:0:
424,177,73808,1,0,0:0:0:0:
171,95,73981,1,0,0:0:0:0:
328,311,74153,1,0,0:0:0:0:
280,180,74498,5,0,0:0:0:0:
171,95,74670,1,0,0:0:0:0:
220,313,74843,1,8,0:0:0:0:
381,169,75015,1,4,0:0:0:0:
156,209,75187,6,0,P|109:144|-3:225,1,218.62500917387
76,217,75532,6,0,L|88:333,1,82.5000031471254,4|0,0:0|0:0,0:0:0:0:
260,372,75877,1,4,0:0:0:0:
423,297,76050,2,0,L|432:215,1,82.5000031471254,0|8,0:0|0:0,0:0:0:0:
480,100,76394,1,4,0:0:0:0:
328,84,76567,1,0,0:0:0:0:
256,244,76739,1,0,0:0:0:0:
256,244,76825,1,0,0:0:0:0:
256,244,76912,1,4,0:0:0:0:
195,77,77084,2,0,P|174:43|136:32,1,82.5000031471254,0|4,0:0|0:0,0:0:0:0:
32,100,77429,1,4,0:0:0:0:
76,236,77601,6,0,L|108:320,1,71.4999967269899,8|0,0:0|0:0,0:0:0:0:
172,352,78118,1,0,0:0:0:0:
256,360,78291,6,0,P|296:368|328:352,1,55,4|0,0:0|0:0,0:0:0:0:
424,256,78636,2,0,P|384:248|352:264,1,55,0|0,0:0|0:0,0:0:0:0:
208,184,78981,2,0,P|248:192|280:176,1,55,8|0,0:0|0:0,0:0:0:0:
376,80,79326,2,0,P|336:72|304:88,1,55,0|0,0:0|0:0,0:0:0:0:
160,48,79670,1,0,0:0:0:0:
88,92,79843,1,0,0:0:0:0:
60,168,80015,1,0,0:0:0:0:
76,248,80187,1,0,0:0:0:0:
127,311,80360,6,0,P|170:345|224:348,1,110,8|0,0:0|0:0,0:0:0:0:
408,284,80705,2,0,P|365:250|311:247,1,110,4|0,0:0|0:0,0:0:0:0:
232,264,81050,6,0,L|176:196,1,55,4|0,0:0|0:0,0:0:0:0:
204,140,81394,1,0,0:0:0:0:
244,68,81567,1,0,0:0:0:0:
324,48,81739,1,8,0:0:0:0:
400,84,81912,2,0,L|440:160,1,55,0|0,0:0|0:0,0:0:0:0:
408,284,82256,2,0,L|368:208,1,55,0|0,0:0|0:0,0:0:0:0:
316,188,82601,1,0,0:0:0:0:
256,244,82774,1,0,0:0:0:0:
196,188,82946,1,0,0:0:0:0:
132,240,83118,6,0,B|92:212|92:212|68:128,1,110,8|0,0:0|0:0,0:0:0:0:
200,28,83463,2,0,B|240:56|240:56|256:114,1,110,4|0,0:0|0:0,0:0:0:0:
256,244,83808,5,4,0:0:0:0:
308,308,83981,1,0,0:0:0:0:
388,296,84153,1,0,0:0:0:0:
416,220,84325,1,0,0:0:0:0:
376,148,84498,1,8,0:0:0:0:
392,68,84670,1,0,0:0:0:0:
472,52,84843,1,0,0:0:0:0:
416,220,85015,2,0,P|456:264|452:304,1,55,0|0,0:0|0:0,0:0:0:0:
408,368,85360,1,0,0:0:0:0:
308,308,85532,2,0,P|310:248|341:223,1,55,0|0,0:0|0:0,0:0:0:0:
232,360,85877,6,0,B|184:356|184:356|168:320|144:308,1,110,8|4,0:0|0:0,0:0:0:0:
36,192,86222,2,0,B|59:180|75:144|75:144|123:140,1,110,0|0,0:0|0:0,0:0:0:0:
200,112,86567,6,0,L|192:48,1,55,4|0,0:0|0:0,0:0:0:0:
333,60,86912,2,0,L|300:104,1,55,4|0,0:0|0:0,0:0:0:0:
368,180,87256,2,0,L|432:172,1,55,8|4,0:0|0:0,0:0:0:0:
419,313,87601,2,0,L|376:280,1,55,0|0,0:0|0:0,0:0:0:0:
296,304,87946,1,4,0:0:0:0:
132,312,88118,1,0,0:0:0:0:
216,172,88291,1,4,0:0:0:0:
216,356,88463,1,4,0:0:0:0:
272,108,88636,6,0,P|208:88|163:104,1,110.549994770737,8|0,0:0|0:0,0:0:0:0:
100,148,89325,5,4,0:0:0:0:
79,224,89498,1,0,0:0:0:0:
113,294,89670,1,0,0:0:0:0:
187,321,89843,1,0,0:0:0:0:
260,291,90015,1,8,0:0:0:0:
284,216,90187,2,0,L|344:228,1,55,0|0,0:0|0:0,0:0:0:0:
424,144,90532,2,0,L|364:132,1,55,0|0,0:0|0:0,0:0:0:0:
296,28,90877,2,0,L|356:40,1,55,0|0,0:0|0:0,0:0:0:0:
424,144,91222,1,0,0:0:0:0:
403,296,91394,6,0,P|316:350|235:286,1,220,8|4,0:0|0:0,0:0:0:0:
168,188,91912,1,0,0:0:0:0:
96,288,92084,6,0,L|24:268,1,55,4|0,0:0|0:0,0:0:0:0:
80,192,92429,2,0,L|43:126,1,55,0|0,0:0|0:0,0:0:0:0:
136,112,92774,2,0,L|156:40,1,55,8|0,0:0|0:0,0:0:0:0:
232,76,93118,2,0,L|297:39,1,55,0|0,0:0|0:0,0:0:0:0:
376,68,93463,1,0,0:0:0:0:
376,224,93636,1,0,0:0:0:0:
453,146,93808,1,0,0:0:0:0:
298,146,93981,1,0,0:0:0:0:
468,240,94153,6,0,P|404:312|284:244,1,220,8|4,0:0|0:0,0:0:0:0:
298,146,94670,1,0,0:0:0:0:
164,120,94843,6,0,P|132:104|92:112,1,55,4|0,0:0|0:0,0:0:0:0:
160,236,95187,2,0,P|192:252|232:244,1,55,0|0,0:0|0:0,0:0:0:0:
348,161,95532,2,0,P|316:145|276:153,1,55,8|0,0:0|0:0,0:0:0:0:
344,277,95876,2,0,P|376:293|416:285,1,55,0|0,0:0|0:0,0:0:0:0:
464,244,96222,1,0,0:0:0:0:
468,160,96394,1,0,0:0:0:0:
416,96,96567,1,0,0:0:0:0:
336,84,96739,1,4,0:0:0:0:
264,120,96912,6,0,P|205:135|134:112,1,110,8|4,0:0|0:0,0:0:0:0:
40,99,97256,2,0,B|47:135|47:135|35:173|35:173|45:222,1,110,0|0,0:0|0:0,0:0:0:0:
148,316,97601,5,4,0:0:0:0:
224,352,97774,1,0,0:0:0:0:
296,312,97946,1,4,0:0:0:0:
372,344,98118,2,0,L|416:304,1,55,0|8,0:0|0:0,0:0:0:0:
436,160,98463,2,0,L|480:200,1,55,4|0,0:0|0:0,0:0:0:0:
288,196,98808,2,0,L|332:156,1,55,0|4,0:0|0:0,0:0:0:0:
352,12,99153,2,0,L|396:52,1,55,0|4,0:0|0:0,0:0:0:0:
436,160,99498,1,4,0:0:0:0:
288,196,99670,6,0,P|252:172|144:200,1,142.99999345398,8|0,0:0|0:0,0:0:0:0:
164,64,102429,5,0,0:0:0:0:
256,292,102774,1,0,0:0:0:0:
348,64,103118,1,0,0:0:0:0:
256,352,105532,6,0,L|256:224,1,110,0|0,0:0|0:0,0:0:0:0:
116,192,107946,5,0,0:0:0:0:
396,192,108291,1,0,0:0:0:0:
256,28,108636,1,0,0:0:0:0:
256,192,110015,12,0,111050,0:0:0:0:
256,348,111394,5,4,0:0:0:0:
256,36,112084,1,4,0:0:0:0:
480,348,112773,1,4,0:0:0:0:
404,220,113118,1,0,0:0:0:0:
316,340,113463,1,4,0:0:0:0:
196,44,114153,5,4,0:0:0:0:
316,340,114843,1,4,0:0:0:0:
32,348,115532,1,4,0:0:0:0:
108,220,115877,1,0,0:0:0:0:
196,340,116222,1,4,0:0:0:0:
480,348,116911,6,0,P|456:192|304:200,1,330.000012588501,4|4,0:0|0:0,0:0:0:0:
256,348,117946,1,0,0:0:0:0:
200,193,118291,2,0,P|49:197|32:348,1,330.000012588501,4|4,0:0|0:0,0:0:0:0:
256,348,119325,1,0,0:0:0:0:
376,132,119670,6,0,B|316:116|256:28|256:28|194:120|129:132,2,330.000012588501,4|4|4,0:0|0:0|0:0,0:0:0:0:
172,272,121394,1,0,0:0:0:0:
340,272,121739,1,4,0:0:0:0:
256,132,122084,1,0,0:0:0:0:
256,296,122429,6,0,P|320:356|412:320,1,165.000006294251,4|0,0:0|0:0,0:0:0:0:
256,88,123118,2,0,P|192:28|100:64,1,165.000006294251,0|0,0:0|0:0,0:0:0:0:
360,192,123808,2,0,P|420:128|384:36,1,165.000006294251,0|0,0:0|0:0,0:0:0:0:
152,192,124498,2,0,P|92:256|128:348,1,165.000006294251,0|0,0:0|0:0,0:0:0:0:
268,308,125187,5,0,0:0:0:0:
152,192,125532,1,0,0:0:0:0:
300,264,125877,5,0,0:0:0:0:
196,112,126222,1,0,0:0:0:0:
352,232,126567,5,0,0:0:0:0:
260,56,126912,1,0,0:0:0:0:
408,232,127256,5,0,0:0:0:0:
336,24,127601,1,0,0:0:0:0:
408,232,127946,6,0,P|376:272|384:320,1,82.5000031471254,8|0,0:0|0:0,0:0:0:0:
104,232,128291,2,0,P|136:272|128:320,1,82.5000031471254,8|0,0:0|0:0,0:0:0:0:
428,244,128636,2,0,P|388:277|387:325,1,82.5000031471254,8|0,0:0|0:0,0:0:0:0:
84,244,128981,2,0,P|123:277|124:325,1,82.5000031471254,8|0,0:0|0:0,0:0:0:0:
256,352,129325,5,8,0:0:0:0:
256,32,129498,1,0,0:0:0:0:
184,272,129670,1,8,0:0:0:0:
328,112,129843,1,0,0:0:0:0:
84,244,130015,1,8,0:0:0:0:
428,140,130187,1,0,0:0:0:0:
392,288,130360,1,8,0:0:0:0:
120,96,130532,1,0,0:0:0:0:
256,32,130705,5,8,0:0:0:0:
291,10,130791,1,0,0:0:0:0:
331,4,130877,1,8,0:0:0:0:
371,13,130963,1,0,0:0:0:0:
404,37,131049,1,8,0:0:0:0:
426,71,131136,1,0,0:0:0:0:
433,112,131222,1,8,0:0:0:0:
425,152,131308,1,0,0:0:0:0:
401,186,131394,5,8,0:0:0:0:
364,200,131481,1,0,0:0:0:0:
327,217,131567,1,8,0:0:0:0:
301,249,131653,1,0,0:0:0:0:
293,289,131739,1,8,0:0:0:0:
303,329,131825,1,0,0:0:0:0:
330,359,131912,1,8,0:0:0:0:
368,375,131998,1,0,0:0:0:0:
409,372,132084,5,4,0:0:0:0:
256,192,132256,12,0,133291,0:0:0:0:
396,296,133463,6,0,P|335:348|257:332,1,165.000006294251,4|8,0:0|0:0,0:0:0:0:
104,192,133981,5,0,0:0:0:0:
255,52,134153,1,0,0:0:0:0:
408,192,134325,1,4,0:0:0:0:
257,332,134498,2,0,L|153:348,1,82.5000031471254,8|0,0:0|0:0,0:0:0:0:
255,52,134843,2,0,L|359:36,1,82.5000031471254,4|0,0:0|0:0,0:0:0:0:
256,332,135187,2,0,L|196:248,1,82.5000031471254,8|0,0:0|0:0,0:0:0:0:
256,52,135532,2,0,L|316:136,1,82.5000031471254,0|4,0:0|0:0,0:0:0:0:
444,260,135877,2,0,P|336:280|328:268,1,110,8|0,0:0|0:0,0:0:0:0:
68,260,136222,6,0,P|176:280|184:268,1,110,4|8,0:0|0:0,0:0:0:0:
144,148,136739,5,0,0:0:0:0:
256,52,136912,1,0,0:0:0:0:
368,148,137084,1,4,0:0:0:0:
320,288,137256,2,0,P|332:324|408:360,1,82.5000031471254,8|0,0:0|0:0,0:0:0:0:
192,288,137601,2,0,P|180:324|104:360,1,82.5000031471254,4|0,0:0|0:0,0:0:0:0:
64,232,137946,1,8,0:0:0:0:
168,48,138118,1,0,0:0:0:0:
448,232,138291,1,0,0:0:0:0:
344,48,138463,1,4,0:0:0:0:
256,228,138636,2,0,L|256:88,1,110,8|0,0:0|0:0,0:0:0:0:
64,28,138981,6,0,L|64:168,1,110,4|8,0:0|0:0,0:0:0:0:
96,284,139498,1,0,0:0:0:0:
216,372,139670,5,0,0:0:0:0:
256,228,139843,1,4,0:0:0:0:
368,324,140015,2,0,P|400:288|396:240,1,82.5000031471254,8|0,0:0|0:0,0:0:0:0:
256,228,140360,2,0,P|253:179|216:148,1,82.5000031471254,4|0,0:0|0:0,0:0:0:0:
104,220,140705,2,0,P|68:188|20:192,1,82.5000031471254,8|0,0:0|0:0,0:0:0:0:
76,44,141049,1,0,0:0:0:0:
224,64,141222,1,4,0:0:0:0:
104,220,141394,1,8,0:0:0:0:
256,228,141567,1,0,0:0:0:0:
352,344,141739,6,0,P|440:332|476:256,1,165.000006294251,4|8,0:0|0:0,0:0:0:0:
348,196,142256,1,4,0:0:0:0:
231,288,142429,2,0,P|195:307|154:307,1,82.5000031471254,0|0,0:0|0:0,0:0:0:0:
60,192,142774,2,0,P|96:172|137:172,1,82.5000031471254,8|0,0:0|0:0,0:0:0:0:
176,16,143118,2,0,P|139:35|98:35,2,82.5000031471254,8|4|4,0:0|0:0|0:0,0:0:0:0:
336,16,143636,2,0,P|372:35|413:35,2,82.5000031471254,8|0|4,0:0|0:0|0:0,0:0:0:0:
256,348,144153,6,0,B|244:292|244:292|256:240,1,110,8|0,0:0|0:0,0:0:0:0:
235,23,144498,6,0,P|266:76|257:136,1,123.750004720688,4|0,0:0|0:0,0:0:0:0:
152,240,145187,5,0,0:0:0:0:
116,96,145360,1,4,0:0:0:0:
257,135,145532,2,0,L|332:100,1,82.5000031471254,8|0,0:0|0:0,0:0:0:0:
408,316,145877,2,0,L|320:320,1,82.5000031471254,4|0,0:0|0:0,0:0:0:0:
104,316,146222,2,0,L|192:320,1,82.5000031471254,8|0,0:0|0:0,0:0:0:0:
255,135,146567,2,0,L|176:104,1,82.5000031471254,0|4,0:0|0:0,0:0:0:0:
44,252,146912,2,0,P|96:228|168:256,1,110,8|0,0:0|0:0,0:0:0:0:
208,316,147256,6,0,P|296:344|336:320,1,110,4|8,0:0|0:0,0:0:0:0:
408,192,147774,5,0,0:0:0:0:
170,154,147946,1,0,0:0:0:0:
384,45,148118,1,4,0:0:0:0:
275,259,148291,1,8,0:0:0:0:
238,22,148463,1,0,0:0:0:0:
296,136,148636,5,4,0:0:0:0:
18,232,148808,1,0,0:0:0:0:
321,268,148981,1,8,0:0:0:0:
177,72,149153,1,0,0:0:0:0:
76,351,149325,1,0,0:0:0:0:
60,124,149498,1,4,0:0:0:0:
188,280,149670,2,0,L|252:186,1,110,8|0,0:0|0:0,0:0:0:0:
448,112,150015,6,0,L|344:264,1,165,4|0,0:0|0:0,0:0:0:0:
256,360,150705,5,0,0:0:0:0:
112,324,150877,1,4,0:0:0:0:
120,176,151049,2,0,P|128:128|104:80,1,82.5000031471254,8|0,0:0|0:0,0:0:0:0:
394,96,151394,2,0,P|383:136|392:176,1,82.5000031471254,4|0,0:0|0:0,0:0:0:0:
256,280,151739,2,0,L|256:176,2,82.5000031471254,8|0|0,0:0|0:0|0:0,0:0:0:0:
396,336,152256,1,4,0:0:0:0:
456,160,152429,2,0,P|408:186|351:176,1,110,8|0,0:0|0:0,0:0:0:0:
56,224,152774,6,0,P|84:200|136:200,1,55,4|0,0:0|0:0,0:0:0:0:
300,251,153118,2,0,P|272:275|220:275,1,55,8|0,0:0|0:0,0:0:0:0:
291,84,153463,2,0,P|310:65|336:56,1,55,0|4,0:0|0:0,0:0:0:0:
456,160,153808,1,8,0:0:0:0:
300,252,153981,1,0,0:0:0:0:
292,84,154153,1,4,0:0:0:0:
256,192,154325,12,0,155360,0:0:0:0:
256,344,155532,6,0,P|324:340|356:308,1,110.549994770737,4|0,0:0|0:0,0:0:0:0:
425,185,156222,5,10,0:0:0:0:
349,57,156394,1,2,0:0:0:0:
88,185,156567,1,2,0:0:0:0:
164,57,156739,1,2,0:0:0:0:
324,334,156912,1,2,0:0:0:0:
324,334,157084,1,2,0:0:0:0:
425,185,157256,1,2,0:0:0:0:
88,185,157429,1,2,0:0:0:0:
257,73,157601,1,10,0:0:0:0:
191,329,157774,1,2,0:0:0:0:
88,185,157946,6,0,B|137:169|137:169|197:185|197:185|242:146|297:154,1,218.62500917387,4|0,0:0|0:0,0:0:0:0:
373,164,158291,6,0,P|389:228|461:256,1,123.750004720688,4|2,0:0|0:0,0:0:0:0:
340,368,158981,5,10,0:0:0:0:
256,244,159153,1,2,0:0:0:0:
172,368,159325,1,2,0:0:0:0:
340,276,159498,1,2,0:0:0:0:
124,119,159670,1,2,0:0:0:0:
124,119,159843,1,2,0:0:0:0:
390,119,160015,1,2,0:0:0:0:
173,272,160187,1,2,0:0:0:0:
257,22,160360,1,10,0:0:0:0:
340,276,160532,1,2,0:0:0:0:
124,119,160705,6,0,P|200:160|165:278,1,218.62500917387,4|0,0:0|0:0,0:0:0:0:
124,208,161049,6,0,L|296:128,1,165.000006294251,4|0,0:0|0:0,0:0:0:0:
392,44,161739,5,10,0:0:0:0:
484,160,161912,1,2,0:0:0:0:
340,192,162084,1,2,0:0:0:0:
476,76,162256,1,2,0:0:0:0:
421,213,162429,1,2,0:0:0:0:
421,213,162601,1,2,0:0:0:0:
321,103,162774,1,2,0:0:0:0:
256,340,162946,1,2,0:0:0:0:
191,103,163118,1,10,0:0:0:0:
94,277,163291,1,6,0:0:0:0:
340,296,163463,6,0,P|255:235|171:300,1,218.62500917387,0|0,0:0|0:0,0:0:0:0:
94,277,163808,6,0,L|76:164,1,110,4|4,0:0|0:0,0:0:0:0:
127,55,164325,1,0,0:0:0:0:
201,159,164498,1,8,0:0:0:0:
256,48,164670,1,4,0:0:0:0:
328,151,164843,1,0,0:0:0:0:
388,39,165015,2,0,P|416:73|423:104,1,55,0|4,0:0|0:0,0:0:0:0:
256,192,165360,12,0,166394,0:0:0:0:
256,64,166567,6,0,P|180:60|132:130,1,165,4|0,0:0|0:0,0:0:0:0:
216,372,167256,5,10,0:0:0:0:
216,138,167429,1,2,0:0:0:0:
99,255,167601,1,2,0:0:0:0:
332,255,167774,1,2,0:0:0:0:
218,223,167946,1,2,0:0:0:0:
218,223,168118,5,2,0:0:0:0:
449,256,168291,1,2,0:0:0:0:
312,107,168463,1,2,0:0:0:0:
373,370,168636,1,10,0:0:0:0:
426,146,168808,1,2,0:0:0:0:
332,255,168981,6,0,P|238:303|223:218,1,218.62500917387,4|0,0:0|0:0,0:0:0:0:
216,142,169325,6,0,P|183:92|124:82,1,123.750004720688,4|2,0:0|0:0,0:0:0:0:
116,224,170015,5,10,0:0:0:0:
256,32,170187,1,2,0:0:0:0:
396,224,170360,1,2,0:0:0:0:
123,82,170532,1,2,0:0:0:0:
400,81,170705,1,2,0:0:0:0:
400,81,170877,1,2,0:0:0:0:
256,288,171049,1,2,0:0:0:0:
256,136,171222,1,2,0:0:0:0:
368,344,171394,1,10,0:0:0:0:
144,344,171567,1,2,0:0:0:0:
255,136,171739,6,0,B|170:155|170:155|146:79|60:85,1,218.62500917387,4|0,0:0|0:0,0:0:0:0:
84,176,172084,6,0,P|124:228|224:224,1,165,4|0,0:0|0:0,0:0:0:0:
340,312,172774,5,10,0:0:0:0:
468,240,172946,1,2,0:0:0:0:
320,216,173118,1,2,0:0:0:0:
452,148,173291,1,2,0:0:0:0:
172,72,173463,1,2,0:0:0:0:
172,72,173636,1,2,0:0:0:0:
44,144,173808,1,2,0:0:0:0:
192,168,173981,1,2,0:0:0:0:
60,236,174153,1,10,0:0:0:0:
172,72,174325,1,6,0:0:0:0:
257,335,174498,6,0,B|241:259|241:259|273:207|273:207|255:125,1,218.62500917387,0|0,0:0|0:0,0:0:0:0:
296,52,174843,6,0,L|368:28,1,55,4|0,0:0|0:0,0:0:0:0:
472,144,175187,2,0,L|400:112,1,55,4|0,0:0|0:0,0:0:0:0:
300,228,175532,2,0,L|372:204,1,55,8|4,0:0|0:0,0:0:0:0:
476,320,175876,2,0,L|492:292,2,27.5,0|0|0,0:0|0:0|0:0,0:0:0:0:
352,352,176222,1,4,0:0:0:0:
256,192,176394,12,0,177429,0:0:0:0:
256,292,177601,6,0,L|180:264,1,68.75,4|0,0:0|0:0,0:0:0:0:
140,180,177946,1,0,0:0:0:0:
164,80,178118,1,0,0:0:0:0:
256,36,178291,1,8,0:0:0:0:
348,80,178463,1,0,0:0:0:0:
372,180,178635,1,0,0:0:0:0:
320,268,178808,2,0,L|256:292,1,68.75,0|0,0:0|0:0,0:0:0:0:
116,324,179153,1,0,0:0:0:0:
256,172,179325,1,0,0:0:0:0:
396,324,179498,1,0,0:0:0:0:
180,264,179670,6,0,P|136:236|72:244,1,110,8|0,0:0|0:0,0:0:0:0:
332,120,180015,2,0,P|376:148|440:140,1,110,4|0,0:0|0:0,0:0:0:0:
396,324,180360,6,0,B|344:316|344:316|308:328|308:328|256:316,1,137.5,4|0,0:0|0:0,0:0:0:0:
160,340,180877,1,0,0:0:0:0:
100,256,181049,2,0,L|48:200,1,68.75,8|0,0:0|0:0,0:0:0:0:
132,56,181394,2,0,L|184:112,1,68.75,0|0,0:0|0:0,0:0:0:0:
412,256,181739,2,0,L|464:200,1,68.75,0|0,0:0|0:0,0:0:0:0:
380,56,182084,2,0,L|328:112,1,68.75,0|0,0:0|0:0,0:0:0:0:
256,356,182429,6,0,P|272:296|248:252,1,110,8|0,0:0|0:0,0:0:0:0:
252,32,182774,2,0,P|236:92|260:136,1,110,4|0,0:0|0:0,0:0:0:0:
172,192,183118,6,0,L|24:192,1,137.5,4|0,0:0|0:0,0:0:0:0:
48,88,183636,1,0,0:0:0:0:
68,292,183808,1,8,0:0:0:0:
136,96,183981,1,0,0:0:0:0:
156,300,184153,1,0,0:0:0:0:
220,104,184325,1,0,0:0:0:0:
244,308,184498,2,0,P|296:312|320:340,1,68.75,0|0,0:0|0:0,0:0:0:0:
452,216,184843,2,0,P|400:212|376:184,1,68.75,0|0,0:0|0:0,0:0:0:0:
288,52,185187,2,0,P|340:56|364:84,1,68.75,8|4,0:0|0:0,0:0:0:0:
452,216,185532,1,0,0:0:0:0:
272,232,185705,1,0,0:0:0:0:
464,32,185877,6,0,B|448:88|448:88|488:120|488:120|444:144|452:220,1,220,4|4,0:0|0:0,0:0:0:0:
376,364,186394,1,0,0:0:0:0:
272,232,186567,1,8,0:0:0:0:
260,224,186653,1,0,0:0:0:0:
248,216,186739,1,4,0:0:0:0:
88,260,186912,1,0,0:0:0:0:
244,45,187084,1,0,0:0:0:0:
244,312,187256,1,4,0:0:0:0:
87,96,187429,1,0,0:0:0:0:
340,178,187601,1,4,0:0:0:0:
200,176,187774,1,4,0:0:0:0:
244,312,187946,6,0,P|320:288|376:316,1,123.750004720688,8|0,0:0|0:0,0:0:0:0:
440,308,188636,6,0,P|444:224|472:176,1,110,2|0,0:0|0:0,0:0:0:0:
256,24,189325,2,0,L|256:160,1,110,2|0,0:0|0:0,0:0:0:0:
72,308,190015,2,0,P|68:224|40:176,1,110,2|0,0:0|0:0,0:0:0:0:
307,87,190705,2,0,P|255:104|204:88,1,110,2|0,0:0|0:0,0:0:0:0:
144,328,191394,5,2,0:0:0:0:
308,356,191739,1,0,0:0:0:0:
308,28,192084,1,2,0:0:0:0:
144,56,192429,1,0,0:0:0:0:
456,192,192774,2,0,P|396:224|328:200,1,110,2|0,0:0|0:0,0:0:0:0:
56,192,193463,2,0,P|116:160|184:184,1,110,2|0,0:0|0:0,0:0:0:0:
456,336,194153,6,0,B|396:320|396:320|364:248,1,110,2|0,0:0|0:0,0:0:0:0:
56,48,194843,2,0,B|108:56|108:56|144:128,1,98.9999969787599,2|0,0:0|0:0,0:0:0:0:
456,48,195595,2,0,B|404:56|404:56|368:108,1,110,2|0,0:0|0:0,0:0:0:0:
56,336,196518,2,0,B|108:328|108:328|140:280,1,110,2|0,0:0|0:0,0:0:0:0:
300,24,197608,6,0,P|240:56|245:98,1,116.324998225021,2|0,0:0|0:0,0:0:0:0:
212,360,198750,2,0,P|272:328|256:268,1,110,2|0,0:0|0:0,0:0:0:0:
256,192,200000,12,2,202500,0:0:0:0:
