osu file format v14

[General]
AudioFilename: _Drumstep_ - Excision _ Pegboard Nerds - Bring The Madness _feat. Mayor Apeshit_ _Monstercat_.mp3
AudioLeadIn: 0
PreviewTime: 54843
Countdown: 0
SampleSet: Normal
StackLeniency: 0.7
Mode: 0
LetterboxInBreaks: 1
EpilepsyWarning: 1
WidescreenStoryboard: 1

[Editor]
Bookmarks: 12134,23168,36962,45237
DistanceSpacing: 1.5
BeatDivisor: 8
GridSize: 4
TimelineZoom: 1.2

[Metadata]
Title:Bring The Madness (feat. Mayor Apeshit)
TitleUnicode:Bring The Madness (feat. Mayor Apeshit)
Artist:Excision & Pegboard Nerds
ArtistUnicode:Excision & Pegboard Nerds
Creator:J1NX1337
Version:FCL's Insane
Source:
Tags:electronic drumstep dubstep drum and bass dnb drop heavy monstercat hullahopp fcl poggo shadren p_i_k_u darky1 pringles
BeatmapID:805679
BeatmapSetID:307176

[Difficulty]
HPDrainRate:6
CircleSize:4
OverallDifficulty:7.5
ApproachRate:9
SliderMultiplier:1.9
SliderTickRate:1

[Events]
//Background and Video events
0,0,"background.jpg",0,0
//Break Periods
2,100559,101829
2,103318,104932
2,106077,107346
//Storyboard Layer 0 (Background)
Sprite,Background,Centre,"sb/high.png",207,269 S,2,156222,156522,1,0.8 F,2,156222,156522,1,0 P,0,156222,156522,A
Sprite,Background,Centre,"sb/high.png",207,269 S,0,156222,,3 F,2,156222,156522,0.5,0 P,0,156222,156522,A
Sprite,Background,Centre,"sb/high.png",316,136 S,2,156394,156694,1,0.8 F,2,156394,156694,1,0 P,0,156394,156694,A
Sprite,Background,Centre,"sb/high.png",316,136 S,0,156394,,3 F,2,156394,156694,0.5,0 P,0,156394,156694,A
Sprite,Background,Centre,"sb/high.png",460,228 S,2,156567,156867,1,0.8 F,2,156567,156867,1,0 P,0,156567,156867,A
Sprite,Background,Centre,"sb/high.png",460,228 S,0,156567,,3 F,2,156567,156867,0.5,0 P,0,156567,156867,A
Sprite,Background,Centre,"sb/high.png",364,368 S,2,156739,157039,1,0.8 F,2,156739,157039,1,0 P,0,156739,157039,A
Sprite,Background,Centre,"sb/high.png",364,368 S,0,156739,,3 F,2,156739,157039,0.5,0 P,0,156739,157039,A
Sprite,Background,Centre,"sb/high.png",184,348 S,2,156912,157212,1,0.8 F,2,156912,157212,1,0 P,0,156912,157212,A
Sprite,Background,Centre,"sb/high.png",184,348 S,0,156912,,3 F,2,156912,157212,0.5,0 P,0,156912,157212,A
Sprite,Background,Centre,"sb/high.png",149,160 S,2,157084,157384,1,0.8 F,2,157084,157384,1,0 P,0,157084,157384,A
Sprite,Background,Centre,"sb/high.png",149,160 S,0,157084,,3 F,2,157084,157384,0.5,0 P,0,157084,157384,A
Sprite,Background,Centre,"sb/high.png",292,292 S,2,157256,157556,1,0.8 F,2,157256,157556,1,0 P,0,157256,157556,A
Sprite,Background,Centre,"sb/high.png",292,292 S,0,157256,,3 F,2,157256,157556,0.5,0 P,0,157256,157556,A
Sprite,Background,Centre,"sb/high.png",252,104 S,2,157429,157729,1,0.8 F,2,157429,157729,1,0 P,0,157429,157729,A
Sprite,Background,Centre,"sb/high.png",252,104 S,0,157429,,3 F,2,157429,157729,0.5,0 P,0,157429,157729,A
Sprite,Background,Centre,"sb/high.png",0,0 S,2,157601,158073,1,0.8 F,2,157601,158073,1,0 P,0,157601,158073,A M,0,157601,157687,408,252,414.4903,204.9455 M,0,157687,157773,414.4903,204.9455,420.9806,157.891
Sprite,Background,Centre,"sb/high.png",408,252 S,0,157601,,3 F,2,157601,158073,0.5,0 P,0,157601,158073,A
Sprite,Background,Centre,"sb/high.png",0,0 S,2,157946,158504,1,0.8 F,2,157946,158504,1,0 P,0,157946,158504,A M,0,157946,158032,337,282,368.9965,315.9597 M,0,158032,158118,368.9965,315.9597,414.4201,326.2631 M,0,158118,158204,414.4201,326.2631,457.8012,309.0288
Sprite,Background,Centre,"sb/high.png",337,282 S,0,157946,,3 F,2,157946,158504,0.5,0 P,0,157946,158504,A
Sprite,Background,Centre,"sb/high.png",576,196 S,2,158808,159108,1,0.8 F,2,158808,159108,1,0 P,0,158808,159108,A
Sprite,Background,Centre,"sb/high.png",576,196 S,0,158808,,3 F,2,158808,159108,0.5,0 P,0,158808,159108,A
Sprite,Background,Centre,"sb/high.png",408,252 S,2,158981,159281,1,0.8 F,2,158981,159281,1,0 P,0,158981,159281,A
Sprite,Background,Centre,"sb/high.png",408,252 S,0,158981,,3 F,2,158981,159281,0.5,0 P,0,158981,159281,A
Sprite,Background,Centre,"sb/high.png",492,104 S,2,159153,159453,1,0.8 F,2,159153,159453,1,0 P,0,159153,159453,A
Sprite,Background,Centre,"sb/high.png",492,104 S,0,159153,,3 F,2,159153,159453,0.5,0 P,0,159153,159453,A
Sprite,Background,Centre,"sb/high.png",0,0 S,2,159325,159797,1,0.8 F,2,159325,159797,1,0 P,0,159325,159797,A M,0,159325,159411,336,172,289.707,179.5007 M,0,159411,159497,289.707,179.5007,245.4658,163.9501
Sprite,Background,Centre,"sb/high.png",336,172 S,0,159325,,3 F,2,159325,159797,0.5,0 P,0,159325,159797,A
Sprite,Background,Centre,"sb/high.png",120,92 S,2,159670,159970,1,0.8 F,2,159670,159970,1,0 P,0,159670,159970,A
Sprite,Background,Centre,"sb/high.png",120,92 S,0,159670,,3 F,2,159670,159970,0.5,0 P,0,159670,159970,A
Sprite,Background,Centre,"sb/high.png",245,163 S,2,159843,160143,1,0.8 F,2,159843,160143,1,0 P,0,159843,160143,A
Sprite,Background,Centre,"sb/high.png",245,163 S,0,159843,,3 F,2,159843,160143,0.5,0 P,0,159843,160143,A
Sprite,Background,Centre,"sb/high.png",236,356 S,2,160015,160315,1,0.8 F,2,160015,160315,1,0 P,0,160015,160315,A
Sprite,Background,Centre,"sb/high.png",236,356 S,0,160015,,3 F,2,160015,160315,0.5,0 P,0,160015,160315,A
Sprite,Background,Centre,"sb/high.png",140,216 S,2,160187,160487,1,0.8 F,2,160187,160487,1,0 P,0,160187,160487,A
Sprite,Background,Centre,"sb/high.png",140,216 S,0,160187,,3 F,2,160187,160487,0.5,0 P,0,160187,160487,A
Sprite,Background,Centre,"sb/high.png",360,264 S,2,160360,160660,1,0.8 F,2,160360,160660,1,0 P,0,160360,160660,A
Sprite,Background,Centre,"sb/high.png",360,264 S,0,160360,,3 F,2,160360,160660,0.5,0 P,0,160360,160660,A
Sprite,Background,Centre,"sb/high.png",184,360 S,2,160532,160832,1,0.8 F,2,160532,160832,1,0 P,0,160532,160832,A
Sprite,Background,Centre,"sb/high.png",184,360 S,0,160532,,3 F,2,160532,160832,0.5,0 P,0,160532,160832,A
Sprite,Background,Centre,"sb/high.png",0,0 S,2,160705,161263,1,0.8 F,2,160705,161263,1,0 P,0,160705,161263,A M,0,160705,160791,140,216,157.1325,172.4902 M,0,160791,160877,157.1325,172.4902,194.5985,144.6812 M,0,160877,160963,194.5985,144.6812,241.1468,141.2603
Sprite,Background,Centre,"sb/high.png",140,216 S,0,160705,,3 F,2,160705,161263,0.5,0 P,0,160705,161263,A
Sprite,Background,Centre,"sb/high.png",484,204 S,2,161739,162039,1,0.8 F,2,161739,162039,1,0 P,0,161739,162039,A
Sprite,Background,Centre,"sb/high.png",484,204 S,0,161739,,3 F,2,161739,162039,0.5,0 P,0,161739,162039,A
Sprite,Background,Centre,"sb/high.png",360,264 S,2,161912,162212,1,0.8 F,2,161912,162212,1,0 P,0,161912,162212,A
Sprite,Background,Centre,"sb/high.png",360,264 S,0,161912,,3 F,2,161912,162212,0.5,0 P,0,161912,162212,A
Sprite,Background,Centre,"sb/high.png",488,324 S,2,162084,162384,1,0.8 F,2,162084,162384,1,0 P,0,162084,162384,A
Sprite,Background,Centre,"sb/high.png",488,324 S,0,162084,,3 F,2,162084,162384,0.5,0 P,0,162084,162384,A
Sprite,Background,Centre,"sb/high.png",356,376 S,2,162256,162556,1,0.8 F,2,162256,162556,1,0 P,0,162256,162556,A
Sprite,Background,Centre,"sb/high.png",356,376 S,0,162256,,3 F,2,162256,162556,0.5,0 P,0,162256,162556,A
Sprite,Background,Centre,"sb/high.png",0,0 S,2,162429,162901,1,0.8 F,2,162429,162901,1,0 P,0,162429,162901,A M,0,162429,162515,256,248,232.8925,207.679 M,0,162515,162601,232.8925,207.679,224.8838,160.859
Sprite,Background,Centre,"sb/high.png",256,248 S,0,162429,,3 F,2,162429,162901,0.5,0 P,0,162429,162901,A
Sprite,Background,Centre,"sb/high.png",361,97 S,2,162774,163074,1,0.8 F,2,162774,163074,1,0 P,0,162774,163074,A
Sprite,Background,Centre,"sb/high.png",361,97 S,0,162774,,3 F,2,162774,163074,0.5,0 P,0,162774,163074,A
Sprite,Background,Centre,"sb/high.png",256,248 S,2,162946,163246,1,0.8 F,2,162946,163246,1,0 P,0,162946,163246,A
Sprite,Background,Centre,"sb/high.png",256,248 S,0,162946,,3 F,2,162946,163246,0.5,0 P,0,162946,163246,A
Sprite,Background,Centre,"sb/high.png",268,419 S,2,163118,163418,1,0.8 F,2,163118,163418,1,0 P,0,163118,163418,A
Sprite,Background,Centre,"sb/high.png",268,419 S,0,163118,,3 F,2,163118,163418,0.5,0 P,0,163118,163418,A
Sprite,Background,Centre,"sb/high.png",360,264 S,2,163291,163591,1,0.8 F,2,163291,163591,1,0 P,0,163291,163591,A
Sprite,Background,Centre,"sb/high.png",360,264 S,0,163291,,3 F,2,163291,163591,0.5,0 P,0,163291,163591,A
Sprite,Background,Centre,"sb/high.png",0,0 S,2,163463,164021,1,0.8 F,2,163463,164021,1,0 P,0,163463,164021,A M,0,163463,163549,544,296,541.1552,248.5853 M,0,163549,163635,541.1552,248.5853,538.3102,201.1705 M,0,163635,163721,538.3102,201.1705,510.132,227.8492
Sprite,Background,Centre,"sb/high.png",544,296 S,0,163463,,3 F,2,163463,164021,0.5,0 P,0,163463,164021,A
Sprite,Background,Centre,"sb/high.png",97,165 S,2,167256,167556,1,0.8 F,2,167256,167556,1,0 P,0,167256,167556,A
Sprite,Background,Centre,"sb/high.png",97,165 S,0,167256,,3 F,2,167256,167556,0.5,0 P,0,167256,167556,A
Sprite,Background,Centre,"sb/high.png",225,307 S,2,167429,167729,1,0.8 F,2,167429,167729,1,0 P,0,167429,167729,A
Sprite,Background,Centre,"sb/high.png",225,307 S,0,167429,,3 F,2,167429,167729,0.5,0 P,0,167429,167729,A
Sprite,Background,Centre,"sb/high.png",0,0 S,2,167601,168073,1,0.8 F,2,167601,168073,1,0 P,0,167601,168073,A M,0,167601,167687,344,188,341.5619,140.9318 M,0,167687,167773,341.5619,140.9318,319.053,99.51451
Sprite,Background,Centre,"sb/high.png",344,188 S,0,167601,,3 F,2,167601,168073,0.5,0 P,0,167601,168073,A
Sprite,Background,Centre,"sb/high.png",296,284 S,2,167946,168246,1,0.8 F,2,167946,168246,1,0 P,0,167946,168246,A
Sprite,Background,Centre,"sb/high.png",296,284 S,0,167946,,3 F,2,167946,168246,0.5,0 P,0,167946,168246,A
Sprite,Background,Centre,"sb/high.png",444,224 S,2,168118,168418,1,0.8 F,2,168118,168418,1,0 P,0,168118,168418,A
Sprite,Background,Centre,"sb/high.png",444,224 S,0,168118,,3 F,2,168118,168418,0.5,0 P,0,168118,168418,A
Sprite,Background,Centre,"sb/high.png",0,0 S,2,168291,168763,1,0.8 F,2,168291,168763,1,0 P,0,168291,168763,A M,0,168291,168377,297,357,252.0946,345.9579 M,0,168377,168463,252.0946,345.9579,225.985,307.9907
Sprite,Background,Centre,"sb/high.png",297,357 S,0,168291,,3 F,2,168291,168763,0.5,0 P,0,168291,168763,A
Sprite,Background,Centre,"sb/high.png",104,168 S,2,168636,168936,1,0.8 F,2,168636,168936,1,0 P,0,168636,168936,A
Sprite,Background,Centre,"sb/high.png",104,168 S,0,168636,,3 F,2,168636,168936,0.5,0 P,0,168636,168936,A
Sprite,Background,Centre,"sb/high.png",148,392 S,2,168808,169108,1,0.8 F,2,168808,169108,1,0 P,0,168808,169108,A
Sprite,Background,Centre,"sb/high.png",148,392 S,0,168808,,3 F,2,168808,169108,0.5,0 P,0,168808,169108,A
Sprite,Background,Centre,"sb/high.png",0,0 S,2,168981,169539,1,0.8 F,2,168981,169539,1,0 P,0,168981,169539,A M,0,168981,169067,296,284,328.0934,250.571 M,0,169067,169153,328.0934,250.571,374.0327,245.5271 M,0,169153,169239,374.0327,245.5271,412.4224,271.5346
Sprite,Background,Centre,"sb/high.png",296,284 S,0,168981,,3 F,2,168981,169539,0.5,0 P,0,168981,169539,A
Sprite,Background,Centre,"sb/high.png",544,120 S,2,169843,170143,1,0.8 F,2,169843,170143,1,0 P,0,169843,170143,A
Sprite,Background,Centre,"sb/high.png",544,120 S,0,169843,,3 F,2,169843,170143,0.5,0 P,0,169843,170143,A
Sprite,Background,Centre,"sb/high.png",448,252 S,2,170015,170315,1,0.8 F,2,170015,170315,1,0 P,0,170015,170315,A
Sprite,Background,Centre,"sb/high.png",448,252 S,0,170015,,3 F,2,170015,170315,0.5,0 P,0,170015,170315,A
Sprite,Background,Centre,"sb/high.png",364,104 S,2,170187,170487,1,0.8 F,2,170187,170487,1,0 P,0,170187,170487,A
Sprite,Background,Centre,"sb/high.png",364,104 S,0,170187,,3 F,2,170187,170487,0.5,0 P,0,170187,170487,A
Sprite,Background,Centre,"sb/high.png",536,120 S,2,170360,170660,1,0.8 F,2,170360,170660,1,0 P,0,170360,170660,A
Sprite,Background,Centre,"sb/high.png",536,120 S,0,170360,,3 F,2,170360,170660,0.5,0 P,0,170360,170660,A
Sprite,Background,Centre,"sb/high.png",432,328 S,2,170532,170832,1,0.8 F,2,170532,170832,1,0 P,0,170532,170832,A
Sprite,Background,Centre,"sb/high.png",432,328 S,0,170532,,3 F,2,170532,170832,0.5,0 P,0,170532,170832,A
Sprite,Background,Centre,"sb/high.png",248,280 S,2,170705,171005,1,0.8 F,2,170705,171005,1,0 P,0,170705,171005,A
Sprite,Background,Centre,"sb/high.png",248,280 S,0,170705,,3 F,2,170705,171005,0.5,0 P,0,170705,171005,A
Sprite,Background,Centre,"sb/high.png",288,124 S,2,170877,171177,1,0.8 F,2,170877,171177,1,0 P,0,170877,171177,A
Sprite,Background,Centre,"sb/high.png",288,124 S,0,170877,,3 F,2,170877,171177,0.5,0 P,0,170877,171177,A
Sprite,Background,Centre,"sb/high.png",408,232 S,2,171049,171349,1,0.8 F,2,171049,171349,1,0 P,0,171049,171349,A
Sprite,Background,Centre,"sb/high.png",408,232 S,0,171049,,3 F,2,171049,171349,0.5,0 P,0,171049,171349,A
Sprite,Background,Centre,"sb/high.png",312,104 S,2,171222,171522,1,0.8 F,2,171222,171522,1,0 P,0,171222,171522,A
Sprite,Background,Centre,"sb/high.png",312,104 S,0,171222,,3 F,2,171222,171522,0.5,0 P,0,171222,171522,A
Sprite,Background,Centre,"sb/high.png",0,0 S,2,171394,171866,1,0.8 F,2,171394,171866,1,0 P,0,171394,171866,A M,0,171394,171480,248,280,200.6399,283.6431 M,0,171480,171566,200.6399,283.6431,153.2798,287.2862
Sprite,Background,Centre,"sb/high.png",248,280 S,0,171394,,3 F,2,171394,171866,0.5,0 P,0,171394,171866,A
Sprite,Background,Centre,"sb/high.png",0,0 S,2,171739,172297,1,0.8 F,2,171739,172297,1,0 P,0,171739,172297,A M,0,171739,171825,72,116,117.9289,105.639 M,0,171825,171911,117.9289,105.639,164.0757,114.7372 M,0,171911,171997,164.0757,114.7372,202.4515,141.9906
Sprite,Background,Centre,"sb/high.png",72,116 S,0,171739,,3 F,2,171739,172297,0.5,0 P,0,171739,172297,A
Sprite,Background,Centre,"sb/high.png",0,0 S,2,172774,173246,1,0.8 F,2,172774,173246,1,0 P,0,172774,173246,A M,0,172774,172860,390,113,436.8529,118.5509 M,0,172860,172946,436.8529,118.5509,482.6025,107.0823
Sprite,Background,Centre,"sb/high.png",390,113 S,0,172774,,3 F,2,172774,173246,0.5,0 P,0,172774,173246,A
Sprite,Background,Centre,"sb/high.png",424,208 S,2,173118,173418,1,0.8 F,2,173118,173418,1,0 P,0,173118,173418,A
Sprite,Background,Centre,"sb/high.png",424,208 S,0,173118,,3 F,2,173118,173418,0.5,0 P,0,173118,173418,A
Sprite,Background,Centre,"sb/high.png",576,136 S,2,173291,173591,1,0.8 F,2,173291,173591,1,0 P,0,173291,173591,A
Sprite,Background,Centre,"sb/high.png",576,136 S,0,173291,,3 F,2,173291,173591,0.5,0 P,0,173291,173591,A
Sprite,Background,Centre,"sb/high.png",0,0 S,2,173463,173935,1,0.8 F,2,173463,173935,1,0 P,0,173463,173935,A M,0,173463,173549,533,290,485.9774,283.2825 M,0,173549,173635,485.9774,283.2825,438.9548,276.565
Sprite,Background,Centre,"sb/high.png",533,290 S,0,173463,,3 F,2,173463,173935,0.5,0 P,0,173463,173935,A
Sprite,Background,Centre,"sb/high.png",240,248 S,2,173808,174108,1,0.8 F,2,173808,174108,1,0 P,0,173808,174108,A
Sprite,Background,Centre,"sb/high.png",240,248 S,0,173808,,3 F,2,173808,174108,0.5,0 P,0,173808,174108,A
Sprite,Background,Centre,"sb/high.png",395,355 S,2,173981,174281,1,0.8 F,2,173981,174281,1,0 P,0,173981,174281,A
Sprite,Background,Centre,"sb/high.png",395,355 S,0,173981,,3 F,2,173981,174281,0.5,0 P,0,173981,174281,A
Sprite,Background,Centre,"sb/high.png",199,320 S,2,174153,174453,1,0.8 F,2,174153,174453,1,0 P,0,174153,174453,A
Sprite,Background,Centre,"sb/high.png",199,320 S,0,174153,,3 F,2,174153,174453,0.5,0 P,0,174153,174453,A
Sprite,Background,Centre,"sb/high.png",381,241 S,2,174325,174625,1,0.8 F,2,174325,174625,1,0 P,0,174325,174625,A
Sprite,Background,Centre,"sb/high.png",381,241 S,0,174325,,3 F,2,174325,174625,0.5,0 P,0,174325,174625,A
Sprite,Background,Centre,"sb/high.png",0,0 S,2,174498,175056,1,0.8 F,2,174498,175056,1,0 P,0,174498,175056,A M,0,174498,174584,271,406,307.8297,376.8451 M,0,174584,174670,307.8297,376.8451,353.7972,367.5159 M,0,174670,174756,353.7972,367.5159,398.949,380.3087
Sprite,Background,Centre,"sb/high.png",271,406 S,0,174498,,3 F,2,174498,175056,0.5,0 P,0,174498,175056,A
//Storyboard Layer 1 (Fail)
//Storyboard Layer 2 (Pass)
//Storyboard Layer 3 (Foreground)
Sprite,Foreground,Centre,"sb/high.png",219,220 S,2,56912,57212,1,0.8 F,2,56912,57212,1,0 P,0,56912,57212,A C,0,56912,,241,40,12
Sprite,Foreground,Centre,"sb/high.png",384,188 S,2,57084,57384,1,0.8 F,2,57084,57384,1,0 P,0,57084,57384,A C,0,57084,,241,40,12
Sprite,Foreground,Centre,"sb/high.png",336,380 S,2,57256,57556,1,0.8 F,2,57256,57556,1,0 P,0,57256,57556,A C,0,57256,,241,40,12
Sprite,Foreground,Centre,"sb/high.png",316,244 S,2,57429,57729,1,0.8 F,2,57429,57729,1,0 P,0,57429,57729,A C,0,57429,,241,40,12
Sprite,Foreground,Centre,"sb/high.png",0,0 S,2,57601,58073,1,0.8 F,2,57601,58073,1,0 P,0,57601,58073,A C,0,57601,,241,40,12 M,0,57601,57687,440,340,469.934,358.3699 M,0,57687,57773,469.934,358.3699,504.9735,358.5246
Sprite,Foreground,Centre,"sb/high.png",556,196 S,2,57946,58246,1,0.8 F,2,57946,58246,1,0 P,0,57946,58246,A C,0,57946,,249,60,121
Sprite,Foreground,Centre,"sb/high.png",492,288 S,2,58118,58418,1,0.8 F,2,58118,58418,1,0 P,0,58118,58418,A C,0,58118,,249,60,121
Sprite,Foreground,Centre,"sb/high.png",0,0 S,2,58291,58763,1,0.8 F,2,58291,58763,1,0 P,0,58291,58763,A C,0,58291,,249,60,121 M,0,58291,58377,320,168,285.6273,176.7282 M,0,58377,58463,285.6273,176.7282,256,196
Sprite,Foreground,Centre,"sb/high.png",0,0 S,2,58636,59194,1,0.8 F,2,58636,59194,1,0 P,0,58636,59194,A C,0,58636,,249,60,121 M,0,58636,58722,168,392,203.2678,395.2936 M,0,58722,58808,203.2678,395.2936,237.552,386.5365 M,0,58808,58894,237.552,386.5365,266.868,366.767
Sprite,Foreground,Centre,"sb/high.png",564,328 S,2,59498,59798,1,0.8 F,2,59498,59798,1,0 P,0,59498,59798,A C,0,59498,,243,156,24
Sprite,Foreground,Centre,"sb/high.png",0,0 S,2,59670,60142,1,0.8 F,2,59670,60142,1,0 P,0,59670,60142,A C,0,59670,,243,156,24 M,0,59670,59756,424,160,424.0644,195.5269 M,0,59756,59842,424.0644,195.5269,432.3259,230.0598
Sprite,Foreground,Centre,"sb/high.png",468,379 S,2,60015,60315,1,0.8 F,2,60015,60315,1,0 P,0,60015,60315,A C,0,60015,,243,156,24
Sprite,Foreground,Centre,"sb/high.png",304,420 S,2,60187,60487,1,0.8 F,2,60187,60487,1,0 P,0,60187,60487,A C,0,60187,,243,156,24
Sprite,Foreground,Centre,"sb/high.png",232,252 S,2,60360,60660,1,0.8 F,2,60360,60660,1,0 P,0,60360,60660,A C,0,60360,,202,112,0
Sprite,Foreground,Centre,"sb/high.png",337,116 S,2,60532,60832,1,0.8 F,2,60532,60832,1,0 P,0,60532,60832,A C,0,60532,,202,112,0
Sprite,Foreground,Centre,"sb/high.png",348,288 S,2,60705,61005,1,0.8 F,2,60705,61005,1,0 P,0,60705,61005,A C,0,60705,,202,112,0
Sprite,Foreground,Centre,"sb/high.png",236,152 S,2,60877,61177,1,0.8 F,2,60877,61177,1,0 P,0,60877,61177,A C,0,60877,,202,112,0
Sprite,Foreground,Centre,"sb/high.png",0,0 S,2,61049,61607,1,0.8 F,2,61049,61607,1,0 P,0,61049,61607,A C,0,61049,,202,112,0 M,0,61049,61135,396,204,431.1662,209.1549 M,0,61135,61221,431.1662,209.1549,466.6043,206.6578 M,0,61221,61307,466.6043,206.6578,500.6753,196.6294
Sprite,Foreground,Centre,"sb/high.png",0,0 S,2,61394,61952,1,0.8 F,2,61394,61952,1,0 P,0,61394,61952,A C,0,61394,,202,112,0 M,0,61394,61480,524,130,553.1493,149.6729 M,0,61480,61566,553.1493,149.6729,569.4031,180.7568 M,0,61566,61652,569.4031,180.7568,569.0853,215.8322
Sprite,Foreground,Centre,"sb/high.png",418,345 S,2,62429,62729,1,0.8 F,2,62429,62729,1,0 P,0,62429,62729,A C,0,62429,,241,40,12
Sprite,Foreground,Centre,"sb/high.png",252,376 S,2,62601,62901,1,0.8 F,2,62601,62901,1,0 P,0,62601,62901,A C,0,62601,,241,40,12
Sprite,Foreground,Centre,"sb/high.png",296,152 S,2,62774,63074,1,0.8 F,2,62774,63074,1,0 P,0,62774,63074,A C,0,62774,,241,40,12
Sprite,Foreground,Centre,"sb/high.png",448,200 S,2,62946,63246,1,0.8 F,2,62946,63246,1,0 P,0,62946,63246,A C,0,62946,,241,40,12
Sprite,Foreground,Centre,"sb/high.png",192,224 S,2,63118,63418,1,0.8 F,2,63118,63418,1,0 P,0,63118,63418,A C,0,63118,,241,40,12
Sprite,Foreground,Centre,"sb/high.png",192,224 S,2,63463,63763,1,0.8 F,2,63463,63763,1,0 P,0,63463,63763,A C,0,63463,,249,60,121
Sprite,Foreground,Centre,"sb/high.png",236,324 S,2,63636,63936,1,0.8 F,2,63636,63936,1,0 P,0,63636,63936,A C,0,63636,,249,60,121
Sprite,Foreground,Centre,"sb/high.png",0,0 S,2,63808,64280,1,0.8 F,2,63808,64280,1,0 P,0,63808,64280,A C,0,63808,,249,60,121 M,0,63808,63894,360,252,357.0415,216.4981 M,0,63894,63980,357.0415,216.4981,354.083,180.9961
Sprite,Foreground,Centre,"sb/high.png",0,0 S,2,64153,64711,1,0.8 F,2,64153,64711,1,0 P,0,64153,64711,A C,0,64153,,249,60,121 M,0,64153,64239,276,108,304.0108,86.33507 M,0,64239,64325,304.0108,86.33507,337.6159,75.30582 M,0,64325,64411,337.6159,75.30582,373.0026,75.90181
Sprite,Foreground,Centre,"sb/high.png",0,0 S,2,67946,68418,1,0.8 F,2,67946,68418,1,0 P,0,67946,68418,A C,0,67946,,241,40,12 M,0,67946,68032,134,403,110.5129,377.1885 M,0,68032,68118,110.5129,377.1885,106.5625,342.6573
Sprite,Foreground,Centre,"sb/high.png",164,168 S,2,68291,68591,1,0.8 F,2,68291,68591,1,0 P,0,68291,68591,A C,0,68291,,241,40,12
Sprite,Foreground,Centre,"sb/high.png",178,346 S,2,68463,68763,1,0.8 F,2,68463,68763,1,0 P,0,68463,68763,A C,0,68463,,241,40,12
Sprite,Foreground,Centre,"sb/high.png",384,360 S,2,68636,68936,1,0.8 F,2,68636,68936,1,0 P,0,68636,68936,A C,0,68636,,241,40,12
Sprite,Foreground,Centre,"sb/high.png",0,0 S,2,68981,69453,1,0.8 F,2,68981,69453,1,0 P,0,68981,69453,A C,0,68981,,249,60,121 M,0,68981,69067,384,360,348.4153,358.3055 M,0,69067,69153,348.4153,358.3055,312.8306,356.611
Sprite,Foreground,Centre,"sb/high.png",0,0 S,2,69325,69797,1,0.8 F,2,69325,69797,1,0 P,0,69325,69797,A C,0,69325,,249,60,121 M,0,69325,69411,178,346,188.9002,312.3118 M,0,69411,69497,188.9002,312.3118,187.5956,276.9698
Sprite,Foreground,Centre,"sb/high.png",0,0 S,2,69670,70228,1,0.8 F,2,69670,70228,1,0 P,0,69670,70228,A C,0,69670,,249,60,121 M,0,69670,69756,140,180,175.0168,185.9608 M,0,69756,69842,175.0168,185.9608,210.4212,183.3539 M,0,69842,69928,210.4212,183.3539,244.1562,172.3382
Sprite,Foreground,Centre,"sb/high.png",568,216 S,2,70532,70832,1,0.8 F,2,70532,70832,1,0 P,0,70532,70832,A C,0,70532,,243,156,24
Sprite,Foreground,Centre,"sb/high.png",488,84 S,2,70705,71005,1,0.8 F,2,70705,71005,1,0 P,0,70705,71005,A C,0,70705,,243,156,24
Sprite,Foreground,Centre,"sb/high.png",424,272 S,2,70877,71177,1,0.8 F,2,70877,71177,1,0 P,0,70877,71177,A C,0,70877,,243,156,24
Sprite,Foreground,Centre,"sb/high.png",328,144 S,2,71050,71350,1,0.8 F,2,71050,71350,1,0 P,0,71050,71350,A C,0,71050,,243,156,24
Sprite,Foreground,Centre,"sb/high.png",208,242 S,2,71222,71522,1,0.8 F,2,71222,71522,1,0 P,0,71222,71522,A C,0,71222,,202,112,0
Sprite,Foreground,Centre,"sb/high.png",96,372 S,2,71394,71694,1,0.8 F,2,71394,71694,1,0 P,0,71394,71694,A C,0,71394,,202,112,0
Sprite,Foreground,Centre,"sb/high.png",276,400 S,2,71567,71867,1,0.8 F,2,71567,71867,1,0 P,0,71567,71867,A C,0,71567,,202,112,0
Sprite,Foreground,Centre,"sb/high.png",88,392 S,2,71739,72039,1,0.8 F,2,71739,72039,1,0 P,0,71739,72039,A C,0,71739,,202,112,0
Sprite,Foreground,Centre,"sb/high.png",208,242 S,2,71912,72212,1,0.8 F,2,71912,72212,1,0 P,0,71912,72212,A C,0,71912,,202,112,0
Sprite,Foreground,Centre,"sb/high.png",0,0 S,2,72084,72556,1,0.8 F,2,72084,72556,1,0 P,0,72084,72556,A C,0,72084,,202,112,0 M,0,72084,72170,80,176,113.0345,187.778 M,0,72170,72256,113.0345,187.778,147.2374,180.5382
Sprite,Foreground,Centre,"sb/high.png",0,0 S,2,72429,72987,1,0.8 F,2,72429,72987,1,0 P,0,72429,72987,A C,0,72429,,202,112,0 M,0,72429,72515,288,96,317.072,76.04199 M,0,72515,72601,317.072,76.04199,351.9057,70.9845 M,0,72601,72687,351.9057,70.9845,385.5121,81.56575
Sprite,Foreground,Centre,"sb/high.png",356,284 S,2,73463,73763,1,0.8 F,2,73463,73763,1,0 P,0,73463,73763,A C,0,73463,,241,40,12
Sprite,Foreground,Centre,"sb/high.png",232,248 S,2,73636,73936,1,0.8 F,2,73636,73936,1,0 P,0,73636,73936,A C,0,73636,,241,40,12
Sprite,Foreground,Centre,"sb/high.png",344,188 S,2,73808,74108,1,0.8 F,2,73808,74108,1,0 P,0,73808,74108,A C,0,73808,,241,40,12
Sprite,Foreground,Centre,"sb/high.png",280,352 S,2,73981,74281,1,0.8 F,2,73981,74281,1,0 P,0,73981,74281,A C,0,73981,,241,40,12
Sprite,Foreground,Centre,"sb/high.png",420,408 S,2,74153,74453,1,0.8 F,2,74153,74453,1,0 P,0,74153,74453,A C,0,74153,,241,40,12
Sprite,Foreground,Centre,"sb/high.png",420,408 S,2,74498,74798,1,0.8 F,2,74498,74798,1,0 P,0,74498,74798,A C,0,74498,,249,60,121
Sprite,Foreground,Centre,"sb/high.png",300,276 S,2,74670,74970,1,0.8 F,2,74670,74970,1,0 P,0,74670,74970,A C,0,74670,,249,60,121
Sprite,Foreground,Centre,"sb/high.png",0,0 S,2,74843,75315,1,0.8 F,2,74843,75315,1,0 P,0,74843,75315,A C,0,74843,,249,60,121 M,0,74843,74929,128,356,130.0402,320.9947 M,0,74929,75015,130.0402,320.9947,150.4001,292.5779
Sprite,Foreground,Centre,"sb/high.png",0,0 S,2,75187,75745,1,0.8 F,2,75187,75745,1,0 P,0,75187,75745,A C,0,75187,,249,60,121 M,0,75187,75273,208,216,198.0109,181.8946 M,0,75273,75359,198.0109,181.8946,195.9759,146.428 M,0,75359,75445,195.9759,146.428,201.9945,111.4275
Sprite,Foreground,Centre,"sb/high.png",220,72 S,2,133981,134281,1,0.8 F,2,133981,134281,1,0 P,0,133981,134281,A C,0,133981,,202,112,0
Sprite,Foreground,Centre,"sb/high.png",284,252 S,2,134153,134453,1,0.8 F,2,134153,134453,1,0 P,0,134153,134453,A C,0,134153,,202,112,0
Sprite,Foreground,Centre,"sb/high.png",136,136 S,2,134325,134625,1,0.8 F,2,134325,134625,1,0 P,0,134325,134625,A C,0,134325,,202,112,0
Sprite,Foreground,Centre,"sb/high.png",324,100 S,2,134498,134798,1,0.8 F,2,134498,134798,1,0 P,0,134498,134798,A C,0,134498,,202,112,0
Sprite,Foreground,Centre,"sb/high.png",264,336 S,2,134670,134970,1,0.8 F,2,134670,134970,1,0 P,0,134670,134970,A C,0,134670,,202,112,0
Sprite,Foreground,Centre,"sb/high.png",0,0 S,2,134843,135315,1,0.8 F,2,134843,135315,1,0 P,0,134843,135315,A C,0,134843,,241,40,12 M,0,134843,134929,348,216,344.0141,168.6675 M,0,134929,135015,344.0141,168.6675,340.0282,121.3351
Sprite,Foreground,Centre,"sb/high.png",0,0 S,2,135187,135659,1,0.8 F,2,135187,135659,1,0 P,0,135187,135659,A C,0,135187,,241,40,12 M,0,135187,135273,284,258,320.1856,287.3548 M,0,135273,135359,320.1856,287.3548,366.6052,290.5051
Sprite,Foreground,Centre,"sb/high.png",0,0 S,2,135532,136004,1,0.8 F,2,135532,136004,1,0 P,0,135532,136004,A C,0,135532,,241,40,12 M,0,135532,135618,476,300,462.4066,344.5341 M,0,135618,135704,462.4066,344.5341,477.4069,388.5807
Sprite,Foreground,Centre,"sb/high.png",0,0 S,2,135877,136435,1,0.8 F,2,135877,136435,1,0 P,0,135877,136435,A C,0,135877,,241,40,12 M,0,135877,135963,540,344,493.0726,338.3725 M,0,135963,136049,493.0726,338.3725,446.7061,347.4526 M,0,136049,136135,446.7061,347.4526,405.4928,370.6256
Sprite,Foreground,Centre,"sb/high.png",340,412 S,2,136222,136522,1,0.8 F,2,136222,136522,1,0 P,0,136222,136522,A C,0,136222,,249,60,121
Sprite,Foreground,Centre,"sb/high.png",88,212 S,2,136567,136867,1,0.8 F,2,136567,136867,1,0 P,0,136567,136867,A C,0,136567,,249,60,121
Sprite,Foreground,Centre,"sb/high.png",94,310 S,2,136739,137039,1,0.8 F,2,136739,137039,1,0 P,0,136739,137039,A C,0,136739,,249,60,121
Sprite,Foreground,Centre,"sb/high.png",0,0 S,2,136912,137384,1,0.8 F,2,136912,137384,1,0 P,0,136912,137384,A C,0,136912,,249,60,121 M,0,136912,136998,168,380,215.0226,386.7175 M,0,136998,137084,215.0226,386.7175,262.0452,393.435
Sprite,Foreground,Centre,"sb/high.png",0,0 S,2,137256,137728,1,0.8 F,2,137256,137728,1,0 P,0,137256,137728,A C,0,137256,,249,60,121 M,0,137256,137342,396,260,348.9774,253.2825 M,0,137342,137428,348.9774,253.2825,301.9548,246.565
Sprite,Foreground,Centre,"sb/high.png",160,228 S,2,137601,137901,1,0.8 F,2,137601,137901,1,0 P,0,137601,137901,A C,0,137601,,243,156,24
Sprite,Foreground,Centre,"sb/high.png",128,60 S,2,137774,138074,1,0.8 F,2,137774,138074,1,0 P,0,137774,138074,A C,0,137774,,243,156,24
Sprite,Foreground,Centre,"sb/high.png",284,128 S,2,137946,138246,1,0.8 F,2,137946,138246,1,0 P,0,137946,138246,A C,0,137946,,243,156,24
Sprite,Foreground,Centre,"sb/high.png",144,228 S,2,138118,138418,1,0.8 F,2,138118,138418,1,0 P,0,138118,138418,A C,0,138118,,243,156,24
Sprite,Foreground,Centre,"sb/high.png",156,57 S,2,138291,138591,1,0.8 F,2,138291,138591,1,0 P,0,138291,138591,A C,0,138291,,243,156,24
Sprite,Foreground,Centre,"sb/high.png",289,163 S,2,138463,138763,1,0.8 F,2,138463,138763,1,0 P,0,138463,138763,A C,0,138463,,243,156,24
Sprite,Foreground,Centre,"sb/high.png",0,0 S,2,138636,139194,1,0.8 F,2,138636,139194,1,0 P,0,138636,139194,A C,0,138636,,243,156,24 M,0,138636,138722,328,348,361.6628,380.4859 M,0,138722,138808,361.6628,380.4859,407.2343,390.6718 M,0,138808,138894,407.2343,390.6718,451.4439,375.3552
Sprite,Foreground,Centre,"sb/high.png",0,0 S,2,138981,139625,1,0.8 F,2,138981,139625,1,0 P,0,138981,139625,A C,0,138981,,202,112,0 M,0,138981,139067,512,340,505.5982,300.003 M,0,139067,139153,505.5982,300.003,502.0818,262.0852 M,0,139153,139239,502.0818,262.0852,513.0511,216.4163 M,0,139239,139325,513.0511,216.4163,505.9593,169.5934
Sprite,Foreground,Centre,"sb/high.png",468,60 S,2,139498,139798,1,0.8 F,2,139498,139798,1,0 P,0,139498,139798,A C,0,139498,,202,112,0
Sprite,Foreground,Centre,"sb/high.png",0,0 S,2,139670,140142,1,0.8 F,2,139670,140142,1,0 P,0,139670,140142,A C,0,139670,,202,112,0 M,0,139670,139756,348,136,344.0553,183.3359 M,0,139756,139842,344.0553,183.3359,350.6233,230.3629
Sprite,Foreground,Centre,"sb/high.png",396,416 S,2,140015,140315,1,0.8 F,2,140015,140315,1,0 P,0,140015,140315,A C,0,140015,,202,112,0
Sprite,Foreground,Centre,"sb/high.png",488,248 S,2,140187,140487,1,0.8 F,2,140187,140487,1,0 P,0,140187,140487,A C,0,140187,,202,112,0
Sprite,Foreground,Centre,"sb/high.png",0,0 S,2,140360,140832,1,0.8 F,2,140360,140832,1,0 P,0,140360,140832,A C,0,140360,,202,112,0 M,0,140360,140446,300,288,278.4772,246.3554 M,0,140446,140532,278.4772,246.3554,271.0689,199.4367
Sprite,Foreground,Centre,"sb/high.png",270,357 S,2,140704,141004,1,0.8 F,2,140704,141004,1,0 P,0,140704,141004,A C,0,140704,,241,40,12
Sprite,Foreground,Centre,"sb/high.png",0,0 S,2,140877,141349,1,0.8 F,2,140877,141349,1,0 P,0,140877,141349,A C,0,140877,,241,40,12 M,0,140877,140963,270,357,316.4113,360.9654 M,0,140963,141049,316.4113,360.9654,356.4919,337.307
Sprite,Foreground,Centre,"sb/high.png",420,96 S,2,141222,141522,1,0.8 F,2,141222,141522,1,0 P,0,141222,141522,A C,0,141222,,241,40,12
Sprite,Foreground,Centre,"sb/high.png",0,0 S,2,141394,141952,1,0.8 F,2,141394,141952,1,0 P,0,141394,141952,A C,0,141394,,241,40,12 M,0,141394,141480,420,96,374.2068,85.88802 M,0,141480,141566,374.2068,85.88802,329.2747,99.04779 M,0,141566,141652,329.2747,99.04779,296.4531,132.4789
Sprite,Foreground,Centre,"sb/high.png",0,0 S,2,141739,142211,1,0.8 F,2,141739,142211,1,0 P,0,141739,142211,A C,0,141739,,249,60,121 M,0,141739,141825,250,187,293.3623,203.6172 M,0,141825,141911,293.3623,203.6172,337.5858,189.8753
Sprite,Foreground,Centre,"sb/high.png",259,318 S,2,142084,142384,1,0.8 F,2,142084,142384,1,0 P,0,142084,142384,A C,0,142084,,249,60,121
Sprite,Foreground,Centre,"sb/high.png",0,0 S,2,142256,142900,1,0.8 F,2,142256,142900,1,0 P,0,142256,142900,A C,0,142256,,249,60,121 M,0,142256,142342,259,318,268.1397,271.3876 M,0,142342,142428,268.1397,271.3876,277.2794,224.7752 M,0,142428,142514,277.2794,224.7752,286.4191,178.1628 M,0,142514,142600,286.4191,178.1628,295.5587,131.5504
Sprite,Foreground,Centre,"sb/high.png",0,0 S,2,142774,143332,1,0.8 F,2,142774,143332,1,0 P,0,142774,143332,A C,0,142774,,249,60,121 M,0,142774,142860,468,216,477.018,262.6361 M,0,142860,142946,477.018,262.6361,486.0361,309.2722 M,0,142946,143032,486.0361,309.2722,495.0541,355.9083
Sprite,Foreground,Centre,"sb/high.png",508,424 S,2,143118,143418,1,0.8 F,2,143118,143418,1,0 P,0,143118,143418,A C,0,143118,,243,156,24
Sprite,Foreground,Centre,"sb/high.png",360,304 S,2,143291,143591,1,0.8 F,2,143291,143591,1,0 P,0,143291,143591,A C,0,143291,,243,156,24
Sprite,Foreground,Centre,"sb/high.png",180,364 S,2,143463,143763,1,0.8 F,2,143463,143763,1,0 P,0,143463,143763,A C,0,143463,,243,156,24
Sprite,Foreground,Centre,"sb/high.png",0,0 S,2,143636,144280,1,0.8 F,2,143636,144280,1,0 P,0,143636,144280,A C,0,143636,,243,156,24 M,0,143636,143722,380,400,380,352.5 M,0,143722,143808,380,352.5,362.6351,309.6115 M,0,143808,143894,362.6351,309.6115,348,265.998 M,0,143894,143980,348,265.998,348,218.4981
Sprite,Foreground,Centre,"sb/high.png",0,0 S,2,144153,144711,1,0.8 F,2,144153,144711,1,0 P,0,144153,144711,A C,0,144153,,243,156,24 M,0,144153,144239,197,73,190.0466,119.0001 M,0,144239,144325,190.0466,119.0001,211.8839,159.9399 M,0,144325,144411,211.8839,159.9399,254.0727,179.543
Sprite,Foreground,Centre,"sb/high.png",0,0 S,2,145187,145659,1,0.8 F,2,145187,145659,1,0 P,0,145187,145659,A C,0,145187,,202,112,0 M,0,145187,145273,559,289,555.6157,336.3793 M,0,145273,145359,555.6157,336.3793,552.2316,383.7586
Sprite,Foreground,Centre,"sb/high.png",400,272 S,2,145532,145832,1,0.8 F,2,145532,145832,1,0 P,0,145532,145832,A C,0,145532,,202,112,0
Sprite,Foreground,Centre,"sb/high.png",568,180 S,2,145705,146005,1,0.8 F,2,145705,146005,1,0 P,0,145705,146005,A C,0,145705,,202,112,0
Sprite,Foreground,Centre,"sb/high.png",0,0 S,2,145877,146349,1,0.8 F,2,145877,146349,1,0 P,0,145877,146349,A C,0,145877,,241,40,12 M,0,145877,145963,388,384,344.2607,400.9395 M,0,145963,146049,344.2607,400.9395,297.8256,394.8952
Sprite,Foreground,Centre,"sb/high.png",144,336 S,2,146222,146522,1,0.8 F,2,146222,146522,1,0 P,0,146222,146522,A C,0,146222,,241,40,12
Sprite,Foreground,Centre,"sb/high.png",328,296 S,2,146394,146694,1,0.8 F,2,146394,146694,1,0 P,0,146394,146694,A C,0,146394,,241,40,12
Sprite,Foreground,Centre,"sb/high.png",0,0 S,2,146567,147039,1,0.8 F,2,146567,147039,1,0 P,0,146567,147039,A C,0,146567,,241,40,12 M,0,146567,146653,144,248,127.0605,204.2607 M,0,146653,146739,127.0605,204.2607,133.1048,157.8255
Sprite,Foreground,Centre,"sb/high.png",0,0 S,2,146912,147470,1,0.8 F,2,146912,147470,1,0 P,0,146912,147470,A C,0,146912,,241,40,12 M,0,146912,146998,360,80,400.4232,104.5456 M,0,146998,147084,400.4232,104.5456,446.978,111.7225 M,0,147084,147170,446.978,111.7225,434.8833,86.55771
Sprite,Foreground,Centre,"sb/high.png",348,416 S,2,147774,148074,1,0.8 F,2,147774,148074,1,0 P,0,147774,148074,A C,0,147774,,249,60,121
Sprite,Foreground,Centre,"sb/high.png",280,252 S,2,147946,148246,1,0.8 F,2,147946,148246,1,0 P,0,147946,148246,A C,0,147946,,249,60,121
Sprite,Foreground,Centre,"sb/high.png",464,280 S,2,148118,148418,1,0.8 F,2,148118,148418,1,0 P,0,148118,148418,A C,0,148118,,249,60,121
Sprite,Foreground,Centre,"sb/high.png",0,0 S,2,148291,148763,1,0.8 F,2,148291,148763,1,0 P,0,148291,148763,A C,0,148291,,249,60,121 M,0,148291,148377,348,416,301.5843,422.304 M,0,148377,148463,301.5843,422.304,254.4096,416.7541
Sprite,Foreground,Centre,"sb/high.png",0,0 S,2,148636,149108,1,0.8 F,2,148636,149108,1,0 P,0,148636,149108,A C,0,148636,,243,156,24 M,0,148636,148722,88,240,134.4157,233.696 M,0,148722,148808,134.4157,233.696,181.5904,239.2459
Sprite,Foreground,Centre,"sb/high.png",368,268 S,2,148981,149281,1,0.8 F,2,148981,149281,1,0 P,0,148981,149281,A C,0,148981,,243,156,24
Sprite,Foreground,Centre,"sb/high.png",232,188 S,2,149153,149453,1,0.8 F,2,149153,149453,1,0 P,0,149153,149453,A C,0,149153,,243,156,24
Sprite,Foreground,Centre,"sb/high.png",128,348 S,2,149325,149625,1,0.8 F,2,149325,149625,1,0 P,0,149325,149625,A C,0,149325,,243,156,24
Sprite,Foreground,Centre,"sb/high.png",295,289 S,2,149498,149798,1,0.8 F,2,149498,149798,1,0 P,0,149498,149798,A C,0,149498,,243,156,24
Sprite,Foreground,Centre,"sb/high.png",0,0 S,2,149670,150228,1,0.8 F,2,149670,150228,1,0 P,0,149670,150228,A C,0,149670,,243,156,24 M,0,149670,149756,240,416,287.1645,419.0007 M,0,149756,149842,287.1645,419.0007,332.7642,411.6179 M,0,149842,149928,332.7642,411.6179,377.6541,404.9384
Sprite,Foreground,Centre,"sb/high.png",412,218 S,2,150705,151005,1,0.8 F,2,150705,151005,1,0 P,0,150705,151005,A C,0,150705,,202,112,0
Sprite,Foreground,Centre,"sb/high.png",228,176 S,2,150877,151177,1,0.8 F,2,150877,151177,1,0 P,0,150877,151177,A C,0,150877,,202,112,0
Sprite,Foreground,Centre,"sb/high.png",304,348 S,2,151049,151349,1,0.8 F,2,151049,151349,1,0 P,0,151049,151349,A C,0,151049,,202,112,0
Sprite,Foreground,Centre,"sb/high.png",416,196 S,2,151222,151522,1,0.8 F,2,151222,151522,1,0 P,0,151222,151522,A C,0,151222,,202,112,0
Sprite,Foreground,Centre,"sb/high.png",240,268 S,2,151394,151694,1,0.8 F,2,151394,151694,1,0 P,0,151394,151694,A C,0,151394,,202,112,0
Sprite,Foreground,Centre,"sb/high.png",240,268 S,2,151739,152039,1,0.8 F,2,151739,152039,1,0 P,0,151739,152039,A C,0,151739,,241,40,12
Sprite,Foreground,Centre,"sb/high.png",160,432 S,2,151912,152212,1,0.8 F,2,151912,152212,1,0 P,0,151912,152212,A C,0,151912,,241,40,12
Sprite,Foreground,Centre,"sb/high.png",0,0 S,2,152084,152556,1,0.8 F,2,152084,152556,1,0 P,0,152084,152556,A C,0,152084,,241,40,12 M,0,152084,152170,340,424,387.418,421.2107 M,0,152170,152256,387.418,421.2107,431.6,407.1273
Sprite,Foreground,Centre,"sb/high.png",0,0 S,2,152429,152901,1,0.8 F,2,152429,152901,1,0 P,0,152429,152901,A C,0,152429,,241,40,12 M,0,152429,152515,532,256,484.582,258.7893 M,0,152515,152601,484.582,258.7893,440.4,272.8727
Sprite,Foreground,Centre,"sb/ring.png",168,392 S,22,58636,59326,0.1,1.5 F,0,58981,59326,1,0
Sprite,Foreground,Centre,"sb/ring.png",524,130 S,22,61394,62084,0.1,1.5 F,0,61739,62084,1,0
Sprite,Foreground,Centre,"sb/ring.png",276,108 S,22,64153,64843,0.1,1.5 F,0,64498,64843,1,0
Sprite,Foreground,Centre,"sb/ring.png",140,180 S,22,69670,70360,0.1,1.5 F,0,70015,70360,1,0
Sprite,Foreground,Centre,"sb/ring.png",288,96 S,22,72429,73119,0.1,1.5 F,0,72774,73119,1,0
Sprite,Foreground,Centre,"sb/ring.png",208,216 S,22,75187,75877,0.1,1.5 F,0,75532,75877,1,0
Sprite,Foreground,Centre,"sb/ring.png",540,344 S,22,135877,136567,0.1,1.5 F,0,136222,136567,1,0
Sprite,Foreground,Centre,"sb/ring.png",328,348 S,22,138636,139326,0.1,1.5 F,0,138981,139326,1,0
Sprite,Foreground,Centre,"sb/ring.png",300,288 S,22,140360,141050,0.1,1.5 F,0,140705,141050,1,0
Sprite,Foreground,Centre,"sb/ring.png",270,357 S,22,140877,141567,0.1,1.5 F,0,141222,141567,1,0
Sprite,Foreground,Centre,"sb/ring.png",420,96 S,22,141394,142084,0.1,1.5 F,0,141739,142084,1,0
Sprite,Foreground,Centre,"sb/ring.png",250,187 S,22,141739,142429,0.1,1.5 F,0,142084,142429,1,0
Sprite,Foreground,Centre,"sb/ring.png",259,318 S,22,142256,142946,0.1,1.5 F,0,142601,142946,1,0
Sprite,Foreground,Centre,"sb/ring.png",468,216 S,22,142774,143464,0.1,1.5 F,0,143119,143464,1,0
Sprite,Foreground,Centre,"sb/ring.png",508,424 S,22,143118,143808,0.1,1.5 F,0,143463,143808,1,0
Sprite,Foreground,Centre,"sb/ring.png",360,304 S,22,143291,143981,0.1,1.5 F,0,143636,143981,1,0
Sprite,Foreground,Centre,"sb/ring.png",180,364 S,22,143463,144153,0.1,1.5 F,0,143808,144153,1,0
Sprite,Foreground,Centre,"sb/ring.png",380,400 S,22,143636,144326,0.1,1.5 F,0,143981,144326,1,0
Sprite,Foreground,Centre,"sb/ring.png",197,73 S,22,144153,144843,0.1,1.5 F,0,144498,144843,1,0
Sprite,Foreground,Centre,"sb/ring.png",360,80 S,22,146912,147602,0.1,1.5 F,0,147257,147602,1,0
Sprite,Foreground,Centre,"sb/ring.png",240,416 S,22,149670,150360,0.1,1.5 F,0,150015,150360,1,0
Sprite,Foreground,Centre,"sb/ring.png",532,256 S,22,152429,153119,0.1,1.5 F,0,152774,153119,1,0
Sprite,Foreground,Centre,"sb/ring.png",337,282 S,22,157946,158291,0.1,1.5
Sprite,Foreground,Centre,"sb/ring.png",140,216 S,22,160705,161050,0.1,1.5
Sprite,Foreground,Centre,"sb/ring.png",544,296 S,22,163463,163808,0.1,1.5
Sprite,Foreground,Centre,"sb/ring.png",296,284 S,22,168981,169326,0.1,1.5
Sprite,Foreground,Centre,"sb/ring.png",72,116 S,22,171739,172084,0.1,1.5
Sprite,Foreground,Centre,"sb/ring.png",271,406 S,22,174498,174843,0.1,1.5
Sprite,Foreground,TopLeft,"sb/c/mapfcl.png",0,395 S,0,103118,,0.75 MX,19,103118,103463,97,-8 F,0,111394,,1
Sprite,Foreground,Centre,"sb/yes/ketchup.png",0,0 MX,0,103118,103518,757,467 MY,16,103118,103518,300,190 R,0,103118,103518,-1,-2 F,0,104498,,0.2 S,0,104498,,0.18
Sprite,Foreground,Centre,"sb/yes/hidetheminplainsight.png",0,0 M,0,110360,111050,460,180,500,210 R,0,110360,111050,1.570796,0.5 P,0,110360,111050,H F,0,110360,,0.3 S,0,110360,,0.1
Sprite,Foreground,Centre,"sb/yes/dinomask.png",497,170 S,0,101050,,0.675 F,0,100360,103118,0,1 F,0,111394,,1
Sprite,Foreground,Centre,"sb/high.png",450,185 S,2,53463,55063,1,0.6 F,2,53463,55063,1,0 P,0,53463,55063,A C,0,53463,,249,60,121
Sprite,Foreground,Centre,"sb/high.png",446,156 S,2,53549,55149,1,0.6 F,2,53549,55149,1,0 P,0,53549,55149,A C,0,53549,,249,60,121
Sprite,Foreground,Centre,"sb/high.png",435,130 S,2,53635,55235,1,0.6 F,2,53635,55235,1,0 P,0,53635,55235,A C,0,53635,,249,60,121
Sprite,Foreground,Centre,"sb/high.png",416,109 S,2,53721,55321,1,0.6 F,2,53721,55321,1,0 P,0,53721,55321,A C,0,53721,,249,60,121
Sprite,Foreground,Centre,"sb/high.png",391,96 S,2,53807,55407,1,0.6 F,2,53807,55407,1,0 P,0,53807,55407,A C,0,53807,,249,60,121
Sprite,Foreground,Centre,"sb/high.png",363,91 S,2,53894,55494,1,0.6 F,2,53894,55494,1,0 P,0,53894,55494,A C,0,53894,,249,60,121
Sprite,Foreground,Centre,"sb/high.png",335,97 S,2,53980,55580,1,0.6 F,2,53980,55580,1,0 P,0,53980,55580,A C,0,53980,,249,60,121
Sprite,Foreground,Centre,"sb/high.png",313,114 S,2,54066,55666,1,0.6 F,2,54066,55666,1,0 P,0,54066,55666,A C,0,54066,,249,60,121
Sprite,Foreground,Centre,"sb/high.png",0,0 S,2,54153,56011,1,0.6 F,2,54153,56011,1,0 P,0,54153,56011,A C,0,54153,,243,156,24 M,0,54153,54325,294,137 M,0,54325,54411,294,137,258.6875,141.7083
Sprite,Foreground,Centre,"sb/high.png",0,0 S,2,54498,56356,1,0.6 F,2,54498,56356,1,0 P,0,54498,56356,A C,0,54498,,243,156,24 M,0,54498,54670,314,241 M,0,54670,54756,314,241,349.3125,245.7083
Sprite,Foreground,Centre,"sb/high.png",332,244 S,2,130705,132305,1,0.2 F,2,130705,132305,1,0 P,0,130705,132305,A C,0,130705,,241,40,12
Sprite,Foreground,Centre,"sb/high.png",360,239 S,2,130791,132391,1,0.2 F,2,130791,132391,1,0 P,0,130791,132391,A C,0,130791,,241,40,12
Sprite,Foreground,Centre,"sb/high.png",388,239 S,2,130877,132477,1,0.2 F,2,130877,132477,1,0 P,0,130877,132477,A C,0,130877,,241,40,12
Sprite,Foreground,Centre,"sb/high.png",416,244 S,2,130963,132563,1,0.2 F,2,130963,132563,1,0 P,0,130963,132563,A C,0,130963,,241,40,12
Sprite,Foreground,Centre,"sb/high.png",443,253 S,2,131049,132649,1,0.2 F,2,131049,132649,1,0 P,0,131049,132649,A C,0,131049,,241,40,12
Sprite,Foreground,Centre,"sb/high.png",472,256 S,2,131136,132736,1,0.2 F,2,131136,132736,1,0 P,0,131136,132736,A C,0,131136,,241,40,12
Sprite,Foreground,Centre,"sb/high.png",500,251 S,2,131222,132822,1,0.2 F,2,131222,132822,1,0 P,0,131222,132822,A C,0,131222,,241,40,12
Sprite,Foreground,Centre,"sb/high.png",527,242 S,2,131308,132908,1,0.2 F,2,131308,132908,1,0 P,0,131308,132908,A C,0,131308,,241,40,12
Sprite,Foreground,Centre,"sb/high.png",0,0 S,2,131394,133080,1,0.2 F,2,131394,133080,1,0 P,0,131394,133080,A C,0,131394,,249,60,121 M,0,131394,131480,556,236,558.5382,200.4655
Sprite,Foreground,Centre,"sb/high.png",0,0 S,2,131567,133253,1,0.2 F,2,131567,133253,1,0 P,0,131567,133253,A C,0,131567,,249,60,121 M,0,131567,131653,488,120,485.4618,155.5345
Sprite,Foreground,Centre,"sb/high.png",0,0 S,2,131739,133425,1,0.2 F,2,131739,133425,1,0 P,0,131739,133425,A C,0,131739,,249,60,121 M,0,131739,131825,564,244,566.5382,208.4655
Sprite,Foreground,Centre,"sb/high.png",0,0 S,2,131912,133598,1,0.2 F,2,131912,133598,1,0 P,0,131912,133598,A C,0,131912,,249,60,121 M,0,131912,131998,480,112,477.4618,147.5345
Sprite,Foreground,Centre,"sb/high.png",408,92 S,2,188636,189436,2,0.4 F,2,188636,189436,1,0 P,0,188636,189436,A
Sprite,Foreground,Centre,"sb/high.png",385,199 S,2,188981,189781,2,0.4 F,2,188981,189781,1,0 P,0,188981,189781,A
Sprite,Foreground,Centre,"sb/high.png",0,0 S,2,189325,190469,2,0.4 F,2,189325,190469,1,0 P,0,189325,190469,A M,0,189325,189411,400,108,390.4414,129.6797 M,0,189411,189497,390.4414,129.6797,384.7169,152.6468 M,0,189497,189583,384.7169,152.6468,383.246,176.2748 M,0,189583,189669,383.246,176.2748,386.0791,199.7843
Sprite,Foreground,Centre,"sb/high.png",0,0 S,2,190015,191159,2,0.4 F,2,190015,191159,1,0 P,0,190015,191159,A M,0,190015,190101,428,336,437.2974,357.795 M,0,190101,190187,437.2974,357.795,442.9005,380.7977 M,0,190187,190273,442.9005,380.7977,444.397,404.4365 M,0,190273,190359,444.397,404.4365,442,427
Sprite,Foreground,Centre,"sb/high.png",0,0 S,2,190704,191848,2,0.4 F,2,190704,191848,1,0 P,0,190704,191848,A M,0,190704,190790,316,360,306.2773,338.3949 M,0,190790,190876,306.2773,338.3949,300.2917,315.4911 M,0,190876,190962,300.2917,315.4911,298.485,291.8706 M,0,190962,191048,298.485,291.8706,300.951,268.2884
Sprite,Foreground,Centre,"sb/high.png",0,0 S,2,191394,192538,2,0.4 F,2,191394,192538,1,0 P,0,191394,192538,A M,0,191394,191480,284,108,260.2663,107.121 M,0,191480,191566,260.2663,107.121,236.5325,106.2419 M,0,191566,191652,236.5325,106.2419,212.7988,105.3629 M,0,191652,191738,212.7988,105.3629,189.0651,104.4839
Sprite,Foreground,Centre,"sb/high.png",0,0 S,2,192084,193228,2,0.4 F,2,192084,193228,1,0 P,0,192084,193228,A M,0,192084,192170,72,184,95.73792,184.7576 M,0,192170,192256,95.73792,184.7576,119.4758,185.5152 M,0,192256,192342,119.4758,185.5152,143.2137,186.2728 M,0,192342,192428,143.2137,186.2728,166,187
Sprite,Foreground,Centre,"sb/high.png",0,0 S,2,192773,193917,2,0.4 F,2,192773,193917,1,0 P,0,192773,193917,A M,0,192773,192859,280,272,256.2663,271.121 M,0,192859,192945,256.2663,271.121,232.5325,270.2419 M,0,192945,193031,232.5325,270.2419,208.7988,269.3629 M,0,193031,193117,208.7988,269.3629,185.0651,268.4839
Sprite,Foreground,Centre,"sb/high.png",0,0 S,2,193463,194607,2,0.4 F,2,193463,194607,1,0 P,0,193463,194607,A M,0,193463,193549,72,356,95.73792,356.7576 M,0,193549,193635,95.73792,356.7576,119.4758,357.5152 M,0,193635,193721,119.4758,357.5152,143.2137,358.2728 M,0,193721,193807,143.2137,358.2728,166,359
Sprite,Foreground,Centre,"sb/high.png",0,0 S,2,194153,195297,2,0.4 F,2,194153,195297,1,0 P,0,194153,195297,A M,0,194153,194239,308,364,314.5246,341.1638 M,0,194239,194325,314.5246,341.1638,321.0493,318.3276 M,0,194325,194411,321.0493,318.3276,324,294.9909 M,0,194411,194497,324,294.9909,324,271.2409
Sprite,Foreground,Centre,"sb/high.png",0,0 S,2,194842,195986,2,0.4 F,2,194842,195986,1,0 P,0,194842,195986,A M,0,194842,194928,248,153,241.4754,175.8362 M,0,194928,195014,241.4754,175.8362,234.9507,198.6724 M,0,195014,195100,234.9507,198.6724,232,222.0091 M,0,195100,195186,232,222.0091,232,245.7591
Sprite,Foreground,Centre,"sb/high.png",0,0 S,2,195595,196856,2,0.4 F,2,195595,196856,1,0 P,0,195595,196856,A M,0,195595,195710,380,328,380.9869,351.6869 M,0,195710,195825,380.9869,351.6869,377.6259,375.1718 M,0,195825,195941,377.6259,375.1718,371.0131,397.9674 M,0,195941,196056,371.0131,397.9674,362.0264,419.9425
Sprite,Foreground,Centre,"sb/high.png",0,0 S,2,196518,197863,2,0.4 F,2,196518,197863,1,0 P,0,196518,197863,A M,0,196518,196654,260,168,258.5074,144.3394 M,0,196654,196790,258.5074,144.3394,261.4233,120.7969 M,0,196790,196927,261.4233,120.7969,267.7444,97.92055 M,0,196927,197063,267.7444,97.92055,276.5915,75.89018
Sprite,Foreground,Centre,"sb/high.png",0,0 S,2,197608,199050,2,0.4 F,2,197608,199050,1,0 P,0,197608,199050,A M,0,197608,197750,400,188,422.2295,186.3247 M,0,197750,197893,422.2295,186.3247,444.4575,188.2082 M,0,197893,198036,444.4575,188.2082,466.3232,192.6664 M,0,198036,198179,466.3232,192.6664,487.7247,199.0026 M,0,198179,198250,487.7247,199.0026,498.249,202.7213
Sprite,Foreground,Centre,"sb/high.png",0,0 S,2,198750,200175,2,0.4 F,2,198750,200175,1,0 P,0,198750,200175,A M,0,198750,198906,240,308,216.311,309.0122 M,0,198906,199062,216.311,309.0122,192.8057,305.7931 M,0,199062,199218,192.8057,305.7931,169.9694,299.3238 M,0,199218,199375,169.9694,299.3238,147.9538,290.4379
Sprite,Foreground,Centre,"sb/high.png",320,248 S,2,200000,202500,2,0.4 F,2,200000,202500,1,0 P,0,200000,202500,A
//Storyboard Sound Samples

[TimingPoints]
1050,689.655172413793,4,1,1,100,1,0
12084,-100,4,1,1,100,0,0
23118,-66.6666666666667,4,1,1,100,0,0
50705,-66.6666666666667,4,1,2,100,0,0
55877,-66.6666666666667,4,1,2,5,0,0
56222,-66.6666666666667,4,1,1,100,0,1
58894,-66.6666666666667,4,1,1,5,0,1
58981,-66.6666666666667,4,1,1,100,0,1
61308,-66.6666666666667,4,1,1,5,0,1
61394,-66.6666666666667,4,1,1,100,0,1
61653,-66.6666666666667,4,1,1,5,0,1
61739,-66.6666666666667,4,1,1,100,0,1
64412,-66.6666666666667,4,1,1,5,0,1
64498,-66.6666666666667,4,1,1,100,0,0
67256,-66.6666666666667,4,1,1,100,0,1
69929,-66.6666666666667,4,1,1,5,0,1
70015,-66.6666666666667,4,1,1,100,0,1
72687,-66.6666666666667,4,1,1,5,0,1
72774,-66.6666666666667,4,1,1,100,0,1
75446,-66.6666666666667,4,1,1,5,0,1
75532,-66.6666666666667,4,1,1,100,0,0
127946,-66.6666666666667,4,1,2,100,0,0
133463,-50,4,3,1,100,0,1
136136,-50,4,3,1,5,0,1
136222,-50,4,3,1,100,0,1
138894,-50,4,3,1,5,0,1
138981,-50,4,3,1,100,0,1
141653,-50,4,3,1,5,0,1
141739,-50,4,3,1,100,0,1
143032,-50,4,3,1,5,0,1
143118,-50,4,3,1,100,0,1
144153,-50,4,3,1,100,0,0
144412,-50,4,1,1,5,0,0
144498,-50,4,3,1,100,0,1
147170,-50,4,3,1,5,0,1
147256,-50,4,3,1,100,0,1
149929,-50,4,3,1,5,0,1
150015,-50,4,3,1,100,0,1
152774,-50,4,1,1,100,0,0
155532,-50,4,1,1,100,0,1
158205,-50,4,1,1,5,0,1
158291,-50,4,1,1,100,0,1
160963,-50,4,1,1,5,0,1
161049,-50,4,1,1,100,0,1
163722,-50,4,1,1,5,0,1
163808,-50,4,1,1,100,0,0
166567,-50,4,1,1,100,0,1
169239,-50,4,1,1,5,0,1
169325,-50,4,1,1,100,0,1
171998,-50,4,1,1,5,0,1
172084,-50,4,1,1,100,0,1
174756,-50,4,1,1,5,0,1
174843,-50,4,1,1,100,0,0
177601,-66.6666666666667,4,1,1,100,0,0
185877,-50,4,1,1,100,0,0
188636,-100,4,2,1,100,0,0
194843,-100,4,2,1,100,0,0
195595,923.076923076923,4,2,1,100,1,0
196518,1090.90909090909,4,2,1,100,1,0
197608,1142.85714285714,4,2,1,100,1,0
197608,-106.382978723404,4,2,1,100,0,0
198750,1250,4,2,1,100,1,0
202500,-100,4,2,1,60,0,0

[Colours]
Combo1 : 243,156,24
Combo2 : 202,112,0
Combo3 : 241,40,12
Combo4 : 249,60,121

[HitObjects]
256,192,7946,12,0,10705,0:0:0:0:
334,277,12084,6,0,P|374:301|430:301,1,95,4|0,0:0|0:0,0:0:0:0:
472,206,12601,1,0,0:0:0:0:
396,128,12774,2,0,P|356:104|300:104,1,95,8|0,0:0|0:0,0:0:0:0:
152,140,13463,2,0,P|124:148|96:176,2,47.5,0|0|4,0:0|0:0|0:0,0:0:0:0:
232,120,13981,1,0,0:0:0:0:
312,116,14153,2,0,B|344:120|344:120|368:116|368:116|392:124|392:124|420:120|420:120|452:128,1,142.5,8|0,0:0|0:0,0:0:0:0:
477,246,14843,6,0,P|480:292|461:335,1,95,4|0,0:3|0:0,0:0:0:0:
353,354,15360,1,0,0:0:0:0:
279,274,15532,2,0,P|259:231|263:184,1,95,8|0,0:3|0:0,0:0:0:0:
144,36,16222,2,0,P|180:32|208:40,2,47.5,0|0|4,0:0|0:0|0:0,0:0:0:0:
80,68,16739,1,0,0:0:0:0:
40,128,16912,2,0,B|36:160|36:160|40:184|40:184|32:208|32:208|36:236|36:236|28:268,1,142.5,8|0,0:0|0:0,0:0:0:0:
120,320,17601,6,0,L|104:376,2,47.5,4|0|0,0:0|0:0|0:0,0:0:0:0:
152,220,18118,1,0,0:0:0:0:
216,136,18291,2,0,L|200:80,2,47.5,8|0|0,0:0|0:0|0:0,0:0:0:0:
248,236,18808,1,0,0:0:0:0:
348,268,18981,2,0,L|412:284,1,47.5
508,308,19325,1,4,0:0:0:0:
400,200,19498,1,0,0:0:0:0:
352,352,19670,2,0,L|302:341,1,47.5,8|0,0:0|0:0,0:0:0:0:
168,308,20015,5,0,0:0:0:0:
152,240,20187,1,0,0:0:0:0:
133,173,20360,2,0,L|150:60,1,95,4|0,0:0|0:0,0:0:0:0:
261,94,20877,1,0,0:0:0:0:
353,25,21049,2,0,L|370:138,1,95,8|0,0:0|0:0,0:0:0:0:
380,188,21567,1,0,0:0:0:0:
396,256,21739,2,0,L|340:268,1,47.5
240,360,22084,2,0,L|296:348,1,47.5
159,299,22429,2,0,B|155:315|155:315|143:219,1,95
136,132,23118,6,0,P|99:123|48:140,1,71.2500027179719,4|0,0:0|0:0,0:0:0:0:
145,237,23463,2,0,L|156:324,1,71.2500027179719
252,208,23808,2,0,L|262:122,1,71.2500027179719,8|0,0:0|0:0,0:0:0:0:
272,28,24153,1,0,0:0:0:0:
188,92,24325,2,0,P|112:108|36:84,1,142.500005435944
12,192,24843,2,0,P|24:224|60:252,1,71.2500027179719,4|0,0:0|0:0,0:0:0:0:
128,176,25187,1,8,0:0:0:0:
148,304,25360,1,0,0:0:0:0:
256,216,25532,1,0,0:0:0:0:
51,248,25705,1,0,0:0:0:0:
24,180,25877,6,0,L|20:28,1,142.500005435944,4|0,0:0|0:0,0:0:0:0:
20,37,26394,1,0,0:0:0:0:
136,108,26567,2,0,L|140:180,1,71.2500027179719,8|0,0:0|0:0,0:0:0:0:
244,212,26912,1,0,0:0:0:0:
169,39,27084,2,0,P|134:32|100:40,2,71.2500027179719
320,76,27601,1,4,0:0:0:0:
248,152,27774,1,0,0:0:0:0:
427,218,27946,2,0,B|484:266|464:354,1,142.500005435944,8|0,0:0|0:0,0:0:0:0:
465,347,28463,1,0,0:0:0:0:
324,364,28636,6,0,P|284:366|224:350,1,71.2500027179719,4|0,0:0|0:0,0:0:0:0:
180,240,28981,2,0,P|220:238|280:254,1,71.2500027179719,0|0,0:0|0:0,0:0:0:0:
356,260,29325,1,8,0:0:0:0:
324,364,29498,1,0,0:0:0:0:
436,268,29670,2,0,B|448:228|448:228|444:184,1,71.2500027179719
432,92,30015,1,0,0:0:0:0:
288,64,30187,1,0,0:0:0:0:
288,64,30360,2,0,B|252:72|252:72|192:64,1,71.2500027179719,4|0,0:0|0:0,0:0:0:0:
68,160,30705,2,0,P|100:176|156:168,1,71.2500027179719,8|0,0:0|0:0,0:0:0:0:
236,148,31049,1,0,0:0:0:0:
224,276,31222,1,0,0:0:0:0:
224,276,31394,6,0,P|256:292|312:284,1,71.2500027179719,4|4,0:0|0:0,0:0:0:0:
392,260,31739,1,0,0:0:0:0:
340,352,31912,2,0,P|308:367|272:366,2,71.2500027179719,0|8|0,0:0|0:0|0:0,0:0:0:0:
392,260,32429,1,0,0:0:0:0:
388,152,32601,1,0,0:0:0:0:
304,220,32774,2,0,P|260:228|212:220,2,71.2500027179719,4|4|0,0:0|0:0|0:0,0:0:0:0:
439,54,33463,2,0,P|370:39|310:74,1,142.500005435944,8|0,0:0|0:0,0:0:0:0:
132,109,34153,5,4,0:0:0:0:
72,196,34325,2,0,L|-20:204,2,71.2500027179719
140,280,34843,1,4,0:0:0:0:
232,224,35015,2,0,P|304:208|375:210,1,142.500005435944
472,252,35532,1,4,0:0:0:0:
456,144,35705,1,0,0:0:0:0:
372,209,35877,2,0,P|352:177|326:154,1,71.2500027179719
220,80,36222,2,0,P|184:78|149:86,2,71.2500027179719,4|0|0,0:0|0:0|0:0,0:0:0:0:
264,320,36912,5,4,0:0:0:0:
264,320,37256,2,0,L|172:332,1,71.2500027179719
284,208,37601,1,4,0:0:0:0:
284,208,37946,2,0,L|292:136,1,71.2500027179719
304,32,38291,1,4,0:0:0:0:
180,89,38463,2,0,P|240:41|332:37,1,142.500005435944,0|0,0:0|0:0,0:0:0:0:
412,44,38981,1,4,0:0:0:0:
292,160,39153,1,0,0:0:0:0:
408,280,39325,1,0,0:0:0:0:
200,288,39670,5,4,0:0:0:0:
76,216,39843,2,0,P|40:164|64:72,1,142.500005435944
124,144,40360,1,4,0:0:0:0:
146,241,40532,2,0,P|127:273|78:289,1,71.2500027179719
97,287,41049,1,4,0:0:0:0:
176,352,41222,2,0,P|252:376|312:344,1,142.500005435944
392,284,41739,1,4,0:0:0:0:
212,224,41912,1,0,0:0:0:0:
440,196,42084,1,0,0:0:0:0:
248,128,42256,1,0,0:0:0:0:
440,100,42429,5,4,0:0:0:0:
282,219,42601,2,0,P|238:227|186:215,1,71.2500027179719
116,180,42946,1,0,0:0:0:0:
168,88,43118,1,4,0:0:0:0:
357,211,43291,2,0,P|328:280|260:289,1,142.500005435944
116,180,43808,1,4,0:0:0:0:
282,219,43981,1,0,0:0:0:0:
227,109,44153,1,0,0:0:0:0:
368,120,44325,2,0,B|292:124|292:124|204:104,1,142.500005435944
40,48,45187,6,0,L|48:128,1,71.2500027179719,4|0,0:0|0:0,0:0:0:0:
144,136,45532,2,0,L|136:216,1,71.2500027179719,0|0,0:0|0:0,0:0:0:0:
36,208,45877,2,0,L|44:288,1,71.2500027179719,0|0,0:0|0:0,0:0:0:0:
144,284,46222,2,0,L|136:364,1,71.2500027179719,0|0,0:0|0:0,0:0:0:0:
288,320,46567,5,0,0:0:0:0:
400,208,46739,1,0,0:0:0:0:
432,352,46912,1,0,0:0:0:0:
288,228,47084,2,0,P|264:164|316:92,1,142.500005435944,0|0,0:0|0:0,0:0:0:0:
412,16,47601,1,0,0:0:0:0:
428,160,47774,1,0,0:0:0:0:
244,116,47946,6,0,L|168:108,1,71.2500027179719
68,208,48291,2,0,L|139:216,1,71.2500027179719,0|0,0:0|0:0,0:0:0:0:
220,332,48636,2,0,L|144:324,1,71.2500027179719
24,308,48981,1,0,0:0:0:0:
138,215,49153,1,0,0:0:0:0:
272,276,49325,5,0,0:0:0:0:
388,192,49498,1,0,0:0:0:0:
300,80,49670,1,0,0:0:0:0:
186,166,49843,2,0,P|146:200|55:160,1,142.500005435944
140,300,50360,1,0,0:0:0:0:
122,133,50532,1,0,0:0:0:0:
268,348,50705,6,0,P|292:308|296:256,1,71.2500027179719,8|0,0:0|0:0,0:0:0:0:
122,133,51049,2,0,P|98:173|94:225,1,71.2500027179719,8|0,0:0|0:0,0:0:0:0:
268,348,51394,2,0,P|308:372|364:364,1,71.2500027179719,8|0,0:0|0:0,0:0:0:0:
186,154,51739,2,0,P|156:134|114:134,1,71.2500027179719,8|0,0:0|0:0,0:0:0:0:
4,272,52084,5,8,0:0:0:0:
180,248,52256,1,0,0:0:0:0:
121,132,52429,1,8,0:0:0:0:
40,348,52601,1,0,0:0:0:0:
242,295,52774,2,0,B|275:296|275:296|330:284,1,71.2500027179719,8|0,0:0|0:0,0:0:0:0:
487,238,53118,1,8,0:0:0:0:
371,335,53291,1,0,0:0:0:0:
386,129,53463,5,8,0:0:0:0:
382,100,53549,1,0,0:0:0:0:
371,74,53635,1,8,0:0:0:0:
352,53,53721,1,0,0:0:0:0:
327,40,53807,1,8,0:0:0:0:
299,35,53894,1,0,0:0:0:0:
271,41,53980,1,8,0:0:0:0:
249,58,54066,1,0,0:0:0:0:
230,81,54153,6,0,L|170:89,3,35.625001358986,8|0|8|0,0:0|0:0|0:0|0:0,0:0:0:0:
250,185,54498,2,0,L|310:193,3,35.625001358986,8|0|8|0,0:0|0:0|0:0|0:0,0:0:0:0:
194,273,54843,5,4,0:0:0:0:
256,192,54929,12,0,55877,0:0:0:0:
68,60,56222,6,0,B|92:76|92:76|104:112|104:112|128:128|128:128|144:156|144:156|168:173,1,142.500005435944,4|0,0:0|0:0,0:0:0:0:
155,164,56912,1,8,0:0:0:0:
320,132,57084,1,0,0:0:0:0:
272,324,57256,1,0,0:0:0:0:
252,188,57429,1,0,0:0:0:0:
376,284,57601,2,0,P|412:304|468:288,1,71.2500027179719,0|0,0:0|0:0,0:0:0:0:
492,140,57946,5,0,0:0:0:0:
428,232,58118,1,0,0:0:0:0:
256,112,58291,2,0,P|221:121|192:140,1,71.2500027179719,8|0,0:0|0:0,0:0:0:0:
104,336,58636,2,0,P|159:336|216:296,1,106.875004076958,4|0,0:0|0:0,0:0:0:0:
268,336,58981,6,0,B|316:344|316:344|352:324|352:324|384:332|432:316,1,142.500005435944,4|0,0:0|0:0,0:0:0:0:
500,272,59498,1,0,0:0:0:0:
360,104,59670,2,0,P|360:140|376:192,1,71.2500027179719,8|0,0:0|0:0,0:0:0:0:
404,323,60015,1,0,0:0:0:0:
240,364,60187,1,0,0:0:0:0:
168,196,60360,5,0,0:0:0:0:
273,60,60532,1,0,0:0:0:0:
284,232,60705,1,0,0:0:0:0:
172,96,60877,1,0,0:0:0:0:
332,148,61049,2,0,P|385:153|453:133,1,106.875004076958,8|0,0:0|0:0,0:0:0:0:
460,74,61394,2,0,P|496:102|492:186,1,106.875004076958,4|0,0:0|0:0,0:0:0:0:
484,236,61739,6,0,B|448:248|448:248|420:276|388:276|388:276|328:300,1,142.500005435944,4|0,0:0|0:0,0:0:0:0:
354,289,62429,1,8,0:0:0:0:
188,320,62601,1,0,0:0:0:0:
232,96,62774,1,0,0:0:0:0:
384,144,62946,1,0,0:0:0:0:
128,168,63118,1,0,0:0:0:0:
128,168,63463,5,0,0:0:0:0:
172,268,63636,1,0,0:0:0:0:
296,196,63808,2,0,L|288:100,1,71.2500027179719,8|4,0:0|0:0,0:0:0:0:
212,52,64153,2,0,P|268:20|324:24,1,106.875004076958
388,24,64498,6,0,L|464:36,1,71.2500027179719,4|0,0:0|0:0,0:0:0:0:
458,35,65015,1,0,0:0:0:0:
400,140,65187,2,0,L|412:224,1,71.2500027179719,8|4,0:0|0:0,0:0:0:0:
428,320,65532,1,0,0:0:0:0:
279,230,65705,1,0,0:0:0:0:
279,230,65791,1,0,0:0:0:0:
279,230,65877,5,4,0:0:0:0:
191,286,66050,1,0,0:0:0:0:
111,218,66222,1,4,0:0:0:0:
155,118,66394,1,4,0:0:0:0:
259,138,66567,2,0,B|330:167|406:131,1,142.500005435944,8|0,0:0|0:0,0:0:0:0:
495,331,67256,6,0,B|443:331|443:331|415:347|415:347|351:347,1,142.500005435944,4|0,0:0|0:0,0:0:0:0:
70,347,67946,2,0,P|44:316|52:264,1,71.2500027179719,8|0,0:0|0:0,0:0:0:0:
100,112,68291,1,0,0:0:0:0:
114,290,68463,1,0,0:0:0:0:
320,304,68636,1,0,0:0:0:0:
320,304,68981,6,0,L|236:300,1,71.2500027179719
114,290,69325,2,0,P|126:246|114:194,1,71.2500027179719,8|0,0:0|0:0,0:0:0:0:
76,124,69670,2,0,P|144:128|196:108,1,106.875004076958,4|0,0:0|0:0,0:0:0:0:
264,88,70015,6,0,B|308:88|308:88|312:84|312:84|312:92|312:92|320:88|320:88|360:80|412:112,1,142.500005435944,4|0,0:0|0:0,0:0:0:0:
504,160,70532,1,0,0:0:0:0:
424,28,70705,1,8,0:0:0:0:
360,216,70877,1,0,0:0:0:0:
264,88,71050,1,0,0:0:0:0:
144,186,71222,5,0,0:0:0:0:
32,316,71394,1,0,0:0:0:0:
212,344,71567,1,0,0:0:0:0:
24,336,71739,1,0,0:0:0:0:
144,186,71912,1,0,0:0:0:0:
16,120,72084,2,0,P|48:132|104:108,1,71.2500027179719,8|0,0:0|0:0,0:0:0:0:
224,40,72429,2,0,P|266:16|324:27,1,106.875004076958,4|0,0:0|0:0,0:0:0:0:
282,86,72774,6,0,L|294:246,1,142.500005435944,4|0,0:0|0:0,0:0:0:0:
292,228,73463,1,8,0:0:0:0:
168,192,73636,1,0,0:0:0:0:
280,132,73808,1,0,0:0:0:0:
216,296,73981,1,0,0:0:0:0:
356,352,74153,1,0,0:0:0:0:
356,352,74498,5,0,0:0:0:0:
236,220,74670,1,0,0:0:0:0:
64,300,74843,2,0,P|72:252|112:224,1,71.2500027179719,8|4,0:0|0:0,0:0:0:0:
144,160,75187,2,0,P|132:110|142:43,1,106.875004076958,0|0,0:0|0:0,0:0:0:0:
208,28,75532,6,0,B|264:28|264:28|296:48|296:48|368:48,1,142.500005435944,4|4,0:0|0:0,0:0:0:0:
452,48,76050,1,0,0:0:0:0:
428,152,76222,2,0,P|416:184|420:248,1,71.2500027179719,8|4,0:0|0:0,0:0:0:0:
424,348,76567,1,0,0:0:0:0:
328,252,76739,1,0,0:0:0:0:
328,252,76825,1,0,0:0:0:0:
328,252,76912,6,0,P|316:220|320:156,1,71.2500027179719,4|0,0:0|0:0,0:0:0:0:
196,36,77256,2,0,P|184:68|188:132,1,71.2500027179719,4|4,0:0|0:0,0:0:0:0:
336,260,77601,2,0,P|324:228|340:96,1,142.500005435944,8|0,0:0|0:0,0:0:0:0:
184,256,78291,6,0,L|260:268,1,71.2500027179719,4|0,0:0|0:0,0:0:0:0:
128,128,78636,2,0,L|52:116,1,71.2500027179719,0|0,0:0|0:0,0:0:0:0:
189,266,78981,2,0,L|259:292,1,71.2500027179719,8|0,0:0|0:0,0:0:0:0:
120,120,79325,2,0,L|49:90,1,71.2500027179719,0|0,0:0|0:0,0:0:0:0:
189,266,79670,1,0,0:0:0:0:
120,120,79843,1,0,0:0:0:0:
208,296,80015,1,0,0:0:0:0:
104,88,80187,1,0,0:0:0:0:
162,190,80360,6,0,B|206:158|246:162|246:162|270:142|314:142,1,142.500005435944,8|4,0:0|0:0,0:0:0:0:
400,128,80877,1,0,0:0:0:0:
450,182,81050,6,0,P|458:234|458:278,1,71.2500027179719,4|0,0:0|0:0,0:0:0:0:
288,312,81394,2,0,P|280:260|280:216,1,71.2500027179719,0|0,0:0|0:0,0:0:0:0:
329,133,81739,2,0,P|363:128|399:127,1,71.2500027179719,8|0,0:0|0:0,0:0:0:0:
288,312,82084,2,0,P|253:316|217:317,1,71.2500027179719,0|0,0:0|0:0,0:0:0:0:
404,112,82429,1,0,0:0:0:0:
280,328,82601,1,0,0:0:0:0:
392,136,82774,1,0,0:0:0:0:
304,292,82946,1,0,0:0:0:0:
348,216,83118,5,8,0:0:0:0:
250,176,83291,1,0,0:0:0:0:
144,204,83463,1,4,0:0:0:0:
174,92,83636,1,0,0:0:0:0:
188,280,83808,6,0,P|176:332|184:368,1,71.2500027179719,4|0,0:0|0:0,0:0:0:0:
68,316,84153,1,0,0:0:0:0:
92,204,84325,1,0,0:0:0:0:
160,112,84498,2,0,P|152:80|160:28,1,71.2500027179719,8|0,0:0|0:0,0:0:0:0:
280,64,84843,2,0,P|296:16|332:-8,1,71.2500027179719,0|0,0:0|0:0,0:0:0:0:
456,24,85187,1,0,0:0:0:0:
352,60,85360,1,0,0:0:0:0:
164,40,85532,2,0,P|116:52|88:96,1,71.2500027179719
44,156,85877,5,8,0:0:0:0:
97,273,86050,1,4,0:0:0:0:
179,175,86222,1,0,0:0:0:0:
179,175,86394,1,0,0:0:0:0:
160,344,86567,6,0,P|208:356|252:348,1,71.2500027179719,4|0,0:0|0:0,0:0:0:0:
336,336,86912,1,4,0:0:0:0:
208,276,87084,1,0,0:0:0:0:
156,136,87256,2,0,L|176:56,1,71.2500027179719,8|4,0:0|0:0,0:0:0:0:
269,209,87601,2,0,L|252:140,1,71.2500027179719
292,304,87946,5,4,0:0:0:0:
385,183,88118,1,0,0:0:0:0:
390,336,88291,1,4,0:0:0:0:
300,216,88463,1,4,0:0:0:0:
436,260,88636,2,0,P|474:201|481:130,1,142.500005435944,8|0,0:0|0:0,0:0:0:0:
360,244,89325,5,4,0:0:0:0:
164,88,89670,2,0,L|88:92,1,71.2500027179719
152,192,90015,1,8,0:0:0:0:
212,288,90187,2,0,P|204:328|184:364,1,71.2500027179719
76,372,90532,1,0,0:0:0:0:
76,372,90877,5,0,0:0:0:0:
148,258,91050,2,0,L|156:178,1,71.2500027179719,0|0,0:0|0:0,0:0:0:0:
252,70,91394,1,8,0:0:0:0:
160,180,91567,1,0,0:0:0:0:
112,44,91739,1,4,0:0:0:0:
264,72,91912,1,0,0:0:0:0:
104,48,92084,6,0,P|105:147|92:204,1,142.500005435944,4|0,0:0|0:0,0:0:0:0:
56,288,92601,1,0,0:0:0:0:
56,288,92774,2,0,P|100:296|140:280,1,71.2500027179719,8|0,0:0|0:0,0:0:0:0:
252,224,93118,1,0,0:0:0:0:
132,148,93291,1,0,0:0:0:0:
208,68,93463,2,0,P|236:44|294:45,1,71.2500027179719
292,174,93808,2,0,P|272:138|268:94,1,71.2500027179719
344,32,94153,2,0,L|508:28,1,142.500005435944,8|4,0:0|0:0,0:0:0:0:
432,120,94670,1,0,0:0:0:0:
388,216,94843,6,0,B|380:256|380:256|392:284|392:284|364:320|384:368,1,142.500005435944,4|0,0:0|0:0,0:0:0:0:
300,244,95360,1,0,0:0:0:0:
452,332,95532,2,0,P|488:284|488:244,1,71.2500027179719,8|0,0:0|0:0,0:0:0:0:
508,136,95877,1,0,0:0:0:0:
399,192,96050,2,0,L|391:116,2,71.2500027179719
334,42,96567,2,0,L|244:47,1,71.2500027179719,0|4,0:0|0:0,0:0:0:0:
180,172,96912,5,8,0:0:0:0:
304,129,97084,1,4,0:0:0:0:
213,43,97256,1,0,0:0:0:0:
213,43,97429,1,0,0:0:0:0:
136,248,97601,6,0,L|128:344,2,71.2500027179719,4|0|4,0:0|0:0|0:0,0:0:0:0:
280,208,98118,2,0,P|336:200|380:216,1,71.2500027179719,0|8,0:0|0:0,0:0:0:0:
452,232,98463,1,4,0:0:0:0:
377,323,98636,2,0,P|338:333|291:323,1,71.2500027179719
456,240,98981,2,0,P|464:192|456:144,1,71.2500027179719,4|0,0:0|0:0,0:0:0:0:
364,152,99325,1,4,0:0:0:0:
487,48,99498,1,4,0:0:0:0:
360,64,99670,6,0,B|296:88|296:88|312:40|312:40|244:64|180:52|148:24,1,285.000010871888,8|0,0:0|0:0,0:0:0:0:
96,120,102429,5,0,0:0:0:0:
256,284,102774,1,0,0:0:0:0:
416,120,103118,1,0,0:0:0:0:
256,88,105532,5,0,0:0:0:0:
256,316,105877,1,0,0:0:0:0:
96,264,107946,5,0,0:0:0:0:
256,100,108291,1,0,0:0:0:0:
416,264,108635,1,0,0:0:0:0:
256,192,110015,12,0,111050,0:0:0:0:
216,132,111394,6,0,B|296:124|296:124|384:132,1,142.500005435944,4|0,0:0|0:0,0:0:0:0:
252,228,112084,2,0,B|172:236|172:236|84:228,1,142.500005435944,4|0,0:0|0:0,0:0:0:0:
308,312,112774,2,0,P|324:252|316:160,1,142.500005435944,4|0,0:0|0:0,0:0:0:0:
105,172,113463,2,0,P|99:242|116:311,1,142.500005435944,4|0,0:0|0:0,0:0:0:0:
332,264,114153,5,4,0:0:0:0:
412,64,114498,2,0,P|356:72|320:60,1,71.2500027179719,0|0,0:0|0:0,0:0:0:0:
236,48,114843,1,4,0:0:0:0:
72,187,115187,2,0,P|128:179|164:191,1,71.2500027179719
244,208,115532,2,0,L|256:296,1,71.2500027179719,4|0,0:0|0:0,0:0:0:0:
384,340,115877,2,0,L|372:252,1,71.2500027179719,0|0,0:0|0:0,0:0:0:0:
232,200,116222,2,0,L|244:288,2,71.2500027179719,4|0|0,0:0|0:0|0:0,0:0:0:0:
168,52,116912,5,4,0:0:0:0:
168,52,117084,2,0,L|69:59,1,71.2500027179719,0|0,0:0|0:0,0:0:0:0:
243,217,117601,2,0,L|331:208,2,71.2500027179719,4|0|0,0:0|0:0|0:0,0:0:0:0:
357,86,118291,1,4,0:0:0:0:
357,86,118464,2,0,L|286:93,1,71.2500027179719
112,244,118981,2,0,L|125:336,2,71.2500027179719,4|0|0,0:0|0:0|0:0,0:0:0:0:
96,124,119498,1,0,0:0:0:0:
192,76,119670,6,0,P|204:120|188:172,1,71.2500027179719,4|0,0:0|0:0,0:0:0:0:
168,248,120015,1,0,0:0:0:0:
268,212,120187,1,0,0:0:0:0:
352,280,120360,1,4,0:0:0:0:
352,280,120532,2,0,P|316:308|264:312,1,71.2500027179719,0|0,0:0|0:0,0:0:0:0:
184,328,120877,1,0,0:0:0:0:
96,264,121049,2,0,B|88:240|88:240|84:172,2,71.2500027179719,4|0|0,0:0|0:0|0:0,0:0:0:0:
184,328,121567,1,0,0:0:0:0:
272,272,121739,2,0,B|280:248|280:248|284:180,1,71.2500027179719,4|0,0:0|0:0,0:0:0:0:
122,38,122429,6,0,L|103:107,1,71.2500027179719,4|0,0:0|0:0,0:0:0:0:
233,204,122774,2,0,L|230:132,1,71.2500027179719,0|0,0:0|0:0,0:0:0:0:
383,82,123118,2,0,L|364:151,1,71.2500027179719,0|0,0:0|0:0,0:0:0:0:
511,231,123463,2,0,L|508:160,1,71.2500027179719
392,16,123808,5,0,0:0:0:0:
436,204,123981,1,0,0:0:0:0:
508,76,124153,1,0,0:0:0:0:
288,128,124325,1,0,0:0:0:0:
152,72,124498,2,0,B|144:124|144:124|144:168,1,71.2500027179719
152,284,124843,1,0,0:0:0:0:
28,216,125015,1,0,0:0:0:0:
232,296,125187,6,0,L|324:316,1,71.2500027179719,0|0,0:0|0:0,0:0:0:0:
392,200,125532,2,0,L|300:220,1,71.2500027179719,0|0,0:0|0:0,0:0:0:0:
240,100,125877,2,0,L|332:120,1,71.2500027179719,0|0,0:0|0:0,0:0:0:0:
420,24,126222,2,0,L|328:44,1,71.2500027179719,0|0,0:0|0:0,0:0:0:0:
251,21,126567,6,0,B|217:20|183:40,1,71.2500027179719,0|0,0:0|0:0,0:0:0:0:
100,200,126912,1,0,0:0:0:0:
240,100,127084,1,0,0:0:0:0:
100,88,127256,1,0,0:0:0:0:
212,212,127429,1,0,0:0:0:0:
108,308,127601,2,0,P|148:316|196:308,1,71.2500027179719,0|0,0:0|0:0,0:0:0:0:
348,284,127946,6,0,P|309:298|256:296,1,71.2500027179719,8|0,0:0|0:0,0:0:0:0:
150,129,128291,2,0,P|188:114|241:116,1,71.2500027179719,8|0,0:0|0:0,0:0:0:0:
316,356,128636,2,0,P|275:360|224:343,1,71.2500027179719,8|0,0:0|0:0,0:0:0:0:
172,88,128981,2,0,P|212:83|263:100,1,71.2500027179719,8|0,0:0|0:0,0:0:0:0:
224,336,129325,5,8,0:0:0:0:
160,216,129498,1,0,0:0:0:0:
320,272,129670,1,8,0:0:0:0:
196,124,129843,1,0,0:0:0:0:
152,328,130015,1,8,0:0:0:0:
72,160,130187,1,0,0:0:0:0:
32,336,130360,1,8,0:0:0:0:
160,216,130532,1,0,0:0:0:0:
268,188,130705,5,8,0:0:0:0:
296,183,130791,1,0,0:0:0:0:
324,183,130877,1,8,0:0:0:0:
352,188,130963,1,0,0:0:0:0:
379,197,131049,1,8,0:0:0:0:
408,200,131136,1,0,0:0:0:0:
436,195,131222,1,8,0:0:0:0:
463,186,131308,1,0,0:0:0:0:
492,180,131394,6,0,L|496:124,1,35.625001358986,8|0,0:0|0:0,0:0:0:0:
424,64,131567,2,0,L|420:120,1,35.625001358986,8|0,0:0|0:0,0:0:0:0:
500,188,131739,2,0,L|504:132,1,35.625001358986,8|0,0:0|0:0,0:0:0:0:
416,56,131912,2,0,L|412:112,1,35.625001358986,8|0,0:0|0:0,0:0:0:0:
508,196,132084,5,4,0:0:0:0:
256,192,132170,12,0,133118,0:0:0:0:
108,324,133463,6,0,B|120:360|120:360|140:168,1,190,4|8,0:0|0:0,0:0:0:0:
156,16,133981,1,0,0:0:0:0:
220,196,134153,1,0,0:0:0:0:
72,80,134325,1,4,0:0:0:0:
260,44,134498,1,8,0:0:0:0:
200,280,134670,1,0,0:0:0:0:
284,160,134843,6,0,L|276:65,1,95,4|0,0:0|0:0,0:0:0:0:
220,202,135187,2,0,P|252:230|316:230,1,95,8|0,0:0|0:0,0:0:0:0:
412,244,135532,2,0,P|398:288|424:344,1,95,0|4,0:0|0:0,0:0:0:0:
476,288,135877,2,0,P|405:285|341:315,1,142.5,8|0,0:0|0:0,0:0:0:0:
276,356,136222,5,4,0:0:0:0:
24,156,136567,1,8,0:0:0:0:
30,254,136739,1,0,0:0:0:0:
104,324,136912,2,0,L|216:340,1,95,0|4,0:0|0:0,0:0:0:0:
332,204,137256,2,0,L|220:188,1,95,8|0,0:0|0:0,0:0:0:0:
96,172,137601,5,4,0:0:0:0:
64,4,137774,1,0,0:0:0:0:
220,72,137946,1,8,0:0:0:0:
80,172,138118,1,0,0:0:0:0:
92,1,138291,1,0,0:0:0:0:
225,107,138463,1,4,0:0:0:0:
264,292,138636,2,0,P|304:328|392:316,1,142.5,8|0,0:0|0:0,0:0:0:0:
448,284,138981,6,0,B|432:260|432:260|444:240|444:240|428:220|428:220|468:176|432:84,1,190,4|8,0:0|0:0,0:0:0:0:
404,4,139498,1,0,0:0:0:0:
284,80,139670,2,0,B|280:128|280:128|288:184,1,95,0|4,0:0|0:0,0:0:0:0:
332,360,140015,1,8,0:0:0:0:
424,192,140187,1,0,0:0:0:0:
236,232,140360,2,0,B|216:200|216:200|204:124,1,95,4|0,0:0|0:0,0:0:0:0:
206,301,140704,5,8,0:0:0:0:
206,301,140877,2,0,P|254:305|310:245,1,95,0|0,0:0|0:0,0:0:0:0:
356,40,141222,1,4,0:0:0:0:
356,40,141394,2,0,P|248:56|220:120,1,142.5,8|0,0:0|0:0,0:0:0:0:
186,131,141739,6,0,P|236:148|288:120,1,95,4|0,0:0|0:0,0:0:0:0:
195,262,142084,1,8,0:0:0:0:
195,262,142256,2,0,L|235:58,1,190,4|0,0:0|0:0,0:0:0:0:
404,160,142774,2,0,L|439:341,1,142.5,8|0,0:0|0:0,0:0:0:0:
444,368,143118,5,8,0:0:0:0:
296,248,143291,1,4,0:0:0:0:
116,308,143463,1,4,0:0:0:0:
316,344,143636,2,0,B|316:284|316:284|284:228|284:228|284:128,1,190,8|4,0:0|0:0,0:0:0:0:
133,17,144153,2,0,P|128:73|195:124,1,142.5,8|0,0:0|0:0,0:0:0:0:
198,51,144498,6,0,B|234:51|234:51|234:27|234:27|266:67|266:67|310:83|374:71,1,190,4|8,0:0|0:0,0:0:0:0:
508,44,145015,1,0,0:0:0:0:
495,233,145187,2,0,L|487:345,1,95,0|4,0:0|0:0,0:0:0:0:
336,216,145532,1,8,0:0:0:0:
504,124,145705,1,0,0:0:0:0:
324,328,145877,6,0,P|288:344|204:320,1,95,4|0,0:0|0:0,0:0:0:0:
80,280,146222,1,8,0:0:0:0:
264,240,146394,1,0,0:0:0:0:
80,192,146567,2,0,P|64:156|88:72,1,95,0|4,0:0|0:0,0:0:0:0:
296,24,146912,2,0,B|344:64|396:54|396:54|366:26,1,142.5,8|0,0:0|0:0,0:0:0:0:
296,24,147256,6,0,B|304:68|304:68|296:104|296:104|304:136|304:136|296:160|296:160|304:188|304:188|300:212,1,190,4|8,0:0|0:0,0:0:0:0:
284,360,147774,1,0,0:0:0:0:
216,196,147946,1,0,0:0:0:0:
400,224,148118,1,4,0:0:0:0:
284,360,148291,2,0,B|252:368|252:368|184:360,1,95,8|0,0:0|0:0,0:0:0:0:
24,184,148636,6,0,B|56:176|56:176|124:184,1,95,4|0,0:0|0:0,0:0:0:0:
304,212,148981,1,8,0:0:0:0:
168,132,149153,1,0,0:0:0:0:
64,292,149325,1,0,0:0:0:0:
231,233,149498,1,4,0:0:0:0:
176,360,149670,2,0,B|220:364|220:364|239:358|239:358|260:360|260:360|276:352|276:352|296:356|296:356|316:348|316:348|344:344,1,142.5,8|0,0:0|0:0,0:0:0:0:
388,336,150015,6,0,P|400:288|328:148,1,190,4|8,0:0|0:0,0:0:0:0:
348,162,150705,1,0,0:0:0:0:
164,120,150877,1,4,0:0:0:0:
240,292,151049,1,8,0:0:0:0:
352,140,151222,1,0,0:0:0:0:
176,212,151394,1,4,0:0:0:0:
176,212,151739,5,8,0:0:0:0:
96,376,151912,1,0,0:0:0:0:
276,368,152084,2,0,B|344:364|344:364|388:340,1,95,0|4,0:0|0:0,0:0:0:0:
468,200,152429,2,0,B|400:204|400:204|356:228,1,95,8|0,0:0|0:0,0:0:0:0:
240,292,152774,6,0,B|204:308|169:301|144:272|144:272|92:304|40:264,1,190,4|8,0:0|0:0,0:0:0:0:
203,229,153291,1,0,0:0:0:0:
185,143,153463,2,0,P|180:197|225:239,1,95,0|4,0:0|0:0,0:0:0:0:
340,172,153808,2,0,P|296:160|236:188,1,95,8|0,0:0|0:0,0:0:0:0:
124,272,154153,6,0,P|80:284|20:256,1,95,4|0,0:0|0:0,0:0:0:0:
203,229,154498,1,0,0:0:0:0:
232,360,154670,1,0,0:0:0:0:
82,210,154843,1,0,0:0:0:0:
328,56,155187,1,0,0:0:0:0:
108,144,155532,6,0,B|96:264|96:264|152:204,1,190,4|0,0:0|0:0,0:0:0:0:
143,213,156222,1,10,0:0:0:0:
252,80,156394,1,2,0:0:0:0:
396,172,156567,1,2,0:0:0:0:
300,312,156739,1,2,0:0:0:0:
120,292,156912,5,2,0:0:0:0:
85,104,157084,1,2,0:0:0:0:
228,236,157256,1,2,0:0:0:0:
188,48,157429,1,2,0:0:0:0:
344,196,157601,2,0,L|360:80,1,95,10|2,0:0|0:0,0:0:0:0:
273,226,157946,2,0,P|317:266|405:242,1,142.5,4|0,0:0|0:0,0:0:0:0:
344,196,158291,6,0,P|344:252|464:308,1,190,4|0,0:0|0:0,0:0:0:0:
512,140,158808,1,2,0:0:0:0:
344,196,158981,1,10,0:0:0:0:
428,48,159153,1,2,0:0:0:0:
272,116,159325,2,0,P|228:124|176:104,1,95,2|2,0:0|0:0,0:0:0:0:
56,36,159670,5,2,0:0:0:0:
181,107,159843,1,2,0:0:0:0:
172,300,160015,1,2,0:0:0:0:
76,160,160187,1,2,0:0:0:0:
296,208,160360,1,10,0:0:0:0:
120,304,160532,1,2,0:0:0:0:
76,160,160705,2,0,P|100:108|188:88,1,142.5,4|0,0:0|0:0,0:0:0:0:
256,96,161049,6,0,B|288:108|288:108|296:100|296:100|296:112|296:112|340:152|432:148,1,190,4|0,0:0|0:0,0:0:0:0:
420,148,161739,1,10,0:0:0:0:
296,208,161912,1,2,0:0:0:0:
424,268,162084,1,2,0:0:0:0:
292,320,162256,1,2,0:0:0:0:
192,192,162429,6,0,B|171:164|171:164|158:88,1,95,2|2,0:0|0:0,0:0:0:0:
297,41,162774,1,2,0:0:0:0:
192,192,162946,1,2,0:0:0:0:
204,363,163118,1,10,0:0:0:0:
296,208,163291,1,6,0:0:0:0:
480,240,163463,2,0,B|474:140|474:140|446:172,1,142.5,0|0,0:0|0:0,0:0:0:0:
404,240,163808,6,0,B|376:272|376:272|368:112,1,190,4|4,0:0|0:0,0:0:0:0:
364,16,164325,1,0,0:0:0:0:
288,140,164498,2,0,P|224:160|164:144,1,95,8|4,0:0|0:0,0:0:0:0:
72,88,164843,1,0,0:0:0:0:
136,216,165015,1,0,0:0:0:0:
136,216,165101,1,0,0:0:0:0:
136,216,165187,6,0,L|144:320,1,95,4|0,0:0|0:0,0:0:0:0:
309,257,165532,2,0,L|319:151,1,95,4|4,0:0|0:0,0:0:0:0:
378,284,165877,2,0,P|308:332|236:244,1,190,8|0,0:0|0:0,0:0:0:0:
44,292,166567,6,0,P|20:232|40:96,1,190,4|0,0:0|0:0,0:0:0:0:
33,109,167256,1,10,0:0:0:0:
161,251,167429,1,2,0:0:0:0:
280,132,167601,2,0,B|288:80|252:40,1,95,2|2,0:0|0:0,0:0:0:0:
232,228,167946,5,2,0:0:0:0:
380,168,168118,1,2,0:0:0:0:
233,301,168291,2,0,P|181:285|161:225,1,95,2|2,0:0|0:0,0:0:0:0:
40,112,168636,1,10,0:0:0:0:
84,336,168808,1,2,0:0:0:0:
232,228,168981,2,0,P|283:188|352:221,1,142.5,4|0,0:0|0:0,0:0:0:0:
368,288,169325,6,0,B|388:296|388:296|396:288|396:288|400:300|400:300|412:288|412:288|456:316|504:268|480:200,1,190,4|0,0:0|0:0,0:0:0:0:
480,64,169843,1,2,0:0:0:0:
384,196,170015,1,10,0:0:0:0:
300,48,170187,1,2,0:0:0:0:
472,64,170360,1,2,0:0:0:0:
368,272,170532,1,2,0:0:0:0:
184,224,170705,5,2,0:0:0:0:
224,68,170877,1,2,0:0:0:0:
344,176,171049,1,2,0:0:0:0:
248,48,171222,1,2,0:0:0:0:
184,224,171394,2,0,L|80:232,1,95,10|2,0:0|0:0,0:0:0:0:
8,60,171739,2,0,P|80:52|152:104,1,142.5,4|0,0:0|0:0,0:0:0:0:
200,136,172084,6,0,B|212:124|212:124|224:132|224:132|228:120|228:120|236:128|236:128|276:136|316:124|340:80|336:52|304:20,1,190,4|0,0:0|0:0,0:0:0:0:
326,57,172774,2,0,P|368:63|432:44,1,95,10|2,0:0|0:0,0:0:0:0:
360,152,173118,1,2,0:0:0:0:
512,80,173291,1,2,0:0:0:0:
469,234,173463,6,0,L|357:218,1,95,2|2,0:0|0:0,0:0:0:0:
176,192,173808,1,2,0:0:0:0:
331,299,173981,1,2,0:0:0:0:
135,264,174153,1,10,0:0:0:0:
317,185,174325,1,6,0:0:0:0:
207,350,174498,2,0,P|237:324|358:342,1,142.5,0|0,0:0|0:0,0:0:0:0:
408,348,174843,6,0,P|432:324|376:172,1,190,4|4,0:0|0:0,0:0:0:0:
296,96,175360,1,0,0:0:0:0:
342,229,175532,2,0,L|334:325,1,95,8|4,0:0|0:0,0:0:0:0:
480,216,175877,1,0,0:0:0:0:
408,52,176049,1,0,0:0:0:0:
408,52,176136,1,0,0:0:0:0:
408,52,176222,6,0,P|360:32|292:36,1,95,4|0,0:0|0:0,0:0:0:0:
190,82,176567,1,4,0:0:0:0:
303,149,176739,1,4,0:0:0:0:
160,219,176912,1,8,0:0:0:0:
396,256,177256,1,0,0:0:0:0:
396,256,177601,6,0,L|404:164,1,71.2500027179719,4|0,0:0|0:0,0:0:0:0:
408,108,177946,1,0,0:0:0:0:
368,40,178118,1,0,0:0:0:0:
288,36,178291,2,0,P|244:36|200:56,1,71.2500027179719,8|0,0:0|0:0,0:0:0:0:
240,128,178636,2,0,P|196:128|152:108,1,71.2500027179719,0|0,0:0|0:0,0:0:0:0:
84,68,178981,5,0,0:0:0:0:
44,136,179153,1,0,0:0:0:0:
48,216,179325,1,0,0:0:0:0:
80,288,179498,1,0,0:0:0:0:
136,340,179670,2,0,P|168:348|220:344,1,71.2500027179719,8|0,0:0|0:0,0:0:0:0:
248,280,180015,2,0,P|216:272|164:276,1,71.2500027179719,4|0,0:0|0:0,0:0:0:0:
80,288,180360,6,0,B|80:252|80:252|88:232|88:232|84:200|84:200|96:172|96:172|96:144|96:144|100:132,1,142.500005435944,4|0,0:0|0:0,0:0:0:0:
104,72,180877,1,0,0:0:0:0:
168,152,181049,2,0,P|212:164|256:152,1,71.2500027179719,8|0,0:0|0:0,0:0:0:0:
304,232,181394,2,0,P|348:220|392:232,1,71.2500027179719,0|0,0:0|0:0,0:0:0:0:
456,252,181739,5,0,0:0:0:0:
440,176,181912,1,0,0:0:0:0:
416,100,182084,2,0,P|372:112|328:100,1,71.2500027179719,0|0,0:0|0:0,0:0:0:0:
282,42,182429,2,0,L|206:38,1,71.2500027179719,8|0,0:0|0:0,0:0:0:0:
96,109,182774,1,4,0:0:0:0:
96,109,182946,1,0,0:0:0:0:
96,109,183118,6,0,P|68:175|116:245,1,142.500005435944,4|0,0:0|0:0,0:0:0:0:
148,176,183636,1,0,0:0:0:0:
148,176,183808,2,0,L|228:172,1,71.2500027179719,8|0,0:0|0:0,0:0:0:0:
332,264,184153,2,0,L|252:260,1,71.2500027179719,0|0,0:0|0:0,0:0:0:0:
140,276,184498,5,0,0:0:0:0:
44,236,184670,1,0,0:0:0:0:
140,276,184843,1,0,0:0:0:0:
44,236,185015,1,0,0:0:0:0:
36,136,185187,2,0,B|36:92|36:92|48:52,1,71.2500027179719,8|4,0:0|0:0,0:0:0:0:
128,28,185532,2,0,B|154:20|154:20|198:20,1,71.2500027179719,0|0,0:0|0:0,0:0:0:0:
304,32,185877,6,0,P|352:108|312:228,1,190,4|4,0:0|0:0,0:0:0:0:
334,202,186394,1,0,0:0:0:0:
252,268,186567,2,0,L|140:268,1,95,8|4,0:0|0:0,0:0:0:0:
44,236,186912,1,0,0:0:0:0:
112,332,187084,1,0,0:0:0:0:
112,332,187170,1,0,0:0:0:0:
112,332,187256,6,0,P|168:344|228:328,1,95,4|0,0:0|0:0,0:0:0:0:
296,228,187601,2,0,P|342:222|388:234,1,95,4|4,0:0|0:0,0:0:0:0:
468,352,187946,2,0,B|496:312|496:312|472:284|472:284|504:260|504:260|460:216|460:216|480:164|448:96,1,285,8|0,0:0|0:0,0:0:0:0:
344,36,188636,5,2,0:0:0:0:
321,143,188981,1,0,0:0:0:0:
336,52,189325,2,0,P|320:100|328:164,1,95,2|0,0:0|0:0,0:0:0:0:
364,280,190015,2,0,P|379:324|378:371,1,95,2|0,0:0|0:0,0:0:0:0:
252,304,190704,2,0,P|236:259|237:212,1,95,2|0,0:0|0:0,0:0:0:0:
220,52,191394,6,0,L|112:48,1,95,2|0,0:0|0:0,0:0:0:0:
8,128,192084,2,0,L|102:131,1,95,2|0,0:0|0:0,0:0:0:0:
216,216,192773,2,0,L|108:212,1,95,2|0,0:0|0:0,0:0:0:0:
8,300,193463,2,0,L|102:303,1,95,2|0,0:0|0:0,0:0:0:0:
244,308,194153,6,0,B|260:252|260:252|260:200,1,95,2|0,0:0|0:0,0:0:0:0:
184,97,194842,2,0,B|168:153|168:153|168:205,1,95,2|0,0:0|0:0,0:0:0:0:
316,272,195595,6,0,B|322:312|298:364,1,95,2|0,0:0|0:0,0:0:0:0:
196,112,196518,6,0,B|189:71|213:19,1,95,2|0,0:0|0:0,0:0:0:0:
336,132,197608,6,0,B|376:125|435:147,1,100.462498467064,2|0,0:0|0:0,0:0:0:0:
176,252,198750,6,0,B|135:258|83:234,1,95,2|0,0:0|0:0,0:0:0:0:
256,192,200000,12,2,202500,0:0:0:0:
