osu file format v14

[General]
AudioFilename: audio.mp3
AudioLeadIn: 0
PreviewTime: 49093
Countdown: 0
SampleSet: Normal
StackLeniency: 0.7
Mode: 1
LetterboxInBreaks: 0
WidescreenStoryboard: 0

[Editor]
DistanceSpacing: 1.2
BeatDivisor: 4
GridSize: 32
TimelineZoom: 4.099998

[Metadata]
Title:Bring The Madness (Noisestorm Nightcore Remix)
TitleUnicode:Bring The Madness (Noisestorm Nightcore Remix)
Artist:Excision & Pegboard Nerds
ArtistUnicode:Excision & Pegboard Nerds
Creator:Nwolf
Version:Mad Oni
Source:
Tags:mayor apeshit
BeatmapID:1409813
BeatmapSetID:665978

[Difficulty]
HPDrainRate:6
CircleSize:4
OverallDifficulty:8.5
ApproachRate:9
SliderMultiplier:1.4
SliderTickRate:1

[Events]
//Background and Video events
0,0,"behered.jpg",0,-45
//Break Periods
2,104597,116058
//Storyboard Layer 0 (Background)
//Storyboard Layer 1 (Fail)
//Storyboard Layer 2 (Pass)
//Storyboard Layer 3 (Foreground)
//Storyboard Sound Samples

[TimingPoints]
50,260.869565217391,4,1,0,90,1,0
50,-200,4,1,0,90,0,0
33571,-200,4,1,0,30,0,0
35006,-50,4,1,0,90,0,0
35528,-200,4,1,0,30,0,0
37093,-50,4,1,0,90,0,0
37615,-200,4,1,0,30,0,0
39180,-50,4,1,0,90,0,0
39702,-200,4,1,0,30,0,0
41267,-50,4,1,0,90,0,0
41789,-188.679245283019,4,1,0,90,0,0
41919,-178.571428571429,4,1,0,90,0,0
42049,-169.491525423729,4,1,0,90,0,0
42180,-161.290322580645,4,1,0,90,0,0
42310,-153.846153846154,4,1,0,90,0,0
42441,-147.058823529412,4,1,0,90,0,0
42571,-140.845070422535,4,1,0,90,0,0
42702,-135.135135135135,4,1,0,90,0,0
42832,-129.87012987013,4,1,0,90,0,0
42963,-125,4,1,0,90,0,0
43093,-120.481927710843,4,1,0,90,0,0
43223,-116.279069767442,4,1,0,90,0,0
43354,-50,4,1,0,90,0,0
43876,-112.359550561798,4,1,0,90,0,0
44006,-108.695652173913,4,1,0,90,0,0
44136,-105.263157894737,4,1,0,90,0,0
44267,-102.040816326531,4,1,0,90,0,0
44397,-99.009900990099,4,1,0,90,0,0
44528,-96.1538461538461,4,1,0,90,0,0
44658,-93.4579439252336,4,1,0,90,0,0
44789,-90.9090909090909,4,1,0,90,0,0
44919,-88.4955752212389,4,1,0,90,0,0
45049,-86.2068965517241,4,1,0,90,0,0
45180,-84.0336134453781,4,1,0,90,0,0
45310,-81.9672131147541,4,1,0,90,0,0
45441,-89.2857142857143,4,1,0,90,0,0
45571,-98.0392156862745,4,1,0,90,0,0
45702,-108.695652173913,4,1,0,90,0,0
45832,-121.951219512195,4,1,0,90,0,0
45963,-80,4,1,0,90,0,0
48180,-66.6666666666667,4,1,0,90,0,0
49223,-71.4285714285714,4,1,0,90,0,0
49419,-76.9230769230769,4,1,0,90,0,0
49549,-83.3333333333333,4,1,0,90,0,0
49680,-90.9090909090909,4,1,0,90,0,0
50136,-100,4,1,0,100,0,1
50202,-101.010101010101,4,1,0,100,0,1
50332,-102.040816326531,4,1,0,100,0,1
50463,-103.092783505155,4,1,0,100,0,1
50528,-104.166666666667,4,1,0,100,0,1
50593,-105.263157894737,4,1,0,100,0,1
50658,-106.382978723404,4,1,0,100,0,1
50723,-107.52688172043,4,1,0,100,0,1
50854,-108.695652173913,4,1,0,100,0,1
50919,-109.89010989011,4,1,0,100,0,1
51049,-111.111111111111,4,1,0,100,0,1
51115,-112.359550561798,4,1,0,100,0,1
51180,-113.636363636364,4,1,0,100,0,1
51245,-114.942528735632,4,1,0,100,0,1
51310,-116.279069767442,4,1,0,100,0,1
51376,-117.647058823529,4,1,0,100,0,1
51441,-119.047619047619,4,1,0,100,0,1
51571,-120.481927710843,4,1,0,100,0,1
51702,-60.9756097560976,4,1,0,100,0,1
51767,-64.1025641025641,4,1,0,100,0,1
51832,-67.5675675675676,4,1,0,100,0,1
51897,-71.4285714285714,4,1,0,100,0,1
51963,-75.7575757575758,4,1,0,100,0,1
52028,-80.6451612903226,4,1,0,100,0,1
52093,-86.2068965517241,4,1,0,100,0,1
52158,-92.5925925925926,4,1,0,100,0,1
52223,-100,4,1,0,100,0,1
54376,-101.010101010101,4,1,0,100,0,1
54506,-102.040816326531,4,1,0,100,0,1
54636,-103.092783505155,4,1,0,100,0,1
54702,-104.166666666667,4,1,0,100,0,1
54767,-105.263157894737,4,1,0,100,0,1
54832,-106.382978723404,4,1,0,100,0,1
54897,-107.52688172043,4,1,0,100,0,1
55028,-108.695652173913,4,1,0,100,0,1
55093,-109.89010989011,4,1,0,100,0,1
55223,-111.111111111111,4,1,0,100,0,1
55289,-112.359550561798,4,1,0,100,0,1
55354,-113.636363636364,4,1,0,100,0,1
55419,-114.942528735632,4,1,0,100,0,1
55484,-116.279069767442,4,1,0,100,0,1
55549,-117.647058823529,4,1,0,100,0,1
55615,-119.047619047619,4,1,0,100,0,1
55745,-120.481927710843,4,1,0,100,0,1
55876,-60.9756097560976,4,1,0,100,0,1
55941,-64.1025641025641,4,1,0,100,0,1
56006,-67.5675675675676,4,1,0,100,0,1
56071,-71.4285714285714,4,1,0,100,0,1
56136,-75.7575757575758,4,1,0,100,0,1
56202,-80.6451612903226,4,1,0,100,0,1
56267,-86.2068965517241,4,1,0,100,0,1
56332,-92.5925925925926,4,1,0,100,0,1
56397,-100,4,1,0,100,0,1
58517,-101.010101010101,4,1,0,100,0,1
58647,-102.040816326531,4,1,0,100,0,1
58778,-103.092783505155,4,1,0,100,0,1
58843,-104.166666666667,4,1,0,100,0,1
58908,-105.263157894737,4,1,0,100,0,1
58973,-106.382978723404,4,1,0,100,0,1
59038,-107.52688172043,4,1,0,100,0,1
59169,-108.695652173913,4,1,0,100,0,1
59234,-109.89010989011,4,1,0,100,0,1
59364,-111.111111111111,4,1,0,100,0,1
59430,-112.359550561798,4,1,0,100,0,1
59495,-113.636363636364,4,1,0,100,0,1
59560,-114.942528735632,4,1,0,100,0,1
59625,-116.279069767442,4,1,0,100,0,1
59691,-117.647058823529,4,1,0,100,0,1
59756,-119.047619047619,4,1,0,100,0,1
59886,-120.481927710843,4,1,0,100,0,1
60048,-60.9756097560976,4,1,0,100,0,1
60113,-64.1025641025641,4,1,0,100,0,1
60178,-67.5675675675676,4,1,0,100,0,1
60243,-71.4285714285714,4,1,0,100,0,1
60309,-75.7575757575758,4,1,0,100,0,1
60374,-80.6451612903226,4,1,0,100,0,1
60439,-86.2068965517241,4,1,0,100,0,1
60504,-92.5925925925926,4,1,0,100,0,1
60569,-100,4,1,0,100,0,1
62691,-101.010101010101,4,1,0,100,0,1
62821,-102.040816326531,4,1,0,100,0,1
62952,-103.092783505155,4,1,0,100,0,1
63017,-104.166666666667,4,1,0,100,0,1
63082,-105.263157894737,4,1,0,100,0,1
63147,-106.382978723404,4,1,0,100,0,1
63212,-107.52688172043,4,1,0,100,0,1
63343,-108.695652173913,4,1,0,100,0,1
63408,-109.89010989011,4,1,0,100,0,1
63538,-111.111111111111,4,1,0,100,0,1
63604,-112.359550561798,4,1,0,100,0,1
63669,-113.636363636364,4,1,0,100,0,1
63734,-114.942528735632,4,1,0,100,0,1
63799,-116.279069767442,4,1,0,100,0,1
63865,-117.647058823529,4,1,0,100,0,1
63930,-119.047619047619,4,1,0,100,0,1
64060,-120.481927710843,4,1,0,100,0,1
64222,-60.9756097560976,4,1,0,100,0,1
64287,-64.1025641025641,4,1,0,100,0,1
64352,-67.5675675675676,4,1,0,100,0,1
64417,-71.4285714285714,4,1,0,100,0,1
64482,-75.7575757575758,4,1,0,100,0,1
64548,-80.6451612903226,4,1,0,100,0,1
64613,-86.2068965517241,4,1,0,100,0,1
64678,-92.5925925925926,4,1,0,100,0,1
64743,-100,4,1,0,100,0,1
66832,-100,4,1,0,100,0,0
68397,-60.9756097560976,4,1,0,100,0,0
68463,-64.1025641025641,4,1,0,100,0,0
68528,-67.5675675675676,4,1,0,100,0,0
68593,-71.4285714285714,4,1,0,100,0,0
68658,-75.7575757575758,4,1,0,100,0,0
68723,-80.6451612903226,4,1,0,100,0,0
68789,-86.2068965517241,4,1,0,100,0,0
68854,-92.5925925925926,4,1,0,100,0,0
68919,-100,4,1,0,100,0,0
72571,-60.9756097560976,4,1,0,100,0,0
72636,-64.1025641025641,4,1,0,100,0,0
72702,-67.5675675675676,4,1,0,100,0,0
72767,-71.4285714285714,4,1,0,100,0,0
72832,-75.7575757575758,4,1,0,100,0,0
72897,-80.6451612903226,4,1,0,100,0,0
72963,-86.2068965517241,4,1,0,100,0,0
73028,-92.5925925925926,4,1,0,100,0,0
73093,-100,4,1,0,100,0,0
76745,-60.9756097560976,4,1,0,100,0,0
76810,-64.1025641025641,4,1,0,100,0,0
76876,-67.5675675675676,4,1,0,100,0,0
76941,-71.4285714285714,4,1,0,100,0,0
77006,-75.7575757575758,4,1,0,100,0,0
77071,-80.6451612903226,4,1,0,100,0,0
77136,-86.2068965517241,4,1,0,100,0,0
77202,-92.5925925925926,4,1,0,100,0,0
77267,-100,4,1,0,100,0,0
80919,-60.9756097560976,4,1,0,100,0,0
80984,-64.1025641025641,4,1,0,100,0,0
81049,-67.5675675675676,4,1,0,100,0,0
81115,-71.4285714285714,4,1,0,100,0,0
81180,-75.7575757575758,4,1,0,100,0,0
81245,-80.6451612903226,4,1,0,100,0,0
81310,-86.2068965517241,4,1,0,100,0,0
81376,-92.5925925925926,4,1,0,100,0,0
81441,-100,4,1,0,100,0,0
85092,-60.9756097560976,4,1,0,100,0,0
85158,-64.1025641025641,4,1,0,100,0,0
85223,-67.5675675675676,4,1,0,100,0,0
85288,-71.4285714285714,4,1,0,100,0,0
85353,-75.7575757575758,4,1,0,100,0,0
85418,-80.6451612903226,4,1,0,100,0,0
85484,-86.2068965517241,4,1,0,100,0,0
85549,-92.5925925925926,4,1,0,100,0,0
85614,-100,4,1,0,100,0,0
89266,-60.9756097560976,4,1,0,100,0,0
89331,-64.1025641025641,4,1,0,100,0,0
89397,-67.5675675675676,4,1,0,100,0,0
89462,-71.4285714285714,4,1,0,100,0,0
89527,-75.7575757575758,4,1,0,100,0,0
89592,-80.6451612903226,4,1,0,100,0,0
89658,-86.2068965517241,4,1,0,100,0,0
89723,-92.5925925925926,4,1,0,100,0,0
89788,-100,4,1,0,100,0,0
93440,-60.9756097560976,4,1,0,100,0,0
93505,-64.1025641025641,4,1,0,100,0,0
93571,-67.5675675675676,4,1,0,100,0,0
93636,-71.4285714285714,4,1,0,100,0,0
93701,-75.7575757575758,4,1,0,100,0,0
93766,-80.6451612903226,4,1,0,100,0,0
93831,-86.2068965517241,4,1,0,100,0,0
93897,-92.5925925925926,4,1,0,100,0,0
93962,-100,4,1,0,100,0,0
97614,-60.9756097560976,4,1,0,100,0,0
97679,-64.1025641025641,4,1,0,100,0,0
97744,-67.5675675675676,4,1,0,100,0,0
97810,-71.4285714285714,4,1,0,100,0,0
97875,-75.7575757575758,4,1,0,100,0,0
97940,-80.6451612903226,4,1,0,100,0,0
98005,-86.2068965517241,4,1,0,100,0,0
98071,-92.5925925925926,4,1,0,100,0,0
98136,-100,4,1,0,100,0,0
100223,-25,4,1,0,10,0,0
104136,-25,4,1,0,10,0,0
105506,-25,4,1,0,20,0,0
106354,-25,4,1,0,30,0,0
107984,-1000,4,1,0,40,0,0
108245,-1000,4,1,0,50,0,0
110006,-1000,4,1,0,60,0,0
110463,-1000,4,1,0,70,0,0
112028,-1000,4,1,0,80,0,0
112615,-1000,4,1,0,90,0,0
116658,-200,4,1,0,90,0,0
116854,-1000,4,1,0,90,0,0
116984,-200,4,1,0,90,0,0
133615,-200,4,1,0,30,0,0
135180,-50,4,1,0,90,0,0
135767,-200,4,1,0,30,0,0
137267,-50,4,1,0,90,0,0
137789,-200,4,1,0,30,0,0
139354,-50,4,1,0,90,0,0
139941,-200,4,1,0,30,0,0
141441,-50,4,1,0,90,0,0
141961,-188.679245283019,4,1,0,90,0,0
142091,-178.571428571429,4,1,0,90,0,0
142221,-169.491525423729,4,1,0,90,0,0
142352,-161.290322580645,4,1,0,90,0,0
142482,-153.846153846154,4,1,0,90,0,0
142613,-147.058823529412,4,1,0,90,0,0
142743,-140.845070422535,4,1,0,90,0,0
142874,-135.135135135135,4,1,0,90,0,0
143004,-129.87012987013,4,1,0,90,0,0
143135,-125,4,1,0,90,0,0
143265,-120.481927710843,4,1,0,90,0,0
143395,-116.279069767442,4,1,0,90,0,0
143526,-50,4,1,0,90,0,0
144048,-112.359550561798,4,1,0,90,0,0
144178,-108.695652173913,4,1,0,90,0,0
144308,-105.263157894737,4,1,0,90,0,0
144439,-102.040816326531,4,1,0,90,0,0
144569,-99.009900990099,4,1,0,90,0,0
144700,-96.1538461538461,4,1,0,90,0,0
144830,-93.4579439252336,4,1,0,90,0,0
144961,-90.9090909090909,4,1,0,90,0,0
145091,-88.4955752212389,4,1,0,90,0,0
145221,-86.2068965517241,4,1,0,90,0,0
145352,-84.0336134453781,4,1,0,90,0,0
145482,-81.9672131147541,4,1,0,90,0,0
145613,-89.2857142857143,4,1,0,90,0,0
145743,-98.0392156862745,4,1,0,90,0,0
145874,-108.695652173913,4,1,0,90,0,0
146004,-121.951219512195,4,1,0,90,0,0
146135,-80,4,1,0,90,0,0
148352,-66.6666666666667,4,1,0,90,0,0
149395,-71.4285714285714,4,1,0,90,0,0
149591,-76.9230769230769,4,1,0,90,0,0
149721,-83.3333333333333,4,1,0,90,0,0
149852,-90.9090909090909,4,1,0,90,0,0
150310,-100,4,1,0,100,0,1
165963,-100,4,1,0,100,0,0
167006,-100,4,1,0,100,0,1
168571,-55.5555555555556,4,1,0,100,0,1
168636,-58.8235294117647,4,1,0,100,0,1
168702,-62.5,4,1,0,100,0,1
168767,-66.6666666666667,4,1,0,100,0,1
168832,-71.4285714285714,4,1,0,100,0,1
168897,-76.9230769230769,4,1,0,100,0,1
168963,-83.3333333333333,4,1,0,100,0,1
169028,-90.9090909090909,4,1,0,100,0,1
169093,-100,4,1,0,100,0,1
172744,-55.5555555555556,4,1,0,100,0,1
172809,-58.8235294117647,4,1,0,100,0,1
172875,-62.5,4,1,0,100,0,1
172940,-66.6666666666667,4,1,0,100,0,1
173005,-71.4285714285714,4,1,0,100,0,1
173070,-76.9230769230769,4,1,0,100,0,1
173136,-83.3333333333333,4,1,0,100,0,1
173201,-90.9090909090909,4,1,0,100,0,1
173266,-100,4,1,0,100,0,1
176917,-55.5555555555556,4,1,0,100,0,1
176982,-58.8235294117647,4,1,0,100,0,1
177048,-62.5,4,1,0,100,0,1
177113,-66.6666666666667,4,1,0,100,0,1
177178,-71.4285714285714,4,1,0,100,0,1
177243,-76.9230769230769,4,1,0,100,0,1
177309,-83.3333333333333,4,1,0,100,0,1
177374,-90.9090909090909,4,1,0,100,0,1
177439,-100,4,1,0,100,0,1
181090,-55.5555555555556,4,1,0,100,0,1
181155,-58.8235294117647,4,1,0,100,0,1
181221,-62.5,4,1,0,100,0,1
181286,-66.6666666666667,4,1,0,100,0,1
181351,-71.4285714285714,4,1,0,100,0,1
181416,-76.9230769230769,4,1,0,100,0,1
181482,-83.3333333333333,4,1,0,100,0,1
181547,-90.9090909090909,4,1,0,100,0,1
181612,-100,4,1,0,100,0,1
183702,-100,4,1,0,100,0,0
183767,-102.040816326531,4,1,0,100,0,0
183897,-104.166666666667,4,1,0,100,0,0
184028,-106.382978723404,4,1,0,100,0,0
184223,-108.695652173913,4,1,0,100,0,1
184354,-111.111111111111,4,1,0,100,0,1
184484,-113.636363636364,4,1,0,100,0,1
184549,-116.279069767442,4,1,0,100,0,1
184615,-119.047619047619,4,1,0,100,0,1
184680,-121.951219512195,4,1,0,100,0,1
184745,-125,4,1,0,100,0,1
184810,-128.205128205128,4,1,0,100,0,1
184876,-131.578947368421,4,1,0,100,0,1
185006,-135.135135135135,4,1,0,100,0,1
185071,-138.888888888889,4,1,0,100,0,1
185136,-142.857142857143,4,1,0,100,0,1
185266,-51.0204081632653,4,1,0,100,0,1
185331,-54.3478260869565,4,1,0,100,0,1
185397,-58.1395348837209,4,1,0,100,0,1
185462,-62.5,4,1,0,100,0,1
185527,-67.5675675675676,4,1,0,100,0,1
185592,-73.5294117647059,4,1,0,100,0,1
185658,-80.6451612903226,4,1,0,100,0,1
185723,-89.2857142857143,4,1,0,100,0,1
185788,-100,4,1,0,100,0,1
188006,-102.040816326531,4,1,0,100,0,1
188071,-104.166666666667,4,1,0,100,0,1
188136,-106.382978723404,4,1,0,100,0,1
188202,-108.695652173913,4,1,0,100,0,1
188267,-111.111111111111,4,1,0,100,0,1
188397,-113.636363636364,4,1,0,100,0,1
188463,-116.279069767442,4,1,0,100,0,1
188528,-119.047619047619,4,1,0,100,0,1
188658,-121.951219512195,4,1,0,100,0,1
188723,-125,4,1,0,100,0,1
188789,-128.205128205128,4,1,0,100,0,1
188854,-131.578947368421,4,1,0,100,0,1
188919,-135.135135135135,4,1,0,100,0,1
188984,-138.888888888889,4,1,0,100,0,1
189049,-142.857142857143,4,1,0,100,0,1
189180,-147.058823529412,4,1,0,100,0,1
189245,-151.515151515152,4,1,0,100,0,1
189310,-156.25,4,1,0,100,0,1
189439,-51.0204081632653,4,1,0,100,0,1
189504,-54.3478260869565,4,1,0,100,0,1
189570,-58.1395348837209,4,1,0,100,0,1
189635,-62.5,4,1,0,100,0,1
189700,-67.5675675675676,4,1,0,100,0,1
189765,-73.5294117647059,4,1,0,100,0,1
189831,-80.6451612903226,4,1,0,100,0,1
189896,-89.2857142857143,4,1,0,100,0,1
189961,-100,4,1,0,100,0,1
192179,-102.040816326531,4,1,0,100,0,1
192244,-104.166666666667,4,1,0,100,0,1
192309,-106.382978723404,4,1,0,100,0,1
192375,-108.695652173913,4,1,0,100,0,1
192440,-111.111111111111,4,1,0,100,0,1
192570,-113.636363636364,4,1,0,100,0,1
192636,-116.279069767442,4,1,0,100,0,1
192701,-119.047619047619,4,1,0,100,0,1
192831,-121.951219512195,4,1,0,100,0,1
192896,-125,4,1,0,100,0,1
192962,-128.205128205128,4,1,0,100,0,1
193027,-131.578947368421,4,1,0,100,0,1
193092,-135.135135135135,4,1,0,100,0,1
193157,-138.888888888889,4,1,0,100,0,1
193222,-142.857142857143,4,1,0,100,0,1
193353,-147.058823529412,4,1,0,100,0,1
193418,-151.515151515152,4,1,0,100,0,1
193483,-156.25,4,1,0,100,0,1
193612,-51.0204081632653,4,1,0,100,0,1
193677,-54.3478260869565,4,1,0,100,0,1
193743,-58.1395348837209,4,1,0,100,0,1
193808,-62.5,4,1,0,100,0,1
193873,-67.5675675675676,4,1,0,100,0,1
193938,-73.5294117647059,4,1,0,100,0,1
194004,-80.6451612903226,4,1,0,100,0,1
194069,-89.2857142857143,4,1,0,100,0,1
194134,-100,4,1,0,100,0,1
196353,-102.040816326531,4,1,0,100,0,1
196418,-104.166666666667,4,1,0,100,0,1
196483,-106.382978723404,4,1,0,100,0,1
196549,-108.695652173913,4,1,0,100,0,1
196614,-111.111111111111,4,1,0,100,0,1
196744,-113.636363636364,4,1,0,100,0,1
196810,-116.279069767442,4,1,0,100,0,1
196875,-119.047619047619,4,1,0,100,0,1
197005,-121.951219512195,4,1,0,100,0,1
197070,-125,4,1,0,100,0,1
197136,-128.205128205128,4,1,0,100,0,1
197201,-131.578947368421,4,1,0,100,0,1
197266,-135.135135135135,4,1,0,100,0,1
197331,-138.888888888889,4,1,0,100,0,1
197396,-142.857142857143,4,1,0,100,0,1
197527,-147.058823529412,4,1,0,100,0,1
197592,-151.515151515152,4,1,0,100,0,1
197657,-156.25,4,1,0,100,0,1
197785,-51.0204081632653,4,1,0,100,0,1
197850,-54.3478260869565,4,1,0,100,0,1
197916,-58.1395348837209,4,1,0,100,0,1
197981,-62.5,4,1,0,100,0,1
198046,-67.5675675675676,4,1,0,100,0,1
198111,-73.5294117647059,4,1,0,100,0,1
198177,-80.6451612903226,4,1,0,100,0,1
198242,-89.2857142857143,4,1,0,100,0,1
198307,-100,4,1,0,100,0,1
200397,-25,4,1,0,100,0,0

[Colours]
Combo1 : 148,20,106
Combo2 : 128,0,255

[HitObjects]
288,160,16484,5,8,0:0:0:0:
288,160,16615,1,8,0:0:0:0:
224,160,16745,1,0,0:0:0:0:
288,160,16876,1,8,0:0:0:0:
224,160,17006,1,0,0:0:0:0:
224,160,17136,1,0,0:0:0:0:
288,160,17267,1,8,0:0:0:0:
224,160,17397,1,0,0:0:0:0:
288,160,17528,1,8,0:0:0:0:
288,160,17658,1,8,0:0:0:0:
288,160,17789,1,8,0:0:0:0:
224,160,17919,1,0,0:0:0:0:
288,160,18049,1,8,0:0:0:0:
224,160,18180,1,0,0:0:0:0:
288,224,18310,1,12,0:0:0:0:
224,160,18832,1,0,0:0:0:0:
288,160,18963,1,8,0:0:0:0:
224,160,19093,1,0,0:0:0:0:
224,160,19223,1,0,0:0:0:0:
288,160,19354,1,8,0:0:0:0:
224,160,19484,1,0,0:0:0:0:
288,160,19615,1,8,0:0:0:0:
288,160,19745,1,8,0:0:0:0:
288,160,19876,1,8,0:0:0:0:
288,160,20006,1,8,0:0:0:0:
224,160,20136,1,0,0:0:0:0:
224,160,20267,1,0,0:0:0:0:
288,224,20397,1,12,0:0:0:0:
288,160,20919,1,8,0:0:0:0:
288,160,21049,1,8,0:0:0:0:
224,160,21180,1,0,0:0:0:0:
224,160,21310,1,0,0:0:0:0:
288,160,21441,1,8,0:0:0:0:
224,160,21571,1,0,0:0:0:0:
288,160,21702,1,8,0:0:0:0:
288,160,21832,1,8,0:0:0:0:
224,160,21963,1,0,0:0:0:0:
224,160,22093,1,0,0:0:0:0:
288,160,22223,1,8,0:0:0:0:
224,160,22354,1,0,0:0:0:0:
288,224,22484,1,12,0:0:0:0:
224,160,22745,1,0,0:0:0:0:
288,160,22876,1,8,0:0:0:0:
288,160,23006,1,8,0:0:0:0:
224,160,23136,1,0,0:0:0:0:
224,160,23267,1,0,0:0:0:0:
288,160,23397,1,8,0:0:0:0:
288,160,23528,1,8,0:0:0:0:
224,160,23658,1,0,0:0:0:0:
288,160,23789,1,8,0:0:0:0:
288,160,23919,1,8,0:0:0:0:
288,160,24049,1,8,0:0:0:0:
288,160,24180,1,8,0:0:0:0:
224,160,24310,1,0,0:0:0:0:
224,160,24441,1,0,0:0:0:0:
288,224,24571,1,12,0:0:0:0:
288,160,24832,1,8,0:0:0:0:
288,160,24876,1,8,0:0:0:0:
224,224,25093,1,4,0:0:0:0:
288,160,25354,1,8,0:0:0:0:
224,160,25484,1,0,0:0:0:0:
288,160,25615,1,8,0:0:0:0:
224,160,25745,1,0,0:0:0:0:
288,160,25876,1,8,0:0:0:0:
288,160,26006,1,8,0:0:0:0:
224,160,26136,1,0,0:0:0:0:
224,160,26267,1,0,0:0:0:0:
288,160,26397,1,8,0:0:0:0:
224,160,26528,1,0,0:0:0:0:
288,224,26658,1,12,0:0:0:0:
288,160,26919,1,8,0:0:0:0:
288,160,27049,1,8,0:0:0:0:
224,160,27180,1,0,0:0:0:0:
288,160,27310,1,8,0:0:0:0:
224,160,27441,1,0,0:0:0:0:
288,160,27571,1,8,0:0:0:0:
288,160,27702,1,8,0:0:0:0:
224,160,27832,1,0,0:0:0:0:
288,160,27963,1,8,0:0:0:0:
288,160,28093,1,8,0:0:0:0:
288,160,28223,1,8,0:0:0:0:
288,160,28354,1,8,0:0:0:0:
224,160,28484,1,0,0:0:0:0:
224,160,28615,1,0,0:0:0:0:
288,224,28745,1,12,0:0:0:0:
288,160,29136,1,8,0:0:0:0:
224,160,29267,1,0,0:0:0:0:
224,160,29397,1,0,0:0:0:0:
288,160,29528,1,8,0:0:0:0:
288,160,29789,1,8,0:0:0:0:
224,160,29919,1,0,0:0:0:0:
288,160,30049,1,8,0:0:0:0:
288,160,30180,1,8,0:0:0:0:
288,160,30310,1,8,0:0:0:0:
224,160,30441,1,0,0:0:0:0:
288,160,30571,1,8,0:0:0:0:
224,160,30702,1,0,0:0:0:0:
288,224,30832,1,12,0:0:0:0:
288,160,31093,1,8,0:0:0:0:
288,160,31223,1,8,0:0:0:0:
224,160,31354,1,0,0:0:0:0:
288,160,31484,1,8,0:0:0:0:
224,160,31615,1,0,0:0:0:0:
224,160,31680,1,0,0:0:0:0:
224,160,31745,1,0,0:0:0:0:
288,160,31876,1,8,0:0:0:0:
224,160,32006,1,0,0:0:0:0:
288,160,32136,1,8,0:0:0:0:
288,160,32202,1,8,0:0:0:0:
288,160,32267,1,8,0:0:0:0:
288,160,32397,1,8,0:0:0:0:
288,160,32528,1,8,0:0:0:0:
224,160,32658,1,0,0:0:0:0:
224,160,32789,1,0,0:0:0:0:
288,224,32919,1,12,0:0:0:0:
288,160,33180,1,8,0:0:0:0:
224,224,33441,5,4,0:0:0:0:
256,192,33571,12,0,34941,0:0:0:0:
32,32,35006,6,4,B|256:32|256:32|480:288,1,560,0|0,0:0|0:0,0:0:0:0:
256,192,35593,12,0,37028,0:0:0:0:
288,224,37093,5,12,0:0:0:0:
288,224,37223,1,12,0:0:0:0:
224,224,37354,1,4,0:0:0:0:
224,224,37484,1,4,0:0:0:0:
256,192,37615,12,0,39115,0:0:0:0:
448,32,39180,6,4,B|192:32|192:32|32:320,1,560
256,192,39767,12,0,41202,0:0:0:0:
288,224,41267,5,12,0:0:0:0:
224,224,41528,1,4,0:0:0:0:
288,224,41789,1,12,0:0:0:0:
288,160,41919,1,8,0:0:0:0:
288,160,42049,1,8,0:0:0:0:
288,160,42180,1,8,0:0:0:0:
288,160,42310,1,8,0:0:0:0:
288,160,42441,1,8,0:0:0:0:
288,160,42571,1,8,0:0:0:0:
288,160,42702,1,8,0:0:0:0:
288,160,42832,1,8,0:0:0:0:
288,160,42963,1,8,0:0:0:0:
288,160,43093,1,8,0:0:0:0:
288,160,43223,1,8,0:0:0:0:
288,160,43354,1,8,0:0:0:0:
288,160,43419,1,8,0:0:0:0:
288,160,43484,1,8,0:0:0:0:
288,160,43549,1,8,0:0:0:0:
288,160,43615,1,8,0:0:0:0:
288,160,43680,1,8,0:0:0:0:
288,160,43745,1,8,0:0:0:0:
288,160,43810,1,8,0:0:0:0:
224,160,43876,1,0,0:0:0:0:
224,160,44006,1,0,0:0:0:0:
224,160,44136,1,0,0:0:0:0:
224,160,44267,1,0,0:0:0:0:
224,160,44397,1,0,0:0:0:0:
224,160,44528,1,0,0:0:0:0:
224,160,44658,1,0,0:0:0:0:
224,160,44789,1,0,0:0:0:0:
224,160,44919,1,0,0:0:0:0:
224,160,45049,1,0,0:0:0:0:
224,160,45180,1,0,0:0:0:0:
224,160,45310,1,0,0:0:0:0:
224,224,45441,1,4,0:0:0:0:
224,224,45571,1,4,0:0:0:0:
224,224,45702,1,4,0:0:0:0:
224,224,45832,1,4,0:0:0:0:
288,160,45963,5,8,0:0:0:0:
288,160,46028,1,8,0:0:0:0:
224,160,46093,1,0,0:0:0:0:
224,160,46158,1,0,0:0:0:0:
288,160,46223,1,8,0:0:0:0:
224,160,46289,1,0,0:0:0:0:
288,160,46354,1,8,0:0:0:0:
224,160,46419,1,0,0:0:0:0:
288,160,46484,1,8,0:0:0:0:
288,160,46549,1,8,0:0:0:0:
224,160,46615,1,0,0:0:0:0:
224,160,46680,1,0,0:0:0:0:
288,160,46745,1,8,0:0:0:0:
224,160,46810,1,0,0:0:0:0:
288,160,46876,1,8,0:0:0:0:
224,160,46941,1,0,0:0:0:0:
288,160,47006,1,8,0:0:0:0:
288,160,47071,1,8,0:0:0:0:
224,160,47136,1,0,0:0:0:0:
224,160,47202,1,0,0:0:0:0:
288,160,47267,1,8,0:0:0:0:
224,160,47332,1,0,0:0:0:0:
288,160,47397,1,8,0:0:0:0:
288,160,47463,1,8,0:0:0:0:
224,160,47528,1,0,0:0:0:0:
224,160,47593,1,0,0:0:0:0:
224,160,47658,1,0,0:0:0:0:
224,160,47723,1,0,0:0:0:0:
224,160,47789,1,0,0:0:0:0:
224,160,47854,1,0,0:0:0:0:
224,160,47919,1,0,0:0:0:0:
224,160,47984,1,0,0:0:0:0:
288,160,48049,1,8,0:0:0:0:
288,224,48310,1,12,0:0:0:0:
288,224,48441,1,12,0:0:0:0:
288,224,48571,1,12,0:0:0:0:
288,224,48832,1,12,0:0:0:0:
288,224,48963,1,12,0:0:0:0:
224,224,49093,1,4,0:0:0:0:
288,160,49223,1,8,0:0:0:0:
288,160,49419,1,8,0:0:0:0:
288,160,49615,1,8,0:0:0:0:
288,160,49876,1,8,0:0:0:0:
224,224,50136,5,4,0:0:0:0:
224,160,50267,1,0,0:0:0:0:
288,160,50397,1,8,0:0:0:0:
288,160,50463,1,8,0:0:0:0:
224,160,50528,1,0,0:0:0:0:
224,160,50593,1,0,0:0:0:0:
288,160,50658,1,8,0:0:0:0:
224,160,50789,1,0,0:0:0:0:
224,160,50854,1,0,0:0:0:0:
288,160,50919,1,8,0:0:0:0:
288,160,51049,1,8,0:0:0:0:
288,160,51115,1,8,0:0:0:0:
224,160,51180,1,0,0:0:0:0:
224,160,51245,1,0,0:0:0:0:
288,160,51310,1,0,0:0:0:0:
224,160,51376,1,0,0:0:0:0:
288,160,51441,1,8,0:0:0:0:
224,160,51571,1,0,0:0:0:0:
288,160,51702,1,8,0:0:0:0:
288,160,51767,1,8,0:0:0:0:
288,160,51832,1,8,0:0:0:0:
288,160,51897,1,8,0:0:0:0:
288,160,51963,1,8,0:0:0:0:
288,160,52028,1,8,0:0:0:0:
288,160,52093,1,8,0:0:0:0:
288,160,52158,1,8,0:0:0:0:
224,160,52223,1,0,0:0:0:0:
224,160,52354,1,0,0:0:0:0:
288,160,52484,1,8,0:0:0:0:
288,160,52506,1,8,0:0:0:0:
224,160,52615,1,0,0:0:0:0:
224,160,52636,1,0,0:0:0:0:
288,160,52745,1,8,0:0:0:0:
288,160,52767,1,8,0:0:0:0:
224,160,52876,1,0,0:0:0:0:
224,160,52897,1,0,0:0:0:0:
288,160,53006,1,8,0:0:0:0:
224,160,53071,1,0,0:0:0:0:
288,160,53136,1,8,0:0:0:0:
288,160,53202,1,8,0:0:0:0:
224,160,53267,1,0,0:0:0:0:
224,160,53397,1,0,0:0:0:0:
224,160,53419,1,0,0:0:0:0:
288,160,53528,1,8,0:0:0:0:
288,160,53549,1,8,0:0:0:0:
224,160,53658,1,0,0:0:0:0:
224,160,53680,1,0,0:0:0:0:
288,160,53789,1,8,0:0:0:0:
224,160,53854,1,0,0:0:0:0:
288,160,53919,1,8,0:0:0:0:
288,160,53984,1,8,0:0:0:0:
224,160,54049,1,0,0:0:0:0:
224,160,54115,1,0,0:0:0:0:
224,160,54180,1,0,0:0:0:0:
224,160,54245,1,0,0:0:0:0:
288,160,54310,1,8,0:0:0:0:
224,160,54441,1,0,0:0:0:0:
288,160,54571,1,8,0:0:0:0:
288,160,54636,1,8,0:0:0:0:
224,160,54702,1,0,0:0:0:0:
224,160,54767,1,0,0:0:0:0:
288,160,54832,1,8,0:0:0:0:
224,160,54963,1,0,0:0:0:0:
224,160,55028,1,0,0:0:0:0:
288,160,55093,1,8,0:0:0:0:
288,160,55223,1,8,0:0:0:0:
288,160,55289,1,8,0:0:0:0:
224,160,55354,1,0,0:0:0:0:
288,160,55419,1,8,0:0:0:0:
224,160,55484,1,0,0:0:0:0:
224,160,55549,1,0,0:0:0:0:
288,160,55615,1,8,0:0:0:0:
224,160,55745,1,0,0:0:0:0:
288,160,55876,1,8,0:0:0:0:
288,160,55941,1,8,0:0:0:0:
288,160,56006,1,8,0:0:0:0:
288,160,56071,1,8,0:0:0:0:
288,160,56136,1,8,0:0:0:0:
288,160,56202,1,8,0:0:0:0:
288,160,56267,1,8,0:0:0:0:
288,160,56332,1,8,0:0:0:0:
224,160,56397,1,0,0:0:0:0:
288,160,56528,1,8,0:0:0:0:
288,160,56549,1,8,0:0:0:0:
224,160,56658,1,0,0:0:0:0:
224,160,56680,1,0,0:0:0:0:
224,160,56789,1,0,0:0:0:0:
224,160,56810,1,0,0:0:0:0:
288,160,56919,1,8,0:0:0:0:
288,160,56941,1,8,0:0:0:0:
224,160,57049,1,0,0:0:0:0:
224,160,57115,1,0,0:0:0:0:
288,160,57180,1,8,0:0:0:0:
288,160,57245,1,8,0:0:0:0:
224,160,57310,1,0,0:0:0:0:
288,160,57441,1,8,0:0:0:0:
288,160,57506,1,8,0:0:0:0:
224,160,57571,1,0,0:0:0:0:
224,160,57636,1,0,0:0:0:0:
288,160,57702,1,8,0:0:0:0:
288,160,57723,1,8,0:0:0:0:
224,160,57832,1,0,0:0:0:0:
224,160,57854,1,0,0:0:0:0:
288,160,57963,1,8,0:0:0:0:
288,160,58028,1,8,0:0:0:0:
224,160,58093,1,0,0:0:0:0:
224,160,58158,1,0,0:0:0:0:
288,160,58223,1,8,0:0:0:0:
224,224,58484,1,4,0:0:0:0:
224,160,58615,1,0,0:0:0:0:
288,160,58745,1,8,0:0:0:0:
288,160,58810,1,8,0:0:0:0:
224,160,58876,1,0,0:0:0:0:
224,160,58941,1,0,0:0:0:0:
288,160,59006,1,8,0:0:0:0:
224,160,59136,1,0,0:0:0:0:
224,160,59202,1,0,0:0:0:0:
288,160,59267,1,8,0:0:0:0:
288,160,59397,1,8,0:0:0:0:
288,160,59463,1,8,0:0:0:0:
224,160,59528,1,0,0:0:0:0:
224,160,59593,1,0,0:0:0:0:
224,160,59658,1,0,0:0:0:0:
224,160,59723,1,0,0:0:0:0:
288,160,59789,1,8,0:0:0:0:
224,160,59919,1,0,0:0:0:0:
288,160,60049,1,8,0:0:0:0:
288,160,60115,1,8,0:0:0:0:
288,160,60180,1,8,0:0:0:0:
288,160,60245,1,8,0:0:0:0:
288,160,60310,1,8,0:0:0:0:
288,160,60376,1,8,0:0:0:0:
288,160,60441,1,8,0:0:0:0:
288,160,60506,1,8,0:0:0:0:
224,160,60571,1,0,0:0:0:0:
224,160,60702,1,0,0:0:0:0:
288,160,60832,1,8,0:0:0:0:
288,160,60854,1,8,0:0:0:0:
224,160,60963,1,0,0:0:0:0:
224,160,60984,1,0,0:0:0:0:
288,160,61093,1,8,0:0:0:0:
288,160,61115,1,8,0:0:0:0:
224,160,61223,1,0,0:0:0:0:
224,160,61245,1,0,0:0:0:0:
288,160,61354,1,8,0:0:0:0:
224,160,61419,1,0,0:0:0:0:
288,160,61484,1,8,0:0:0:0:
288,160,61549,1,8,0:0:0:0:
224,160,61615,1,0,0:0:0:0:
288,160,61680,1,8,0:0:0:0:
224,160,61745,1,0,0:0:0:0:
224,160,61810,1,0,0:0:0:0:
288,160,61876,1,8,0:0:0:0:
288,160,61941,1,8,0:0:0:0:
224,160,62006,1,0,0:0:0:0:
288,160,62136,1,8,0:0:0:0:
288,160,62158,1,8,0:0:0:0:
224,160,62267,1,0,0:0:0:0:
224,160,62289,1,0,0:0:0:0:
288,160,62397,1,8,0:0:0:0:
288,160,62463,1,8,0:0:0:0:
288,160,62528,1,8,0:0:0:0:
288,160,62593,1,8,0:0:0:0:
224,160,62658,1,0,0:0:0:0:
224,160,62789,1,0,0:0:0:0:
288,160,62919,1,8,0:0:0:0:
288,160,62984,1,8,0:0:0:0:
224,160,63049,1,0,0:0:0:0:
224,160,63115,1,0,0:0:0:0:
288,160,63180,1,8,0:0:0:0:
224,160,63310,1,0,0:0:0:0:
224,160,63376,1,0,0:0:0:0:
288,160,63441,1,8,0:0:0:0:
288,160,63571,1,8,0:0:0:0:
288,160,63636,1,8,0:0:0:0:
224,160,63702,1,0,0:0:0:0:
224,160,63767,1,0,0:0:0:0:
288,160,63832,1,8,0:0:0:0:
224,160,63897,1,0,0:0:0:0:
288,160,63963,1,8,0:0:0:0:
224,160,64093,1,0,0:0:0:0:
288,160,64223,1,8,0:0:0:0:
288,160,64289,1,8,0:0:0:0:
288,160,64354,1,8,0:0:0:0:
288,160,64419,1,8,0:0:0:0:
288,160,64484,1,8,0:0:0:0:
288,160,64549,1,8,0:0:0:0:
288,160,64615,1,8,0:0:0:0:
288,160,64680,1,8,0:0:0:0:
224,160,64745,1,0,0:0:0:0:
224,160,64876,1,0,0:0:0:0:
224,160,65006,1,0,0:0:0:0:
224,160,65136,1,0,0:0:0:0:
224,160,65267,1,0,0:0:0:0:
224,160,65397,1,0,0:0:0:0:
288,160,65528,1,8,0:0:0:0:
288,160,65593,1,8,0:0:0:0:
224,160,65658,1,0,0:0:0:0:
224,160,65723,1,0,0:0:0:0:
288,160,65789,1,8,0:0:0:0:
224,160,65919,1,0,0:0:0:0:
224,160,65984,1,0,0:0:0:0:
288,160,66049,1,8,0:0:0:0:
288,160,66115,1,8,0:0:0:0:
224,160,66180,1,0,0:0:0:0:
288,160,66310,1,8,0:0:0:0:
224,160,66441,1,0,0:0:0:0:
288,160,66571,1,8,0:0:0:0:
288,160,66615,1,8,0:0:0:0:
288,160,66658,1,8,0:0:0:0:
288,160,66702,1,8,0:0:0:0:
224,224,66832,5,4,0:0:0:0:
224,160,66963,1,0,0:0:0:0:
288,160,67093,1,8,0:0:0:0:
224,160,67223,1,0,0:0:0:0:
288,160,67354,1,8,0:0:0:0:
288,160,67484,1,8,0:0:0:0:
224,160,67615,1,0,0:0:0:0:
288,160,67745,1,8,0:0:0:0:
224,160,67876,1,0,0:0:0:0:
288,160,68006,1,8,0:0:0:0:
288,160,68136,1,8,0:0:0:0:
224,160,68267,1,0,0:0:0:0:
288,160,68397,1,8,0:0:0:0:
288,160,68463,1,8,0:0:0:0:
288,160,68528,1,8,0:0:0:0:
288,160,68593,1,8,0:0:0:0:
288,160,68658,1,8,0:0:0:0:
288,160,68723,1,8,0:0:0:0:
288,160,68789,1,8,0:0:0:0:
288,160,68854,1,8,0:0:0:0:
224,160,68919,1,0,0:0:0:0:
224,160,69049,1,0,0:0:0:0:
288,160,69180,1,8,0:0:0:0:
288,160,69310,1,8,0:0:0:0:
288,160,69441,1,8,0:0:0:0:
224,160,69571,1,0,0:0:0:0:
288,160,69702,1,8,0:0:0:0:
288,160,69832,1,8,0:0:0:0:
224,160,69963,1,0,0:0:0:0:
224,160,70093,1,0,0:0:0:0:
288,160,70223,1,8,0:0:0:0:
224,160,70354,1,0,0:0:0:0:
288,160,70484,1,8,0:0:0:0:
224,160,70615,1,0,0:0:0:0:
224,160,70636,1,0,0:0:0:0:
288,160,70745,1,8,0:0:0:0:
288,160,70767,1,8,0:0:0:0:
224,160,70876,1,0,0:0:0:0:
224,160,70897,1,0,0:0:0:0:
288,224,71006,1,12,0:0:0:0:
224,160,71136,1,0,0:0:0:0:
288,160,71267,1,8,0:0:0:0:
224,160,71397,1,0,0:0:0:0:
288,160,71528,1,8,0:0:0:0:
288,160,71658,1,8,0:0:0:0:
224,160,71789,1,0,0:0:0:0:
288,160,71919,1,8,0:0:0:0:
224,160,72049,1,0,0:0:0:0:
288,160,72180,1,8,0:0:0:0:
288,160,72310,1,8,0:0:0:0:
224,160,72441,1,0,0:0:0:0:
288,160,72571,1,8,0:0:0:0:
288,160,72636,1,8,0:0:0:0:
288,160,72702,1,8,0:0:0:0:
288,160,72767,1,8,0:0:0:0:
288,160,72832,1,8,0:0:0:0:
288,160,72897,1,8,0:0:0:0:
288,160,72963,1,8,0:0:0:0:
288,160,73028,1,8,0:0:0:0:
224,160,73093,1,0,0:0:0:0:
224,160,73223,1,0,0:0:0:0:
288,160,73354,1,8,0:0:0:0:
288,160,73484,1,8,0:0:0:0:
288,160,73615,1,8,0:0:0:0:
224,160,73745,1,0,0:0:0:0:
288,160,73876,1,8,0:0:0:0:
288,160,73941,1,8,0:0:0:0:
224,160,74006,1,0,0:0:0:0:
288,160,74136,1,8,0:0:0:0:
288,160,74202,1,8,0:0:0:0:
288,160,74267,1,8,0:0:0:0:
224,160,74397,1,0,0:0:0:0:
288,160,74528,1,8,0:0:0:0:
288,160,74658,1,8,0:0:0:0:
224,160,74789,1,0,0:0:0:0:
288,160,74919,1,8,0:0:0:0:
288,160,74963,1,8,0:0:0:0:
288,160,75006,1,8,0:0:0:0:
288,160,75049,1,8,0:0:0:0:
224,224,75180,1,4,0:0:0:0:
224,160,75310,1,0,0:0:0:0:
288,160,75441,1,8,0:0:0:0:
224,160,75571,1,0,0:0:0:0:
288,160,75702,1,8,0:0:0:0:
288,160,75832,1,8,0:0:0:0:
224,160,75963,1,0,0:0:0:0:
288,160,76093,1,8,0:0:0:0:
224,160,76223,1,0,0:0:0:0:
288,160,76354,1,8,0:0:0:0:
288,160,76484,1,8,0:0:0:0:
224,160,76615,1,0,0:0:0:0:
288,160,76745,1,8,0:0:0:0:
288,160,76810,1,8,0:0:0:0:
288,160,76876,1,8,0:0:0:0:
288,160,76941,1,8,0:0:0:0:
288,160,77006,1,8,0:0:0:0:
288,160,77071,1,8,0:0:0:0:
288,160,77136,1,8,0:0:0:0:
288,160,77202,1,8,0:0:0:0:
224,160,77267,1,0,0:0:0:0:
288,160,77397,1,8,0:0:0:0:
224,160,77528,1,0,0:0:0:0:
288,160,77658,1,8,0:0:0:0:
288,160,77789,1,8,0:0:0:0:
224,160,77919,1,0,0:0:0:0:
288,160,78049,1,8,0:0:0:0:
288,160,78180,1,8,0:0:0:0:
224,160,78310,1,0,0:0:0:0:
224,160,78376,1,0,0:0:0:0:
288,160,78441,1,8,0:0:0:0:
224,160,78571,1,0,0:0:0:0:
224,160,78702,1,0,0:0:0:0:
288,160,78832,1,8,0:0:0:0:
224,160,78963,1,0,0:0:0:0:
224,160,78984,1,0,0:0:0:0:
288,160,79093,1,8,0:0:0:0:
288,160,79115,1,8,0:0:0:0:
224,160,79223,1,0,0:0:0:0:
224,160,79245,1,0,0:0:0:0:
288,224,79354,1,12,0:0:0:0:
224,160,79484,1,0,0:0:0:0:
224,160,79615,1,0,0:0:0:0:
224,160,79745,1,0,0:0:0:0:
288,160,79876,1,8,0:0:0:0:
224,160,80006,1,0,0:0:0:0:
288,160,80136,1,8,0:0:0:0:
288,160,80267,1,8,0:0:0:0:
224,160,80397,1,0,0:0:0:0:
288,160,80528,1,8,0:0:0:0:
288,160,80658,1,8,0:0:0:0:
224,160,80789,1,0,0:0:0:0:
288,160,80919,1,8,0:0:0:0:
288,160,80984,1,8,0:0:0:0:
288,160,81049,1,8,0:0:0:0:
288,160,81115,1,8,0:0:0:0:
288,160,81180,1,8,0:0:0:0:
288,160,81245,1,8,0:0:0:0:
288,160,81310,1,8,0:0:0:0:
288,160,81376,1,8,0:0:0:0:
224,160,81441,1,0,0:0:0:0:
224,160,81571,1,0,0:0:0:0:
224,160,81636,1,0,0:0:0:0:
288,160,81702,1,8,0:0:0:0:
224,160,81832,1,0,0:0:0:0:
224,160,81897,1,0,0:0:0:0:
288,160,81963,1,8,0:0:0:0:
224,160,82093,1,0,0:0:0:0:
288,160,82223,1,8,0:0:0:0:
288,160,82289,1,8,0:0:0:0:
224,160,82354,1,0,0:0:0:0:
288,160,82484,1,8,0:0:0:0:
288,160,82549,1,8,0:0:0:0:
288,160,82615,1,8,0:0:0:0:
224,160,82745,1,0,0:0:0:0:
288,160,82876,1,8,0:0:0:0:
288,160,83006,1,8,0:0:0:0:
288,160,83071,1,8,0:0:0:0:
224,160,83136,1,0,0:0:0:0:
288,160,83267,1,8,0:0:0:0:
288,160,83310,1,8,0:0:0:0:
288,160,83354,1,8,0:0:0:0:
288,160,83397,1,8,0:0:0:0:
32,32,83528,6,0,L|128:32,1,70
224,160,83789,1,0,0:0:0:0:
224,160,83919,1,0,0:0:0:0:
288,160,84049,1,8,0:0:0:0:
288,160,84180,1,8,0:0:0:0:
224,224,84310,1,4,0:0:0:0:
288,160,84441,1,8,0:0:0:0:
288,160,84571,1,8,0:0:0:0:
224,160,84702,1,0,0:0:0:0:
224,160,84832,1,0,0:0:0:0:
224,160,84963,1,0,0:0:0:0:
288,160,85093,1,8,0:0:0:0:
288,160,85158,1,8,0:0:0:0:
288,160,85223,1,8,0:0:0:0:
288,160,85289,1,8,0:0:0:0:
288,160,85354,1,8,0:0:0:0:
288,160,85419,1,8,0:0:0:0:
288,160,85484,1,8,0:0:0:0:
288,160,85549,1,8,0:0:0:0:
224,160,85615,1,0,0:0:0:0:
224,160,85876,1,0,0:0:0:0:
224,160,86006,1,0,0:0:0:0:
288,160,86136,1,8,0:0:0:0:
288,160,86158,1,8,0:0:0:0:
224,160,86267,1,0,0:0:0:0:
224,160,86289,1,0,0:0:0:0:
288,160,86397,1,8,0:0:0:0:
288,160,86419,1,8,0:0:0:0:
224,160,86528,1,0,0:0:0:0:
224,160,86549,1,0,0:0:0:0:
288,160,86658,1,8,0:0:0:0:
288,160,86789,1,8,0:0:0:0:
224,160,86919,1,0,0:0:0:0:
224,160,87049,1,0,0:0:0:0:
288,160,87180,1,8,0:0:0:0:
224,160,87310,1,0,0:0:0:0:
224,160,87332,1,0,0:0:0:0:
288,160,87441,1,8,0:0:0:0:
288,160,87463,1,8,0:0:0:0:
224,160,87571,1,0,0:0:0:0:
224,160,87593,1,0,0:0:0:0:
288,224,87702,1,12,0:0:0:0:
224,160,87963,1,0,0:0:0:0:
224,160,88093,1,0,0:0:0:0:
288,160,88223,1,8,0:0:0:0:
288,160,88354,1,8,0:0:0:0:
224,160,88484,1,0,0:0:0:0:
288,160,88615,1,8,0:0:0:0:
288,160,88745,1,8,0:0:0:0:
224,160,88876,1,0,0:0:0:0:
224,160,89006,1,0,0:0:0:0:
224,160,89136,1,0,0:0:0:0:
288,160,89267,1,8,0:0:0:0:
288,160,89332,1,8,0:0:0:0:
288,160,89397,1,8,0:0:0:0:
288,160,89463,1,8,0:0:0:0:
288,160,89528,1,8,0:0:0:0:
288,160,89593,1,8,0:0:0:0:
288,160,89658,1,8,0:0:0:0:
288,160,89723,1,8,0:0:0:0:
224,160,89789,1,0,0:0:0:0:
224,160,89919,1,0,0:0:0:0:
288,160,90049,1,8,0:0:0:0:
288,160,90071,1,8,0:0:0:0:
224,160,90180,1,0,0:0:0:0:
224,160,90202,1,0,0:0:0:0:
288,160,90310,1,8,0:0:0:0:
288,160,90332,1,8,0:0:0:0:
224,160,90441,1,0,0:0:0:0:
288,160,90571,1,8,0:0:0:0:
288,160,90636,1,8,0:0:0:0:
224,160,90702,1,0,0:0:0:0:
288,160,90832,1,8,0:0:0:0:
288,160,90897,1,8,0:0:0:0:
288,160,90963,1,8,0:0:0:0:
288,160,91093,1,8,0:0:0:0:
224,160,91223,1,0,0:0:0:0:
288,160,91354,1,8,0:0:0:0:
288,160,91484,1,8,0:0:0:0:
224,160,91615,1,0,0:0:0:0:
224,160,91658,1,0,0:0:0:0:
224,160,91702,1,0,0:0:0:0:
224,160,91745,1,0,0:0:0:0:
288,224,91876,1,12,0:0:0:0:
288,160,92136,1,8,0:0:0:0:
288,160,92267,1,8,0:0:0:0:
288,160,92397,1,8,0:0:0:0:
288,160,92528,1,8,0:0:0:0:
224,160,92658,1,0,0:0:0:0:
288,160,92789,1,8,0:0:0:0:
288,160,92919,1,8,0:0:0:0:
224,160,93049,1,0,0:0:0:0:
224,160,93180,1,0,0:0:0:0:
224,160,93310,1,0,0:0:0:0:
288,160,93441,1,8,0:0:0:0:
288,160,93506,1,8,0:0:0:0:
288,160,93571,1,8,0:0:0:0:
288,160,93636,1,8,0:0:0:0:
288,160,93702,1,8,0:0:0:0:
288,160,93767,1,8,0:0:0:0:
288,160,93832,1,8,0:0:0:0:
288,160,93897,1,8,0:0:0:0:
224,160,93963,1,0,0:0:0:0:
224,160,94093,1,0,0:0:0:0:
288,160,94223,1,8,0:0:0:0:
224,160,94354,1,0,0:0:0:0:
288,160,94484,1,8,0:0:0:0:
288,160,94506,1,8,0:0:0:0:
224,160,94615,1,0,0:0:0:0:
224,160,94636,1,0,0:0:0:0:
288,160,94745,1,8,0:0:0:0:
288,160,94767,1,8,0:0:0:0:
224,160,94876,1,0,0:0:0:0:
224,160,94897,1,0,0:0:0:0:
288,160,95006,1,8,0:0:0:0:
288,160,95136,1,8,0:0:0:0:
224,160,95267,1,0,0:0:0:0:
224,160,95332,1,0,0:0:0:0:
224,160,95397,1,0,0:0:0:0:
288,160,95528,1,8,0:0:0:0:
224,160,95658,1,0,0:0:0:0:
224,160,95680,1,0,0:0:0:0:
288,160,95789,1,8,0:0:0:0:
288,160,95810,1,8,0:0:0:0:
224,160,95919,1,0,0:0:0:0:
224,160,95941,1,0,0:0:0:0:
288,224,96049,1,12,0:0:0:0:
224,160,96180,1,0,0:0:0:0:
288,160,96310,1,8,0:0:0:0:
288,160,96441,1,8,0:0:0:0:
288,160,96571,1,8,0:0:0:0:
288,160,96702,1,8,0:0:0:0:
224,160,96832,1,0,0:0:0:0:
288,160,96963,1,8,0:0:0:0:
288,160,97093,1,8,0:0:0:0:
224,160,97223,1,0,0:0:0:0:
224,160,97354,1,0,0:0:0:0:
224,160,97484,1,0,0:0:0:0:
288,160,97615,1,8,0:0:0:0:
288,160,97680,1,8,0:0:0:0:
288,160,97745,1,8,0:0:0:0:
288,160,97810,1,8,0:0:0:0:
288,160,97876,1,8,0:0:0:0:
288,160,97941,1,8,0:0:0:0:
288,160,98006,1,8,0:0:0:0:
288,160,98071,1,8,0:0:0:0:
224,160,98136,1,0,0:0:0:0:
224,160,98267,1,0,0:0:0:0:
288,160,98397,1,8,0:0:0:0:
224,160,98528,1,0,0:0:0:0:
288,160,98658,1,8,0:0:0:0:
288,160,98789,1,8,0:0:0:0:
224,160,98919,1,0,0:0:0:0:
224,160,98984,1,0,0:0:0:0:
288,160,99049,1,8,0:0:0:0:
288,160,99180,1,8,0:0:0:0:
288,160,99245,1,8,0:0:0:0:
288,160,99310,1,8,0:0:0:0:
288,160,99441,1,8,0:0:0:0:
224,160,99571,1,0,0:0:0:0:
288,160,99702,1,8,0:0:0:0:
288,160,99723,1,8,0:0:0:0:
288,160,99832,1,8,0:0:0:0:
288,160,99854,1,8,0:0:0:0:
224,160,99963,1,0,0:0:0:0:
224,160,100006,1,0,0:0:0:0:
224,160,100049,1,0,0:0:0:0:
224,160,100093,1,0,0:0:0:0:
256,192,100223,12,0,104397,0:0:0:0:
288,160,116658,5,8,0:0:0:0:
288,160,116789,1,8,0:0:0:0:
224,224,116919,1,4,0:0:0:0:
288,160,117050,1,8,0:0:0:0:
224,160,117180,1,0,0:0:0:0:
224,160,117310,1,0,0:0:0:0:
288,160,117441,1,8,0:0:0:0:
224,160,117571,1,0,0:0:0:0:
288,160,117702,1,8,0:0:0:0:
288,160,117832,1,8,0:0:0:0:
288,160,117963,1,8,0:0:0:0:
224,160,118093,1,0,0:0:0:0:
288,160,118223,1,8,0:0:0:0:
224,160,118354,1,0,0:0:0:0:
288,224,118484,1,12,0:0:0:0:
224,224,119006,1,4,0:0:0:0:
288,160,119137,1,8,0:0:0:0:
224,160,119267,1,0,0:0:0:0:
224,160,119397,1,0,0:0:0:0:
288,160,119528,1,8,0:0:0:0:
224,160,119658,1,0,0:0:0:0:
288,160,119789,1,8,0:0:0:0:
288,160,119919,1,8,0:0:0:0:
288,160,120050,1,8,0:0:0:0:
288,160,120180,1,8,0:0:0:0:
224,160,120310,1,0,0:0:0:0:
224,160,120441,1,0,0:0:0:0:
288,224,120571,1,12,0:0:0:0:
224,224,121093,1,4,0:0:0:0:
288,160,121223,1,8,0:0:0:0:
224,160,121354,1,0,0:0:0:0:
224,160,121484,1,0,0:0:0:0:
288,160,121615,1,8,0:0:0:0:
224,160,121745,1,0,0:0:0:0:
288,160,121876,1,8,0:0:0:0:
288,160,122006,1,8,0:0:0:0:
224,160,122137,1,0,0:0:0:0:
224,160,122267,1,0,0:0:0:0:
288,160,122397,1,8,0:0:0:0:
224,160,122528,1,0,0:0:0:0:
288,224,122658,1,12,0:0:0:0:
224,160,122919,1,0,0:0:0:0:
288,160,123050,1,8,0:0:0:0:
224,224,123180,1,4,0:0:0:0:
224,160,123310,1,0,0:0:0:0:
288,160,123441,1,8,0:0:0:0:
224,160,123571,1,0,0:0:0:0:
288,160,123702,1,8,0:0:0:0:
224,160,123832,1,0,0:0:0:0:
288,160,123963,1,8,0:0:0:0:
288,160,124093,1,8,0:0:0:0:
288,160,124223,1,8,0:0:0:0:
288,160,124354,1,8,0:0:0:0:
224,160,124484,1,0,0:0:0:0:
224,160,124615,1,0,0:0:0:0:
288,224,124745,1,12,0:0:0:0:
288,160,125006,1,8,0:0:0:0:
288,160,125050,1,8,0:0:0:0:
224,224,125267,1,4,0:0:0:0:
288,160,125528,1,8,0:0:0:0:
224,160,125658,1,0,0:0:0:0:
288,160,125789,1,8,0:0:0:0:
224,160,125919,1,0,0:0:0:0:
288,160,126050,1,8,0:0:0:0:
288,160,126180,1,8,0:0:0:0:
224,160,126310,1,0,0:0:0:0:
224,160,126441,1,0,0:0:0:0:
288,160,126571,1,8,0:0:0:0:
224,160,126702,1,0,0:0:0:0:
288,224,126832,1,12,0:0:0:0:
288,160,127093,1,8,0:0:0:0:
288,160,127223,1,8,0:0:0:0:
224,224,127354,1,4,0:0:0:0:
288,160,127484,1,8,0:0:0:0:
224,160,127615,1,0,0:0:0:0:
288,160,127745,1,8,0:0:0:0:
288,160,127876,1,8,0:0:0:0:
224,160,128006,1,0,0:0:0:0:
288,160,128137,1,8,0:0:0:0:
288,160,128267,1,8,0:0:0:0:
288,160,128397,1,8,0:0:0:0:
288,160,128528,1,8,0:0:0:0:
224,160,128658,1,0,0:0:0:0:
224,160,128789,1,0,0:0:0:0:
288,224,128919,1,12,0:0:0:0:
288,160,129310,1,8,0:0:0:0:
224,224,129441,1,4,0:0:0:0:
224,160,129571,1,0,0:0:0:0:
288,160,129702,1,8,0:0:0:0:
288,160,129963,1,8,0:0:0:0:
224,160,130093,1,0,0:0:0:0:
288,160,130223,1,8,0:0:0:0:
288,160,130354,1,8,0:0:0:0:
288,160,130484,1,8,0:0:0:0:
224,160,130615,1,0,0:0:0:0:
288,160,130745,1,8,0:0:0:0:
224,160,130876,1,0,0:0:0:0:
288,224,131006,1,12,0:0:0:0:
288,160,131267,1,8,0:0:0:0:
288,160,131397,1,8,0:0:0:0:
224,224,131528,1,4,0:0:0:0:
288,160,131658,1,8,0:0:0:0:
224,160,131789,1,0,0:0:0:0:
224,160,131854,1,0,0:0:0:0:
224,160,131919,1,0,0:0:0:0:
288,160,132050,1,8,0:0:0:0:
224,160,132180,1,0,0:0:0:0:
288,160,132310,1,8,0:0:0:0:
288,160,132376,1,8,0:0:0:0:
288,160,132441,1,8,0:0:0:0:
288,160,132571,1,8,0:0:0:0:
288,160,132702,1,8,0:0:0:0:
224,160,132832,1,0,0:0:0:0:
224,160,132963,1,0,0:0:0:0:
288,224,133093,1,12,0:0:0:0:
288,160,133354,1,8,0:0:0:0:
256,192,133615,12,0,135115,0:0:0:0:
224,32,135180,6,4,B|160:64|160:64|224:96|224:96|160:128|160:128|224:160|224:160|160:192|160:192|224:224|224:224|160:256|160:256|224:288,1,560
256,192,135767,12,0,137202,0:0:0:0:
288,224,137267,5,12,0:0:0:0:
288,224,137397,1,12,0:0:0:0:
224,224,137528,1,4,0:0:0:0:
224,224,137658,1,4,0:0:0:0:
256,192,137789,12,4,139289,0:0:0:0:
288,96,139354,6,4,B|192:96|192:96|224:64|224:64|256:128|256:128|288:64|288:64|320:96|320:96|288:160|288:160|256:32|256:32|224:32,1,560
256,192,139941,12,0,141376,0:0:0:0:
288,224,141441,5,12,0:0:0:0:
224,224,141702,1,4,0:0:0:0:
288,224,141963,1,12,0:0:0:0:
288,160,142093,1,8,0:0:0:0:
288,160,142223,1,8,0:0:0:0:
288,160,142354,1,8,0:0:0:0:
288,160,142484,1,8,0:0:0:0:
288,160,142615,1,8,0:0:0:0:
288,160,142745,1,8,0:0:0:0:
288,160,142876,1,8,0:0:0:0:
288,160,143006,1,8,0:0:0:0:
288,160,143136,1,8,0:0:0:0:
288,160,143267,1,8,0:0:0:0:
288,160,143397,1,8,0:0:0:0:
288,160,143528,1,8,0:0:0:0:
288,160,143593,1,8,0:0:0:0:
288,160,143658,1,8,0:0:0:0:
288,160,143723,1,8,0:0:0:0:
288,160,143789,1,8,0:0:0:0:
288,160,143854,1,8,0:0:0:0:
288,160,143919,1,8,0:0:0:0:
288,160,143984,1,8,0:0:0:0:
224,160,144049,1,0,0:0:0:0:
224,160,144180,1,0,0:0:0:0:
224,160,144310,1,0,0:0:0:0:
224,160,144441,1,0,0:0:0:0:
224,160,144571,1,0,0:0:0:0:
224,160,144702,1,0,0:0:0:0:
224,160,144832,1,0,0:0:0:0:
224,160,144963,1,0,0:0:0:0:
224,160,145093,1,0,0:0:0:0:
224,160,145223,1,0,0:0:0:0:
224,160,145354,1,0,0:0:0:0:
224,160,145484,1,0,0:0:0:0:
224,224,145615,1,4,0:0:0:0:
224,224,145745,1,4,0:0:0:0:
224,224,145876,1,4,0:0:0:0:
224,224,146006,1,4,0:0:0:0:
288,160,146136,1,8,0:0:0:0:
288,160,146202,1,8,0:0:0:0:
224,160,146267,1,0,0:0:0:0:
224,160,146332,1,0,0:0:0:0:
288,160,146397,1,8,0:0:0:0:
224,160,146463,1,0,0:0:0:0:
288,160,146528,1,8,0:0:0:0:
224,160,146593,1,0,0:0:0:0:
288,160,146658,1,8,0:0:0:0:
288,160,146723,1,8,0:0:0:0:
224,160,146789,1,0,0:0:0:0:
224,160,146854,1,0,0:0:0:0:
288,160,146919,1,8,0:0:0:0:
224,160,146984,1,0,0:0:0:0:
288,160,147049,1,8,0:0:0:0:
224,160,147115,1,0,0:0:0:0:
288,160,147180,1,8,0:0:0:0:
288,160,147245,1,8,0:0:0:0:
224,160,147310,1,0,0:0:0:0:
224,160,147376,1,0,0:0:0:0:
288,160,147441,1,8,0:0:0:0:
224,160,147506,1,0,0:0:0:0:
288,160,147571,1,8,0:0:0:0:
288,160,147636,1,8,0:0:0:0:
224,160,147702,1,0,0:0:0:0:
224,160,147767,1,0,0:0:0:0:
224,160,147832,1,0,0:0:0:0:
224,160,147897,1,0,0:0:0:0:
224,160,147963,1,0,0:0:0:0:
224,160,148028,1,0,0:0:0:0:
224,160,148093,1,0,0:0:0:0:
224,160,148158,1,0,0:0:0:0:
288,160,148223,1,8,0:0:0:0:
288,224,148484,1,12,0:0:0:0:
288,224,148615,1,12,0:0:0:0:
288,224,148745,1,12,0:0:0:0:
288,224,149006,1,12,0:0:0:0:
288,224,149136,1,12,0:0:0:0:
224,224,149267,1,4,0:0:0:0:
288,160,149397,1,8,0:0:0:0:
288,160,149593,1,8,0:0:0:0:
288,160,149789,1,8,0:0:0:0:
288,160,150049,1,8,0:0:0:0:
224,224,150310,5,4,0:0:0:0:
224,160,150441,1,0,0:0:0:0:
224,160,150506,1,0,0:0:0:0:
288,160,150571,1,8,0:0:0:0:
224,160,150702,1,0,0:0:0:0:
224,160,150767,1,0,0:0:0:0:
288,160,150832,1,8,0:0:0:0:
288,160,150897,1,8,0:0:0:0:
224,160,150963,1,0,0:0:0:0:
288,160,151093,1,8,0:0:0:0:
224,160,151223,1,0,0:0:0:0:
224,160,151289,1,0,0:0:0:0:
288,160,151354,1,8,0:0:0:0:
224,160,151419,1,0,0:0:0:0:
288,160,151484,1,8,0:0:0:0:
288,160,151615,1,8,0:0:0:0:
288,160,151680,1,8,0:0:0:0:
224,160,151745,1,0,0:0:0:0:
288,160,151876,1,8,0:0:0:0:
224,160,152006,1,0,0:0:0:0:
224,160,152071,1,0,0:0:0:0:
288,160,152136,1,8,0:0:0:0:
288,160,152202,1,8,0:0:0:0:
224,160,152267,1,0,0:0:0:0:
288,160,152397,1,8,0:0:0:0:
224,160,152528,1,0,0:0:0:0:
224,160,152593,1,0,0:0:0:0:
288,160,152658,1,8,0:0:0:0:
224,160,152789,1,0,0:0:0:0:
224,160,152854,1,0,0:0:0:0:
288,160,152919,1,8,0:0:0:0:
224,160,152984,1,0,0:0:0:0:
288,160,153049,1,8,0:0:0:0:
224,160,153180,1,0,0:0:0:0:
224,160,153245,1,0,0:0:0:0:
224,160,153310,1,0,0:0:0:0:
288,160,153441,1,8,0:0:0:0:
224,160,153506,1,0,0:0:0:0:
288,160,153571,1,8,0:0:0:0:
224,160,153702,1,0,0:0:0:0:
224,160,153767,1,0,0:0:0:0:
224,160,153832,1,0,0:0:0:0:
288,160,153963,1,8,0:0:0:0:
288,160,153984,1,8,0:0:0:0:
224,160,154093,1,0,0:0:0:0:
224,160,154115,1,0,0:0:0:0:
288,160,154223,1,8,0:0:0:0:
288,160,154267,1,8,0:0:0:0:
288,160,154310,1,8,0:0:0:0:
288,160,154354,1,8,0:0:0:0:
224,160,154484,1,0,0:0:0:0:
224,160,154615,1,0,0:0:0:0:
224,160,154680,1,0,0:0:0:0:
288,160,154745,1,8,0:0:0:0:
224,160,154876,1,0,0:0:0:0:
224,160,154941,1,0,0:0:0:0:
288,160,155006,1,8,0:0:0:0:
288,160,155071,1,8,0:0:0:0:
224,160,155136,1,0,0:0:0:0:
288,160,155267,1,8,0:0:0:0:
224,160,155397,1,0,0:0:0:0:
224,160,155463,1,0,0:0:0:0:
288,160,155528,1,8,0:0:0:0:
288,160,155658,1,8,0:0:0:0:
224,160,155723,1,0,0:0:0:0:
288,160,155789,1,8,0:0:0:0:
288,160,155854,1,8,0:0:0:0:
224,160,155919,1,0,0:0:0:0:
288,160,156049,1,8,0:0:0:0:
224,160,156180,1,0,0:0:0:0:
224,160,156245,1,0,0:0:0:0:
288,160,156310,1,8,0:0:0:0:
288,160,156441,1,8,0:0:0:0:
288,160,156506,1,8,0:0:0:0:
224,160,156571,1,0,0:0:0:0:
224,160,156636,1,0,0:0:0:0:
224,160,156702,1,0,0:0:0:0:
288,160,156832,1,8,0:0:0:0:
224,160,156963,1,0,0:0:0:0:
224,160,157028,1,0,0:0:0:0:
288,160,157093,1,8,0:0:0:0:
224,160,157223,1,0,0:0:0:0:
224,160,157289,1,0,0:0:0:0:
288,160,157354,1,8,0:0:0:0:
288,160,157419,1,8,0:0:0:0:
224,160,157484,1,0,0:0:0:0:
288,160,157615,1,8,0:0:0:0:
288,160,157636,1,8,0:0:0:0:
224,160,157745,1,0,0:0:0:0:
288,160,157876,1,8,0:0:0:0:
288,160,157897,1,8,0:0:0:0:
224,160,158006,1,0,0:0:0:0:
224,160,158028,1,0,0:0:0:0:
288,160,158136,1,8,0:0:0:0:
288,160,158202,1,8,0:0:0:0:
224,160,158267,1,0,0:0:0:0:
224,160,158332,1,0,0:0:0:0:
288,160,158397,1,8,0:0:0:0:
288,160,158463,1,8,0:0:0:0:
288,160,158528,1,8,0:0:0:0:
224,224,158658,1,4,0:0:0:0:
224,160,158789,1,0,0:0:0:0:
224,160,158854,1,0,0:0:0:0:
288,160,158919,1,8,0:0:0:0:
224,160,159049,1,0,0:0:0:0:
224,160,159115,1,0,0:0:0:0:
288,160,159180,1,8,0:0:0:0:
288,160,159245,1,8,0:0:0:0:
224,160,159310,1,0,0:0:0:0:
288,160,159441,1,8,0:0:0:0:
224,160,159571,1,0,0:0:0:0:
224,160,159636,1,0,0:0:0:0:
288,160,159702,1,8,0:0:0:0:
224,160,159767,1,0,0:0:0:0:
288,160,159832,1,8,0:0:0:0:
288,160,159963,1,8,0:0:0:0:
288,160,160028,1,8,0:0:0:0:
224,160,160093,1,0,0:0:0:0:
224,160,160158,1,0,0:0:0:0:
288,160,160223,1,8,0:0:0:0:
224,160,160354,1,0,0:0:0:0:
224,160,160419,1,0,0:0:0:0:
288,160,160484,1,8,0:0:0:0:
224,160,160549,1,0,0:0:0:0:
288,160,160615,1,8,0:0:0:0:
286,154,160745,1,0,0:0:0:0:
224,160,160810,1,0,0:0:0:0:
224,160,160876,1,0,0:0:0:0:
224,160,160941,1,0,0:0:0:0:
288,160,161006,1,8,0:0:0:0:
224,160,161136,1,0,0:0:0:0:
224,160,161202,1,0,0:0:0:0:
288,160,161267,1,8,0:0:0:0:
288,160,161332,1,8,0:0:0:0:
224,160,161397,1,0,0:0:0:0:
224,160,161528,1,0,0:0:0:0:
224,160,161593,1,0,0:0:0:0:
224,160,161658,1,0,0:0:0:0:
288,160,161789,1,8,0:0:0:0:
224,160,161854,1,0,0:0:0:0:
288,160,161919,1,8,0:0:0:0:
224,160,162049,1,0,0:0:0:0:
224,160,162115,1,0,0:0:0:0:
224,160,162180,1,0,0:0:0:0:
288,160,162310,1,8,0:0:0:0:
288,160,162332,1,8,0:0:0:0:
224,160,162441,1,0,0:0:0:0:
224,160,162463,1,0,0:0:0:0:
224,160,162571,1,0,0:0:0:0:
224,160,162593,1,0,0:0:0:0:
288,160,162702,1,8,0:0:0:0:
288,160,162723,1,8,0:0:0:0:
224,160,162832,1,0,0:0:0:0:
224,160,162963,1,0,0:0:0:0:
224,160,163028,1,0,0:0:0:0:
288,160,163093,1,8,0:0:0:0:
224,160,163223,1,0,0:0:0:0:
224,160,163289,1,0,0:0:0:0:
288,160,163354,1,8,0:0:0:0:
288,160,163419,1,8,0:0:0:0:
224,160,163484,1,0,0:0:0:0:
288,160,163615,1,8,0:0:0:0:
224,160,163745,1,0,0:0:0:0:
224,160,163810,1,0,0:0:0:0:
288,160,163876,1,8,0:0:0:0:
224,160,163941,1,0,0:0:0:0:
288,160,164006,1,8,0:0:0:0:
288,160,164136,1,8,0:0:0:0:
288,160,164202,1,8,0:0:0:0:
224,160,164267,1,0,0:0:0:0:
224,160,164332,1,0,0:0:0:0:
288,160,164397,1,8,0:0:0:0:
224,160,164528,1,0,0:0:0:0:
224,160,164593,1,0,0:0:0:0:
288,160,164658,1,8,0:0:0:0:
288,160,164723,1,8,0:0:0:0:
224,160,164789,1,0,0:0:0:0:
288,160,164919,1,8,0:0:0:0:
288,160,164984,1,8,0:0:0:0:
288,160,165049,1,8,0:0:0:0:
288,160,165115,1,8,0:0:0:0:
224,160,165180,1,0,0:0:0:0:
224,160,165245,1,0,0:0:0:0:
288,160,165310,1,8,0:0:0:0:
224,160,165441,1,0,0:0:0:0:
224,160,165571,1,0,0:0:0:0:
224,160,165593,1,0,0:0:0:0:
288,160,165702,1,8,0:0:0:0:
288,160,165723,1,8,0:0:0:0:
288,160,165832,1,8,0:0:0:0:
288,160,165854,1,8,0:0:0:0:
224,160,165963,1,0,0:0:0:0:
288,160,166093,1,8,0:0:0:0:
288,160,166158,1,8,0:0:0:0:
224,160,166223,1,0,0:0:0:0:
288,160,166354,1,8,0:0:0:0:
288,160,166484,1,8,0:0:0:0:
288,160,166549,1,8,0:0:0:0:
224,160,166615,1,0,0:0:0:0:
224,160,166680,1,0,0:0:0:0:
288,160,166745,1,8,0:0:0:0:
288,160,166876,1,8,0:0:0:0:
224,224,167006,5,4,0:0:0:0:
224,160,167136,1,0,0:0:0:0:
224,160,167202,1,0,0:0:0:0:
288,160,167267,1,8,0:0:0:0:
224,160,167397,1,0,0:0:0:0:
224,160,167463,1,0,0:0:0:0:
288,160,167528,1,8,0:0:0:0:
288,160,167593,1,8,0:0:0:0:
224,160,167658,1,0,0:0:0:0:
288,160,167789,1,8,0:0:0:0:
288,160,167919,1,8,0:0:0:0:
288,160,167984,1,8,0:0:0:0:
224,160,168049,1,0,0:0:0:0:
224,160,168115,1,0,0:0:0:0:
288,160,168180,1,8,0:0:0:0:
224,160,168245,1,0,0:0:0:0:
288,160,168310,1,8,0:0:0:0:
224,160,168441,1,0,0:0:0:0:
288,160,168571,1,8,0:0:0:0:
288,160,168636,1,8,0:0:0:0:
288,160,168702,1,8,0:0:0:0:
288,160,168767,1,8,0:0:0:0:
288,160,168832,1,8,0:0:0:0:
288,160,168897,1,8,0:0:0:0:
288,160,168963,1,8,0:0:0:0:
288,160,169028,1,8,0:0:0:0:
224,160,169093,1,0,0:0:0:0:
224,160,169223,1,0,0:0:0:0:
224,160,169289,1,0,0:0:0:0:
288,160,169354,1,8,0:0:0:0:
224,160,169419,1,0,0:0:0:0:
288,160,169484,1,8,0:0:0:0:
288,160,169615,1,8,0:0:0:0:
288,160,169680,1,8,0:0:0:0:
224,160,169745,1,0,0:0:0:0:
224,160,169810,1,0,0:0:0:0:
288,160,169876,1,8,0:0:0:0:
224,160,170006,1,0,0:0:0:0:
224,160,170071,1,0,0:0:0:0:
224,160,170136,1,0,0:0:0:0:
224,160,170202,1,0,0:0:0:0:
288,160,170267,1,8,0:0:0:0:
224,160,170332,1,0,0:0:0:0:
288,160,170397,1,8,0:0:0:0:
224,160,170528,1,0,0:0:0:0:
224,160,170593,1,0,0:0:0:0:
288,160,170658,1,8,0:0:0:0:
288,160,170680,1,8,0:0:0:0:
224,160,170789,1,0,0:0:0:0:
224,160,170810,1,0,0:0:0:0:
288,160,170919,1,8,0:0:0:0:
288,160,170941,1,8,0:0:0:0:
224,160,171049,1,0,0:0:0:0:
224,160,171071,1,0,0:0:0:0:
288,224,171180,1,12,0:0:0:0:
224,160,171310,1,0,0:0:0:0:
224,160,171376,1,0,0:0:0:0:
288,160,171441,1,8,0:0:0:0:
224,160,171571,1,0,0:0:0:0:
224,160,171636,1,0,0:0:0:0:
288,160,171702,1,8,0:0:0:0:
288,160,171767,1,8,0:0:0:0:
224,160,171832,1,0,0:0:0:0:
288,160,171963,1,8,0:0:0:0:
288,160,172093,1,8,0:0:0:0:
288,160,172158,1,8,0:0:0:0:
224,160,172223,1,0,0:0:0:0:
224,160,172289,1,0,0:0:0:0:
288,160,172354,1,8,0:0:0:0:
224,160,172419,1,0,0:0:0:0:
288,160,172484,1,8,0:0:0:0:
224,160,172615,1,0,0:0:0:0:
288,160,172745,1,8,0:0:0:0:
288,160,172810,1,8,0:0:0:0:
288,160,172876,1,8,0:0:0:0:
288,160,172941,1,8,0:0:0:0:
288,160,173006,1,8,0:0:0:0:
288,160,173071,1,8,0:0:0:0:
288,160,173136,1,8,0:0:0:0:
288,160,173202,1,8,0:0:0:0:
224,160,173267,1,0,0:0:0:0:
224,160,173397,1,0,0:0:0:0:
224,160,173463,1,0,0:0:0:0:
288,160,173528,1,8,0:0:0:0:
224,160,173593,1,0,0:0:0:0:
288,160,173658,1,8,0:0:0:0:
224,160,173723,1,0,0:0:0:0:
288,160,173789,1,8,0:0:0:0:
224,160,173919,1,0,0:0:0:0:
224,160,173984,1,0,0:0:0:0:
288,160,174049,1,8,0:0:0:0:
288,160,174115,1,8,0:0:0:0:
288,160,174180,1,8,0:0:0:0:
224,160,174310,1,0,0:0:0:0:
224,160,174376,1,0,0:0:0:0:
224,160,174441,1,0,0:0:0:0:
288,160,174571,1,8,0:0:0:0:
288,160,174592,1,8,0:0:0:0:
224,160,174701,1,0,0:0:0:0:
224,160,174723,1,0,0:0:0:0:
288,160,174832,1,8,0:0:0:0:
288,160,174897,1,8,0:0:0:0:
224,160,174963,1,0,0:0:0:0:
224,160,175028,1,0,0:0:0:0:
288,160,175093,1,8,0:0:0:0:
288,160,175136,1,8,0:0:0:0:
288,160,175180,1,8,0:0:0:0:
288,160,175223,1,8,0:0:0:0:
224,224,175354,1,4,0:0:0:0:
224,160,175484,1,0,0:0:0:0:
224,160,175549,1,0,0:0:0:0:
288,160,175615,1,8,0:0:0:0:
224,160,175745,1,0,0:0:0:0:
224,160,175810,1,0,0:0:0:0:
288,160,175876,1,8,0:0:0:0:
288,160,175941,1,8,0:0:0:0:
224,160,176006,1,0,0:0:0:0:
288,160,176136,1,8,0:0:0:0:
288,160,176267,1,8,0:0:0:0:
288,160,176332,1,8,0:0:0:0:
224,160,176397,1,0,0:0:0:0:
224,160,176463,1,0,0:0:0:0:
288,160,176528,1,8,0:0:0:0:
224,160,176593,1,0,0:0:0:0:
288,160,176658,1,8,0:0:0:0:
224,160,176789,1,0,0:0:0:0:
288,160,176919,1,8,0:0:0:0:
288,160,176984,1,8,0:0:0:0:
288,160,177049,1,8,0:0:0:0:
288,160,177115,1,8,0:0:0:0:
288,160,177180,1,8,0:0:0:0:
288,160,177245,1,8,0:0:0:0:
288,160,177310,1,8,0:0:0:0:
288,160,177376,1,8,0:0:0:0:
224,160,177441,1,0,0:0:0:0:
288,160,177571,1,8,0:0:0:0:
288,160,177636,1,8,0:0:0:0:
224,160,177702,1,0,0:0:0:0:
224,160,177767,1,0,0:0:0:0:
288,160,177832,1,8,0:0:0:0:
224,160,177897,1,0,0:0:0:0:
288,160,177963,1,8,0:0:0:0:
224,160,178093,1,0,0:0:0:0:
224,160,178158,1,0,0:0:0:0:
288,160,178223,1,8,0:0:0:0:
288,160,178354,1,8,0:0:0:0:
288,160,178419,1,8,0:0:0:0:
224,160,178484,1,0,0:0:0:0:
224,160,178549,1,0,0:0:0:0:
288,160,178615,1,8,0:0:0:0:
224,160,178680,1,0,0:0:0:0:
288,160,178745,1,8,0:0:0:0:
224,160,178876,1,0,0:0:0:0:
224,160,178941,1,0,0:0:0:0:
288,160,179006,1,8,0:0:0:0:
288,160,179028,1,8,0:0:0:0:
224,160,179136,1,0,0:0:0:0:
224,160,179158,1,0,0:0:0:0:
224,160,179267,1,0,0:0:0:0:
224,160,179289,1,0,0:0:0:0:
288,160,179397,1,8,0:0:0:0:
288,160,179419,1,8,0:0:0:0:
224,224,179528,1,4,0:0:0:0:
224,160,179658,1,0,0:0:0:0:
224,160,179723,1,0,0:0:0:0:
288,160,179789,1,8,0:0:0:0:
224,160,179919,1,0,0:0:0:0:
224,160,179984,1,0,0:0:0:0:
288,160,180049,1,8,0:0:0:0:
288,160,180115,1,8,0:0:0:0:
224,160,180180,1,0,0:0:0:0:
288,160,180245,1,8,0:0:0:0:
224,160,180310,1,0,0:0:0:0:
288,160,180441,1,8,0:0:0:0:
288,160,180506,1,8,0:0:0:0:
224,160,180571,1,0,0:0:0:0:
224,160,180636,1,0,0:0:0:0:
288,160,180702,1,8,0:0:0:0:
224,160,180767,1,0,0:0:0:0:
288,160,180832,1,8,0:0:0:0:
224,160,180963,1,0,0:0:0:0:
224,160,181028,1,0,0:0:0:0:
288,160,181093,1,8,0:0:0:0:
288,160,181158,1,8,0:0:0:0:
288,160,181223,1,8,0:0:0:0:
288,160,181289,1,8,0:0:0:0:
288,160,181354,1,8,0:0:0:0:
288,160,181419,1,8,0:0:0:0:
288,160,181484,1,8,0:0:0:0:
288,160,181549,1,8,0:0:0:0:
224,160,181615,1,0,0:0:0:0:
224,160,181745,1,0,0:0:0:0:
224,160,181810,1,0,0:0:0:0:
288,160,181876,1,8,0:0:0:0:
288,160,181941,1,8,0:0:0:0:
224,160,182006,1,0,0:0:0:0:
288,160,182136,1,8,0:0:0:0:
288,160,182202,1,8,0:0:0:0:
224,160,182267,1,0,0:0:0:0:
224,160,182332,1,0,0:0:0:0:
288,160,182397,1,8,0:0:0:0:
224,160,182528,1,0,0:0:0:0:
224,160,182593,1,0,0:0:0:0:
224,160,182658,1,0,0:0:0:0:
224,160,182723,1,0,0:0:0:0:
288,160,182789,1,8,0:0:0:0:
224,160,182854,1,0,0:0:0:0:
288,160,182919,1,8,0:0:0:0:
224,160,183049,1,0,0:0:0:0:
288,160,183180,1,8,0:0:0:0:
288,160,183202,1,8,0:0:0:0:
224,160,183310,1,0,0:0:0:0:
224,160,183332,1,0,0:0:0:0:
288,160,183441,1,8,0:0:0:0:
288,160,183484,1,8,0:0:0:0:
288,160,183528,1,8,0:0:0:0:
288,160,183571,1,8,0:0:0:0:
224,160,183702,5,0,0:0:0:0:
288,160,183832,1,8,0:0:0:0:
224,160,183963,1,0,0:0:0:0:
224,160,184093,1,0,0:0:0:0:
288,224,184223,1,12,0:0:0:0:
288,160,184354,1,8,0:0:0:0:
224,160,184484,1,0,0:0:0:0:
224,160,184549,1,0,0:0:0:0:
224,160,184615,1,0,0:0:0:0:
224,160,184680,1,0,0:0:0:0:
288,160,184745,1,8,0:0:0:0:
224,160,184810,1,0,0:0:0:0:
288,160,184876,1,8,0:0:0:0:
224,160,185006,1,0,0:0:0:0:
224,160,185071,1,0,0:0:0:0:
224,160,185136,1,0,0:0:0:0:
288,160,185267,1,8,0:0:0:0:
288,160,185332,1,8,0:0:0:0:
288,160,185397,1,8,0:0:0:0:
288,160,185463,1,8,0:0:0:0:
288,160,185528,1,8,0:0:0:0:
288,160,185593,1,8,0:0:0:0:
288,160,185658,1,8,0:0:0:0:
288,160,185723,1,8,0:0:0:0:
224,160,185789,1,0,0:0:0:0:
224,160,185919,1,0,0:0:0:0:
224,160,185984,1,0,0:0:0:0:
288,160,186049,1,8,0:0:0:0:
288,160,186071,1,8,0:0:0:0:
224,160,186180,1,0,0:0:0:0:
224,160,186202,1,0,0:0:0:0:
288,160,186310,1,8,0:0:0:0:
288,160,186332,1,8,0:0:0:0:
224,160,186441,1,0,0:0:0:0:
224,160,186463,1,0,0:0:0:0:
288,160,186571,1,8,0:0:0:0:
288,160,186636,1,8,0:0:0:0:
288,160,186702,1,8,0:0:0:0:
288,160,186767,1,8,0:0:0:0:
224,160,186832,1,0,0:0:0:0:
224,160,186897,1,0,0:0:0:0:
288,160,186963,1,8,0:0:0:0:
224,160,187093,1,0,0:0:0:0:
288,160,187115,1,8,0:0:0:0:
288,160,187223,1,8,0:0:0:0:
224,160,187245,1,0,0:0:0:0:
288,160,187354,1,8,0:0:0:0:
224,160,187484,1,0,0:0:0:0:
224,160,187549,1,0,0:0:0:0:
288,160,187615,1,8,0:0:0:0:
288,160,187658,1,8,0:0:0:0:
288,160,187702,1,8,0:0:0:0:
288,160,187745,1,8,0:0:0:0:
224,224,187876,1,4,0:0:0:0:
224,160,188006,1,0,0:0:0:0:
224,160,188071,1,0,0:0:0:0:
288,160,188136,1,8,0:0:0:0:
288,160,188202,1,8,0:0:0:0:
224,160,188267,1,0,0:0:0:0:
288,160,188397,1,8,0:0:0:0:
224,160,188463,1,0,0:0:0:0:
288,160,188528,1,8,0:0:0:0:
224,160,188658,1,0,0:0:0:0:
224,160,188723,1,0,0:0:0:0:
224,160,188789,1,0,0:0:0:0:
224,160,188854,1,0,0:0:0:0:
288,160,188919,1,8,0:0:0:0:
224,160,188984,1,0,0:0:0:0:
288,160,189049,1,8,0:0:0:0:
224,160,189180,1,0,0:0:0:0:
224,160,189245,1,0,0:0:0:0:
224,160,189310,1,0,0:0:0:0:
288,160,189441,1,8,0:0:0:0:
288,160,189506,1,8,0:0:0:0:
288,160,189571,1,8,0:0:0:0:
288,160,189636,1,8,0:0:0:0:
288,160,189702,1,8,0:0:0:0:
288,160,189767,1,8,0:0:0:0:
288,160,189832,1,8,0:0:0:0:
288,160,189897,1,8,0:0:0:0:
224,160,189963,1,0,0:0:0:0:
224,160,190028,1,0,0:0:0:0:
224,160,190093,1,0,0:0:0:0:
288,160,190223,1,8,0:0:0:0:
288,160,190245,1,8,0:0:0:0:
224,160,190354,1,0,0:0:0:0:
224,160,190376,1,0,0:0:0:0:
288,160,190484,1,8,0:0:0:0:
288,160,190506,1,8,0:0:0:0:
224,160,190615,1,0,0:0:0:0:
224,160,190636,1,0,0:0:0:0:
288,160,190745,1,8,0:0:0:0:
288,160,190810,1,8,0:0:0:0:
288,160,190876,1,8,0:0:0:0:
288,160,190941,1,8,0:0:0:0:
224,160,191006,1,0,0:0:0:0:
224,160,191071,1,0,0:0:0:0:
288,160,191136,1,8,0:0:0:0:
224,160,191267,1,0,0:0:0:0:
288,160,191289,1,8,0:0:0:0:
288,160,191397,1,8,0:0:0:0:
224,160,191419,1,0,0:0:0:0:
288,160,191528,1,8,0:0:0:0:
224,160,191658,1,0,0:0:0:0:
224,160,191680,1,0,0:0:0:0:
288,160,191789,1,8,0:0:0:0:
288,160,191832,1,8,0:0:0:0:
288,160,191876,1,8,0:0:0:0:
288,160,191919,1,8,0:0:0:0:
224,224,192049,1,4,0:0:0:0:
224,160,192180,1,0,0:0:0:0:
224,160,192245,1,0,0:0:0:0:
288,160,192310,1,8,0:0:0:0:
288,160,192376,1,8,0:0:0:0:
224,160,192441,1,0,0:0:0:0:
288,160,192571,1,8,0:0:0:0:
224,160,192636,1,0,0:0:0:0:
288,160,192702,1,8,0:0:0:0:
224,160,192832,1,0,0:0:0:0:
224,160,192897,1,0,0:0:0:0:
224,160,192963,1,0,0:0:0:0:
224,160,193028,1,0,0:0:0:0:
288,160,193093,1,8,0:0:0:0:
224,160,193158,1,0,0:0:0:0:
288,160,193223,1,8,0:0:0:0:
224,160,193354,1,0,0:0:0:0:
224,160,193419,1,0,0:0:0:0:
224,160,193484,1,0,0:0:0:0:
288,160,193615,1,8,0:0:0:0:
288,160,193680,1,8,0:0:0:0:
288,160,193745,1,8,0:0:0:0:
288,160,193810,1,8,0:0:0:0:
288,160,193876,1,8,0:0:0:0:
288,160,193941,1,8,0:0:0:0:
288,160,194006,1,8,0:0:0:0:
288,160,194071,1,8,0:0:0:0:
224,160,194136,1,0,0:0:0:0:
224,160,194267,1,0,0:0:0:0:
224,160,194332,1,0,0:0:0:0:
288,160,194397,1,8,0:0:0:0:
288,160,194419,1,8,0:0:0:0:
224,160,194528,1,0,0:0:0:0:
224,160,194549,1,0,0:0:0:0:
288,160,194658,1,8,0:0:0:0:
288,160,194680,1,8,0:0:0:0:
224,160,194789,1,0,0:0:0:0:
224,160,194810,1,0,0:0:0:0:
288,160,194919,1,8,0:0:0:0:
288,160,194984,1,8,0:0:0:0:
288,160,195049,1,8,0:0:0:0:
288,160,195115,1,8,0:0:0:0:
224,160,195180,1,0,0:0:0:0:
224,160,195245,1,0,0:0:0:0:
288,160,195310,1,8,0:0:0:0:
224,160,195441,1,0,0:0:0:0:
288,160,195463,1,8,0:0:0:0:
288,160,195571,1,8,0:0:0:0:
224,160,195593,1,0,0:0:0:0:
288,160,195702,1,8,0:0:0:0:
224,160,195832,1,0,0:0:0:0:
224,160,195897,1,0,0:0:0:0:
288,160,195963,1,8,0:0:0:0:
288,160,196006,1,8,0:0:0:0:
288,160,196049,1,8,0:0:0:0:
288,160,196093,1,8,0:0:0:0:
224,224,196223,1,4,0:0:0:0:
224,160,196354,1,0,0:0:0:0:
224,160,196419,1,0,0:0:0:0:
288,160,196484,1,8,0:0:0:0:
288,160,196549,1,8,0:0:0:0:
224,160,196615,1,0,0:0:0:0:
288,160,196745,1,8,0:0:0:0:
224,160,196810,1,0,0:0:0:0:
288,160,196876,1,8,0:0:0:0:
288,160,197006,1,8,0:0:0:0:
288,160,197071,1,8,0:0:0:0:
288,160,197136,1,8,0:0:0:0:
288,160,197202,1,8,0:0:0:0:
224,160,197267,1,0,0:0:0:0:
224,160,197332,1,0,0:0:0:0:
288,160,197397,1,8,0:0:0:0:
224,160,197528,1,0,0:0:0:0:
224,160,197593,1,0,0:0:0:0:
224,160,197658,1,0,0:0:0:0:
288,160,197789,1,8,0:0:0:0:
288,160,197854,1,8,0:0:0:0:
288,160,197919,1,8,0:0:0:0:
288,160,197984,1,8,0:0:0:0:
288,160,198049,1,8,0:0:0:0:
288,160,198115,1,8,0:0:0:0:
288,160,198180,1,8,0:0:0:0:
288,160,198245,1,8,0:0:0:0:
224,160,198310,1,0,0:0:0:0:
224,160,198376,1,0,0:0:0:0:
224,160,198441,1,0,0:0:0:0:
288,160,198571,1,8,0:0:0:0:
288,160,198593,1,8,0:0:0:0:
224,160,198702,1,0,0:0:0:0:
224,160,198723,1,0,0:0:0:0:
288,160,198832,1,8,0:0:0:0:
288,160,198854,1,8,0:0:0:0:
224,160,198963,1,0,0:0:0:0:
224,160,198984,1,0,0:0:0:0:
288,160,199093,1,8,0:0:0:0:
288,160,199158,1,8,0:0:0:0:
288,160,199223,1,8,0:0:0:0:
288,160,199289,1,8,0:0:0:0:
224,160,199354,1,0,0:0:0:0:
224,160,199419,1,0,0:0:0:0:
288,160,199484,1,8,0:0:0:0:
224,160,199615,1,0,0:0:0:0:
288,160,199636,1,8,0:0:0:0:
288,160,199745,1,8,0:0:0:0:
224,160,199767,1,0,0:0:0:0:
288,160,199876,1,8,0:0:0:0:
224,160,200006,1,0,0:0:0:0:
224,160,200028,1,0,0:0:0:0:
288,160,200136,1,8,0:0:0:0:
288,160,200180,1,8,0:0:0:0:
288,160,200223,1,8,0:0:0:0:
288,160,200267,1,8,0:0:0:0:
256,192,200397,12,0,203528,0:0:0:0:
