osu file format v14

[General]
AudioFilename: audio.mp3
AudioLeadIn: 0
PreviewTime: 155398
Countdown: 1
SampleSet: Soft
StackLeniency: 0.7
Mode: 0
LetterboxInBreaks: 0
WidescreenStoryboard: 1

[Editor]
Bookmarks: 184118
DistanceSpacing: 1.5
BeatDivisor: 4
GridSize: 8
TimelineZoom: 2

[Metadata]
Title:Ta Vendo Aquela Lua(Rock Vers.)
TitleUnicode:Ta Vendo Aquela Lua(Rock Vers.)
Artist:Exaltasamba ft. The Kira Justice
ArtistUnicode:Exaltasamba ft. The Kira Justice
Creator:DJKratos
Version:Ta vendo?
Source:
Tags:
BeatmapID:1682553
BeatmapSetID:801579

[Difficulty]
HPDrainRate:6
CircleSize:4
OverallDifficulty:8
ApproachRate:9.3
SliderMultiplier:2
SliderTickRate:1

[Events]
//Background and Video events
0,0,"jooj.png",0,0
//Break Periods
2,89450,95959
//Storyboard Layer 0 (Background)
//Storyboard Layer 1 (Fail)
//Storyboard Layer 2 (Pass)
//Storyboard Layer 3 (Foreground)
//Storyboard Sound Samples

[TimingPoints]
2,365.853658536585,4,2,1,10,1,0
1280,-100,4,2,1,70,0,0
2928,-100,4,2,1,60,0,0
5855,-100,4,2,1,50,0,0
11707,-133.333333333333,4,2,1,40,0,0
20489,-133.333333333333,4,2,1,70,0,0
42421,365.853658536585,4,2,1,40,1,0
42521,-100,4,2,1,40,0,0
45896,-100,4,2,1,40,0,0
55957,-100,4,2,1,60,0,0
67847,-100,4,2,1,70,0,0
73132,365.853658536585,4,2,1,70,1,0
79006,-100,4,2,1,40,0,0
80109,365.853658536585,4,2,1,40,1,0
85866,-50,4,2,1,40,0,0
90713,-100,4,2,1,40,0,0
96513,365.853658536585,4,2,1,40,1,0
97610,-181.818181818181,4,2,1,40,0,0
107854,-100,4,2,1,40,0,0
108220,-133.333333333333,4,2,1,70,0,0
132008,365.853658536585,4,2,1,20,1,0
132008,-200,4,2,1,20,0,0
141862,365.853658536585,4,2,1,20,1,0
143325,-133.333333333333,4,2,1,60,0,0
150642,-95.2380952380952,4,2,1,60,0,0
155398,-100,4,2,1,70,0,1
166740,-100,4,2,1,40,0,0
176983,-200,4,2,1,20,0,0

[HitObjects]
64,64,0,5,4,0:0:0:0:
75,76,365,1,4,0:0:0:0:
88,91,731,1,4,0:0:0:0:
103,111,1097,1,4,0:0:0:0:
32,212,1280,1,0,0:0:0:0:
154,153,1463,6,0,P|221:111|233:84,1,100,8|2,0:1|0:3,0:1:0:0:
384,152,1829,1,8,0:1:0:0:
454,43,2012,2,0,P|381:42|345:57,1,100,2|8,0:3|0:1,0:1:0:0:
300,264,2378,1,2,0:3:0:0:
252,144,2560,5,8,0:1:0:0:
188,328,2743,1,2,0:3:0:0:
44,264,2928,2,8,P|4:184|10:140,1,100,8|2,0:1|0:3,0:1:0:0:
148,136,3294,1,8,0:1:0:0:
148,136,3475,2,0,L|236:48,1,100,2|8,0:3|0:1,0:1:0:0:
148,248,3841,2,0,L|236:336,1,100,2|8,0:3|0:1,0:1:0:0:
372,352,4209,1,2,0:3:0:0:
404,176,4392,5,8,0:1:0:0:
268,248,4573,1,2,0:3:0:0:
428,272,4756,1,8,0:1:0:0:
396,88,4939,2,0,L|276:48,1,100,2|8,0:3|0:1,0:1:0:0:
132,336,5306,6,0,P|84:296|76:256,1,100,0|8,0:3|0:1,0:1:0:0:
204,184,5672,2,0,P|183:243|149:264,1,100,2|8,0:3|0:1,0:1:0:0:
268,144,6036,2,0,P|216:107|176:110,1,100,2|8,0:3|0:1,0:1:0:0:
44,184,6402,1,2,0:3:0:0:
44,48,6585,6,0,L|148:32,1,100,8|2,0:1|0:3,0:1:0:0:
260,72,6951,1,8,0:1:0:0:
372,24,7134,1,2,0:3:0:0:
332,144,7317,2,0,L|244:216,1,100,8|2,0:1|0:3,0:1:0:0:
404,336,7684,5,8,0:1:0:0:
436,176,7865,1,2,0:3:0:0:
316,272,8048,2,0,P|380:256|436:272,1,100,8|2,0:1|0:3,0:1:0:0:
316,96,8414,2,0,P|300:160|316:216,1,100,8|2,0:1|0:3,0:1:0:0:
468,48,8780,1,14,0:1:0:0:
68,64,11707,6,0,L|92:144,1,75.0000028610231
36,216,12073,2,0,L|60:296,1,75.0000028610231
140,360,12439,2,0,L|220:336,1,75.0000028610231
396,208,12804,5,0,0:0:0:0:
324,344,12987,1,0,0:0:0:0:
460,272,13170,2,0,P|468:208|460:176,1,75.0000028610231
324,120,13536,2,0,P|316:184|324:216,1,75.0000028610231
460,80,13902,2,0,P|396:32|300:48,1,150.000005722046
92,80,14451,5,0,0:0:0:0:
92,80,14542,1,0,0:0:0:0:
92,80,14634,2,0,L|124:160,1,75.0000028610231
12,256,14999,1,0,0:0:0:0:
140,344,15182,1,0,0:0:0:0:
140,344,15274,1,0,0:0:0:0:
140,344,15365,6,0,P|180:320|188:280,1,75.0000028610231
364,344,15731,2,0,P|324:320|316:280,1,75.0000028610231
460,224,16097,1,0,0:0:0:0:
444,344,16280,1,0,0:0:0:0:
348,176,16463,5,0,0:0:0:0:
204,48,16646,1,0,0:0:0:0:
28,128,16829,2,0,P|52:200|4:264,1,150.000005722046
156,352,17378,1,0,0:0:0:0:
284,264,17560,6,0,P|260:208|228:176,1,75.0000028610231
84,96,17926,2,0,P|108:152|140:184,1,75.0000028610231
276,56,18292,1,0,0:0:0:0:
156,96,18475,1,0,0:0:0:0:
356,128,18658,5,0,0:0:0:0:
380,156,18749,1,0,0:0:0:0:
395,190,18840,1,0,0:0:0:0:
399,227,18932,1,0,0:0:0:0:
391,263,19023,1,0,0:0:0:0:
212,320,19207,1,0,0:0:0:0:
284,192,19390,6,0,L|244:120,1,75.0000028610231
68,304,19756,1,8,2:2:0:0:
172,64,19939,1,8,2:1:0:0:
396,312,20487,5,2,0:3:0:0:
300,240,20670,2,0,P|252:208|244:176,1,75.0000028610231,0|8,0:0|0:0,0:0:0:0:
316,168,21036,2,0,P|364:136|372:104,1,75.0000028610231,0|2,0:0|0:3,0:0:0:0:
228,120,21404,2,0,P|180:152|172:184,1,75.0000028610231,0|8,0:0|0:0,0:0:0:0:
236,280,21768,1,0,0:0:0:0:
116,240,21951,5,2,0:3:0:0:
76,360,22134,2,0,L|4:296,1,75.0000028610231,0|8,0:0|0:0,0:0:0:0:
100,152,22499,1,0,0:0:0:0:
188,288,22682,1,2,0:3:0:0:
20,144,22865,1,0,0:0:0:0:
188,40,23050,2,0,P|252:40|276:32,1,75.0000028610231,8|0,0:0|0:0,0:0:0:0:
420,136,23414,5,2,0:3:0:0:
316,336,23597,1,0,0:0:0:0:
324,144,23782,1,8,0:0:0:0:
460,272,23963,1,0,0:0:0:0:
260,264,24146,6,0,P|212:288|196:320,1,75.0000028610231,2|0,0:3|0:0,0:0:0:0:
276,352,24512,1,8,0:0:0:0:
164,184,24695,1,0,0:0:0:0:
52,328,24878,2,0,P|20:256|36:184,1,150.000005722046,2|8,0:3|0:0,0:0:0:0:
180,64,25426,1,0,0:0:0:0:
52,80,25611,5,2,0:3:0:0:
180,208,25794,1,8,0:0:0:0:
300,64,25977,2,0,P|356:40|444:72,1,150.000005722046,8|2,0:0|0:3,0:0:0:0:
220,24,26524,1,0,0:0:0:0:
396,128,26707,6,0,L|444:208,1,75.0000028610231,8|0,0:0|0:0,0:0:0:0:
308,168,27073,2,0,L|260:248,1,75.0000028610231,2|0,0:3|0:0,0:0:0:0:
372,224,27439,2,0,L|420:304,1,75.0000028610231,8|0,0:0|0:0,0:0:0:0:
236,352,27804,2,0,P|148:312|68:328,1,150.000005722046,2|8,0:3|0:0,0:0:0:0:
84,160,28353,1,0,0:0:0:0:
228,248,28536,5,2,0:3:0:0:
164,104,28719,1,0,0:0:0:0:
76,240,28902,1,8,0:0:0:0:
260,120,29085,1,0,0:0:0:0:
260,120,29268,2,0,P|236:64|204:48,1,75.0000028610231,2|0,0:3|0:0,0:0:0:0:
212,56,29542,1,0,0:0:0:0:
196,64,29634,2,0,P|124:80|68:32,1,150.000005722046,8|2,0:0|0:3,0:0:0:0:
188,184,30182,5,0,0:0:0:0:
340,64,30365,1,8,0:0:0:0:
404,240,30548,1,0,0:0:0:0:
404,240,30731,2,0,P|364:264|348:320,1,75.0000028610231,2|0,0:3|0:0,0:0:0:0:
404,376,31099,2,0,P|423:333|405:278,1,75.0000028610231,8|0,0:0|0:0,0:0:0:0:
316,376,31463,2,0,P|267:321|265:247,1,150.000005722046,2|8,0:3|0:0,0:0:0:0:
156,352,32012,1,0,0:0:0:0:
84,192,32195,5,2,0:3:0:0:
84,192,32378,2,0,P|76:128|52:112,1,75.0000028610231,0|8,0:0|0:0,0:0:0:0:
204,32,32743,2,0,P|212:96|236:112,1,75.0000028610231,0|2,0:0|0:3,0:0:0:0:
348,32,33109,1,0,0:0:0:0:
124,56,33292,1,8,0:0:0:0:
316,176,33475,1,0,0:0:0:0:
452,48,33660,6,0,P|476:112|468:192,1,150.000005722046,2|8,0:3|0:0,0:0:0:0:
348,336,34207,1,0,0:0:0:0:
236,264,34390,2,0,L|164:320,1,75.0000028610231,2|0,0:3|0:0,0:0:0:0:
28,312,34756,2,0,P|76:256|84:168,1,150.000005722046,8|2,0:0|0:3,0:0:0:0:
28,56,35304,5,0,0:0:0:0:
172,144,35487,1,8,0:0:0:0:
124,32,35670,1,0,0:0:0:0:
12,184,35853,1,2,0:3:0:0:
140,320,36036,2,0,P|188:352|228:360,1,75.0000028610231,0|8,0:0|0:0,0:0:0:0:
404,312,36402,5,0,0:0:0:0:
404,312,36593,2,0,P|436:240|428:160,1,150.000005722046,2|8,0:3|0:0,0:0:0:0:
308,224,37134,1,0,0:0:0:0:
412,88,37317,1,2,0:3:0:0:
284,120,37499,1,0,0:0:0:0:
428,168,37684,1,8,0:0:0:0:
340,32,37865,1,8,0:0:0:0:
180,80,38050,6,0,P|100:96|52:56,1,150.000005722046,2|8,0:3|0:0,0:0:0:0:
124,24,38597,1,0,0:0:0:0:
28,120,38780,2,0,P|4:168|12:208,1,75.0000028610231,2|0,0:3|0:0,0:0:0:0:
148,200,39146,2,0,P|100:176|60:184,1,75.0000028610231,8|0,0:0|0:0,0:0:0:0:
108,320,39512,2,0,P|84:272|92:232,1,75.0000028610231,2|0,0:3|0:0,0:0:0:0:
148,200,39878,2,0,P|117:179|80:177,1,75.0000028610231,8|0,0:0|0:0,0:0:0:0:
212,336,40243,5,2,0:3:0:0:
364,224,40426,1,0,0:0:0:0:
436,360,40609,2,0,P|340:352|284:384,1,150.000005722046,8|2,0:0|0:3,0:0:0:0:
436,256,41158,1,0,0:0:0:0:
332,136,41341,2,0,P|380:88|412:80,1,75.0000028610231,8|0,0:0|0:0,0:0:0:0:
244,160,41707,6,0,P|244:92|260:63,1,75.0000028610231,2|0,0:3|0:0,0:0:0:0:
204,240,42073,2,0,P|156:192|147:160,1,75.0000028610231,8|0,0:0|0:0,0:0:0:0:
348,328,42439,1,0,0:0:0:0:
348,328,42786,1,0,0:0:0:0:
316,48,43170,5,0,0:0:0:0:
100,160,43536,1,0,0:0:0:0:
252,368,43884,1,14,0:0:0:0:
108,96,45896,5,0,0:0:0:0:
196,192,46079,2,0,B|276:144|340:232|340:232|436:128|348:96,1,300
428,24,46811,2,0,P|476:80|476:224,1,200
380,296,47360,1,0,0:0:0:0:
372,200,47542,1,0,0:0:0:0:
148,328,47908,5,0,0:0:0:0:
76,256,48091,1,0,0:0:0:0:
172,240,48274,2,0,B|236:152|124:128|220:32,1,200
468,96,49006,5,0,0:0:0:0:
468,96,49189,1,0,0:0:0:0:
396,192,49372,2,0,P|372:120|252:80,1,200
92,336,50286,5,0,0:0:0:0:
60,152,50469,1,0,0:0:0:0:
252,328,50835,5,0,0:0:0:0:
340,248,51018,1,0,0:0:0:0:
396,360,51201,2,0,P|452:312|452:184,1,200
364,56,51750,5,0,0:0:0:0:
364,56,51933,1,0,0:0:0:0:
244,168,52116,1,0,0:0:0:0:
244,168,52299,1,0,0:0:0:0:
140,48,52481,1,0,0:0:0:0:
140,48,52664,2,0,P|60:96|44:208,1,200
180,328,53213,1,0,0:0:0:0:
228,152,53396,1,0,0:0:0:0:
476,56,53762,5,0,0:0:0:0:
388,136,53945,1,0,0:0:0:0:
388,136,54128,2,0,P|444:192|436:320,1,200
260,352,54860,5,0,0:0:0:0:
260,352,55042,1,0,0:0:0:0:
172,256,55225,1,0,0:0:0:0:
172,256,55408,1,0,0:0:0:0:
108,368,55591,1,0,0:0:0:0:
260,272,55774,2,0,P|252:200|228:168,1,100,0|8,0:0|0:0,0:0:0:0:
76,144,56140,5,0,0:0:0:0:
228,56,56323,1,2,2:3:0:0:
164,144,56506,1,0,0:0:0:0:
156,16,56689,1,8,0:0:0:0:
324,96,56872,1,0,0:0:0:0:
324,96,57055,2,0,P|420:96|476:8,1,200,2|8,0:3|0:0,0:0:0:0:
420,200,57603,6,0,P|356:240|300:240,1,100,0|2,0:0|0:3,0:0:0:0:
268,112,57969,2,0,P|332:150|358:200,1,100,0|8,0:0|0:0,0:0:0:0:
276,352,58335,1,0,0:0:0:0:
164,192,58518,2,0,P|92:232|60:344,1,200,2|8,0:3|0:0,0:0:0:0:
168,280,59067,1,0,0:0:0:0:
64,152,59250,6,0,P|80:80|120:56,2,100,2|0|8,0:3|0:0|0:0,0:0:0:0:
192,112,59799,2,0,L|304:80,1,100,0|2,0:0|0:3,0:0:0:0:
464,136,60164,1,0,0:0:0:0:
384,320,60347,1,8,0:0:0:0:
360,72,60530,1,0,0:0:0:0:
504,288,60713,1,2,0:3:0:0:
256,352,60896,1,0,0:0:0:0:
184,208,61079,6,0,P|120:168|72:160,1,100,8|0,0:0|0:0,0:0:0:0:
168,306,61445,2,0,P|232:346|280:354,1,100,2|0,0:3|0:0,0:0:0:0:
328,216,61811,2,0,B|304:96|256:160|240:32,1,200,8|2,0:0|0:3,0:0:0:0:
96,160,62360,1,0,0:0:0:0:
224,304,62542,2,0,P|288:328|320:360,1,100,8|0,0:0|0:0,0:0:0:0:
464,224,62908,6,0,P|440:136|400:104,1,100,8|0,0:2|0:0,0:0:0:0:
368,152,63183,2,0,P|376:80|438:73,1,100,8|0,2:3|2:3,2:3:0:0:
488,48,63457,2,0,P|416:0|368:0,1,100,8|0,0:1|0:1,0:1:0:0:
272,136,63823,6,0,P|200:112|192:80,1,100,0|8,0:0|0:0,0:0:0:0:
336,24,64189,2,0,P|264:48|256:80,1,100,0|2,0:0|0:3,0:0:0:0:
376,248,64555,1,0,0:0:0:0:
424,56,64738,1,8,0:0:0:0:
248,256,64920,1,0,0:0:0:0:
440,352,65103,6,0,P|488:288|488:240,1,100,2|0,0:3|0:0,0:0:0:0:
288,352,65469,1,8,0:0:0:0:
128,248,65652,2,0,P|152:184|192:160,1,100,0|2,0:0|0:3,0:0:0:0:
176,360,66018,1,0,0:0:0:0:
32,200,66201,5,8,0:0:0:0:
208,56,66384,1,0,0:0:0:0:
40,48,66567,2,0,P|16:104|-16:128,1,100,2|0,0:3|0:0,0:0:0:0:
112,264,66933,1,8,0:0:0:0:
272,168,67116,1,0,0:0:0:0:
272,168,67299,6,0,P|352:144|400:32,1,200,2|8,0:3|0:0,0:0:0:0:
168,48,67847,1,0,0:0:0:0:
48,200,68030,1,2,0:3:0:0:
72,48,68213,1,0,0:0:0:0:
72,48,68396,1,8,0:0:0:0:
332,94,68579,5,0,0:0:0:0:
188,276,68762,1,2,0:3:0:0:
217,94,68945,1,0,0:0:0:0:
217,94,69128,1,8,0:0:0:0:
448,160,69311,5,0,0:0:0:0:
274,378,69494,1,2,0:3:0:0:
308,160,69677,1,0,0:0:0:0:
448,296,69860,1,8,0:0:0:0:
200,168,70042,1,0,0:0:0:0:
432,40,70225,2,0,B|488:136|408:136|480:256,1,200,2|8,0:3|0:0,0:0:0:0:
280,352,70774,5,0,0:0:0:0:
64,192,70957,1,2,0:3:0:0:
376,80,71140,1,0,0:0:0:0:
64,192,71323,1,8,0:0:0:0:
376,80,71506,1,0,0:0:0:0:
64,192,71689,1,2,0:3:0:0:
376,80,71872,1,0,0:0:0:0:
256,304,72055,5,8,0:0:0:0:
256,56,72238,1,0,0:0:0:0:
176,271,72420,1,2,0:3:0:0:
352,95,72603,1,0,0:0:0:0:
144,192,72786,1,8,0:0:0:0:
392,191,72969,1,8,0:0:0:0:
240,72,73132,2,0,P|136:88|56:32,1,200,2|8,0:3|0:0,0:0:0:0:
96,320,73680,5,0,0:0:0:0:
96,320,73863,1,2,0:3:0:0:
272,144,74046,1,0,0:0:0:0:
272,144,74229,1,8,0:0:0:0:
232,352,74412,1,0,0:0:0:0:
72,112,74595,1,2,0:3:0:0:
320,240,74778,5,0,0:0:0:0:
48,328,74960,1,8,0:0:0:0:
224,96,75143,1,0,0:0:0:0:
384,328,75326,1,2,0:3:0:0:
208,264,75509,1,0,0:0:0:0:
384,168,75692,1,8,0:0:0:0:
248,32,75875,1,0,0:0:0:0:
168,168,76058,5,2,0:3:0:0:
336,88,76241,1,0,0:0:0:0:
152,48,76424,1,8,0:0:0:0:
344,232,76607,1,0,0:0:0:0:
424,32,76790,1,2,0:3:0:0:
160,176,76973,1,0,0:0:0:0:
416,352,77156,1,8,0:0:0:0:
344,112,77339,1,0,0:0:0:0:
264,264,77521,6,0,P|224:296|160:320,1,100,2|0,0:3|0:0,0:0:0:0:
144,224,77887,2,0,P|100:197|55:145,1,100,8|0,0:0|0:0,0:0:0:0:
308,175,78253,2,0,P|291:223|249:277,1,100,2|0,0:3|0:0,0:0:0:0:
184,128,78619,1,8,0:0:0:0:
184,128,78802,1,0,0:0:0:0:
328,56,78985,2,0,P|408:80|512:16,1,200
432,208,79534,1,0,0:0:0:0:
296,120,79717,1,0,0:0:0:0:
112,320,80083,5,0,0:0:0:0:
64,200,80286,1,0,0:0:0:0:
184,248,80469,2,0,P|240:304|376:296,1,200
448,120,81201,5,0,0:0:0:0:
448,120,81384,2,0,P|360:128|456:80,1,300
104,320,82487,5,0,0:0:0:0:
256,192,82669,1,0,0:0:0:0:
120,64,83396,5,0,0:0:0:0:
120,64,83579,1,0,0:0:0:0:
184,136,83762,1,0,0:0:0:0:
184,136,83945,1,0,0:0:0:0:
240,56,84128,1,0,0:0:0:0:
240,56,84311,1,0,0:0:0:0:
304,128,84494,1,0,0:0:0:0:
304,128,84677,1,0,0:0:0:0:
360,48,84860,2,0,P|440:160|504:160,1,200
464,48,85408,5,0,0:0:0:0:
392,224,85591,1,2,0:3:0:0:
384,232,85683,1,2,0:3:0:0:
376,240,85774,1,2,0:3:0:0:
368,248,85866,1,2,0:3:0:0:
334,274,85957,1,2,0:3:0:0:
294,288,86048,1,2,0:3:0:0:
251,284,86140,1,2,0:3:0:0:
210,273,86231,1,2,0:3:0:0:
166,269,86323,1,2,0:3:0:0:
272,80,86567,5,0,0:0:0:0:
48,216,86811,1,0,0:0:0:0:
128,64,87238,5,8,0:1:0:0:
145,53,87329,1,8,0:1:0:0:
160,48,87420,1,2,0:3:0:0:
209,47,87511,1,2,0:3:0:0:
251,72,87602,1,2,0:3:0:0:
274,117,87694,1,2,0:3:0:0:
288,165,87785,1,2,0:3:0:0:
176,320,88030,1,0,0:0:0:0:
408,160,88274,1,0,0:0:0:0:
256,192,89250,5,0,0:0:0:0:
96,80,96513,5,0,0:0:0:0:
96,80,96696,1,0,0:0:0:0:
128,272,97245,1,8,0:1:0:0:
144,96,97610,6,0,L|192:56,1,55.0000016784668
256,120,97976,2,0,L|304:80,1,55.0000016784668
376,136,98342,2,0,L|424:96,1,55.0000016784668
456,224,98708,1,8,0:1:0:0:
360,264,98891,1,0,0:0:0:0:
360,264,99073,1,0,0:0:0:0:
104,288,99256,6,0,L|64:336,1,55.0000016784668
88,184,99622,2,0,L|48:232,1,55.0000016784668
88,96,99988,1,0,0:0:0:0:
176,144,100171,2,0,P|248:120|296:120,1,110.000003356934,8|0,0:1|0:0,0:0:0:0:
240,208,100720,1,0,0:0:0:0:
256,48,100903,2,0,L|320:16,1,55.0000016784668
376,96,101269,6,0,L|440:64,1,55.0000016784668
376,200,101634,2,0,L|440:168,1,55.0000016784668,8|0,0:1|0:0,0:0:0:0:
392,288,102000,1,0,0:0:0:0:
440,256,102183,1,0,0:0:0:0:
272,336,102366,6,0,L|208:360,1,55.0000016784668
168,280,102732,2,0,L|104:304,1,55.0000016784668
176,176,103098,1,8,0:1:0:0:
256,232,103281,1,0,0:0:0:0:
288,136,103464,1,0,0:0:0:0:
368,192,103647,1,0,0:0:0:0:
440,48,103830,6,0,L|384:32,2,55.0000016784668
400,128,104378,2,0,L|456:112,2,55.0000016784668,0|8|0,0:0|0:1|0:0,0:0:0:0:
448,208,104927,2,0,L|392:192,1,55.0000016784668
296,320,105293,1,0,0:0:0:0:
168,120,105476,1,0,0:0:0:0:
136,264,107671,5,2,0:3:0:0:
136,256,107762,1,2,0:3:0:0:
136,248,107854,1,2,0:3:0:0:
197,237,107945,1,2,0:3:0:0:
259,240,108036,1,2,0:3:0:0:
320,255,108128,1,2,0:3:0:0:
376,288,108220,2,0,P|432:248|448:152,1,150.000005722046,2|8,0:3|0:0,0:0:0:0:
312,88,108769,5,0,0:0:0:0:
432,64,108952,2,0,L|496:16,1,75.0000028610231,2|0,0:3|0:0,0:0:0:0:
304,184,109317,2,0,L|240:136,1,75.0000028610231,8|0,0:0|0:0,0:0:0:0:
152,272,109683,1,2,0:3:0:0:
296,272,109866,1,0,0:0:0:0:
88,176,110049,1,8,0:0:0:0:
56,360,110232,6,0,P|112:352|136:336,1,75.0000028610231,0|2,0:0|0:3,0:0:0:0:
176,280,110598,2,0,P|120:270|92:278,1,75.0000028610231,0|8,0:0|0:0,0:0:0:0:
127,343,110964,2,0,P|182:352|210:344,1,75.0000028610231,0|2,0:0|0:3,0:0:0:0:
288,216,111330,1,0,0:0:0:0:
288,216,111512,5,8,0:0:0:0:
136,48,111695,1,0,0:0:0:0:
288,320,111878,1,2,0:3:0:0:
360,64,112061,1,0,0:0:0:0:
128,176,112244,1,8,0:0:0:0:
392,256,112427,2,0,P|432:192|432:120,1,150.000005722046
288,176,112976,5,8,0:0:0:0:
152,48,113159,2,0,P|80:64|72:72,1,75.0000028610231,0|2,0:0|0:3,0:0:0:0:
120,256,113525,2,0,P|192:240|200:232,1,75.0000028610231,0|8,0:0|0:0,0:0:0:0:
64,152,113891,1,0,0:0:0:0:
80,336,114073,2,0,B|144:360|152:304|248:328,1,150.000005722046,2|8,0:3|0:0,0:0:0:0:
408,328,114622,1,0,0:0:0:0:
328,144,114805,6,0,L|256:192,1,75.0000028610231,2|0,0:3|0:0,0:0:0:0:
176,104,115171,2,0,L|128:176,1,75.0000028610231,8|0,0:0|0:0,0:0:0:0:
80,344,115537,1,2,0:3:0:0:
352,248,115720,1,0,0:0:0:0:
48,176,115903,1,8,0:0:0:0:
224,360,116086,1,0,0:0:0:0:
232,112,116269,1,2,0:3:0:0:
400,336,116452,1,0,0:0:0:0:
120,192,116634,6,0,P|120:136|32:80,1,150.000005722046,8|2,0:0|0:3,0:0:0:0:
272,40,117183,1,0,0:0:0:0:
192,312,117366,1,8,0:0:0:0:
176,88,117549,1,0,0:0:0:0:
432,192,117732,1,2,0:3:0:0:
192,184,117915,1,0,0:0:0:0:
368,56,118098,2,0,P|416:104|512:88,1,150.000005722046,8|2,0:0|0:3,0:0:0:0:
93,143,119927,6,0,L|66:65,2,75.0000028610231,2|0|8,0:3|0:0|0:0,0:0:0:0:
249,266,120476,2,0,L|276:344,2,75.0000028610231,0|2|0,0:0|0:3|0:0,0:0:0:0:
115,350,121025,1,8,0:0:0:0:
176,194,121208,1,0,0:0:0:0:
337,244,121391,2,0,P|401:219|413:131,1,150.000005722046,2|8,0:3|0:0,0:0:0:0:
239,282,121939,1,0,0:0:0:0:
447,353,122122,5,2,0:3:0:0:
278,125,122305,1,0,0:0:0:0:
308,345,122488,1,8,0:0:0:0:
367,96,122671,1,0,0:0:0:0:
416,275,122854,1,2,0:3:0:0:
279,47,123037,1,0,0:0:0:0:
178,206,123220,2,0,P|86:186|49:140,1,150.000005722046,8|2,0:0|0:3,0:0:0:0:
176,60,123769,5,0,0:0:0:0:
81,336,123952,1,8,0:0:0:0:
74,108,124134,1,0,0:0:0:0:
232,261,124317,2,0,L|297:327,2,75.0000028610231,2|0|8,0:3|0:0|0:0,0:0:0:0:
351,64,124866,1,0,0:0:0:0:
381,318,125049,1,2,0:3:0:0:
236,112,125232,1,0,0:0:0:0:
455,207,125415,1,8,0:0:0:0:
263,315,125598,1,8,0:0:0:0:
331,84,125781,6,0,P|279:42|176:47,1,150.000005722046,2|8,0:3|0:0,0:0:0:0:
149,263,126330,2,0,L|66:217,1,75.0000028610231,0|2,0:0|0:3,0:0:0:0:
187,162,126695,2,0,L|270:116,1,75.0000028610231,0|8,0:0|0:0,0:0:0:0:
215,318,127061,1,0,0:0:0:0:
71,192,127244,2,0,P|68:104|24:53,1,150.000005722046,2|8,0:3|0:0,0:0:0:0:
205,57,127793,6,0,P|254:82|266:122,1,75.0000028610231,0|2,0:0|0:3,0:0:0:0:
226,191,128159,2,0,P|198:143|210:103,1,75.0000028610231,0|8,0:0|0:0,0:0:0:0:
401,258,128525,1,0,0:0:0:0:
478,78,128708,2,0,P|391:84|336:133,1,150.000005722046,2|8,0:3|0:0,0:0:0:0:
150,72,129256,5,0,0:0:0:0:
150,72,129439,2,0,L|94:144,1,75.0000028610231,2|0,0:3|0:0,0:0:0:0:
61,314,129805,1,8,0:0:0:0:
176,188,129988,1,0,0:0:0:0:
231,339,130171,5,2,0:3:0:0:
231,339,130537,1,0,0:0:0:0:
459,62,130903,1,0,0:0:0:0:
459,62,131269,1,0,0:0:0:0:
253,190,131634,1,0,0:0:0:0:
94,332,132008,6,0,L|71:275,1,50
141,134,132373,2,0,L|164:191,1,50
223,324,132739,2,0,L|200:267,1,50
270,126,133104,2,0,L|293:183,1,50
358,324,133471,2,0,L|335:267,1,50
405,126,133836,2,0,L|428:183,1,50
458,343,134203,6,0,P|427:312|421:293,1,50
381,329,134477,1,0,0:0:0:0:
329,336,134568,2,0,P|317:293|321:274,1,50
223,253,134934,2,0,P|234:210|247:195,1,50
164,137,135299,2,0,P|195:106|214:100,1,50
322,56,135666,5,0,0:0:0:0:
322,56,135849,1,0,0:0:0:0:
391,159,136032,1,0,0:0:0:0:
432,47,136215,1,0,0:0:0:0:
486,193,136398,2,0,L|456:250,1,50
317,286,136764,6,0,L|281:247,1,50
189,240,137129,2,0,L|153:201,1,50
177,173,137404,1,0,0:0:0:0:
211,142,137495,2,0,L|175:103,1,50
83,96,137860,2,0,L|47:57,1,50
264,62,138227,6,0,L|324:36,1,50
370,116,138593,2,0,L|430:90,1,50
330,222,138959,2,0,L|390:196,1,50
436,276,139325,2,0,L|496:250,1,50
418,153,139690,1,0,0:0:0:0:
367,330,139873,1,0,0:0:0:0:
251,221,140056,6,0,L|187:247,1,50
112,279,140422,2,0,L|48:305,1,50
220,134,140788,2,0,L|156:160,1,50
81,192,141154,2,0,L|17:218,1,50
128,85,141520,2,0,L|190:59,1,50
219,352,141862,5,8,0:2:0:0:
43,110,142044,1,8,0:2:0:0:
339,79,142227,1,8,0:2:0:0:
107,327,142410,1,8,0:2:0:0:
153,31,142592,1,8,0:2:0:0:
424,232,143325,6,0,P|332:240|289:282,1,150.000005722046,2|8,0:3|0:0,0:0:0:0:
394,343,143874,1,0,0:0:0:0:
429,122,144057,2,0,P|462:105|502:68,1,75.0000028610231,2|0,0:3|0:0,0:0:0:0:
263,67,144422,2,0,P|230:84|190:121,1,75.0000028610231,8|0,0:0|0:0,0:0:0:0:
260,292,144788,2,0,P|293:275|333:238,1,75.0000028610231,2|0,0:3|0:0,0:0:0:0:
94,237,145153,2,0,P|61:254|21:291,1,75.0000028610231,8|0,0:0|0:0,0:0:0:0:
146,343,145520,5,2,0:3:0:0:
193,92,145703,1,0,0:0:0:0:
213,284,145886,1,8,0:0:0:0:
109,43,146069,1,0,0:0:0:0:
133,227,146252,1,2,0:3:0:0:
267,0,146435,1,0,0:0:0:0:
393,193,146618,2,0,P|351:274|398:334,1,150.000005722046,8|2,0:0|0:3,0:0:0:0:
470,198,147166,1,0,0:0:0:0:
252,330,147349,6,0,L|194:275,1,75.0000028610231,8|0,0:0|0:0,0:0:0:0:
174,93,147715,2,0,L|232:148,1,75.0000028610231,2|0,0:3|0:0,0:0:0:0:
77,345,148081,1,8,0:0:0:0:
100,51,148264,1,0,0:0:0:0:
243,262,148447,1,2,0:3:0:0:
28,120,148630,1,0,0:0:0:0:
346,62,148813,1,8,0:0:0:0:
94,250,148996,1,0,0:0:0:0:
200,49,149179,6,0,P|259:107|336:133,1,150.000005722046,2|8,0:3|0:0,0:0:0:0:
473,32,149727,1,0,0:0:0:0:
308,345,149910,1,2,0:3:0:0:
241,85,150093,1,0,0:0:0:0:
462,218,150276,1,8,0:0:0:0:
196,283,150459,1,0,0:0:0:0:
102,102,150642,6,0,P|63:140|77:193,1,104.999996795654,8|0,0:2|0:0,0:0:0:0:
98,244,150916,2,0,P|137:206|126:155,1,104.999996795654,2|0,0:3|0:0,0:0:0:0:
102,102,151191,2,0,P|63:140|74:191,1,104.999996795654,8|0,0:1|0:0,0:0:0:0:
159,351,151557,1,0,0:0:0:0:
235,165,151740,2,0,L|182:68,1,104.999996795654,8|0,0:0|0:0,0:0:0:0:
434,144,152105,5,2,0:3:0:0:
284,342,152288,1,0,0:0:0:0:
314,144,152471,1,8,0:0:0:0:
445,307,152654,1,0,0:0:0:0:
173,274,152837,2,0,P|101:181|11:158,1,209.999993591309,2|8,0:3|0:0,0:0:0:0:
96,335,153386,1,0,0:0:0:0:
304,62,153569,5,8,0:0:0:0:
97,192,153752,1,2,0:3:0:0:
300,298,153935,1,8,0:0:0:0:
98,44,154118,1,2,0:3:0:0:
86,356,154301,1,8,0:0:0:0:
424,159,154483,1,2,0:3:0:0:
69,140,154666,1,8,0:0:0:0:
271,353,154849,1,2,0:3:0:0:
321,68,155032,2,0,B|229:117|230:117|230:117|176:239,1,209.999993591309,8|2,0:0|0:3,0:0:0:0:
70,41,155581,5,0,0:0:0:0:
363,304,155764,1,8,0:0:0:0:
222,35,155947,1,0,0:0:0:0:
61,276,156130,1,2,0:3:0:0:
354,126,156313,2,0,B|426:99|426:99|451:65,1,100,0|8,0:0|0:0,0:0:0:0:
213,42,156679,2,0,B|141:69|141:69|116:103,1,100,0|2,0:0|0:3,0:0:0:0:
192,340,157044,5,0,0:0:0:0:
320,68,157227,1,8,0:0:0:0:
265,343,157410,1,0,0:0:0:0:
247,58,157593,1,2,0:3:0:0:
340,347,157776,1,0,0:0:0:0:
59,266,157959,2,0,P|38:157|97:72,1,200,8|2,0:0|0:3,0:0:0:0:
199,334,158508,1,0,0:0:0:0:
272,79,158691,5,8,0:0:0:0:
113,324,158874,1,0,0:0:0:0:
386,224,159057,1,2,0:3:0:0:
96,188,159240,1,0,0:0:0:0:
392,138,159422,1,8,0:0:0:0:
188,347,159605,1,0,0:0:0:0:
168,143,159788,6,0,B|127:102|127:102|51:97,1,100,2|0,0:3|0:0,0:0:0:0:
140,233,160154,2,0,B|181:274|181:274|257:279,1,100,8|0,0:0|0:0,0:0:0:0:
369,222,160520,2,0,B|328:181|328:181|252:176,1,100,2|0,0:3|0:0,0:0:0:0:
374,356,160886,2,0,B|446:344|446:344|450:262|511:211,1,200,8|2,0:0|0:3,0:0:0:0:
67,212,161435,1,0,0:0:0:0:
386,262,161618,1,8,0:0:0:0:
157,33,161801,1,0,0:0:0:0:
208,353,161983,1,2,0:3:0:0:
355,65,162166,1,0,0:0:0:0:
170,139,162349,6,0,P|81:239|7:221,1,200,8|2,0:0|0:3,0:0:0:0:
109,22,162898,1,0,0:0:0:0:
268,304,163081,1,8,0:0:0:0:
26,124,163264,1,0,0:0:0:0:
379,52,163447,1,2,0:3:0:0:
176,339,163630,1,0,0:0:0:0:
120,82,163813,2,0,P|213:90|313:43,1,200,8|2,0:0|0:3,0:0:0:0:
410,242,164361,5,0,0:0:0:0:
281,342,164544,1,8,0:0:0:0:
281,244,164727,1,0,0:0:0:0:
152,344,164910,1,2,0:3:0:0:
159,249,165093,1,0,0:0:0:0:
30,349,165276,1,8,0:0:0:0:
107,159,165459,6,0,B|106:108|106:108|81:54,1,100,0|2,0:0|0:3,0:0:0:0:
255,260,165825,2,0,B|256:311|256:311|281:365,1,100,0|8,0:0|0:0,0:0:0:0:
182,154,166191,2,0,B|181:103|181:103|156:49,1,100,0|2,0:0|0:3,0:0:0:0:
345,259,166557,2,0,B|346:310|346:310|371:364,1,100,0|8,0:0|0:0,0:0:0:0:
122,152,167105,5,0,0:0:0:0:
197,92,167288,1,0,0:0:0:0:
273,37,167471,1,0,0:0:0:0:
413,258,167837,5,0,0:0:0:0:
408,353,168020,1,0,0:0:0:0:
324,312,168203,1,0,0:0:0:0:
131,310,168569,1,0,0:0:0:0:
84,62,168935,5,0,0:0:0:0:
162,112,169118,1,0,0:0:0:0:
87,164,169301,1,0,0:0:0:0:
164,221,169483,1,0,0:0:0:0:
86,270,169666,1,0,0:0:0:0:
359,69,170032,5,0,0:0:0:0:
429,138,170215,1,0,0:0:0:0:
387,225,170398,1,0,0:0:0:0:
104,328,171130,5,0,0:0:0:0:
144,168,171313,1,0,0:0:0:0:
176,344,171496,1,0,0:0:0:0:
216,184,171679,1,0,0:0:0:0:
248,352,171861,1,0,0:0:0:0:
288,192,172044,1,0,0:0:0:0:
320,368,172227,1,0,0:0:0:0:
360,208,172410,1,0,0:0:0:0:
240,264,172593,1,0,0:0:0:0:
72,72,172959,5,0,0:0:0:0:
112,192,173142,1,0,0:0:0:0:
48,296,173325,1,8,0:1:0:0:
56,304,173416,1,8,0:1:0:0:
64,312,173508,1,8,0:1:0:0:
72,320,173599,1,2,0:3:0:0:
120,332,173690,1,2,0:3:0:0:
169,336,173781,1,2,0:3:0:0:
218,323,173873,1,2,0:3:0:0:
263,303,173964,1,2,0:3:0:0:
312,295,174056,1,2,0:3:0:0:
368,120,174331,1,0,0:0:0:0:
160,160,174605,1,0,0:0:0:0:
368,320,174971,5,8,0:1:0:0:
376,312,175063,1,8,0:1:0:0:
384,304,175154,1,8,0:1:0:0:
359,268,175245,1,2,0:3:0:0:
347,228,175336,1,2,0:3:0:0:
351,185,175428,1,2,0:3:0:0:
362,144,175519,1,2,0:3:0:0:
144,240,175794,1,0,0:0:0:0:
288,48,176069,1,0,0:0:0:0:
256,192,176618,5,0,0:0:0:0:
96,216,176983,2,0,P|72:128|160:232,1,400
256,192,178493,12,0,184118,0:0:0:0:
