osu file format v14

[General]
AudioFilename: audio.mp3
AudioLeadIn: 0
PreviewTime: -1
Countdown: 0
SampleSet: None
StackLeniency: 0.7
Mode: 3
LetterboxInBreaks: 0
SpecialStyle: 0
WidescreenStoryboard: 1

[Editor]
Bookmarks: 28947,41747,67347,92947,118547,144147,160147
DistanceSpacing: 0.6
BeatDivisor: 6
GridSize: 8
TimelineZoom: 1

[Metadata]
Title:W strone slonca (Biesiadny Hardstyle Remix)
TitleUnicode:W strone slonca (Biesiadny Hardstyle Remix)
Artist:Ewelina Lisowska
ArtistUnicode:Ewelina Lisowska
Creator:SitekX
Version:Rozpedzony
Source:
Tags:hard style polish dump ale kurwa dojebana mapa polecam serdecznie
BeatmapID:1963172
BeatmapSetID:939930

[Difficulty]
HPDrainRate:8
CircleSize:4
OverallDifficulty:8
ApproachRate:5
SliderMultiplier:1.4
SliderTickRate:1

[Events]
//Background and Video events
0,0,"IMG_20170604_121617.jpg",0,0
//Break Periods
//Storyboard Layer 0 (Background)
//Storyboard Layer 1 (Fail)
//Storyboard Layer 2 (Pass)
//Storyboard Layer 3 (Foreground)
//Storyboard Sound Samples

[TimingPoints]
147,400,4,1,0,5,1,0

[HitObjects]
320,192,147,5,0,0:0:0:0:
192,192,347,1,0,0:0:0:0:
448,192,547,1,0,0:0:0:0:
64,192,547,1,0,0:0:0:0:
320,192,747,1,0,0:0:0:0:
192,192,947,1,0,0:0:0:0:
448,192,947,1,0,0:0:0:0:
64,192,1247,1,0,0:0:0:0:
192,192,1347,1,0,0:0:0:0:
320,192,1347,1,0,0:0:0:0:
448,192,1547,1,0,0:0:0:0:
192,192,1747,5,0,0:0:0:0:
64,192,1747,1,0,0:0:0:0:
448,192,1947,1,0,0:0:0:0:
64,192,2147,1,0,0:0:0:0:
320,192,2147,1,0,0:0:0:0:
192,192,2347,1,0,0:0:0:0:
320,192,2547,1,0,0:0:0:0:
448,192,2547,1,0,0:0:0:0:
64,192,2847,1,0,0:0:0:0:
448,192,2947,1,0,0:0:0:0:
192,192,2947,1,0,0:0:0:0:
320,192,3147,1,0,0:0:0:0:
64,192,3347,5,0,0:0:0:0:
448,192,3347,1,0,0:0:0:0:
320,192,3547,1,0,0:0:0:0:
448,192,3747,1,0,0:0:0:0:
64,192,3747,1,0,0:0:0:0:
192,192,3947,1,0,0:0:0:0:
448,192,4147,1,0,0:0:0:0:
320,192,4147,1,0,0:0:0:0:
192,192,4447,1,0,0:0:0:0:
64,192,4547,1,0,0:0:0:0:
320,192,4547,1,0,0:0:0:0:
448,192,4747,1,0,0:0:0:0:
320,192,4947,5,0,0:0:0:0:
192,192,4947,1,0,0:0:0:0:
64,192,5247,1,0,0:0:0:0:
448,192,5347,1,0,0:0:0:0:
320,192,5347,1,0,0:0:0:0:
192,192,5547,1,0,0:0:0:0:
320,192,5547,1,0,0:0:0:0:
64,192,5747,1,0,0:0:0:0:
448,192,5747,1,0,0:0:0:0:
192,192,5847,1,0,0:0:0:0:
192,192,6147,1,0,0:0:0:0:
64,192,6147,1,0,0:0:0:0:
448,192,6147,1,0,0:0:0:0:
320,192,6347,1,0,0:0:0:0:
192,192,6447,1,0,0:0:0:0:
64,192,6547,1,0,0:0:0:0:
448,192,6547,1,0,0:0:0:0:
320,192,6747,1,0,0:0:0:0:
64,192,6947,1,0,0:0:0:0:
192,192,6947,1,0,0:0:0:0:
448,192,7147,1,0,0:0:0:0:
320,192,7347,1,0,0:0:0:0:
64,192,7347,1,0,0:0:0:0:
192,192,7647,1,0,0:0:0:0:
448,192,7747,1,0,0:0:0:0:
320,192,7747,1,0,0:0:0:0:
64,192,7947,1,0,0:0:0:0:
192,192,8147,5,0,0:0:0:0:
448,192,8147,1,0,0:0:0:0:
320,192,8347,1,0,0:0:0:0:
448,192,8547,1,0,0:0:0:0:
64,192,8547,1,0,0:0:0:0:
192,192,8747,1,0,0:0:0:0:
448,192,8947,1,0,0:0:0:0:
320,192,8947,1,0,0:0:0:0:
64,192,9247,1,0,0:0:0:0:
192,192,9347,1,0,0:0:0:0:
448,192,9347,1,0,0:0:0:0:
320,192,9547,1,0,0:0:0:0:
64,192,9647,1,0,0:0:0:0:
320,192,9747,5,0,0:0:0:0:
448,192,9747,1,0,0:0:0:0:
192,192,9947,1,0,0:0:0:0:
64,192,10147,1,0,0:0:0:0:
448,192,10147,1,0,0:0:0:0:
320,192,10347,1,0,0:0:0:0:
192,192,10547,1,0,0:0:0:0:
64,192,10547,1,0,0:0:0:0:
448,192,10847,1,0,0:0:0:0:
320,192,10947,1,0,0:0:0:0:
192,192,10947,1,0,0:0:0:0:
64,192,11147,1,0,0:0:0:0:
320,192,11347,5,0,0:0:0:0:
448,192,11347,1,0,0:0:0:0:
64,192,11647,1,0,0:0:0:0:
448,192,11747,1,0,0:0:0:0:
192,192,11747,1,0,0:0:0:0:
320,192,11947,1,0,0:0:0:0:
448,192,11947,1,0,0:0:0:0:
192,192,12147,1,0,0:0:0:0:
64,192,12147,1,0,0:0:0:0:
320,192,12247,1,0,0:0:0:0:
64,192,12547,1,0,0:0:0:0:
320,192,12547,1,0,0:0:0:0:
448,192,12547,1,0,0:0:0:0:
192,192,12747,1,0,0:0:0:0:
64,192,12947,1,0,0:0:0:0:
448,192,12947,1,0,0:0:0:0:
320,192,12947,1,0,0:0:0:0:
192,192,13013,1,0,0:0:0:0:
448,192,13080,1,0,0:0:0:0:
320,192,13147,1,0,0:0:0:0:
448,192,13347,1,0,0:0:0:0:
192,192,13347,1,0,0:0:0:0:
64,192,13347,1,0,0:0:0:0:
320,192,13413,1,0,0:0:0:0:
64,192,13480,1,0,0:0:0:0:
448,192,13547,1,0,0:0:0:0:
192,192,13747,1,0,0:0:0:0:
320,192,13747,1,0,0:0:0:0:
64,192,13747,1,0,0:0:0:0:
448,192,13813,1,0,0:0:0:0:
192,192,13880,1,0,0:0:0:0:
320,192,13947,1,0,0:0:0:0:
192,192,14147,1,0,0:0:0:0:
448,192,14147,1,0,0:0:0:0:
64,192,14147,1,0,0:0:0:0:
320,192,14213,1,0,0:0:0:0:
448,192,14280,1,0,0:0:0:0:
192,192,14347,1,0,0:0:0:0:
448,192,14547,1,0,0:0:0:0:
320,192,14547,1,0,0:0:0:0:
64,192,14547,1,0,0:0:0:0:
192,192,14613,1,0,0:0:0:0:
64,192,14680,1,0,0:0:0:0:
448,192,14747,1,0,0:0:0:0:
320,192,14947,1,0,0:0:0:0:
192,192,14947,1,0,0:0:0:0:
64,192,14947,1,0,0:0:0:0:
448,192,15013,1,0,0:0:0:0:
320,192,15080,1,0,0:0:0:0:
64,192,15147,1,0,0:0:0:0:
320,192,15347,1,0,0:0:0:0:
448,192,15347,1,0,0:0:0:0:
192,192,15347,1,0,0:0:0:0:
64,192,15413,1,0,0:0:0:0:
320,192,15480,1,0,0:0:0:0:
192,192,15547,1,0,0:0:0:0:
448,192,15747,1,0,0:0:0:0:
64,192,15747,1,0,0:0:0:0:
320,192,15747,1,0,0:0:0:0:
192,192,15813,1,0,0:0:0:0:
64,192,15880,1,0,0:0:0:0:
320,192,15947,1,0,0:0:0:0:
448,192,16147,1,0,0:0:0:0:
192,192,16147,1,0,0:0:0:0:
64,192,16147,1,0,0:0:0:0:
320,192,16213,1,0,0:0:0:0:
448,192,16280,1,0,0:0:0:0:
192,192,16347,1,0,0:0:0:0:
448,192,16547,1,0,0:0:0:0:
64,192,16547,1,0,0:0:0:0:
320,192,16547,1,0,0:0:0:0:
192,192,16613,1,0,0:0:0:0:
320,192,16680,1,0,0:0:0:0:
448,192,16747,1,0,0:0:0:0:
320,192,16947,1,0,0:0:0:0:
64,192,16947,1,0,0:0:0:0:
192,192,16947,1,0,0:0:0:0:
448,192,17013,1,0,0:0:0:0:
192,192,17080,1,0,0:0:0:0:
64,192,17147,1,0,0:0:0:0:
320,192,17347,1,0,0:0:0:0:
448,192,17347,1,0,0:0:0:0:
192,192,17347,1,0,0:0:0:0:
64,192,17413,1,0,0:0:0:0:
448,192,17480,1,0,0:0:0:0:
192,192,17547,1,0,0:0:0:0:
64,192,17747,1,0,0:0:0:0:
448,192,17747,1,0,0:0:0:0:
320,192,17747,1,0,0:0:0:0:
192,192,17813,1,0,0:0:0:0:
448,192,17880,1,0,0:0:0:0:
320,192,17947,1,0,0:0:0:0:
448,192,18147,1,0,0:0:0:0:
192,192,18147,1,0,0:0:0:0:
64,192,18147,1,0,0:0:0:0:
320,192,18213,1,0,0:0:0:0:
64,192,18280,1,0,0:0:0:0:
448,192,18347,1,0,0:0:0:0:
192,192,18547,1,0,0:0:0:0:
320,192,18547,1,0,0:0:0:0:
64,192,18547,1,0,0:0:0:0:
448,192,18613,1,0,0:0:0:0:
192,192,18680,1,0,0:0:0:0:
320,192,18747,1,0,0:0:0:0:
192,192,18947,1,0,0:0:0:0:
448,192,18947,1,0,0:0:0:0:
64,192,18947,1,0,0:0:0:0:
320,192,19013,1,0,0:0:0:0:
448,192,19080,1,0,0:0:0:0:
192,192,19147,1,0,0:0:0:0:
448,192,19347,1,0,0:0:0:0:
320,192,19347,1,0,0:0:0:0:
64,192,19347,1,0,0:0:0:0:
192,192,19413,1,0,0:0:0:0:
64,192,19480,1,0,0:0:0:0:
448,192,19547,1,0,0:0:0:0:
320,192,19547,1,0,0:0:0:0:
320,192,19747,1,0,0:0:0:0:
192,192,19747,1,0,0:0:0:0:
64,192,19747,1,0,0:0:0:0:
448,192,19813,1,0,0:0:0:0:
320,192,19880,1,0,0:0:0:0:
64,192,19947,1,0,0:0:0:0:
192,192,19947,1,0,0:0:0:0:
320,192,20147,1,0,0:0:0:0:
448,192,20147,1,0,0:0:0:0:
192,192,20147,1,0,0:0:0:0:
64,192,20213,1,0,0:0:0:0:
320,192,20280,1,0,0:0:0:0:
192,192,20347,1,0,0:0:0:0:
448,192,20347,1,0,0:0:0:0:
448,192,20547,1,0,0:0:0:0:
64,192,20547,1,0,0:0:0:0:
320,192,20547,1,0,0:0:0:0:
192,192,20613,1,0,0:0:0:0:
64,192,20680,1,0,0:0:0:0:
320,192,20747,1,0,0:0:0:0:
448,192,20747,1,0,0:0:0:0:
448,192,20947,1,0,0:0:0:0:
192,192,20947,1,0,0:0:0:0:
64,192,20947,1,0,0:0:0:0:
320,192,21013,1,0,0:0:0:0:
448,192,21080,1,0,0:0:0:0:
192,192,21147,1,0,0:0:0:0:
64,192,21147,1,0,0:0:0:0:
448,192,21347,1,0,0:0:0:0:
64,192,21347,1,0,0:0:0:0:
320,192,21347,1,0,0:0:0:0:
192,192,21413,1,0,0:0:0:0:
320,192,21480,1,0,0:0:0:0:
448,192,21547,1,0,0:0:0:0:
64,192,21547,1,0,0:0:0:0:
320,192,21747,1,0,0:0:0:0:
64,192,21747,1,0,0:0:0:0:
192,192,21747,1,0,0:0:0:0:
448,192,21813,1,0,0:0:0:0:
192,192,21880,1,0,0:0:0:0:
64,192,21947,1,0,0:0:0:0:
320,192,21947,1,0,0:0:0:0:
320,192,22147,1,0,0:0:0:0:
448,192,22147,1,0,0:0:0:0:
192,192,22147,1,0,0:0:0:0:
64,192,22213,1,0,0:0:0:0:
448,192,22280,1,0,0:0:0:0:
192,192,22347,1,0,0:0:0:0:
320,192,22347,1,0,0:0:0:0:
64,192,22547,1,0,0:0:0:0:
448,192,22547,1,0,0:0:0:0:
64,192,22647,1,0,0:0:0:0:
320,192,22747,1,0,0:0:0:0:
320,192,22847,1,0,0:0:0:0:
192,192,22947,1,0,0:0:0:0:
64,192,22947,1,0,0:0:0:0:
192,192,23047,1,0,0:0:0:0:
448,192,23147,1,0,0:0:0:0:
448,192,23247,1,0,0:0:0:0:
320,192,23347,1,0,0:0:0:0:
64,192,23347,1,0,0:0:0:0:
64,192,23447,1,0,0:0:0:0:
192,192,23547,1,0,0:0:0:0:
192,192,23647,1,0,0:0:0:0:
448,192,23747,1,0,0:0:0:0:
64,192,23747,1,0,0:0:0:0:
448,192,23847,1,0,0:0:0:0:
320,192,23947,1,0,0:0:0:0:
320,192,24047,1,0,0:0:0:0:
192,192,24147,1,0,0:0:0:0:
64,192,24147,1,0,0:0:0:0:
448,192,24213,1,0,0:0:0:0:
320,192,24280,1,0,0:0:0:0:
192,192,24347,1,0,0:0:0:0:
448,192,24413,1,0,0:0:0:0:
320,192,24480,1,0,0:0:0:0:
64,192,24547,1,0,0:0:0:0:
192,192,24613,1,0,0:0:0:0:
448,192,24680,1,0,0:0:0:0:
64,192,24747,1,0,0:0:0:0:
320,192,24813,1,0,0:0:0:0:
448,192,24880,1,0,0:0:0:0:
192,192,24947,1,0,0:0:0:0:
64,192,25013,1,0,0:0:0:0:
320,192,25080,1,0,0:0:0:0:
192,192,25147,1,0,0:0:0:0:
448,192,25213,1,0,0:0:0:0:
320,192,25280,1,0,0:0:0:0:
64,192,25347,1,0,0:0:0:0:
192,192,25413,1,0,0:0:0:0:
448,192,25480,1,0,0:0:0:0:
192,192,25547,1,0,0:0:0:0:
320,192,25613,1,0,0:0:0:0:
448,192,25680,1,0,0:0:0:0:
64,192,25747,1,0,0:0:0:0:
192,192,25747,1,0,0:0:0:0:
320,192,25813,1,0,0:0:0:0:
448,192,25880,1,0,0:0:0:0:
64,192,25947,1,0,0:0:0:0:
192,192,26013,1,0,0:0:0:0:
320,192,26080,1,0,0:0:0:0:
320,192,28947,128,0,29347:0:0:0:0:
64,192,29547,128,0,29647:0:0:0:0:
64,192,29747,128,0,30147:0:0:0:0:
192,192,30347,128,0,31747:0:0:0:0:
320,192,31747,1,0,0:0:0:0:
448,192,31772,1,0,0:0:0:0:
192,192,31947,1,0,0:0:0:0:
320,192,31972,1,0,0:0:0:0:
64,192,32147,128,0,32547:0:0:0:0:
192,192,32747,128,0,32847:0:0:0:0:
192,192,32947,128,0,33347:0:0:0:0:
448,192,33547,128,0,33647:0:0:0:0:
448,192,33747,128,0,34947:0:0:0:0:
192,192,34947,1,0,0:0:0:0:
320,192,34972,1,0,0:0:0:0:
64,192,35147,1,0,0:0:0:0:
448,192,35172,1,0,0:0:0:0:
320,192,35347,128,0,35747:0:0:0:0:
192,192,35347,128,0,35747:0:0:0:0:
192,192,35947,128,0,36547:0:0:0:0:
64,192,35947,128,0,36547:0:0:0:0:
64,192,36747,128,0,38147:0:0:0:0:
320,192,36747,128,0,38147:0:0:0:0:
192,192,38147,1,0,0:0:0:0:
448,192,38172,1,0,0:0:0:0:
64,192,38347,1,0,0:0:0:0:
320,192,38372,1,0,0:0:0:0:
192,192,38547,128,0,38947:0:0:0:0:
64,192,38547,128,0,38947:0:0:0:0:
320,192,39147,128,0,39747:0:0:0:0:
192,192,39147,128,0,39747:0:0:0:0:
320,192,39947,128,0,41647:0:0:0:0:
448,192,39947,128,0,41647:0:0:0:0:
64,192,41747,1,0,0:0:0:0:
448,192,41747,1,0,0:0:0:0:
320,192,41747,1,0,0:0:0:0:
192,192,41747,1,0,0:0:0:0:
64,192,41947,1,0,0:0:0:0:
64,192,42147,1,0,0:0:0:0:
320,192,42147,1,0,0:0:0:0:
64,192,42347,1,0,0:0:0:0:
192,192,42347,1,0,0:0:0:0:
448,192,42347,1,0,0:0:0:0:
64,192,42547,1,0,0:0:0:0:
320,192,42547,1,0,0:0:0:0:
64,192,42747,1,0,0:0:0:0:
64,192,42947,1,0,0:0:0:0:
320,192,42947,1,0,0:0:0:0:
64,192,43147,1,0,0:0:0:0:
64,192,43347,1,0,0:0:0:0:
320,192,43347,1,0,0:0:0:0:
192,192,43347,1,0,0:0:0:0:
448,192,43347,1,0,0:0:0:0:
64,192,43547,1,0,0:0:0:0:
64,192,43747,1,0,0:0:0:0:
320,192,43747,1,0,0:0:0:0:
64,192,43947,1,0,0:0:0:0:
192,192,43947,1,0,0:0:0:0:
448,192,43947,1,0,0:0:0:0:
64,192,44147,1,0,0:0:0:0:
320,192,44147,1,0,0:0:0:0:
64,192,44347,1,0,0:0:0:0:
64,192,44547,1,0,0:0:0:0:
320,192,44547,1,0,0:0:0:0:
64,192,44747,1,0,0:0:0:0:
320,192,44947,1,0,0:0:0:0:
192,192,44947,1,0,0:0:0:0:
448,192,44947,1,0,0:0:0:0:
64,192,44947,1,0,0:0:0:0:
320,192,45147,1,0,0:0:0:0:
320,192,45347,1,0,0:0:0:0:
192,192,45347,1,0,0:0:0:0:
320,192,45547,1,0,0:0:0:0:
64,192,45547,1,0,0:0:0:0:
448,192,45547,1,0,0:0:0:0:
320,192,45747,1,0,0:0:0:0:
192,192,45747,1,0,0:0:0:0:
320,192,45947,1,0,0:0:0:0:
320,192,46147,1,0,0:0:0:0:
192,192,46147,1,0,0:0:0:0:
320,192,46347,1,0,0:0:0:0:
320,192,46547,1,0,0:0:0:0:
64,192,46547,1,0,0:0:0:0:
192,192,46547,1,0,0:0:0:0:
448,192,46547,1,0,0:0:0:0:
320,192,46747,1,0,0:0:0:0:
320,192,46947,1,0,0:0:0:0:
192,192,46947,1,0,0:0:0:0:
320,192,47147,1,0,0:0:0:0:
64,192,47147,1,0,0:0:0:0:
448,192,47147,1,0,0:0:0:0:
320,192,47347,1,0,0:0:0:0:
192,192,47347,1,0,0:0:0:0:
320,192,47547,1,0,0:0:0:0:
448,192,47547,1,0,0:0:0:0:
320,192,47747,1,0,0:0:0:0:
192,192,47747,1,0,0:0:0:0:
320,192,47947,1,0,0:0:0:0:
64,192,48147,1,0,0:0:0:0:
448,192,48147,1,0,0:0:0:0:
320,192,48147,1,0,0:0:0:0:
192,192,48147,1,0,0:0:0:0:
192,192,48347,1,0,0:0:0:0:
192,192,48547,1,0,0:0:0:0:
320,192,48547,1,0,0:0:0:0:
192,192,48747,1,0,0:0:0:0:
64,192,48747,1,0,0:0:0:0:
448,192,48747,1,0,0:0:0:0:
192,192,48947,1,0,0:0:0:0:
320,192,48947,1,0,0:0:0:0:
192,192,49147,1,0,0:0:0:0:
192,192,49347,1,0,0:0:0:0:
320,192,49347,1,0,0:0:0:0:
192,192,49547,1,0,0:0:0:0:
192,192,49747,1,0,0:0:0:0:
320,192,49747,1,0,0:0:0:0:
64,192,49747,1,0,0:0:0:0:
448,192,49747,1,0,0:0:0:0:
192,192,49947,1,0,0:0:0:0:
192,192,50147,1,0,0:0:0:0:
320,192,50147,1,0,0:0:0:0:
192,192,50347,1,0,0:0:0:0:
64,192,50347,1,0,0:0:0:0:
448,192,50347,1,0,0:0:0:0:
192,192,50547,1,0,0:0:0:0:
320,192,50547,1,0,0:0:0:0:
192,192,50747,1,0,0:0:0:0:
192,192,50947,1,0,0:0:0:0:
320,192,50947,1,0,0:0:0:0:
192,192,51147,1,0,0:0:0:0:
448,192,51347,1,0,0:0:0:0:
64,192,51347,1,0,0:0:0:0:
320,192,51347,1,0,0:0:0:0:
192,192,51347,1,0,0:0:0:0:
448,192,51547,1,0,0:0:0:0:
448,192,51747,1,0,0:0:0:0:
192,192,51747,1,0,0:0:0:0:
448,192,51947,1,0,0:0:0:0:
64,192,51947,1,0,0:0:0:0:
320,192,51947,1,0,0:0:0:0:
448,192,52147,1,0,0:0:0:0:
192,192,52147,1,0,0:0:0:0:
448,192,52347,1,0,0:0:0:0:
448,192,52547,1,0,0:0:0:0:
192,192,52547,1,0,0:0:0:0:
448,192,52747,1,0,0:0:0:0:
448,192,52947,1,0,0:0:0:0:
64,192,52947,1,0,0:0:0:0:
192,192,52947,1,0,0:0:0:0:
320,192,52947,1,0,0:0:0:0:
448,192,53147,1,0,0:0:0:0:
448,192,53347,1,0,0:0:0:0:
192,192,53347,1,0,0:0:0:0:
448,192,53547,1,0,0:0:0:0:
64,192,53547,1,0,0:0:0:0:
320,192,53547,1,0,0:0:0:0:
448,192,53747,1,0,0:0:0:0:
192,192,53747,1,0,0:0:0:0:
448,192,53947,1,0,0:0:0:0:
64,192,53947,1,0,0:0:0:0:
192,192,53947,1,0,0:0:0:0:
448,192,54147,1,0,0:0:0:0:
64,192,54147,1,0,0:0:0:0:
448,192,54347,1,0,0:0:0:0:
64,192,54547,1,0,0:0:0:0:
320,192,54547,1,0,0:0:0:0:
192,192,54547,1,0,0:0:0:0:
448,192,54547,1,0,0:0:0:0:
320,192,54747,1,0,0:0:0:0:
64,192,54747,1,0,0:0:0:0:
64,192,54947,1,0,0:0:0:0:
320,192,54947,1,0,0:0:0:0:
192,192,54947,1,0,0:0:0:0:
320,192,55147,1,0,0:0:0:0:
64,192,55147,1,0,0:0:0:0:
448,192,55147,1,0,0:0:0:0:
64,192,55347,1,0,0:0:0:0:
320,192,55347,1,0,0:0:0:0:
192,192,55347,1,0,0:0:0:0:
320,192,55547,1,0,0:0:0:0:
64,192,55547,1,0,0:0:0:0:
64,192,55747,1,0,0:0:0:0:
320,192,55747,1,0,0:0:0:0:
192,192,55747,1,0,0:0:0:0:
320,192,55947,1,0,0:0:0:0:
64,192,55947,1,0,0:0:0:0:
448,192,56147,1,0,0:0:0:0:
320,192,56147,1,0,0:0:0:0:
64,192,56147,1,0,0:0:0:0:
192,192,56147,1,0,0:0:0:0:
192,192,56347,1,0,0:0:0:0:
320,192,56347,1,0,0:0:0:0:
192,192,56547,1,0,0:0:0:0:
320,192,56547,1,0,0:0:0:0:
64,192,56547,1,0,0:0:0:0:
448,192,56747,1,0,0:0:0:0:
192,192,56747,1,0,0:0:0:0:
320,192,56747,1,0,0:0:0:0:
320,192,56947,1,0,0:0:0:0:
64,192,56947,1,0,0:0:0:0:
192,192,56947,1,0,0:0:0:0:
192,192,57147,1,0,0:0:0:0:
320,192,57147,1,0,0:0:0:0:
192,192,57347,1,0,0:0:0:0:
320,192,57347,1,0,0:0:0:0:
64,192,57347,1,0,0:0:0:0:
320,192,57547,1,0,0:0:0:0:
192,192,57547,1,0,0:0:0:0:
64,192,57747,1,0,0:0:0:0:
192,192,57747,1,0,0:0:0:0:
448,192,57747,1,0,0:0:0:0:
320,192,57747,1,0,0:0:0:0:
448,192,57947,1,0,0:0:0:0:
64,192,57947,1,0,0:0:0:0:
64,192,58147,1,0,0:0:0:0:
448,192,58147,1,0,0:0:0:0:
320,192,58147,1,0,0:0:0:0:
192,192,58347,1,0,0:0:0:0:
64,192,58347,1,0,0:0:0:0:
448,192,58347,1,0,0:0:0:0:
320,192,58547,1,0,0:0:0:0:
64,192,58547,1,0,0:0:0:0:
448,192,58547,1,0,0:0:0:0:
448,192,58747,1,0,0:0:0:0:
64,192,58747,1,0,0:0:0:0:
64,192,58947,1,0,0:0:0:0:
448,192,58947,1,0,0:0:0:0:
320,192,58947,1,0,0:0:0:0:
64,192,59147,1,0,0:0:0:0:
448,192,59147,1,0,0:0:0:0:
64,192,59347,1,0,0:0:0:0:
192,192,59347,1,0,0:0:0:0:
448,192,59347,1,0,0:0:0:0:
320,192,59347,1,0,0:0:0:0:
448,192,59547,1,0,0:0:0:0:
192,192,59547,1,0,0:0:0:0:
64,192,59747,1,0,0:0:0:0:
192,192,59747,1,0,0:0:0:0:
448,192,59747,1,0,0:0:0:0:
320,192,59947,1,0,0:0:0:0:
448,192,59947,1,0,0:0:0:0:
192,192,59947,1,0,0:0:0:0:
192,192,60147,1,0,0:0:0:0:
448,192,60147,1,0,0:0:0:0:
64,192,60147,1,0,0:0:0:0:
448,192,60347,1,0,0:0:0:0:
192,192,60347,1,0,0:0:0:0:
64,192,60547,1,0,0:0:0:0:
192,192,60547,1,0,0:0:0:0:
448,192,60547,1,0,0:0:0:0:
192,192,60747,1,0,0:0:0:0:
448,192,60747,1,0,0:0:0:0:
64,192,60947,1,0,0:0:0:0:
320,192,60947,1,0,0:0:0:0:
64,192,61147,1,0,0:0:0:0:
448,192,61147,1,0,0:0:0:0:
448,192,61347,1,0,0:0:0:0:
320,192,61347,1,0,0:0:0:0:
192,192,61547,1,0,0:0:0:0:
320,192,61547,1,0,0:0:0:0:
64,192,61747,1,0,0:0:0:0:
192,192,61747,1,0,0:0:0:0:
64,192,61947,1,0,0:0:0:0:
320,192,61947,1,0,0:0:0:0:
192,192,62147,1,0,0:0:0:0:
320,192,62147,1,0,0:0:0:0:
192,192,62347,1,0,0:0:0:0:
448,192,62347,1,0,0:0:0:0:
448,192,62547,1,0,0:0:0:0:
64,192,62547,1,0,0:0:0:0:
64,192,62747,1,0,0:0:0:0:
320,192,62747,1,0,0:0:0:0:
192,192,62947,1,0,0:0:0:0:
320,192,62947,1,0,0:0:0:0:
192,192,63147,1,0,0:0:0:0:
64,192,63147,1,0,0:0:0:0:
64,192,63347,1,0,0:0:0:0:
448,192,63347,1,0,0:0:0:0:
448,192,63547,1,0,0:0:0:0:
320,192,63547,1,0,0:0:0:0:
192,192,63747,1,0,0:0:0:0:
320,192,63747,1,0,0:0:0:0:
192,192,63947,1,0,0:0:0:0:
448,192,63947,1,0,0:0:0:0:
64,192,64147,1,0,0:0:0:0:
448,192,64147,1,0,0:0:0:0:
64,192,64247,1,0,0:0:0:0:
320,192,64347,1,0,0:0:0:0:
320,192,64447,1,0,0:0:0:0:
192,192,64547,1,0,0:0:0:0:
64,192,64547,1,0,0:0:0:0:
192,192,64647,1,0,0:0:0:0:
448,192,64747,1,0,0:0:0:0:
448,192,64847,1,0,0:0:0:0:
320,192,64947,1,0,0:0:0:0:
64,192,64947,1,0,0:0:0:0:
64,192,65047,1,0,0:0:0:0:
192,192,65147,1,0,0:0:0:0:
192,192,65247,1,0,0:0:0:0:
448,192,65347,1,0,0:0:0:0:
64,192,65347,1,0,0:0:0:0:
448,192,65447,1,0,0:0:0:0:
320,192,65547,1,0,0:0:0:0:
320,192,65647,1,0,0:0:0:0:
64,192,65747,128,0,65847:0:0:0:0:
192,192,65747,128,0,65847:0:0:0:0:
64,192,65947,128,0,66047:0:0:0:0:
192,192,65947,128,0,66047:0:0:0:0:
64,192,66147,128,0,66247:0:0:0:0:
192,192,66147,128,0,66247:0:0:0:0:
64,192,66347,128,0,66447:0:0:0:0:
192,192,66347,128,0,66447:0:0:0:0:
448,192,66547,1,0,0:0:0:0:
320,192,66613,1,0,0:0:0:0:
192,192,66680,1,0,0:0:0:0:
64,192,66747,1,0,0:0:0:0:
448,192,66813,1,0,0:0:0:0:
320,192,66880,1,0,0:0:0:0:
64,192,66947,1,0,0:0:0:0:
192,192,66947,1,0,0:0:0:0:
448,192,67013,1,0,0:0:0:0:
320,192,67080,1,0,0:0:0:0:
64,192,67147,1,0,0:0:0:0:
192,192,67213,1,0,0:0:0:0:
320,192,67280,1,0,0:0:0:0:
64,192,67347,1,0,0:0:0:0:
192,192,67347,1,0,0:0:0:0:
448,192,67347,1,0,0:0:0:0:
320,192,67413,1,0,0:0:0:0:
192,192,67480,1,0,0:0:0:0:
64,192,67547,1,0,0:0:0:0:
320,192,67613,1,0,0:0:0:0:
448,192,67680,1,0,0:0:0:0:
192,192,67747,1,0,0:0:0:0:
320,192,67747,1,0,0:0:0:0:
64,192,67747,1,0,0:0:0:0:
448,192,67813,1,0,0:0:0:0:
64,192,67880,1,0,0:0:0:0:
320,192,67947,1,0,0:0:0:0:
192,192,68013,1,0,0:0:0:0:
448,192,68080,1,0,0:0:0:0:
64,192,68147,1,0,0:0:0:0:
192,192,68147,1,0,0:0:0:0:
320,192,68147,1,0,0:0:0:0:
448,192,68213,1,0,0:0:0:0:
64,192,68280,1,0,0:0:0:0:
320,192,68347,1,0,0:0:0:0:
192,192,68413,1,0,0:0:0:0:
64,192,68480,1,0,0:0:0:0:
192,192,68547,1,0,0:0:0:0:
320,192,68547,1,0,0:0:0:0:
448,192,68547,1,0,0:0:0:0:
64,192,68613,1,0,0:0:0:0:
320,192,68680,1,0,0:0:0:0:
192,192,68747,1,0,0:0:0:0:
448,192,68813,1,0,0:0:0:0:
64,192,68880,1,0,0:0:0:0:
192,192,68947,1,0,0:0:0:0:
320,192,68947,1,0,0:0:0:0:
448,192,68947,1,0,0:0:0:0:
64,192,69013,1,0,0:0:0:0:
448,192,69080,1,0,0:0:0:0:
64,192,69147,1,0,0:0:0:0:
448,192,69213,1,0,0:0:0:0:
64,192,69280,1,0,0:0:0:0:
448,192,69347,1,0,0:0:0:0:
320,192,69347,1,0,0:0:0:0:
192,192,69413,1,0,0:0:0:0:
320,192,69480,1,0,0:0:0:0:
192,192,69547,1,0,0:0:0:0:
320,192,69613,1,0,0:0:0:0:
192,192,69680,1,0,0:0:0:0:
448,192,69747,1,0,0:0:0:0:
64,192,69747,1,0,0:0:0:0:
192,192,69813,1,0,0:0:0:0:
448,192,69880,1,0,0:0:0:0:
192,192,69947,1,0,0:0:0:0:
448,192,70013,1,0,0:0:0:0:
192,192,70080,1,0,0:0:0:0:
320,192,70147,1,0,0:0:0:0:
448,192,70147,1,0,0:0:0:0:
64,192,70213,1,0,0:0:0:0:
320,192,70280,1,0,0:0:0:0:
64,192,70347,1,0,0:0:0:0:
320,192,70413,1,0,0:0:0:0:
64,192,70480,1,0,0:0:0:0:
192,192,70547,1,0,0:0:0:0:
320,192,70547,1,0,0:0:0:0:
448,192,70547,1,0,0:0:0:0:
64,192,70613,1,0,0:0:0:0:
448,192,70680,1,0,0:0:0:0:
64,192,70747,1,0,0:0:0:0:
192,192,70813,1,0,0:0:0:0:
320,192,70880,1,0,0:0:0:0:
448,192,70947,1,0,0:0:0:0:
192,192,70947,1,0,0:0:0:0:
64,192,70947,1,0,0:0:0:0:
320,192,71013,1,0,0:0:0:0:
64,192,71080,1,0,0:0:0:0:
448,192,71147,1,0,0:0:0:0:
320,192,71213,1,0,0:0:0:0:
192,192,71280,1,0,0:0:0:0:
64,192,71347,1,0,0:0:0:0:
320,192,71347,1,0,0:0:0:0:
448,192,71347,1,0,0:0:0:0:
192,192,71413,1,0,0:0:0:0:
64,192,71480,1,0,0:0:0:0:
448,192,71547,1,0,0:0:0:0:
320,192,71613,1,0,0:0:0:0:
64,192,71680,1,0,0:0:0:0:
192,192,71747,1,0,0:0:0:0:
320,192,71747,1,0,0:0:0:0:
448,192,71747,1,0,0:0:0:0:
64,192,71813,1,0,0:0:0:0:
448,192,71880,1,0,0:0:0:0:
192,192,71947,1,0,0:0:0:0:
320,192,72013,1,0,0:0:0:0:
64,192,72080,1,0,0:0:0:0:
192,192,72147,1,0,0:0:0:0:
320,192,72147,1,0,0:0:0:0:
448,192,72147,1,0,0:0:0:0:
64,192,72213,1,0,0:0:0:0:
320,192,72280,1,0,0:0:0:0:
64,192,72347,1,0,0:0:0:0:
320,192,72413,1,0,0:0:0:0:
64,192,72480,1,0,0:0:0:0:
448,192,72547,1,0,0:0:0:0:
320,192,72547,1,0,0:0:0:0:
192,192,72613,1,0,0:0:0:0:
320,192,72680,1,0,0:0:0:0:
192,192,72747,1,0,0:0:0:0:
320,192,72813,1,0,0:0:0:0:
192,192,72880,1,0,0:0:0:0:
448,192,72947,1,0,0:0:0:0:
64,192,72947,1,0,0:0:0:0:
192,192,73013,1,0,0:0:0:0:
448,192,73080,1,0,0:0:0:0:
192,192,73147,1,0,0:0:0:0:
448,192,73213,1,0,0:0:0:0:
192,192,73280,1,0,0:0:0:0:
320,192,73347,1,0,0:0:0:0:
448,192,73347,1,0,0:0:0:0:
192,192,73413,1,0,0:0:0:0:
320,192,73480,1,0,0:0:0:0:
192,192,73547,1,0,0:0:0:0:
320,192,73613,1,0,0:0:0:0:
192,192,73680,1,0,0:0:0:0:
64,192,73747,1,0,0:0:0:0:
320,192,73747,1,0,0:0:0:0:
448,192,73747,1,0,0:0:0:0:
192,192,73813,1,0,0:0:0:0:
64,192,73880,1,0,0:0:0:0:
320,192,73947,1,0,0:0:0:0:
192,192,74013,1,0,0:0:0:0:
448,192,74080,1,0,0:0:0:0:
192,192,74147,1,0,0:0:0:0:
320,192,74147,1,0,0:0:0:0:
64,192,74147,1,0,0:0:0:0:
448,192,74213,1,0,0:0:0:0:
320,192,74280,1,0,0:0:0:0:
64,192,74347,1,0,0:0:0:0:
192,192,74413,1,0,0:0:0:0:
320,192,74480,1,0,0:0:0:0:
192,192,74547,1,0,0:0:0:0:
64,192,74547,1,0,0:0:0:0:
448,192,74547,1,0,0:0:0:0:
320,192,74613,1,0,0:0:0:0:
64,192,74680,1,0,0:0:0:0:
448,192,74747,1,0,0:0:0:0:
192,192,74813,1,0,0:0:0:0:
64,192,74880,1,0,0:0:0:0:
320,192,74947,1,0,0:0:0:0:
192,192,74947,1,0,0:0:0:0:
448,192,74947,1,0,0:0:0:0:
64,192,75013,1,0,0:0:0:0:
448,192,75080,1,0,0:0:0:0:
320,192,75147,1,0,0:0:0:0:
64,192,75213,1,0,0:0:0:0:
192,192,75280,1,0,0:0:0:0:
448,192,75347,1,0,0:0:0:0:
320,192,75347,1,0,0:0:0:0:
64,192,75347,1,0,0:0:0:0:
192,192,75413,1,0,0:0:0:0:
448,192,75480,1,0,0:0:0:0:
192,192,75547,1,0,0:0:0:0:
448,192,75613,1,0,0:0:0:0:
192,192,75680,1,0,0:0:0:0:
320,192,75747,1,0,0:0:0:0:
448,192,75747,1,0,0:0:0:0:
192,192,75813,1,0,0:0:0:0:
320,192,75880,1,0,0:0:0:0:
192,192,75947,1,0,0:0:0:0:
320,192,76013,1,0,0:0:0:0:
192,192,76080,1,0,0:0:0:0:
320,192,76147,1,0,0:0:0:0:
448,192,76147,1,0,0:0:0:0:
64,192,76213,1,0,0:0:0:0:
448,192,76280,1,0,0:0:0:0:
64,192,76347,1,0,0:0:0:0:
448,192,76413,1,0,0:0:0:0:
64,192,76480,1,0,0:0:0:0:
448,192,76547,1,0,0:0:0:0:
320,192,76547,1,0,0:0:0:0:
64,192,76613,1,0,0:0:0:0:
320,192,76680,1,0,0:0:0:0:
64,192,76747,1,0,0:0:0:0:
320,192,76813,1,0,0:0:0:0:
64,192,76880,1,0,0:0:0:0:
448,192,76947,1,0,0:0:0:0:
320,192,76947,1,0,0:0:0:0:
192,192,76947,1,0,0:0:0:0:
64,192,77013,1,0,0:0:0:0:
448,192,77080,1,0,0:0:0:0:
320,192,77147,1,0,0:0:0:0:
192,192,77213,1,0,0:0:0:0:
64,192,77280,1,0,0:0:0:0:
320,192,77347,1,0,0:0:0:0:
192,192,77347,1,0,0:0:0:0:
448,192,77347,1,0,0:0:0:0:
64,192,77413,1,0,0:0:0:0:
448,192,77480,1,0,0:0:0:0:
192,192,77547,1,0,0:0:0:0:
320,192,77613,1,0,0:0:0:0:
64,192,77680,1,0,0:0:0:0:
448,192,77747,1,0,0:0:0:0:
320,192,77747,1,0,0:0:0:0:
192,192,77747,1,0,0:0:0:0:
64,192,77813,1,0,0:0:0:0:
448,192,77880,1,0,0:0:0:0:
192,192,77947,1,0,0:0:0:0:
320,192,78013,1,0,0:0:0:0:
448,192,78080,1,0,0:0:0:0:
320,192,78147,1,0,0:0:0:0:
192,192,78147,1,0,0:0:0:0:
64,192,78147,1,0,0:0:0:0:
448,192,78213,1,0,0:0:0:0:
192,192,78280,1,0,0:0:0:0:
320,192,78347,1,0,0:0:0:0:
64,192,78413,1,0,0:0:0:0:
448,192,78480,1,0,0:0:0:0:
320,192,78547,1,0,0:0:0:0:
192,192,78547,1,0,0:0:0:0:
64,192,78547,1,0,0:0:0:0:
448,192,78613,1,0,0:0:0:0:
320,192,78680,1,0,0:0:0:0:
64,192,78747,1,0,0:0:0:0:
192,192,78813,1,0,0:0:0:0:
320,192,78880,1,0,0:0:0:0:
64,192,78947,1,0,0:0:0:0:
192,192,78947,1,0,0:0:0:0:
448,192,78947,1,0,0:0:0:0:
320,192,79013,1,0,0:0:0:0:
64,192,79080,1,0,0:0:0:0:
448,192,79147,1,0,0:0:0:0:
320,192,79213,1,0,0:0:0:0:
192,192,79280,1,0,0:0:0:0:
320,192,79347,1,0,0:0:0:0:
448,192,79347,1,0,0:0:0:0:
64,192,79347,1,0,0:0:0:0:
192,192,79413,1,0,0:0:0:0:
448,192,79480,1,0,0:0:0:0:
192,192,79547,1,0,0:0:0:0:
448,192,79613,1,0,0:0:0:0:
192,192,79680,1,0,0:0:0:0:
448,192,79747,1,0,0:0:0:0:
320,192,79747,1,0,0:0:0:0:
64,192,79747,1,0,0:0:0:0:
192,192,79813,1,0,0:0:0:0:
320,192,79880,1,0,0:0:0:0:
192,192,79947,1,0,0:0:0:0:
320,192,80013,1,0,0:0:0:0:
192,192,80080,1,0,0:0:0:0:
64,192,80147,1,0,0:0:0:0:
320,192,80147,1,0,0:0:0:0:
448,192,80147,1,0,0:0:0:0:
192,192,80213,1,0,0:0:0:0:
448,192,80280,1,0,0:0:0:0:
64,192,80347,1,0,0:0:0:0:
320,192,80413,1,0,0:0:0:0:
448,192,80480,1,0,0:0:0:0:
192,192,80547,1,0,0:0:0:0:
320,192,80547,1,0,0:0:0:0:
64,192,80547,1,0,0:0:0:0:
448,192,80613,1,0,0:0:0:0:
64,192,80680,1,0,0:0:0:0:
320,192,80747,1,0,0:0:0:0:
192,192,80813,1,0,0:0:0:0:
448,192,80880,1,0,0:0:0:0:
64,192,80947,1,0,0:0:0:0:
192,192,80947,1,0,0:0:0:0:
320,192,80947,1,0,0:0:0:0:
448,192,81013,1,0,0:0:0:0:
64,192,81080,1,0,0:0:0:0:
320,192,81147,1,0,0:0:0:0:
192,192,81213,1,0,0:0:0:0:
64,192,81280,1,0,0:0:0:0:
192,192,81347,1,0,0:0:0:0:
320,192,81347,1,0,0:0:0:0:
448,192,81347,1,0,0:0:0:0:
64,192,81413,1,0,0:0:0:0:
320,192,81480,1,0,0:0:0:0:
192,192,81547,1,0,0:0:0:0:
448,192,81613,1,0,0:0:0:0:
64,192,81680,1,0,0:0:0:0:
192,192,81747,1,0,0:0:0:0:
320,192,81747,1,0,0:0:0:0:
448,192,81747,1,0,0:0:0:0:
64,192,81813,1,0,0:0:0:0:
320,192,81880,1,0,0:0:0:0:
64,192,81947,1,0,0:0:0:0:
320,192,82013,1,0,0:0:0:0:
64,192,82080,1,0,0:0:0:0:
448,192,82147,1,0,0:0:0:0:
320,192,82147,1,0,0:0:0:0:
192,192,82213,1,0,0:0:0:0:
320,192,82280,1,0,0:0:0:0:
192,192,82347,1,0,0:0:0:0:
320,192,82413,1,0,0:0:0:0:
192,192,82480,1,0,0:0:0:0:
448,192,82547,1,0,0:0:0:0:
320,192,82547,1,0,0:0:0:0:
192,192,82613,1,0,0:0:0:0:
448,192,82680,1,0,0:0:0:0:
192,192,82747,1,0,0:0:0:0:
448,192,82813,1,0,0:0:0:0:
192,192,82880,1,0,0:0:0:0:
320,192,82947,1,0,0:0:0:0:
448,192,82947,1,0,0:0:0:0:
64,192,83013,1,0,0:0:0:0:
320,192,83080,1,0,0:0:0:0:
64,192,83147,1,0,0:0:0:0:
320,192,83213,1,0,0:0:0:0:
64,192,83280,1,0,0:0:0:0:
192,192,83347,1,0,0:0:0:0:
320,192,83347,1,0,0:0:0:0:
448,192,83347,1,0,0:0:0:0:
64,192,83413,1,0,0:0:0:0:
448,192,83480,1,0,0:0:0:0:
64,192,83547,1,0,0:0:0:0:
192,192,83613,1,0,0:0:0:0:
320,192,83680,1,0,0:0:0:0:
448,192,83747,1,0,0:0:0:0:
192,192,83747,1,0,0:0:0:0:
64,192,83747,1,0,0:0:0:0:
320,192,83813,1,0,0:0:0:0:
64,192,83880,1,0,0:0:0:0:
448,192,83947,1,0,0:0:0:0:
320,192,84013,1,0,0:0:0:0:
192,192,84080,1,0,0:0:0:0:
64,192,84147,1,0,0:0:0:0:
320,192,84147,1,0,0:0:0:0:
448,192,84147,1,0,0:0:0:0:
192,192,84213,1,0,0:0:0:0:
64,192,84280,1,0,0:0:0:0:
448,192,84347,1,0,0:0:0:0:
320,192,84413,1,0,0:0:0:0:
64,192,84480,1,0,0:0:0:0:
192,192,84547,1,0,0:0:0:0:
320,192,84547,1,0,0:0:0:0:
448,192,84547,1,0,0:0:0:0:
64,192,84613,1,0,0:0:0:0:
448,192,84680,1,0,0:0:0:0:
192,192,84747,1,0,0:0:0:0:
320,192,84813,1,0,0:0:0:0:
64,192,84880,1,0,0:0:0:0:
192,192,84947,1,0,0:0:0:0:
320,192,84947,1,0,0:0:0:0:
448,192,84947,1,0,0:0:0:0:
64,192,85013,1,0,0:0:0:0:
320,192,85080,1,0,0:0:0:0:
64,192,85147,1,0,0:0:0:0:
320,192,85213,1,0,0:0:0:0:
64,192,85280,1,0,0:0:0:0:
448,192,85347,1,0,0:0:0:0:
320,192,85347,1,0,0:0:0:0:
192,192,85413,1,0,0:0:0:0:
448,192,85480,1,0,0:0:0:0:
192,192,85547,1,0,0:0:0:0:
448,192,85613,1,0,0:0:0:0:
192,192,85680,1,0,0:0:0:0:
448,192,85747,1,0,0:0:0:0:
320,192,85747,1,0,0:0:0:0:
64,192,85813,1,0,0:0:0:0:
448,192,85880,1,0,0:0:0:0:
64,192,85947,1,0,0:0:0:0:
448,192,86013,1,0,0:0:0:0:
64,192,86080,1,0,0:0:0:0:
320,192,86147,1,0,0:0:0:0:
448,192,86147,1,0,0:0:0:0:
192,192,86213,1,0,0:0:0:0:
320,192,86280,1,0,0:0:0:0:
192,192,86347,1,0,0:0:0:0:
320,192,86413,1,0,0:0:0:0:
192,192,86480,1,0,0:0:0:0:
64,192,86547,1,0,0:0:0:0:
320,192,86547,1,0,0:0:0:0:
448,192,86547,1,0,0:0:0:0:
192,192,86613,1,0,0:0:0:0:
64,192,86680,1,0,0:0:0:0:
320,192,86747,1,0,0:0:0:0:
192,192,86813,1,0,0:0:0:0:
448,192,86880,1,0,0:0:0:0:
192,192,86947,1,0,0:0:0:0:
320,192,86947,1,0,0:0:0:0:
64,192,86947,1,0,0:0:0:0:
448,192,87013,1,0,0:0:0:0:
320,192,87080,1,0,0:0:0:0:
64,192,87147,1,0,0:0:0:0:
192,192,87213,1,0,0:0:0:0:
320,192,87280,1,0,0:0:0:0:
192,192,87347,1,0,0:0:0:0:
64,192,87347,1,0,0:0:0:0:
448,192,87347,1,0,0:0:0:0:
320,192,87413,1,0,0:0:0:0:
64,192,87480,1,0,0:0:0:0:
448,192,87547,1,0,0:0:0:0:
192,192,87613,1,0,0:0:0:0:
64,192,87680,1,0,0:0:0:0:
320,192,87747,1,0,0:0:0:0:
192,192,87747,1,0,0:0:0:0:
448,192,87747,1,0,0:0:0:0:
64,192,87813,1,0,0:0:0:0:
448,192,87880,1,0,0:0:0:0:
320,192,87947,1,0,0:0:0:0:
64,192,88013,1,0,0:0:0:0:
192,192,88080,1,0,0:0:0:0:
64,192,88147,1,0,0:0:0:0:
320,192,88147,1,0,0:0:0:0:
448,192,88147,1,0,0:0:0:0:
192,192,88213,1,0,0:0:0:0:
448,192,88280,1,0,0:0:0:0:
64,192,88347,1,0,0:0:0:0:
320,192,88413,1,0,0:0:0:0:
192,192,88480,1,0,0:0:0:0:
448,192,88547,1,0,0:0:0:0:
320,192,88547,1,0,0:0:0:0:
64,192,88547,1,0,0:0:0:0:
192,192,88613,1,0,0:0:0:0:
448,192,88680,1,0,0:0:0:0:
64,192,88747,1,0,0:0:0:0:
192,192,88813,1,0,0:0:0:0:
448,192,88880,1,0,0:0:0:0:
64,192,88947,1,0,0:0:0:0:
320,192,88947,1,0,0:0:0:0:
192,192,88947,1,0,0:0:0:0:
448,192,89013,1,0,0:0:0:0:
64,192,89080,1,0,0:0:0:0:
192,192,89147,1,0,0:0:0:0:
320,192,89213,1,0,0:0:0:0:
64,192,89280,1,0,0:0:0:0:
192,192,89347,1,0,0:0:0:0:
320,192,89347,1,0,0:0:0:0:
448,192,89347,1,0,0:0:0:0:
64,192,89413,1,0,0:0:0:0:
320,192,89480,1,0,0:0:0:0:
192,192,89547,1,0,0:0:0:0:
448,192,89613,1,0,0:0:0:0:
320,192,89680,1,0,0:0:0:0:
448,192,89747,1,0,0:0:0:0:
64,192,89747,1,0,0:0:0:0:
192,192,89747,1,0,0:0:0:0:
320,192,89813,1,0,0:0:0:0:
64,192,89880,1,0,0:0:0:0:
192,192,89947,1,0,0:0:0:0:
320,192,90013,1,0,0:0:0:0:
64,192,90080,1,0,0:0:0:0:
320,192,90147,1,0,0:0:0:0:
192,192,90147,1,0,0:0:0:0:
448,192,90147,1,0,0:0:0:0:
64,192,90213,1,0,0:0:0:0:
448,192,90280,1,0,0:0:0:0:
192,192,90347,1,0,0:0:0:0:
320,192,90413,1,0,0:0:0:0:
64,192,90480,1,0,0:0:0:0:
448,192,90547,1,0,0:0:0:0:
320,192,90547,1,0,0:0:0:0:
192,192,90547,1,0,0:0:0:0:
64,192,90613,1,0,0:0:0:0:
448,192,90680,1,0,0:0:0:0:
192,192,90747,1,0,0:0:0:0:
320,192,90813,1,0,0:0:0:0:
448,192,90880,1,0,0:0:0:0:
320,192,90947,1,0,0:0:0:0:
192,192,90947,1,0,0:0:0:0:
64,192,90947,1,0,0:0:0:0:
448,192,91013,1,0,0:0:0:0:
192,192,91080,1,0,0:0:0:0:
320,192,91147,1,0,0:0:0:0:
64,192,91213,1,0,0:0:0:0:
448,192,91280,1,0,0:0:0:0:
320,192,91347,1,0,0:0:0:0:
192,192,91347,1,0,0:0:0:0:
64,192,91347,1,0,0:0:0:0:
448,192,91413,1,0,0:0:0:0:
320,192,91480,1,0,0:0:0:0:
64,192,91547,1,0,0:0:0:0:
192,192,91613,1,0,0:0:0:0:
320,192,91680,1,0,0:0:0:0:
64,192,91747,1,0,0:0:0:0:
192,192,91747,1,0,0:0:0:0:
448,192,91747,1,0,0:0:0:0:
320,192,91813,1,0,0:0:0:0:
64,192,91880,1,0,0:0:0:0:
448,192,91947,1,0,0:0:0:0:
320,192,92013,1,0,0:0:0:0:
192,192,92080,1,0,0:0:0:0:
320,192,92147,1,0,0:0:0:0:
448,192,92147,1,0,0:0:0:0:
64,192,92147,1,0,0:0:0:0:
192,192,92213,1,0,0:0:0:0:
448,192,92280,1,0,0:0:0:0:
192,192,92347,1,0,0:0:0:0:
448,192,92413,1,0,0:0:0:0:
192,192,92480,1,0,0:0:0:0:
448,192,92547,1,0,0:0:0:0:
320,192,92547,1,0,0:0:0:0:
64,192,92547,1,0,0:0:0:0:
192,192,92613,1,0,0:0:0:0:
320,192,92680,1,0,0:0:0:0:
192,192,92747,1,0,0:0:0:0:
320,192,92813,1,0,0:0:0:0:
192,192,92880,1,0,0:0:0:0:
64,192,92947,1,0,0:0:0:0:
448,192,92947,1,0,0:0:0:0:
320,192,92947,1,0,0:0:0:0:
448,192,93147,1,0,0:0:0:0:
448,192,93347,1,0,0:0:0:0:
192,192,93347,1,0,0:0:0:0:
448,192,93547,1,0,0:0:0:0:
320,192,93547,1,0,0:0:0:0:
64,192,93547,1,0,0:0:0:0:
448,192,93747,1,0,0:0:0:0:
192,192,93747,1,0,0:0:0:0:
448,192,93947,1,0,0:0:0:0:
448,192,94147,1,0,0:0:0:0:
192,192,94147,1,0,0:0:0:0:
448,192,94347,1,0,0:0:0:0:
448,192,94547,1,0,0:0:0:0:
192,192,94547,1,0,0:0:0:0:
320,192,94547,1,0,0:0:0:0:
64,192,94547,1,0,0:0:0:0:
448,192,94747,1,0,0:0:0:0:
448,192,94947,1,0,0:0:0:0:
192,192,94947,1,0,0:0:0:0:
448,192,95147,1,0,0:0:0:0:
320,192,95147,1,0,0:0:0:0:
64,192,95147,1,0,0:0:0:0:
448,192,95347,1,0,0:0:0:0:
192,192,95347,1,0,0:0:0:0:
448,192,95547,1,0,0:0:0:0:
448,192,95747,1,0,0:0:0:0:
192,192,95747,1,0,0:0:0:0:
448,192,95947,1,0,0:0:0:0:
448,192,96147,1,0,0:0:0:0:
320,192,96147,1,0,0:0:0:0:
192,192,96147,1,0,0:0:0:0:
64,192,96147,1,0,0:0:0:0:
192,192,96347,1,0,0:0:0:0:
192,192,96547,1,0,0:0:0:0:
320,192,96547,1,0,0:0:0:0:
192,192,96747,1,0,0:0:0:0:
448,192,96747,1,0,0:0:0:0:
64,192,96747,1,0,0:0:0:0:
192,192,96947,1,0,0:0:0:0:
320,192,96947,1,0,0:0:0:0:
192,192,97147,1,0,0:0:0:0:
192,192,97347,1,0,0:0:0:0:
320,192,97347,1,0,0:0:0:0:
192,192,97547,1,0,0:0:0:0:
192,192,97747,1,0,0:0:0:0:
448,192,97747,1,0,0:0:0:0:
320,192,97747,1,0,0:0:0:0:
64,192,97747,1,0,0:0:0:0:
192,192,97947,1,0,0:0:0:0:
192,192,98147,1,0,0:0:0:0:
320,192,98147,1,0,0:0:0:0:
192,192,98347,1,0,0:0:0:0:
448,192,98347,1,0,0:0:0:0:
64,192,98347,1,0,0:0:0:0:
192,192,98547,1,0,0:0:0:0:
320,192,98547,1,0,0:0:0:0:
192,192,98747,1,0,0:0:0:0:
64,192,98747,1,0,0:0:0:0:
192,192,98947,1,0,0:0:0:0:
320,192,98947,1,0,0:0:0:0:
192,192,99147,1,0,0:0:0:0:
448,192,99347,1,0,0:0:0:0:
64,192,99347,1,0,0:0:0:0:
192,192,99347,1,0,0:0:0:0:
320,192,99347,1,0,0:0:0:0:
320,192,99547,1,0,0:0:0:0:
320,192,99747,1,0,0:0:0:0:
192,192,99747,1,0,0:0:0:0:
320,192,99947,1,0,0:0:0:0:
448,192,99947,1,0,0:0:0:0:
64,192,99947,1,0,0:0:0:0:
320,192,100147,1,0,0:0:0:0:
192,192,100147,1,0,0:0:0:0:
320,192,100347,1,0,0:0:0:0:
320,192,100547,1,0,0:0:0:0:
192,192,100547,1,0,0:0:0:0:
320,192,100747,1,0,0:0:0:0:
320,192,100947,1,0,0:0:0:0:
192,192,100947,1,0,0:0:0:0:
448,192,100947,1,0,0:0:0:0:
64,192,100947,1,0,0:0:0:0:
320,192,101147,1,0,0:0:0:0:
320,192,101347,1,0,0:0:0:0:
192,192,101347,1,0,0:0:0:0:
320,192,101547,1,0,0:0:0:0:
448,192,101547,1,0,0:0:0:0:
64,192,101547,1,0,0:0:0:0:
320,192,101747,1,0,0:0:0:0:
192,192,101747,1,0,0:0:0:0:
320,192,101947,1,0,0:0:0:0:
320,192,102147,1,0,0:0:0:0:
192,192,102147,1,0,0:0:0:0:
320,192,102347,1,0,0:0:0:0:
64,192,102547,1,0,0:0:0:0:
448,192,102547,1,0,0:0:0:0:
192,192,102547,1,0,0:0:0:0:
320,192,102547,1,0,0:0:0:0:
64,192,102747,1,0,0:0:0:0:
64,192,102947,1,0,0:0:0:0:
320,192,102947,1,0,0:0:0:0:
64,192,103147,1,0,0:0:0:0:
448,192,103147,1,0,0:0:0:0:
192,192,103147,1,0,0:0:0:0:
64,192,103347,1,0,0:0:0:0:
320,192,103347,1,0,0:0:0:0:
64,192,103547,1,0,0:0:0:0:
64,192,103747,1,0,0:0:0:0:
320,192,103747,1,0,0:0:0:0:
64,192,103947,1,0,0:0:0:0:
64,192,104147,1,0,0:0:0:0:
448,192,104147,1,0,0:0:0:0:
320,192,104147,1,0,0:0:0:0:
192,192,104147,1,0,0:0:0:0:
64,192,104347,1,0,0:0:0:0:
64,192,104547,1,0,0:0:0:0:
320,192,104547,1,0,0:0:0:0:
64,192,104747,1,0,0:0:0:0:
448,192,104747,1,0,0:0:0:0:
192,192,104747,1,0,0:0:0:0:
64,192,104947,1,0,0:0:0:0:
320,192,104947,1,0,0:0:0:0:
64,192,105147,1,0,0:0:0:0:
448,192,105147,1,0,0:0:0:0:
320,192,105147,1,0,0:0:0:0:
64,192,105347,1,0,0:0:0:0:
448,192,105347,1,0,0:0:0:0:
64,192,105547,1,0,0:0:0:0:
64,192,105747,1,0,0:0:0:0:
320,192,105747,1,0,0:0:0:0:
192,192,105747,1,0,0:0:0:0:
448,192,105747,1,0,0:0:0:0:
320,192,105947,1,0,0:0:0:0:
192,192,105947,1,0,0:0:0:0:
64,192,106147,1,0,0:0:0:0:
320,192,106147,1,0,0:0:0:0:
192,192,106147,1,0,0:0:0:0:
320,192,106347,1,0,0:0:0:0:
192,192,106347,1,0,0:0:0:0:
448,192,106347,1,0,0:0:0:0:
64,192,106547,1,0,0:0:0:0:
320,192,106547,1,0,0:0:0:0:
192,192,106547,1,0,0:0:0:0:
320,192,106747,1,0,0:0:0:0:
192,192,106747,1,0,0:0:0:0:
64,192,106947,1,0,0:0:0:0:
320,192,106947,1,0,0:0:0:0:
192,192,106947,1,0,0:0:0:0:
320,192,107147,1,0,0:0:0:0:
192,192,107147,1,0,0:0:0:0:
448,192,107347,1,0,0:0:0:0:
320,192,107347,1,0,0:0:0:0:
64,192,107347,1,0,0:0:0:0:
192,192,107347,1,0,0:0:0:0:
192,192,107547,1,0,0:0:0:0:
448,192,107547,1,0,0:0:0:0:
192,192,107747,1,0,0:0:0:0:
448,192,107747,1,0,0:0:0:0:
64,192,107747,1,0,0:0:0:0:
448,192,107947,1,0,0:0:0:0:
192,192,107947,1,0,0:0:0:0:
320,192,107947,1,0,0:0:0:0:
448,192,108147,1,0,0:0:0:0:
64,192,108147,1,0,0:0:0:0:
192,192,108147,1,0,0:0:0:0:
192,192,108347,1,0,0:0:0:0:
448,192,108347,1,0,0:0:0:0:
192,192,108547,1,0,0:0:0:0:
448,192,108547,1,0,0:0:0:0:
64,192,108547,1,0,0:0:0:0:
448,192,108747,1,0,0:0:0:0:
192,192,108747,1,0,0:0:0:0:
64,192,108947,1,0,0:0:0:0:
192,192,108947,1,0,0:0:0:0:
448,192,108947,1,0,0:0:0:0:
320,192,108947,1,0,0:0:0:0:
448,192,109147,1,0,0:0:0:0:
64,192,109147,1,0,0:0:0:0:
64,192,109347,1,0,0:0:0:0:
448,192,109347,1,0,0:0:0:0:
320,192,109347,1,0,0:0:0:0:
192,192,109547,1,0,0:0:0:0:
64,192,109547,1,0,0:0:0:0:
448,192,109547,1,0,0:0:0:0:
320,192,109747,1,0,0:0:0:0:
64,192,109747,1,0,0:0:0:0:
448,192,109747,1,0,0:0:0:0:
448,192,109947,1,0,0:0:0:0:
64,192,109947,1,0,0:0:0:0:
64,192,110147,1,0,0:0:0:0:
448,192,110147,1,0,0:0:0:0:
320,192,110147,1,0,0:0:0:0:
64,192,110347,1,0,0:0:0:0:
448,192,110347,1,0,0:0:0:0:
64,192,110547,1,0,0:0:0:0:
192,192,110547,1,0,0:0:0:0:
448,192,110547,1,0,0:0:0:0:
320,192,110547,1,0,0:0:0:0:
64,192,110747,1,0,0:0:0:0:
320,192,110747,1,0,0:0:0:0:
448,192,110947,1,0,0:0:0:0:
320,192,110947,1,0,0:0:0:0:
64,192,110947,1,0,0:0:0:0:
192,192,111147,1,0,0:0:0:0:
64,192,111147,1,0,0:0:0:0:
320,192,111147,1,0,0:0:0:0:
320,192,111347,1,0,0:0:0:0:
64,192,111347,1,0,0:0:0:0:
448,192,111347,1,0,0:0:0:0:
64,192,111547,1,0,0:0:0:0:
320,192,111547,1,0,0:0:0:0:
448,192,111747,1,0,0:0:0:0:
320,192,111747,1,0,0:0:0:0:
64,192,111747,1,0,0:0:0:0:
320,192,111947,1,0,0:0:0:0:
64,192,111947,1,0,0:0:0:0:
64,192,112147,1,0,0:0:0:0:
320,192,112147,1,0,0:0:0:0:
192,192,112147,1,0,0:0:0:0:
64,192,112347,1,0,0:0:0:0:
448,192,112347,1,0,0:0:0:0:
448,192,112547,1,0,0:0:0:0:
320,192,112547,1,0,0:0:0:0:
192,192,112747,1,0,0:0:0:0:
320,192,112747,1,0,0:0:0:0:
64,192,112947,1,0,0:0:0:0:
192,192,112947,1,0,0:0:0:0:
64,192,113147,1,0,0:0:0:0:
320,192,113147,1,0,0:0:0:0:
192,192,113347,1,0,0:0:0:0:
320,192,113347,1,0,0:0:0:0:
192,192,113547,1,0,0:0:0:0:
448,192,113547,1,0,0:0:0:0:
448,192,113747,1,0,0:0:0:0:
64,192,113747,1,0,0:0:0:0:
64,192,113947,1,0,0:0:0:0:
320,192,113947,1,0,0:0:0:0:
192,192,114147,1,0,0:0:0:0:
320,192,114147,1,0,0:0:0:0:
192,192,114347,1,0,0:0:0:0:
64,192,114347,1,0,0:0:0:0:
64,192,114547,1,0,0:0:0:0:
448,192,114547,1,0,0:0:0:0:
448,192,114747,1,0,0:0:0:0:
320,192,114747,1,0,0:0:0:0:
192,192,114947,1,0,0:0:0:0:
320,192,114947,1,0,0:0:0:0:
192,192,115147,1,0,0:0:0:0:
448,192,115147,1,0,0:0:0:0:
64,192,115347,1,0,0:0:0:0:
448,192,115347,1,0,0:0:0:0:
64,192,115447,1,0,0:0:0:0:
320,192,115547,1,0,0:0:0:0:
320,192,115647,1,0,0:0:0:0:
192,192,115747,1,0,0:0:0:0:
64,192,115747,1,0,0:0:0:0:
192,192,115847,1,0,0:0:0:0:
448,192,115947,1,0,0:0:0:0:
448,192,116047,1,0,0:0:0:0:
320,192,116147,1,0,0:0:0:0:
64,192,116147,1,0,0:0:0:0:
64,192,116247,1,0,0:0:0:0:
192,192,116347,1,0,0:0:0:0:
192,192,116447,1,0,0:0:0:0:
448,192,116547,1,0,0:0:0:0:
64,192,116547,1,0,0:0:0:0:
448,192,116647,1,0,0:0:0:0:
320,192,116747,1,0,0:0:0:0:
320,192,116847,1,0,0:0:0:0:
64,192,116947,128,0,117347:0:0:0:0:
192,192,116947,128,0,117147:0:0:0:0:
320,192,117347,128,0,117547:0:0:0:0:
448,192,117347,128,0,117747:0:0:0:0:
192,192,117747,128,0,118147:0:0:0:0:
64,192,117747,128,0,117947:0:0:0:0:
320,192,117747,1,0,0:0:0:0:
448,192,117947,1,0,0:0:0:0:
448,192,118147,128,0,118347:0:0:0:0:
64,192,118147,1,0,0:0:0:0:
320,192,118147,128,0,118547:0:0:0:0:
64,192,118547,1,0,0:0:0:0:
192,192,118547,1,0,0:0:0:0:
448,192,118547,1,0,0:0:0:0:
320,192,118613,1,0,0:0:0:0:
192,192,118680,1,0,0:0:0:0:
64,192,118747,1,0,0:0:0:0:
320,192,118813,1,0,0:0:0:0:
448,192,118880,1,0,0:0:0:0:
192,192,118947,1,0,0:0:0:0:
320,192,118947,1,0,0:0:0:0:
64,192,118947,1,0,0:0:0:0:
448,192,119013,1,0,0:0:0:0:
64,192,119080,1,0,0:0:0:0:
320,192,119147,1,0,0:0:0:0:
192,192,119213,1,0,0:0:0:0:
448,192,119280,1,0,0:0:0:0:
64,192,119347,1,0,0:0:0:0:
192,192,119347,1,0,0:0:0:0:
320,192,119347,1,0,0:0:0:0:
448,192,119413,1,0,0:0:0:0:
64,192,119480,1,0,0:0:0:0:
320,192,119547,1,0,0:0:0:0:
192,192,119613,1,0,0:0:0:0:
64,192,119680,1,0,0:0:0:0:
192,192,119747,1,0,0:0:0:0:
320,192,119747,1,0,0:0:0:0:
448,192,119747,1,0,0:0:0:0:
64,192,119813,1,0,0:0:0:0:
320,192,119880,1,0,0:0:0:0:
192,192,119947,1,0,0:0:0:0:
448,192,120013,1,0,0:0:0:0:
64,192,120080,1,0,0:0:0:0:
192,192,120147,1,0,0:0:0:0:
320,192,120147,1,0,0:0:0:0:
448,192,120147,1,0,0:0:0:0:
64,192,120213,1,0,0:0:0:0:
448,192,120280,1,0,0:0:0:0:
64,192,120347,1,0,0:0:0:0:
448,192,120413,1,0,0:0:0:0:
64,192,120480,1,0,0:0:0:0:
448,192,120547,1,0,0:0:0:0:
320,192,120547,1,0,0:0:0:0:
192,192,120613,1,0,0:0:0:0:
320,192,120680,1,0,0:0:0:0:
192,192,120747,1,0,0:0:0:0:
320,192,120813,1,0,0:0:0:0:
192,192,120880,1,0,0:0:0:0:
448,192,120947,1,0,0:0:0:0:
64,192,120947,1,0,0:0:0:0:
192,192,121013,1,0,0:0:0:0:
448,192,121080,1,0,0:0:0:0:
192,192,121147,1,0,0:0:0:0:
448,192,121213,1,0,0:0:0:0:
192,192,121280,1,0,0:0:0:0:
320,192,121347,1,0,0:0:0:0:
448,192,121347,1,0,0:0:0:0:
64,192,121413,1,0,0:0:0:0:
320,192,121480,1,0,0:0:0:0:
64,192,121547,1,0,0:0:0:0:
320,192,121613,1,0,0:0:0:0:
64,192,121680,1,0,0:0:0:0:
192,192,121747,1,0,0:0:0:0:
320,192,121747,1,0,0:0:0:0:
448,192,121747,1,0,0:0:0:0:
64,192,121813,1,0,0:0:0:0:
448,192,121880,1,0,0:0:0:0:
64,192,121947,1,0,0:0:0:0:
192,192,122013,1,0,0:0:0:0:
320,192,122080,1,0,0:0:0:0:
448,192,122147,1,0,0:0:0:0:
192,192,122147,1,0,0:0:0:0:
64,192,122147,1,0,0:0:0:0:
320,192,122213,1,0,0:0:0:0:
64,192,122280,1,0,0:0:0:0:
448,192,122347,1,0,0:0:0:0:
320,192,122413,1,0,0:0:0:0:
192,192,122480,1,0,0:0:0:0:
64,192,122547,1,0,0:0:0:0:
320,192,122547,1,0,0:0:0:0:
448,192,122547,1,0,0:0:0:0:
192,192,122613,1,0,0:0:0:0:
64,192,122680,1,0,0:0:0:0:
448,192,122747,1,0,0:0:0:0:
320,192,122813,1,0,0:0:0:0:
64,192,122880,1,0,0:0:0:0:
192,192,122947,1,0,0:0:0:0:
320,192,122947,1,0,0:0:0:0:
448,192,122947,1,0,0:0:0:0:
64,192,123013,1,0,0:0:0:0:
448,192,123080,1,0,0:0:0:0:
192,192,123147,1,0,0:0:0:0:
320,192,123213,1,0,0:0:0:0:
64,192,123280,1,0,0:0:0:0:
192,192,123347,1,0,0:0:0:0:
320,192,123347,1,0,0:0:0:0:
448,192,123347,1,0,0:0:0:0:
64,192,123413,1,0,0:0:0:0:
320,192,123480,1,0,0:0:0:0:
64,192,123547,1,0,0:0:0:0:
320,192,123613,1,0,0:0:0:0:
64,192,123680,1,0,0:0:0:0:
448,192,123747,1,0,0:0:0:0:
320,192,123747,1,0,0:0:0:0:
192,192,123813,1,0,0:0:0:0:
320,192,123880,1,0,0:0:0:0:
192,192,123947,1,0,0:0:0:0:
320,192,124013,1,0,0:0:0:0:
192,192,124080,1,0,0:0:0:0:
448,192,124147,1,0,0:0:0:0:
64,192,124147,1,0,0:0:0:0:
192,192,124213,1,0,0:0:0:0:
448,192,124280,1,0,0:0:0:0:
192,192,124347,1,0,0:0:0:0:
448,192,124413,1,0,0:0:0:0:
192,192,124480,1,0,0:0:0:0:
320,192,124547,1,0,0:0:0:0:
448,192,124547,1,0,0:0:0:0:
192,192,124613,1,0,0:0:0:0:
320,192,124680,1,0,0:0:0:0:
192,192,124747,1,0,0:0:0:0:
320,192,124813,1,0,0:0:0:0:
192,192,124880,1,0,0:0:0:0:
64,192,124947,1,0,0:0:0:0:
320,192,124947,1,0,0:0:0:0:
448,192,124947,1,0,0:0:0:0:
192,192,125013,1,0,0:0:0:0:
64,192,125080,1,0,0:0:0:0:
320,192,125147,1,0,0:0:0:0:
192,192,125213,1,0,0:0:0:0:
448,192,125280,1,0,0:0:0:0:
192,192,125347,1,0,0:0:0:0:
320,192,125347,1,0,0:0:0:0:
64,192,125347,1,0,0:0:0:0:
448,192,125413,1,0,0:0:0:0:
320,192,125480,1,0,0:0:0:0:
64,192,125547,1,0,0:0:0:0:
192,192,125613,1,0,0:0:0:0:
320,192,125680,1,0,0:0:0:0:
192,192,125747,1,0,0:0:0:0:
64,192,125747,1,0,0:0:0:0:
448,192,125747,1,0,0:0:0:0:
320,192,125813,1,0,0:0:0:0:
64,192,125880,1,0,0:0:0:0:
448,192,125947,1,0,0:0:0:0:
192,192,126013,1,0,0:0:0:0:
64,192,126080,1,0,0:0:0:0:
320,192,126147,1,0,0:0:0:0:
192,192,126147,1,0,0:0:0:0:
448,192,126147,1,0,0:0:0:0:
64,192,126213,1,0,0:0:0:0:
448,192,126280,1,0,0:0:0:0:
320,192,126347,1,0,0:0:0:0:
64,192,126413,1,0,0:0:0:0:
192,192,126480,1,0,0:0:0:0:
448,192,126547,1,0,0:0:0:0:
320,192,126547,1,0,0:0:0:0:
64,192,126547,1,0,0:0:0:0:
192,192,126613,1,0,0:0:0:0:
448,192,126680,1,0,0:0:0:0:
192,192,126747,1,0,0:0:0:0:
448,192,126813,1,0,0:0:0:0:
192,192,126880,1,0,0:0:0:0:
320,192,126947,1,0,0:0:0:0:
448,192,126947,1,0,0:0:0:0:
192,192,127013,1,0,0:0:0:0:
320,192,127080,1,0,0:0:0:0:
192,192,127147,1,0,0:0:0:0:
320,192,127213,1,0,0:0:0:0:
192,192,127280,1,0,0:0:0:0:
320,192,127347,1,0,0:0:0:0:
448,192,127347,1,0,0:0:0:0:
64,192,127413,1,0,0:0:0:0:
448,192,127480,1,0,0:0:0:0:
64,192,127547,1,0,0:0:0:0:
448,192,127613,1,0,0:0:0:0:
64,192,127680,1,0,0:0:0:0:
448,192,127747,1,0,0:0:0:0:
320,192,127747,1,0,0:0:0:0:
64,192,127813,1,0,0:0:0:0:
320,192,127880,1,0,0:0:0:0:
64,192,127947,1,0,0:0:0:0:
320,192,128013,1,0,0:0:0:0:
64,192,128080,1,0,0:0:0:0:
448,192,128147,1,0,0:0:0:0:
320,192,128147,1,0,0:0:0:0:
192,192,128147,1,0,0:0:0:0:
64,192,128213,1,0,0:0:0:0:
448,192,128280,1,0,0:0:0:0:
320,192,128347,1,0,0:0:0:0:
192,192,128413,1,0,0:0:0:0:
64,192,128480,1,0,0:0:0:0:
320,192,128547,1,0,0:0:0:0:
192,192,128547,1,0,0:0:0:0:
448,192,128547,1,0,0:0:0:0:
64,192,128613,1,0,0:0:0:0:
448,192,128680,1,0,0:0:0:0:
192,192,128747,1,0,0:0:0:0:
320,192,128813,1,0,0:0:0:0:
64,192,128880,1,0,0:0:0:0:
448,192,128947,1,0,0:0:0:0:
320,192,128947,1,0,0:0:0:0:
192,192,128947,1,0,0:0:0:0:
64,192,129013,1,0,0:0:0:0:
448,192,129080,1,0,0:0:0:0:
192,192,129147,1,0,0:0:0:0:
320,192,129213,1,0,0:0:0:0:
448,192,129280,1,0,0:0:0:0:
320,192,129347,1,0,0:0:0:0:
192,192,129347,1,0,0:0:0:0:
64,192,129347,1,0,0:0:0:0:
448,192,129413,1,0,0:0:0:0:
192,192,129480,1,0,0:0:0:0:
320,192,129547,1,0,0:0:0:0:
64,192,129613,1,0,0:0:0:0:
448,192,129680,1,0,0:0:0:0:
320,192,129747,1,0,0:0:0:0:
192,192,129747,1,0,0:0:0:0:
64,192,129747,1,0,0:0:0:0:
448,192,129813,1,0,0:0:0:0:
320,192,129880,1,0,0:0:0:0:
64,192,129947,1,0,0:0:0:0:
192,192,130013,1,0,0:0:0:0:
320,192,130080,1,0,0:0:0:0:
64,192,130147,1,0,0:0:0:0:
192,192,130147,1,0,0:0:0:0:
448,192,130147,1,0,0:0:0:0:
320,192,130213,1,0,0:0:0:0:
64,192,130280,1,0,0:0:0:0:
448,192,130347,1,0,0:0:0:0:
320,192,130413,1,0,0:0:0:0:
192,192,130480,1,0,0:0:0:0:
320,192,130547,1,0,0:0:0:0:
448,192,130547,1,0,0:0:0:0:
64,192,130547,1,0,0:0:0:0:
192,192,130613,1,0,0:0:0:0:
448,192,130680,1,0,0:0:0:0:
192,192,130747,1,0,0:0:0:0:
448,192,130813,1,0,0:0:0:0:
192,192,130880,1,0,0:0:0:0:
448,192,130947,1,0,0:0:0:0:
320,192,130947,1,0,0:0:0:0:
64,192,130947,1,0,0:0:0:0:
192,192,131013,1,0,0:0:0:0:
320,192,131080,1,0,0:0:0:0:
192,192,131147,1,0,0:0:0:0:
320,192,131213,1,0,0:0:0:0:
192,192,131280,1,0,0:0:0:0:
64,192,131347,1,0,0:0:0:0:
320,192,131347,1,0,0:0:0:0:
448,192,131347,1,0,0:0:0:0:
192,192,131413,1,0,0:0:0:0:
448,192,131480,1,0,0:0:0:0:
64,192,131547,1,0,0:0:0:0:
320,192,131613,1,0,0:0:0:0:
448,192,131680,1,0,0:0:0:0:
192,192,131747,1,0,0:0:0:0:
320,192,131747,1,0,0:0:0:0:
64,192,131747,1,0,0:0:0:0:
448,192,131813,1,0,0:0:0:0:
64,192,131880,1,0,0:0:0:0:
320,192,131947,1,0,0:0:0:0:
192,192,132013,1,0,0:0:0:0:
448,192,132080,1,0,0:0:0:0:
64,192,132147,1,0,0:0:0:0:
192,192,132147,1,0,0:0:0:0:
320,192,132147,1,0,0:0:0:0:
448,192,132213,1,0,0:0:0:0:
64,192,132280,1,0,0:0:0:0:
320,192,132347,1,0,0:0:0:0:
192,192,132413,1,0,0:0:0:0:
64,192,132480,1,0,0:0:0:0:
192,192,132547,1,0,0:0:0:0:
320,192,132547,1,0,0:0:0:0:
448,192,132547,1,0,0:0:0:0:
64,192,132613,1,0,0:0:0:0:
320,192,132680,1,0,0:0:0:0:
192,192,132747,1,0,0:0:0:0:
448,192,132813,1,0,0:0:0:0:
64,192,132880,1,0,0:0:0:0:
192,192,132947,1,0,0:0:0:0:
320,192,132947,1,0,0:0:0:0:
448,192,132947,1,0,0:0:0:0:
64,192,133013,1,0,0:0:0:0:
320,192,133080,1,0,0:0:0:0:
64,192,133147,1,0,0:0:0:0:
320,192,133213,1,0,0:0:0:0:
64,192,133280,1,0,0:0:0:0:
448,192,133347,1,0,0:0:0:0:
320,192,133347,1,0,0:0:0:0:
192,192,133413,1,0,0:0:0:0:
320,192,133480,1,0,0:0:0:0:
192,192,133547,1,0,0:0:0:0:
320,192,133613,1,0,0:0:0:0:
192,192,133680,1,0,0:0:0:0:
448,192,133747,1,0,0:0:0:0:
320,192,133747,1,0,0:0:0:0:
192,192,133813,1,0,0:0:0:0:
448,192,133880,1,0,0:0:0:0:
192,192,133947,1,0,0:0:0:0:
448,192,134013,1,0,0:0:0:0:
192,192,134080,1,0,0:0:0:0:
320,192,134147,1,0,0:0:0:0:
448,192,134147,1,0,0:0:0:0:
64,192,134213,1,0,0:0:0:0:
320,192,134280,1,0,0:0:0:0:
64,192,134347,1,0,0:0:0:0:
320,192,134413,1,0,0:0:0:0:
64,192,134480,1,0,0:0:0:0:
192,192,134547,1,0,0:0:0:0:
320,192,134547,1,0,0:0:0:0:
448,192,134547,1,0,0:0:0:0:
64,192,134613,1,0,0:0:0:0:
448,192,134680,1,0,0:0:0:0:
64,192,134747,1,0,0:0:0:0:
192,192,134813,1,0,0:0:0:0:
320,192,134880,1,0,0:0:0:0:
448,192,134947,1,0,0:0:0:0:
192,192,134947,1,0,0:0:0:0:
64,192,134947,1,0,0:0:0:0:
320,192,135013,1,0,0:0:0:0:
64,192,135080,1,0,0:0:0:0:
448,192,135147,1,0,0:0:0:0:
320,192,135213,1,0,0:0:0:0:
192,192,135280,1,0,0:0:0:0:
64,192,135347,1,0,0:0:0:0:
320,192,135347,1,0,0:0:0:0:
448,192,135347,1,0,0:0:0:0:
192,192,135413,1,0,0:0:0:0:
64,192,135480,1,0,0:0:0:0:
448,192,135547,1,0,0:0:0:0:
320,192,135613,1,0,0:0:0:0:
64,192,135680,1,0,0:0:0:0:
192,192,135747,1,0,0:0:0:0:
320,192,135747,1,0,0:0:0:0:
448,192,135747,1,0,0:0:0:0:
64,192,135813,1,0,0:0:0:0:
448,192,135880,1,0,0:0:0:0:
192,192,135947,1,0,0:0:0:0:
320,192,136013,1,0,0:0:0:0:
64,192,136080,1,0,0:0:0:0:
192,192,136147,1,0,0:0:0:0:
320,192,136147,1,0,0:0:0:0:
448,192,136147,1,0,0:0:0:0:
64,192,136213,1,0,0:0:0:0:
320,192,136280,1,0,0:0:0:0:
64,192,136347,1,0,0:0:0:0:
320,192,136413,1,0,0:0:0:0:
64,192,136480,1,0,0:0:0:0:
448,192,136547,1,0,0:0:0:0:
320,192,136547,1,0,0:0:0:0:
192,192,136613,1,0,0:0:0:0:
448,192,136680,1,0,0:0:0:0:
192,192,136747,1,0,0:0:0:0:
448,192,136813,1,0,0:0:0:0:
192,192,136880,1,0,0:0:0:0:
448,192,136947,1,0,0:0:0:0:
320,192,136947,1,0,0:0:0:0:
64,192,137013,1,0,0:0:0:0:
448,192,137080,1,0,0:0:0:0:
64,192,137147,1,0,0:0:0:0:
448,192,137213,1,0,0:0:0:0:
64,192,137280,1,0,0:0:0:0:
320,192,137347,1,0,0:0:0:0:
448,192,137347,1,0,0:0:0:0:
192,192,137413,1,0,0:0:0:0:
320,192,137480,1,0,0:0:0:0:
192,192,137547,1,0,0:0:0:0:
320,192,137613,1,0,0:0:0:0:
192,192,137680,1,0,0:0:0:0:
64,192,137747,1,0,0:0:0:0:
320,192,137747,1,0,0:0:0:0:
448,192,137747,1,0,0:0:0:0:
192,192,137813,1,0,0:0:0:0:
64,192,137880,1,0,0:0:0:0:
320,192,137947,1,0,0:0:0:0:
192,192,138013,1,0,0:0:0:0:
448,192,138080,1,0,0:0:0:0:
192,192,138147,1,0,0:0:0:0:
320,192,138147,1,0,0:0:0:0:
64,192,138147,1,0,0:0:0:0:
448,192,138213,1,0,0:0:0:0:
320,192,138280,1,0,0:0:0:0:
64,192,138347,1,0,0:0:0:0:
192,192,138413,1,0,0:0:0:0:
320,192,138480,1,0,0:0:0:0:
192,192,138547,1,0,0:0:0:0:
64,192,138547,1,0,0:0:0:0:
448,192,138547,1,0,0:0:0:0:
320,192,138613,1,0,0:0:0:0:
64,192,138680,1,0,0:0:0:0:
448,192,138747,1,0,0:0:0:0:
192,192,138813,1,0,0:0:0:0:
64,192,138880,1,0,0:0:0:0:
320,192,138947,1,0,0:0:0:0:
192,192,138947,1,0,0:0:0:0:
448,192,138947,1,0,0:0:0:0:
64,192,139013,1,0,0:0:0:0:
448,192,139080,1,0,0:0:0:0:
320,192,139147,1,0,0:0:0:0:
64,192,139213,1,0,0:0:0:0:
192,192,139280,1,0,0:0:0:0:
64,192,139347,1,0,0:0:0:0:
320,192,139347,1,0,0:0:0:0:
448,192,139347,1,0,0:0:0:0:
192,192,139413,1,0,0:0:0:0:
448,192,139480,1,0,0:0:0:0:
64,192,139547,1,0,0:0:0:0:
320,192,139613,1,0,0:0:0:0:
192,192,139680,1,0,0:0:0:0:
448,192,139747,1,0,0:0:0:0:
320,192,139747,1,0,0:0:0:0:
64,192,139747,1,0,0:0:0:0:
192,192,139813,1,0,0:0:0:0:
448,192,139880,1,0,0:0:0:0:
64,192,139947,1,0,0:0:0:0:
192,192,140013,1,0,0:0:0:0:
448,192,140080,1,0,0:0:0:0:
64,192,140147,1,0,0:0:0:0:
320,192,140147,1,0,0:0:0:0:
192,192,140147,1,0,0:0:0:0:
448,192,140213,1,0,0:0:0:0:
64,192,140280,1,0,0:0:0:0:
192,192,140347,1,0,0:0:0:0:
320,192,140413,1,0,0:0:0:0:
64,192,140480,1,0,0:0:0:0:
192,192,140547,1,0,0:0:0:0:
320,192,140547,1,0,0:0:0:0:
448,192,140547,1,0,0:0:0:0:
64,192,140613,1,0,0:0:0:0:
320,192,140680,1,0,0:0:0:0:
192,192,140747,1,0,0:0:0:0:
448,192,140813,1,0,0:0:0:0:
320,192,140880,1,0,0:0:0:0:
448,192,140947,1,0,0:0:0:0:
64,192,140947,1,0,0:0:0:0:
192,192,140947,1,0,0:0:0:0:
320,192,141013,1,0,0:0:0:0:
64,192,141080,1,0,0:0:0:0:
192,192,141147,1,0,0:0:0:0:
320,192,141213,1,0,0:0:0:0:
64,192,141280,1,0,0:0:0:0:
320,192,141347,1,0,0:0:0:0:
192,192,141347,1,0,0:0:0:0:
448,192,141347,1,0,0:0:0:0:
64,192,141413,1,0,0:0:0:0:
448,192,141480,1,0,0:0:0:0:
192,192,141547,1,0,0:0:0:0:
320,192,141613,1,0,0:0:0:0:
64,192,141680,1,0,0:0:0:0:
448,192,141747,1,0,0:0:0:0:
320,192,141747,1,0,0:0:0:0:
192,192,141747,1,0,0:0:0:0:
64,192,141813,1,0,0:0:0:0:
448,192,141880,1,0,0:0:0:0:
192,192,141947,1,0,0:0:0:0:
320,192,142013,1,0,0:0:0:0:
448,192,142080,1,0,0:0:0:0:
320,192,142147,1,0,0:0:0:0:
192,192,142147,1,0,0:0:0:0:
64,192,142147,1,0,0:0:0:0:
448,192,142213,1,0,0:0:0:0:
192,192,142280,1,0,0:0:0:0:
320,192,142347,1,0,0:0:0:0:
64,192,142413,1,0,0:0:0:0:
448,192,142480,1,0,0:0:0:0:
320,192,142547,1,0,0:0:0:0:
192,192,142547,1,0,0:0:0:0:
64,192,142547,1,0,0:0:0:0:
448,192,142613,1,0,0:0:0:0:
320,192,142680,1,0,0:0:0:0:
64,192,142747,1,0,0:0:0:0:
192,192,142813,1,0,0:0:0:0:
320,192,142880,1,0,0:0:0:0:
64,192,142947,1,0,0:0:0:0:
192,192,142947,1,0,0:0:0:0:
448,192,142947,1,0,0:0:0:0:
320,192,143013,1,0,0:0:0:0:
64,192,143080,1,0,0:0:0:0:
448,192,143147,1,0,0:0:0:0:
320,192,143213,1,0,0:0:0:0:
192,192,143280,1,0,0:0:0:0:
320,192,143347,1,0,0:0:0:0:
448,192,143347,1,0,0:0:0:0:
64,192,143347,1,0,0:0:0:0:
192,192,143413,1,0,0:0:0:0:
448,192,143480,1,0,0:0:0:0:
192,192,143547,1,0,0:0:0:0:
448,192,143613,1,0,0:0:0:0:
192,192,143680,1,0,0:0:0:0:
448,192,143747,1,0,0:0:0:0:
320,192,143747,1,0,0:0:0:0:
64,192,143747,1,0,0:0:0:0:
192,192,143813,1,0,0:0:0:0:
320,192,143880,1,0,0:0:0:0:
192,192,143947,1,0,0:0:0:0:
320,192,144013,1,0,0:0:0:0:
192,192,144080,1,0,0:0:0:0:
64,192,144147,1,0,0:0:0:0:
448,192,144147,1,0,0:0:0:0:
320,192,144147,1,0,0:0:0:0:
192,192,144247,1,0,0:0:0:0:
448,192,144347,1,0,0:0:0:0:
64,192,144447,1,0,0:0:0:0:
320,192,144547,1,0,0:0:0:0:
64,192,144647,1,0,0:0:0:0:
320,192,144747,1,0,0:0:0:0:
64,192,144847,1,0,0:0:0:0:
320,192,144947,1,0,0:0:0:0:
192,192,145047,1,0,0:0:0:0:
448,192,145147,1,0,0:0:0:0:
64,192,145247,1,0,0:0:0:0:
320,192,145347,1,0,0:0:0:0:
64,192,145447,1,0,0:0:0:0:
320,192,145547,1,0,0:0:0:0:
64,192,145647,1,0,0:0:0:0:
320,192,145747,1,0,0:0:0:0:
192,192,145847,1,0,0:0:0:0:
448,192,145947,1,0,0:0:0:0:
64,192,146047,1,0,0:0:0:0:
320,192,146147,1,0,0:0:0:0:
192,192,146247,1,0,0:0:0:0:
448,192,146347,1,0,0:0:0:0:
64,192,146447,1,0,0:0:0:0:
320,192,146547,1,0,0:0:0:0:
192,192,146647,1,0,0:0:0:0:
448,192,146747,1,0,0:0:0:0:
64,192,146847,1,0,0:0:0:0:
320,192,146947,1,0,0:0:0:0:
192,192,147047,1,0,0:0:0:0:
448,192,147147,1,0,0:0:0:0:
64,192,147247,1,0,0:0:0:0:
320,192,147347,1,0,0:0:0:0:
448,192,147447,1,0,0:0:0:0:
320,192,147547,1,0,0:0:0:0:
64,192,147647,1,0,0:0:0:0:
320,192,147747,1,0,0:0:0:0:
448,192,147847,1,0,0:0:0:0:
320,192,147947,1,0,0:0:0:0:
64,192,148047,1,0,0:0:0:0:
320,192,148147,1,0,0:0:0:0:
448,192,148247,1,0,0:0:0:0:
320,192,148347,1,0,0:0:0:0:
64,192,148447,1,0,0:0:0:0:
320,192,148547,1,0,0:0:0:0:
448,192,148647,1,0,0:0:0:0:
320,192,148747,1,0,0:0:0:0:
64,192,148847,1,0,0:0:0:0:
320,192,148947,1,0,0:0:0:0:
448,192,149047,1,0,0:0:0:0:
320,192,149147,1,0,0:0:0:0:
64,192,149247,1,0,0:0:0:0:
320,192,149347,1,0,0:0:0:0:
448,192,149447,1,0,0:0:0:0:
320,192,149547,1,0,0:0:0:0:
64,192,149647,1,0,0:0:0:0:
320,192,149747,1,0,0:0:0:0:
448,192,149847,1,0,0:0:0:0:
320,192,149947,1,0,0:0:0:0:
64,192,150047,1,0,0:0:0:0:
320,192,150147,1,0,0:0:0:0:
448,192,150247,1,0,0:0:0:0:
320,192,150347,1,0,0:0:0:0:
64,192,150447,1,0,0:0:0:0:
320,192,150547,1,0,0:0:0:0:
64,192,150647,1,0,0:0:0:0:
448,192,150747,1,0,0:0:0:0:
192,192,150847,1,0,0:0:0:0:
320,192,150947,1,0,0:0:0:0:
192,192,151047,1,0,0:0:0:0:
448,192,151147,1,0,0:0:0:0:
64,192,151247,1,0,0:0:0:0:
320,192,151347,1,0,0:0:0:0:
64,192,151447,1,0,0:0:0:0:
448,192,151547,1,0,0:0:0:0:
192,192,151647,1,0,0:0:0:0:
320,192,151747,1,0,0:0:0:0:
192,192,151847,1,0,0:0:0:0:
448,192,151947,1,0,0:0:0:0:
64,192,152047,1,0,0:0:0:0:
320,192,152147,1,0,0:0:0:0:
192,192,152247,1,0,0:0:0:0:
448,192,152347,1,0,0:0:0:0:
64,192,152447,1,0,0:0:0:0:
320,192,152547,1,0,0:0:0:0:
192,192,152647,1,0,0:0:0:0:
448,192,152747,1,0,0:0:0:0:
64,192,152847,1,0,0:0:0:0:
320,192,152947,1,0,0:0:0:0:
192,192,153047,1,0,0:0:0:0:
448,192,153147,1,0,0:0:0:0:
64,192,153247,1,0,0:0:0:0:
320,192,153347,1,0,0:0:0:0:
192,192,153447,1,0,0:0:0:0:
448,192,153547,1,0,0:0:0:0:
64,192,153647,1,0,0:0:0:0:
320,192,153747,1,0,0:0:0:0:
192,192,153847,1,0,0:0:0:0:
448,192,153947,1,0,0:0:0:0:
320,192,154047,1,0,0:0:0:0:
64,192,154147,1,0,0:0:0:0:
320,192,154247,1,0,0:0:0:0:
448,192,154347,1,0,0:0:0:0:
320,192,154447,1,0,0:0:0:0:
64,192,154547,1,0,0:0:0:0:
320,192,154647,1,0,0:0:0:0:
448,192,154747,1,0,0:0:0:0:
320,192,154847,1,0,0:0:0:0:
64,192,154947,1,0,0:0:0:0:
320,192,155047,1,0,0:0:0:0:
448,192,155147,1,0,0:0:0:0:
320,192,155247,1,0,0:0:0:0:
64,192,155347,1,0,0:0:0:0:
192,192,155447,1,0,0:0:0:0:
448,192,155547,1,0,0:0:0:0:
192,192,155647,1,0,0:0:0:0:
64,192,155747,1,0,0:0:0:0:
192,192,155847,1,0,0:0:0:0:
448,192,155947,1,0,0:0:0:0:
192,192,156047,1,0,0:0:0:0:
64,192,156147,1,0,0:0:0:0:
192,192,156247,1,0,0:0:0:0:
448,192,156347,1,0,0:0:0:0:
192,192,156447,1,0,0:0:0:0:
64,192,156547,1,0,0:0:0:0:
192,192,156647,1,0,0:0:0:0:
448,192,156747,1,0,0:0:0:0:
192,192,156847,1,0,0:0:0:0:
320,192,156947,128,0,157047:0:0:0:0:
320,192,157147,128,0,158847:0:0:0:0:
192,192,157547,128,0,157647:0:0:0:0:
192,192,157747,128,0,159047:0:0:0:0:
64,192,158147,128,0,158247:0:0:0:0:
64,192,158347,128,0,159347:0:0:0:0:
448,192,158547,128,0,158647:0:0:0:0:
448,192,158747,128,0,159347:0:0:0:0:
320,192,158947,128,0,159747:0:0:0:0:
192,192,159147,128,0,159747:0:0:0:0:
448,192,159447,128,0,160047:0:0:0:0:
64,192,159447,128,0,160047:0:0:0:0:
320,192,159847,128,0,160047:0:0:0:0:
192,192,159847,128,0,160047:0:0:0:0:
64,192,160147,1,0,0:0:0:0:
448,192,160147,1,0,0:0:0:0:
320,192,160147,1,0,0:0:0:0:
192,192,160213,1,0,0:0:0:0:
448,192,160280,1,0,0:0:0:0:
320,192,160347,1,0,0:0:0:0:
64,192,160347,1,0,0:0:0:0:
448,192,160547,1,0,0:0:0:0:
192,192,160547,1,0,0:0:0:0:
64,192,160547,1,0,0:0:0:0:
320,192,160613,1,0,0:0:0:0:
64,192,160680,1,0,0:0:0:0:
448,192,160747,1,0,0:0:0:0:
192,192,160747,1,0,0:0:0:0:
192,192,160947,1,0,0:0:0:0:
320,192,160947,1,0,0:0:0:0:
64,192,160947,1,0,0:0:0:0:
448,192,161013,1,0,0:0:0:0:
192,192,161080,1,0,0:0:0:0:
320,192,161147,1,0,0:0:0:0:
448,192,161147,1,0,0:0:0:0:
192,192,161347,1,0,0:0:0:0:
448,192,161347,1,0,0:0:0:0:
64,192,161347,1,0,0:0:0:0:
320,192,161413,1,0,0:0:0:0:
448,192,161480,1,0,0:0:0:0:
192,192,161547,1,0,0:0:0:0:
64,192,161547,1,0,0:0:0:0:
448,192,161747,1,0,0:0:0:0:
320,192,161747,1,0,0:0:0:0:
64,192,161747,1,0,0:0:0:0:
192,192,161813,1,0,0:0:0:0:
64,192,161880,1,0,0:0:0:0:
448,192,161947,1,0,0:0:0:0:
320,192,161947,1,0,0:0:0:0:
320,192,162147,1,0,0:0:0:0:
192,192,162147,1,0,0:0:0:0:
64,192,162147,1,0,0:0:0:0:
448,192,162213,1,0,0:0:0:0:
320,192,162280,1,0,0:0:0:0:
64,192,162347,1,0,0:0:0:0:
192,192,162347,1,0,0:0:0:0:
320,192,162547,1,0,0:0:0:0:
448,192,162547,1,0,0:0:0:0:
192,192,162547,1,0,0:0:0:0:
64,192,162613,1,0,0:0:0:0:
320,192,162680,1,0,0:0:0:0:
192,192,162747,1,0,0:0:0:0:
448,192,162747,1,0,0:0:0:0:
448,192,162947,1,0,0:0:0:0:
64,192,162947,1,0,0:0:0:0:
320,192,162947,1,0,0:0:0:0:
192,192,163013,1,0,0:0:0:0:
64,192,163080,1,0,0:0:0:0:
320,192,163147,1,0,0:0:0:0:
192,192,163147,1,0,0:0:0:0:
448,192,163347,1,0,0:0:0:0:
192,192,163347,1,0,0:0:0:0:
64,192,163347,1,0,0:0:0:0:
320,192,163413,1,0,0:0:0:0:
448,192,163480,1,0,0:0:0:0:
192,192,163547,1,0,0:0:0:0:
64,192,163547,1,0,0:0:0:0:
448,192,163747,1,0,0:0:0:0:
64,192,163747,1,0,0:0:0:0:
320,192,163747,1,0,0:0:0:0:
192,192,163813,1,0,0:0:0:0:
320,192,163880,1,0,0:0:0:0:
448,192,163947,1,0,0:0:0:0:
64,192,163947,1,0,0:0:0:0:
320,192,164147,1,0,0:0:0:0:
64,192,164147,1,0,0:0:0:0:
192,192,164147,1,0,0:0:0:0:
448,192,164213,1,0,0:0:0:0:
192,192,164280,1,0,0:0:0:0:
64,192,164347,1,0,0:0:0:0:
320,192,164347,1,0,0:0:0:0:
320,192,164547,1,0,0:0:0:0:
448,192,164547,1,0,0:0:0:0:
192,192,164547,1,0,0:0:0:0:
64,192,164613,1,0,0:0:0:0:
448,192,164680,1,0,0:0:0:0:
192,192,164747,1,0,0:0:0:0:
320,192,164747,1,0,0:0:0:0:
64,192,164947,1,0,0:0:0:0:
448,192,164947,1,0,0:0:0:0:
320,192,164947,1,0,0:0:0:0:
192,192,165013,1,0,0:0:0:0:
448,192,165080,1,0,0:0:0:0:
320,192,165147,1,0,0:0:0:0:
448,192,165347,1,0,0:0:0:0:
192,192,165347,1,0,0:0:0:0:
64,192,165347,1,0,0:0:0:0:
320,192,165413,1,0,0:0:0:0:
64,192,165480,1,0,0:0:0:0:
448,192,165547,1,0,0:0:0:0:
192,192,165747,1,0,0:0:0:0:
320,192,165747,1,0,0:0:0:0:
64,192,165747,1,0,0:0:0:0:
448,192,165813,1,0,0:0:0:0:
192,192,165880,1,0,0:0:0:0:
320,192,165947,1,0,0:0:0:0:
192,192,166147,1,0,0:0:0:0:
448,192,166147,1,0,0:0:0:0:
64,192,166147,1,0,0:0:0:0:
320,192,166213,1,0,0:0:0:0:
448,192,166280,1,0,0:0:0:0:
192,192,166347,1,0,0:0:0:0:
320,192,166547,1,0,0:0:0:0:
448,192,166547,1,0,0:0:0:0:
64,192,166547,1,0,0:0:0:0:
192,192,166613,1,0,0:0:0:0:
448,192,166680,1,0,0:0:0:0:
320,192,166747,1,0,0:0:0:0:
64,192,166947,1,0,0:0:0:0:
192,192,166947,1,0,0:0:0:0:
448,192,166947,1,0,0:0:0:0:
320,192,167013,1,0,0:0:0:0:
64,192,167080,1,0,0:0:0:0:
448,192,167147,1,0,0:0:0:0:
64,192,167347,1,0,0:0:0:0:
320,192,167347,1,0,0:0:0:0:
192,192,167347,1,0,0:0:0:0:
448,192,167413,1,0,0:0:0:0:
192,192,167480,1,0,0:0:0:0:
320,192,167547,1,0,0:0:0:0:
64,192,167747,1,0,0:0:0:0:
448,192,167747,1,0,0:0:0:0:
192,192,167747,1,0,0:0:0:0:
320,192,167813,1,0,0:0:0:0:
448,192,167880,1,0,0:0:0:0:
192,192,167947,1,0,0:0:0:0:
64,192,168147,1,0,0:0:0:0:
320,192,168147,1,0,0:0:0:0:
448,192,168147,1,0,0:0:0:0:
192,192,168213,1,0,0:0:0:0:
64,192,168280,1,0,0:0:0:0:
448,192,168347,1,0,0:0:0:0:
64,192,168547,1,0,0:0:0:0:
192,192,168547,1,0,0:0:0:0:
320,192,168547,1,0,0:0:0:0:
448,192,168613,1,0,0:0:0:0:
320,192,168680,1,0,0:0:0:0:
64,192,168747,1,0,0:0:0:0:
192,192,168947,1,0,0:0:0:0:
448,192,168947,1,0,0:0:0:0:
320,192,168947,1,0,0:0:0:0:
64,192,169013,1,0,0:0:0:0:
320,192,169080,1,0,0:0:0:0:
192,192,169147,1,0,0:0:0:0:
320,192,169347,1,0,0:0:0:0:
64,192,169347,1,0,0:0:0:0:
448,192,169347,1,0,0:0:0:0:
192,192,169413,1,0,0:0:0:0:
64,192,169480,1,0,0:0:0:0:
320,192,169547,1,0,0:0:0:0:
64,192,169747,1,0,0:0:0:0:
192,192,169747,1,0,0:0:0:0:
448,192,169747,1,0,0:0:0:0:
320,192,169813,1,0,0:0:0:0:
448,192,169880,1,0,0:0:0:0:
192,192,169947,1,0,0:0:0:0:
320,192,170147,1,0,0:0:0:0:
64,192,170147,1,0,0:0:0:0:
448,192,170147,1,0,0:0:0:0:
192,192,170213,1,0,0:0:0:0:
320,192,170280,1,0,0:0:0:0:
448,192,170347,1,0,0:0:0:0:
192,192,170547,1,0,0:0:0:0:
64,192,170547,1,0,0:0:0:0:
320,192,170547,1,0,0:0:0:0:
448,192,170613,1,0,0:0:0:0:
192,192,170680,1,0,0:0:0:0:
64,192,170747,1,0,0:0:0:0:
192,192,170947,1,0,0:0:0:0:
448,192,170947,1,0,0:0:0:0:
320,192,170947,1,0,0:0:0:0:
64,192,171013,1,0,0:0:0:0:
448,192,171080,1,0,0:0:0:0:
192,192,171147,1,0,0:0:0:0:
320,192,171347,1,0,0:0:0:0:
448,192,171347,1,0,0:0:0:0:
64,192,171347,1,0,0:0:0:0:
192,192,171413,1,0,0:0:0:0:
448,192,171480,1,0,0:0:0:0:
320,192,171547,1,0,0:0:0:0:
64,192,171747,1,0,0:0:0:0:
192,192,171747,1,0,0:0:0:0:
448,192,171747,1,0,0:0:0:0:
320,192,171813,5,0,0:0:0:0:
64,192,171880,1,0,0:0:0:0:
448,192,171947,1,0,0:0:0:0:
64,192,172147,1,0,0:0:0:0:
320,192,172147,1,0,0:0:0:0:
192,192,172147,1,0,0:0:0:0:
448,192,172213,1,0,0:0:0:0:
192,192,172280,1,0,0:0:0:0:
320,192,172347,1,0,0:0:0:0:
64,192,172547,1,0,0:0:0:0:
448,192,172547,1,0,0:0:0:0:
192,192,172547,1,0,0:0:0:0:
320,192,172613,1,0,0:0:0:0:
448,192,172680,1,0,0:0:0:0:
192,192,172747,1,0,0:0:0:0:
320,192,172947,5,0,0:0:0:0:
64,192,172947,1,0,0:0:0:0:
192,192,173147,1,0,0:0:0:0:
448,192,173347,1,0,0:0:0:0:
64,192,173347,1,0,0:0:0:0:
320,192,173547,1,0,0:0:0:0:
192,192,173747,1,0,0:0:0:0:
448,192,173747,1,0,0:0:0:0:
64,192,174047,1,0,0:0:0:0:
192,192,174147,1,0,0:0:0:0:
320,192,174147,1,0,0:0:0:0:
448,192,174347,1,0,0:0:0:0:
192,192,174547,5,0,0:0:0:0:
64,192,174547,1,0,0:0:0:0:
448,192,174747,1,0,0:0:0:0:
64,192,174947,1,0,0:0:0:0:
320,192,174947,1,0,0:0:0:0:
192,192,175147,1,0,0:0:0:0:
320,192,175347,1,0,0:0:0:0:
448,192,175347,1,0,0:0:0:0:
64,192,175647,1,0,0:0:0:0:
448,192,175747,1,0,0:0:0:0:
192,192,175747,1,0,0:0:0:0:
320,192,175947,1,0,0:0:0:0:
64,192,176147,5,0,0:0:0:0:
448,192,176147,1,0,0:0:0:0:
320,192,176347,1,0,0:0:0:0:
448,192,176547,1,0,0:0:0:0:
64,192,176547,1,0,0:0:0:0:
192,192,176747,1,0,0:0:0:0:
448,192,176947,1,0,0:0:0:0:
320,192,176947,1,0,0:0:0:0:
192,192,177247,1,0,0:0:0:0:
64,192,177347,1,0,0:0:0:0:
320,192,177347,1,0,0:0:0:0:
448,192,177547,1,0,0:0:0:0:
320,192,177747,5,0,0:0:0:0:
192,192,177747,1,0,0:0:0:0:
64,192,178047,1,0,0:0:0:0:
448,192,178147,1,0,0:0:0:0:
320,192,178147,1,0,0:0:0:0:
192,192,178347,1,0,0:0:0:0:
320,192,178347,1,0,0:0:0:0:
64,192,178547,1,0,0:0:0:0:
448,192,178547,1,0,0:0:0:0:
192,192,178647,1,0,0:0:0:0:
192,192,178947,1,0,0:0:0:0:
64,192,178947,1,0,0:0:0:0:
448,192,178947,1,0,0:0:0:0:
320,192,179147,1,0,0:0:0:0:
192,192,179247,1,0,0:0:0:0:
64,192,179347,1,0,0:0:0:0:
448,192,179347,1,0,0:0:0:0:
64,192,179547,1,0,0:0:0:0:
320,192,179547,1,0,0:0:0:0:
192,192,179747,1,0,0:0:0:0:
320,192,179747,1,0,0:0:0:0:
64,192,179947,1,0,0:0:0:0:
192,192,179947,1,0,0:0:0:0:
64,192,180147,1,0,0:0:0:0:
448,192,180147,1,0,0:0:0:0:
448,192,180347,1,0,0:0:0:0:
320,192,180347,1,0,0:0:0:0:
192,192,180547,1,0,0:0:0:0:
320,192,180547,1,0,0:0:0:0:
192,192,180747,1,0,0:0:0:0:
448,192,180747,1,0,0:0:0:0:
448,192,180947,1,0,0:0:0:0:
64,192,180947,1,0,0:0:0:0:
64,192,181147,1,0,0:0:0:0:
320,192,181147,1,0,0:0:0:0:
192,192,181347,1,0,0:0:0:0:
320,192,181347,1,0,0:0:0:0:
192,192,181547,1,0,0:0:0:0:
64,192,181547,1,0,0:0:0:0:
64,192,181747,1,0,0:0:0:0:
448,192,181747,1,0,0:0:0:0:
448,192,181947,1,0,0:0:0:0:
320,192,181947,1,0,0:0:0:0:
192,192,182147,1,0,0:0:0:0:
320,192,182147,1,0,0:0:0:0:
192,192,182347,1,0,0:0:0:0:
448,192,182347,1,0,0:0:0:0:
64,192,182547,1,0,0:0:0:0:
448,192,182547,1,0,0:0:0:0:
64,192,182647,1,0,0:0:0:0:
320,192,182747,1,0,0:0:0:0:
320,192,182847,1,0,0:0:0:0:
192,192,182947,1,0,0:0:0:0:
64,192,182947,1,0,0:0:0:0:
192,192,183047,1,0,0:0:0:0:
448,192,183147,1,0,0:0:0:0:
448,192,183247,1,0,0:0:0:0:
320,192,183347,1,0,0:0:0:0:
64,192,183347,1,0,0:0:0:0:
64,192,183447,1,0,0:0:0:0:
192,192,183547,1,0,0:0:0:0:
192,192,183647,1,0,0:0:0:0:
448,192,183747,1,0,0:0:0:0:
64,192,183747,1,0,0:0:0:0:
448,192,183847,1,0,0:0:0:0:
320,192,183947,1,0,0:0:0:0:
320,192,184047,1,0,0:0:0:0:
192,192,184147,1,0,0:0:0:0:
64,192,184147,1,0,0:0:0:0:
448,192,184213,1,0,0:0:0:0:
320,192,184280,1,0,0:0:0:0:
192,192,184347,1,0,0:0:0:0:
448,192,184413,1,0,0:0:0:0:
320,192,184480,1,0,0:0:0:0:
64,192,184547,1,0,0:0:0:0:
192,192,184613,1,0,0:0:0:0:
448,192,184680,1,0,0:0:0:0:
64,192,184747,1,0,0:0:0:0:
320,192,184813,1,0,0:0:0:0:
448,192,184880,1,0,0:0:0:0:
192,192,184947,1,0,0:0:0:0:
64,192,185013,1,0,0:0:0:0:
320,192,185080,1,0,0:0:0:0:
192,192,185147,1,0,0:0:0:0:
448,192,185213,1,0,0:0:0:0:
320,192,185280,1,0,0:0:0:0:
64,192,185347,1,0,0:0:0:0:
192,192,185413,1,0,0:0:0:0:
448,192,185480,1,0,0:0:0:0:
192,192,185547,1,0,0:0:0:0:
320,192,185613,1,0,0:0:0:0:
448,192,185680,1,0,0:0:0:0:
64,192,185747,1,0,0:0:0:0:
192,192,185747,1,0,0:0:0:0:
320,192,185813,1,0,0:0:0:0:
448,192,185880,1,0,0:0:0:0:
64,192,185947,1,0,0:0:0:0:
192,192,186013,1,0,0:0:0:0:
320,192,186080,1,0,0:0:0:0:
