osu file format v14

[General]
AudioFilename: audio.mp3
AudioLeadIn: 0
PreviewTime: -1
Countdown: 0
SampleSet: Drum
StackLeniency: 0.6
Mode: 0
LetterboxInBreaks: 0
WidescreenStoryboard: 1

[Editor]
Bookmarks: 14535,26772,87358,159644
DistanceSpacing: 0.9
BeatDivisor: 4
GridSize: 8
TimelineZoom: 1

[Metadata]
Title:W Strone Slonca (Sped Up Ver.)
TitleUnicode:W Stronę Słońca (Sped Up Ver.)
Artist:Ewelina Lisowska
ArtistUnicode:Ewelina Lisowska
Creator:SaltyLucario
Version:Ekstra
Source:
Tags:polish pop speed cut version aero-plan rock edit media expert akenoi krfawy pies
BeatmapID:2191876
BeatmapSetID:1048330

[Difficulty]
HPDrainRate:5.4
CircleSize:4
OverallDifficulty:5
ApproachRate:9.1
SliderMultiplier:1.8
SliderTickRate:1

[Events]
//Background and Video events
0,0,"bg.jpg",0,0
//Break Periods
//Storyboard Layer 0 (Background)
//Storyboard Layer 1 (Fail)
//Storyboard Layer 2 (Pass)
//Storyboard Layer 3 (Foreground)
//Storyboard Layer 4 (Overlay)
//Storyboard Sound Samples

[TimingPoints]
325,315.789473684211,4,3,0,100,1,0
325,-142.857142857143,4,3,0,100,0,0
1430,-212.765957446809,4,3,0,100,0,0
2851,-142.857142857143,4,3,0,100,0,0
3956,-212.765957446809,4,3,0,100,0,0
5377,-142.857142857143,4,3,0,100,0,0
6482,-212.765957446809,4,3,0,100,0,0
7903,-142.857142857143,4,3,0,100,0,0
9008,-212.765957446809,4,3,0,100,0,0
10430,-111.111111111111,4,3,0,100,0,0
10903,-142.857142857143,4,3,0,100,0,0
11377,-111.111111111111,4,3,0,100,0,0
15167,-200,4,3,0,100,0,0
15482,-111.111111111111,4,3,0,100,0,0
20061,-200,4,3,0,100,0,0
20535,-117.647058823529,4,3,0,100,0,0
22430,-153.846153846153,4,3,0,100,0,0
23061,-117.647058823529,4,3,0,100,0,0
28272,-222.222222222221,4,3,0,100,0,0
30640,-90.909090909091,4,3,0,100,0,1
32219,-83.3333333333333,4,3,0,100,0,1
32535,-76.9230769230769,4,3,0,100,0,1
32851,-71.4285714285714,4,3,0,100,0,1
33167,-76.9230769230769,4,3,0,100,0,1
33482,-90.9090909090909,4,3,0,100,0,1
34746,-83.3333333333333,4,3,0,100,0,1
35062,-76.9230769230769,4,3,0,100,0,1
35378,-71.4285714285714,4,3,0,100,0,1
35694,-76.9230769230769,4,3,0,100,0,1
36009,-90.9090909090909,4,3,0,100,0,1
40430,-71.4285714285714,4,3,0,100,0,1
40746,-90.9090909090909,4,3,0,100,0,1
42325,-83.3333333333333,4,3,0,100,0,1
42640,-76.9230769230769,4,3,0,100,0,1
42957,-71.4285714285714,4,3,0,100,0,1
43272,-76.9230769230769,4,3,0,100,0,1
43588,-90.9090909090909,4,3,0,100,0,1
44851,-83.3333333333333,4,3,0,100,0,1
45166,-76.9230769230769,4,3,0,100,0,1
45482,-71.4285714285714,4,3,0,100,0,1
45798,-90.9090909090909,4,3,0,100,0,1
50851,-90.909090909091,4,3,0,100,0,0

[Colours]
Combo1 : 233,87,80
Combo2 : 129,52,73
Combo3 : 204,170,36
Combo4 : 241,215,135

[HitObjects]
15,248,325,6,0,P|14:212|62:135,1,125.999996154785
88,314,798,2,0,P|58:266|63:124,1,188.999994232178
230,357,1430,2,0,P|155:316|57:133,1,296.099995481873
185,81,2693,1,0,0:0:0:0:
185,81,2851,6,0,B|267:77|267:77|317:103,1,125.999996154785
136,166,3325,2,0,B|239:99|239:99|323:95,1,188.999994232178
125,318,3956,2,0,B|207:156|207:156|313:91,1,296.099995481873
475,155,5219,1,0,0:0:0:0:
475,155,5377,6,0,B|485:83|419:108|429:20,1,125.999996154785
399,222,5851,2,0,B|460:142|364:127|437:29,1,188.999994232178
245,259,6482,2,0,B|384:202|271:110|439:37,1,296.099995481873
225,137,7746,1,0,0:0:0:0:
225,137,7903,6,0,B|175:148|175:148|144:137|144:137|85:148,1,125.999996154785
267,226,8377,2,0,B|193:202|193:202|161:165|161:165|76:135,1,188.999994232178
265,384,9009,2,0,B|190:302|190:302|177:232|177:232|92:133,1,296.099995481873
103,145,10430,6,0,L|237:159,1,121.499996292114
306,167,10746,1,0,0:0:0:0:
465,112,10903,1,0,0:0:0:0:
390,149,11061,1,0,0:0:0:0:
382,117,11219,1,0,0:0:0:0:
415,268,11377,1,0,0:0:0:0:
423,300,11535,1,0,0:0:0:0:
297,288,11693,6,0,L|143:276,1,121.499996292114
105,271,12009,1,0,0:0:0:0:
266,207,12167,1,0,0:0:0:0:
291,199,12325,2,0,B|282:106|282:106|303:61,1,121.499996292114
245,0,12640,2,0,B|254:93|254:93|233:138,1,121.499996292114
164,104,12956,5,0,0:0:0:0:
165,91,13035,1,0,0:0:0:0:
175,80,13114,1,0,0:0:0:0:
190,190,13272,1,0,0:0:0:0:
174,197,13351,1,0,0:0:0:0:
156,193,13430,1,0,0:0:0:0:
45,115,13588,1,0,0:0:0:0:
42,142,13746,1,0,0:0:0:0:
27,298,13903,1,0,0:0:0:0:
30,271,14061,1,0,0:0:0:0:
122,142,14219,6,0,B|112:238|112:238|158:196,1,121.499996292114
225,146,14535,1,0,0:0:0:0:
171,295,14693,1,0,0:0:0:0:
156,320,14851,5,0,0:0:0:0:
292,299,15009,1,0,0:0:0:0:
426,275,15167,2,0,L|498:264,1,67.5
355,259,15482,6,0,L|501:235,1,121.499996292114
497,166,15798,1,0,0:0:0:0:
311,197,15956,1,0,0:0:0:0:
306,120,16114,1,0,0:0:0:0:
343,127,16272,1,0,0:0:0:0:
164,87,16430,1,0,0:0:0:0:
127,80,16588,1,0,0:0:0:0:
26,171,16746,6,0,B|128:156|128:156|101:182,1,121.499996292114
73,244,17061,1,0,0:0:0:0:
240,209,17219,1,0,0:0:0:0:
269,201,17377,2,0,L|253:344,1,121.499996292114
327,364,17693,1,0,0:0:0:0:
349,182,17851,2,0,L|342:248,1,40.4999987640381
327,364,18009,5,0,0:0:0:0:
430,194,18167,2,0,L|423:260,1,40.4999987640381
411,372,18325,1,0,0:0:0:0:
504,243,18482,1,0,0:0:0:0:
512,172,18640,1,0,0:0:0:0:
465,185,18798,1,0,0:0:0:0:
297,235,18956,1,0,0:0:0:0:
344,222,19114,1,0,0:0:0:0:
300,37,19272,6,0,B|293:64|293:64|308:186,1,121.499996292114
385,157,19588,1,0,0:0:0:0:
224,37,19746,1,0,0:0:0:0:
215,69,19903,1,0,0:0:0:0:
264,255,20061,6,0,B|271:228|271:228|257:124,1,112.5
196,220,20535,6,0,B|186:264|186:264|94:300,1,114.750002188683
50,319,20851,1,0,0:0:0:0:
239,328,21009,1,0,0:0:0:0:
266,328,21167,1,0,0:0:0:0:
293,329,21325,1,0,0:0:0:0:
260,216,21482,2,0,L|264:265,1,38.2500007295609
278,255,21640,2,0,L|274:216,1,38.2500007295609
467,279,21798,6,0,L|324:268,1,114.750002188683
369,346,22114,1,0,0:0:0:0:
478,201,22272,1,0,0:0:0:0:
491,175,22430,2,0,L|483:76,1,87.749995983124
407,75,22746,2,0,L|414:162,1,87.749995983124
335,152,23061,6,0,L|244:134,1,76.5000014591217
58,105,23377,1,0,0:0:0:0:
193,8,23535,1,0,0:0:0:0:
197,40,23693,1,0,0:0:0:0:
203,78,23851,1,0,0:0:0:0:
228,226,24009,1,0,0:0:0:0:
222,186,24167,1,0,0:0:0:0:
38,235,24325,6,0,L|157:227,1,114.750002188683
228,226,24640,1,0,0:0:0:0:
392,218,24798,2,0,P|357:255|344:299,1,76.5000014591217
424,341,25035,2,0,P|409:292|377:258,1,76.5000014591217
292,345,25272,2,0,P|351:359|404:346,1,114.750002188683
482,272,25588,5,0,0:0:0:0:
457,106,25903,5,0,0:0:0:0:
482,272,26061,1,0,0:0:0:0:
477,295,26219,1,0,0:0:0:0:
404,272,26377,2,0,P|347:262|309:269,1,76.5000014591217
317,155,26614,2,0,P|336:209|361:238,1,76.5000014591217
266,298,26851,6,0,P|303:253|316:217,1,76.5000014591217
185,222,27088,2,0,P|204:276|229:305,1,76.5000014591217
292,193,27325,2,0,P|235:183|197:190,1,76.5000014591217
108,233,27640,1,0,0:0:0:0:
156,47,27798,1,0,0:0:0:0:
150,76,27956,1,0,0:0:0:0:
357,134,28114,5,0,0:0:0:0:
365,145,28272,6,0,P|354:178|354:194,1,40.4999987640381
434,228,28588,2,0,P|434:201|421:173,1,40.4999987640381
358,255,28903,6,0,P|347:288|347:304,1,40.4999987640381
427,338,29219,2,0,P|427:311|414:283,1,40.4999987640381
353,374,29535,5,0,0:0:0:0:
353,374,29693,1,0,0:0:0:0:
365,145,29851,5,0,0:0:0:0:
427,338,30009,2,0,L|431:306,1,20.2499993820191
496,188,30167,1,0,0:0:0:0:
457,176,30246,1,0,0:0:0:0:
418,163,30325,1,0,0:0:0:0:
387,189,30403,1,0,0:0:0:0:
357,216,30482,1,0,0:0:0:0:
187,371,30640,5,0,0:0:0:0:
288,269,30798,2,0,B|256:221|286:170|286:170|270:149|268:89,1,148.50000453186
220,54,31114,1,0,0:0:0:0:
205,178,31272,1,0,0:0:0:0:
336,14,31430,1,0,0:0:0:0:
108,117,31588,6,0,L|177:109,1,49.5000015106202
320,124,31746,2,0,L|260:130,1,49.5000015106202
134,210,31903,6,0,P|181:183|176:269,1,148.50000453186
85,286,32219,2,0,P|56:236|147:241,1,161.999995056153
175,333,32535,2,0,P|118:365|124:261,1,175.499991966248
226,230,32851,2,0,P|261:292|147:285,1,188.999994232178
82,284,33167,6,0,P|102:360|175:333,1,175.499991966248
153,253,33482,5,0,0:0:0:0:
322,338,33640,1,0,0:0:0:0:
307,238,33798,1,0,0:0:0:0:
254,384,33956,1,0,0:0:0:0:
248,130,34114,1,0,0:0:0:0:
226,232,34272,1,0,0:0:0:0:
316,71,34430,6,0,B|352:37|352:37|480:50,1,148.50000453186
342,217,34746,2,0,B|304:177|304:177|318:36,1,161.999995056153
487,186,35061,2,0,B|443:226|443:226|290:211,1,161.999995056153
454,28,35377,2,0,B|498:74|498:74|481:240,1,175.499991966248
341,216,35693,6,0,B|442:226|442:226|486:185,1,161.999995056153
400,126,36009,5,0,0:0:0:0:
412,307,36167,1,0,0:0:0:0:
304,295,36325,1,0,0:0:0:0:
512,263,36482,1,0,0:0:0:0:
254,228,36640,6,0,L|165:239,1,49.5000015106202
260,105,36798,2,0,L|349:116,1,49.5000015106202
224,270,36956,6,0,L|107:286,1,99.0000030212403
181,65,37272,2,0,L|197:182,1,99.0000030212403
0,106,37588,2,0,L|117:90,1,99.0000030212403
42,301,37903,2,0,L|26:184,1,99.0000030212403
211,113,38219,5,0,0:0:0:0:
205,212,38377,1,0,0:0:0:0:
161,7,38535,1,0,0:0:0:0:
298,122,38693,1,0,0:0:0:0:
298,122,38851,1,0,0:0:0:0:
127,80,39009,1,0,0:0:0:0:
372,54,39167,1,0,0:0:0:0:
372,54,39325,1,0,0:0:0:0:
205,212,39482,5,0,0:0:0:0:
191,232,39561,1,0,0:0:0:0:
188,261,39640,1,0,0:0:0:0:
203,292,39719,1,0,0:0:0:0:
234,307,39798,1,0,0:0:0:0:
273,300,39877,1,0,0:0:0:0:
300,271,39956,1,0,0:0:0:0:
342,256,40035,1,0,0:0:0:0:
385,258,40114,6,0,L|451:275,1,49.5000015106202
224,135,40272,2,0,L|158:152,1,49.5000015106202
403,181,40430,6,0,B|458:192|458:192|454:156|432:124|432:124|431:89|459:44,1,188.999994232178
356,17,40746,6,0,P|334:71|326:112,1,99.0000030212403
305,203,40982,1,0,0:0:0:0:
303,235,41061,1,0,0:0:0:0:
143,120,41219,1,0,0:0:0:0:
227,97,41377,1,0,0:0:0:0:
85,194,41535,1,0,0:0:0:0:
303,235,41693,1,0,0:0:0:0:
219,258,41851,1,0,0:0:0:0:
442,288,42009,6,0,B|406:252|406:252|436:201|395:128,1,148.50000453186
301,324,42325,2,0,B|340:284|340:284|396:317|477:272,1,161.999995056153
262,170,42640,2,0,B|304:212|304:212|269:272|317:358,1,175.499991966248
415,132,42956,2,0,B|370:176|370:176|308:139|219:189,1,175.499991966248
300,323,43272,6,0,B|276:269|304:212|304:212|254:160,1,175.499991966248
183,99,43588,5,0,0:0:0:0:
162,307,43746,1,0,0:0:0:0:
130,200,43903,1,0,0:0:0:0:
61,346,44061,1,0,0:0:0:0:
236,231,44219,1,0,0:0:0:0:
268,338,44376,1,0,0:0:0:0:
39,249,44535,6,0,B|41:219|47:201|47:201|39:156|39:156|59:129|62:91,1,148.50000453186
193,272,44851,2,0,B|160:269|140:262|140:262|92:271|92:271|62:249|21:246,1,161.999995056153
218,104,45167,2,0,B|215:138|207:159|207:159|217:211|217:211|193:242|191:286,1,175.499991966248
37,76,45482,2,0,B|68:77|101:102|101:102|157:91|157:91|179:99|216:102,1,188.999994232178
313,91,45798,5,0,0:0:0:0:
298,273,45956,2,0,P|279:225|284:166,1,99.0000030212403
419,190,46193,2,0,P|386:230|333:255,1,99.0000030212403
294,133,46430,1,0,0:0:0:0:
404,272,46588,1,0,0:0:0:0:
179,242,46746,2,0,B|150:232|120:237|120:237|73:280|11:246,1,148.50000453186
61,172,47061,5,0,0:0:0:0:
150,145,47219,1,0,0:0:0:0:
65,339,47377,1,0,0:0:0:0:
239,290,47535,1,0,0:0:0:0:
150,318,47693,1,0,0:0:0:0:
261,176,47851,1,0,0:0:0:0:
316,348,48009,2,0,B|306:312|306:312|373:340|442:304,1,148.50000453186
359,242,48325,5,0,0:0:0:0:
265,234,48483,1,0,0:0:0:0:
491,158,48641,1,0,0:0:0:0:
414,315,48799,1,0,0:0:0:0:
414,315,48957,1,0,0:0:0:0:
377,139,49115,1,0,0:0:0:0:
512,350,49273,1,0,0:0:0:0:
512,350,49431,1,0,0:0:0:0:
307,310,49588,5,0,0:0:0:0:
449,86,49746,1,0,0:0:0:0:
449,86,50061,2,0,L|453:155,1,49.5000015106202
307,310,50219,1,0,0:0:0:0:
294,303,50298,1,0,0:0:0:0:
283,298,50377,1,0,0:0:0:0:
287,253,50456,1,0,0:0:0:0:
291,208,50535,1,0,0:0:0:0:
295,163,50614,1,0,0:0:0:0:
300,118,50693,1,0,0:0:0:0:
463,270,50851,5,0,0:0:0:0:
324,187,51009,2,0,B|276:178|253:182|219:194,1,99.0000030212403
228,304,51246,2,0,B|259:266|267:245|274:209,1,99.0000030212403
170,168,51482,2,0,B|186:214|201:231|228:255,1,99.0000030212403
397,332,51798,1,0,0:0:0:0:
371,323,51877,1,0,0:0:0:0:
349,317,51956,1,0,0:0:0:0:
144,292,52114,5,0,0:0:0:0:
197,303,52272,1,0,0:0:0:0:
75,159,52430,1,0,0:0:0:0:
58,299,52587,1,0,0:0:0:0:
55,336,52746,1,0,0:0:0:0:
157,235,52903,1,0,0:0:0:0:
134,72,53061,2,0,L|119:-29,1,99.0000030212403
323,105,53377,5,0,0:0:0:0:
279,114,53456,1,0,0:0:0:0:
234,115,53535,1,0,0:0:0:0:
34,25,53693,1,0,0:0:0:0:
188,15,53851,1,0,0:0:0:0:
188,49,54009,1,0,0:0:0:0:
387,136,54167,1,0,0:0:0:0:
257,251,54325,2,0,L|238:139,1,99.0000030212403
