osu file format v14

[General]
AudioFilename: audio.mp3
AudioLeadIn: 0
PreviewTime: 692
Countdown: 0
SampleSet: Soft
StackLeniency: 0.7
Mode: 3
LetterboxInBreaks: 0
SpecialStyle: 0
WidescreenStoryboard: 1

[Editor]
DistanceSpacing: 1.4
BeatDivisor: 4
GridSize: 8
TimelineZoom: 2.199999

[Metadata]
Title:Coffin dance (Hard Renaissance)
TitleUnicode:Coffin dance (Hard Renaissance)
Artist:Evin a'k
ArtistUnicode:Evin a’k
Creator:Shima Rin
Version:Hard
Source:
Tags:Tofu1222 AchsanLovers FAMoss Astronomia Vicetone Tony Igy Electronic Instrumental Cover
BeatmapID:2443973
BeatmapSetID:1166478

[Difficulty]
HPDrainRate:7.5
CircleSize:4
OverallDifficulty:7.5
ApproachRate:5
SliderMultiplier:1.4
SliderTickRate:1

[Events]
//Background and Video events
0,0,"BG.jpg",0,0
//Break Periods
//Storyboard Layer 0 (Background)
//Storyboard Layer 1 (Fail)
//Storyboard Layer 2 (Pass)
//Storyboard Layer 3 (Foreground)
//Storyboard Layer 4 (Overlay)
//Storyboard Sound Samples

[TimingPoints]
692,314.13612565445,4,2,1,70,1,0
40901,-100,4,2,1,60,0,0
41215,-100,4,2,1,50,0,0
41372,-100,4,2,1,40,0,0
41529,-100,4,2,1,30,0,0
41686,-100,4,2,1,20,0,0
41843,-100,4,2,1,10,0,0

[HitObjects]
64,192,692,5,0,0:0:0:0:
192,192,692,1,0,0:0:0:0:
448,192,796,1,0,0:0:0:0:
64,192,901,1,0,0:0:0:0:
448,192,1006,1,0,0:0:0:0:
64,192,1110,1,0,0:0:0:0:
448,192,1215,1,0,0:0:0:0:
320,192,1359,128,0,1634:0:0:0:0:
64,192,1634,128,0,1948:0:0:0:70:h03.wav
192,192,1634,1,0,0:0:0:0:
320,192,1948,1,2,0:0:0:0:
448,192,1948,1,4,0:0:0:0:
192,192,2105,1,0,0:0:0:0:
320,192,2184,1,0,0:0:0:0:
448,192,2262,128,0,2419:0:0:0:0:
64,192,2419,1,2,0:0:0:0:
192,192,2419,1,4,0:0:0:0:
320,192,2733,1,4,0:0:0:0:
448,192,2733,1,2,0:0:0:0:
192,192,3048,1,2,0:0:0:0:
320,192,3048,1,4,0:0:0:0:
448,192,3205,1,0,0:0:0:0:
64,192,3362,1,2,0:0:0:0:
192,192,3440,1,2,0:0:0:0:
448,192,3519,1,2,0:0:0:0:
320,192,3597,1,2,0:0:0:0:
64,192,3676,128,4,3833:0:0:0:0:
192,192,3676,1,2,0:0:0:0:
320,192,3911,1,2,0:0:0:0:
192,192,3990,128,0,4147:0:0:0:0:
64,192,4147,128,2,4304:0:0:0:0:
448,192,4147,1,0,0:0:0:0:
320,192,4304,128,0,4461:0:0:0:0:
192,192,4461,128,0,4618:0:0:0:0:
448,192,4618,1,2,0:0:0:0:
320,192,4697,1,0,0:0:0:0:
64,192,4775,1,2,0:0:0:0:
192,192,4775,128,4,4932:0:0:0:0:
320,192,4932,128,0,5089:0:0:0:0:
64,192,5089,1,2,0:0:0:0:
448,192,5089,1,0,0:0:0:0:
192,192,5246,1,0,0:0:0:0:
320,192,5325,1,0,0:0:0:0:
64,192,5404,128,2,5561:0:0:0:0:
192,192,5404,1,0,0:0:0:0:
448,192,5561,128,0,5718:0:0:0:0:
192,192,5718,1,2,0:0:0:0:
320,192,5718,128,0,5875:0:0:0:0:
64,192,5875,1,0,0:0:0:0:
192,192,5953,1,0,0:0:0:0:
320,192,6032,128,2,6189:0:0:0:0:
448,192,6032,1,0,0:0:0:0:
192,192,6189,128,0,6346:0:0:0:0:
64,192,6346,1,2,0:0:0:0:
448,192,6346,1,0,0:0:0:0:
320,192,6424,1,0,0:0:0:0:
192,192,6503,1,0,0:0:0:0:
320,192,6582,1,0,0:0:0:0:
64,192,6660,1,2,0:0:0:0:
448,192,6660,128,0,6817:0:0:0:0:
192,192,6817,128,0,6974:0:0:0:0:
320,192,6974,1,4,0:0:0:0:
448,192,6974,1,2,0:0:0:0:
192,192,7131,1,0,0:0:0:0:
320,192,7210,1,0,0:0:0:0:
448,192,7288,128,0,7445:0:0:0:0:
64,192,7445,1,4,0:0:0:0:
192,192,7445,1,2,0:0:0:0:
320,192,7760,1,2,0:0:0:0:
448,192,7760,1,4,0:0:0:0:
192,192,8074,1,4,0:0:0:0:
320,192,8074,1,2,0:0:0:0:
64,192,8231,1,0,0:0:0:0:
320,192,8388,1,2,0:0:0:0:
192,192,8466,1,2,0:0:0:0:
64,192,8545,1,2,0:0:0:0:
448,192,8623,1,2,0:0:0:0:
64,192,8702,1,2,0:0:0:0:
192,192,8702,1,4,0:0:0:0:
320,192,8781,1,0,0:0:0:0:
448,192,8859,128,0,9173:0:0:0:0:
64,192,8938,1,2,0:0:0:0:
192,192,9173,1,2,0:0:0:0:
320,192,9173,128,0,9330:0:0:0:0:
64,192,9330,128,0,9487:0:0:0:0:
448,192,9487,128,4,9644:0:0:0:0:
320,192,9487,1,0,0:0:0:0:
192,192,9644,1,2,0:0:0:0:
320,192,9723,1,0,0:0:0:0:
64,192,9801,1,2,0:0:0:0:
448,192,9801,128,0,9959:0:0:0:0:
192,192,9959,1,0,0:0:0:0:
320,192,10037,1,0,0:0:0:0:
64,192,10116,128,4,10273:0:0:0:0:
192,192,10116,1,2,0:0:0:0:
448,192,10273,128,0,10430:0:0:0:0:
192,192,10430,128,2,10587:0:0:0:0:
320,192,10430,1,0,0:0:0:0:
448,192,10587,128,0,10744:0:0:0:0:
64,192,10744,128,2,10901:0:0:0:0:
192,192,10744,1,4,0:0:0:0:
320,192,10901,1,0,0:0:0:0:
192,192,10979,1,0,0:0:0:0:
64,192,11058,128,2,11215:0:0:0:0:
448,192,11058,1,0,0:0:0:0:
320,192,11215,1,0,0:0:0:0:
448,192,11294,1,0,0:0:0:0:
64,192,11372,1,2,0:0:0:0:
192,192,11372,1,4,0:0:0:0:
320,192,11451,1,0,0:0:0:0:
64,192,11529,1,0,0:0:0:0:
192,192,11608,1,0,0:0:0:0:
320,192,11686,1,2,0:0:0:0:
448,192,11686,128,0,11843:0:0:0:0:
192,192,11843,128,0,12000:0:0:0:0:
64,192,12000,1,4,0:0:0:0:
448,192,12000,1,2,0:0:0:0:
320,192,12157,1,0,0:0:0:0:
64,192,12236,1,0,0:0:0:0:
192,192,12315,128,0,12472:0:0:0:0:
320,192,12472,1,4,0:0:0:0:
448,192,12472,1,2,0:0:0:0:
192,192,12786,1,2,0:0:0:0:
320,192,12786,1,4,0:0:0:0:
64,192,13100,1,4,0:0:0:0:
192,192,13100,1,2,0:0:0:0:
320,192,13257,1,0,0:0:0:0:
448,192,13414,1,2,0:0:0:0:
64,192,13493,1,2,0:0:0:0:
320,192,13571,1,2,0:0:0:0:
192,192,13650,1,2,0:0:0:0:
64,192,13728,1,2,0:0:0:0:
448,192,13728,128,4,14042:0:0:0:0:
64,192,13964,1,2,0:0:0:0:
320,192,14042,128,0,14199:0:0:0:0:
192,192,14199,128,2,14356:0:0:0:0:
448,192,14199,1,0,0:0:0:0:
64,192,14356,128,0,14513:0:0:0:0:
448,192,14513,128,0,14671:0:0:0:0:
64,192,14671,1,2,0:0:0:0:
192,192,14749,1,0,0:0:0:0:
320,192,14828,1,4,0:0:0:0:
448,192,14828,128,2,14985:0:0:0:0:
192,192,14985,128,0,15142:0:0:0:0:
64,192,15142,1,2,0:0:0:0:
448,192,15142,1,0,0:0:0:0:
320,192,15299,1,0,0:0:0:0:
448,192,15377,1,0,0:0:0:0:
64,192,15456,1,2,0:0:0:0:
192,192,15456,128,0,15613:0:0:0:0:
320,192,15613,128,0,15770:0:0:0:0:
64,192,15770,128,2,15927:0:0:0:0:
192,192,15770,1,0,0:0:0:0:
448,192,15927,1,0,0:0:0:0:
320,192,16006,1,0,0:0:0:0:
64,192,16084,128,2,16241:0:0:0:0:
192,192,16084,1,0,0:0:0:0:
320,192,16241,128,0,16398:0:0:0:0:
64,192,16398,1,2,0:0:0:0:
448,192,16398,1,0,0:0:0:0:
192,192,16477,1,0,0:0:0:0:
320,192,16555,1,0,0:0:0:0:
192,192,16634,1,0,0:0:0:0:
64,192,16712,1,2,0:0:0:0:
448,192,16712,128,0,16870:0:0:0:0:
192,192,16870,128,0,17027:0:0:0:0:
320,192,17027,1,2,0:0:0:0:
448,192,17027,1,4,0:0:0:0:
64,192,17184,1,0,0:0:0:0:
64,192,17341,1,0,0:0:0:0:
192,192,17498,128,2,17812:0:0:0:0:
320,192,17498,1,4,0:0:0:0:
64,192,17812,1,4,0:0:0:0:
448,192,17812,1,2,0:0:0:0:
64,192,17969,1,0,0:0:0:0:
192,192,18126,1,2,0:0:0:0:
320,192,18126,128,4,18440:0:0:0:0:
64,192,18440,1,2,0:0:0:0:
192,192,18519,1,2,0:0:0:0:
448,192,18597,1,2,0:0:0:0:
320,192,18676,1,2,0:0:0:0:
64,192,18754,1,4,0:0:0:0:
192,192,18754,1,2,0:0:0:0:
64,192,18911,1,0,0:0:0:0:
448,192,18990,1,2,0:0:0:0:
64,192,19068,1,0,0:0:0:0:
192,192,19226,1,2,0:0:0:0:
320,192,19226,1,0,0:0:0:0:
320,192,19383,1,0,0:0:0:0:
320,192,19540,1,4,0:0:0:0:
448,192,19540,1,2,0:0:0:0:
64,192,19749,1,2,0:0:0:0:
192,192,19749,1,4,0:0:0:0:
320,192,19959,1,4,0:0:0:0:
448,192,19959,1,2,0:0:0:0:
64,192,20168,1,2,0:0:0:0:
448,192,20168,1,4,0:0:0:0:
192,192,20377,1,4,0:0:0:0:
320,192,20377,1,2,0:0:0:0:
64,192,20587,1,2,0:0:0:0:
448,192,20587,1,4,0:0:0:0:
64,192,20796,1,4,0:0:0:0:
192,192,20796,1,2,0:0:0:0:
448,192,20901,1,4,0:0:0:0:
192,192,21006,1,4,0:0:0:0:
448,192,21110,1,4,0:0:0:0:
320,192,21110,1,0,0:0:0:0:
64,192,21215,1,4,0:0:0:0:
320,192,21320,1,4,0:0:0:0:
64,192,21424,1,2,0:0:0:0:
192,192,21424,1,4,0:0:0:0:
448,192,21503,1,2,0:0:0:0:
320,192,21582,1,6,0:0:0:0:
192,192,21660,1,2,0:0:0:0:
64,192,21739,1,2,0:0:0:0:
448,192,21739,1,4,0:0:0:0:
320,192,21817,1,2,0:0:0:0:
192,192,21896,1,6,0:0:0:0:
64,192,21974,1,2,0:0:0:0:
320,192,22053,1,2,0:0:0:0:
448,192,22053,1,4,0:0:0:0:
192,192,22210,1,0,0:0:0:0:
448,192,22288,1,0,0:0:0:0:
64,192,22367,1,0,0:0:0:0:
192,192,22524,1,2,0:0:0:0:
320,192,22524,1,4,0:0:0:0:
64,192,22838,1,4,0:0:0:0:
192,192,22838,1,2,0:0:0:0:
320,192,23152,1,2,0:0:0:0:
448,192,23152,1,4,0:0:0:0:
64,192,23466,1,2,0:0:0:0:
192,192,23545,1,2,0:0:0:0:
448,192,23623,1,2,0:0:0:0:
320,192,23702,1,2,0:0:0:0:
64,192,23781,1,4,0:0:0:0:
192,192,23781,1,2,0:0:0:0:
320,192,24016,1,2,0:0:0:0:
192,192,24095,128,0,24252:0:0:0:0:
64,192,24252,128,2,24409:0:0:0:0:
448,192,24252,1,0,0:0:0:0:
320,192,24409,128,0,24566:0:0:0:0:
192,192,24566,128,0,24723:0:0:0:0:
448,192,24723,1,2,0:0:0:0:
320,192,24801,1,0,0:0:0:0:
64,192,24880,1,6,0:0:0:0:
192,192,24880,128,0,25037:0:0:0:100:electronic08.wav
320,192,25037,128,0,25194:0:0:0:0:
64,192,25194,1,2,0:0:0:0:
448,192,25194,1,0,0:0:0:0:
192,192,25351,1,0,0:0:0:0:
320,192,25430,1,0,0:0:0:0:
64,192,25508,128,2,25665:0:0:0:0:
192,192,25508,1,0,0:0:0:0:
448,192,25665,128,0,25822:0:0:0:0:
192,192,25822,1,2,0:0:0:0:
320,192,25822,128,0,25979:0:0:0:0:
64,192,25979,1,0,0:0:0:0:
192,192,26058,1,0,0:0:0:0:
320,192,26137,128,2,26294:0:0:0:0:
448,192,26137,1,0,0:0:0:0:
192,192,26294,128,0,26451:0:0:0:0:
64,192,26451,1,2,0:0:0:0:
448,192,26451,1,0,0:0:0:0:
320,192,26529,1,0,0:0:0:0:
192,192,26608,1,0,0:0:0:0:
320,192,26686,1,0,0:0:0:0:
64,192,26765,1,2,0:0:0:0:
448,192,26765,128,0,26922:0:0:0:0:
192,192,26922,128,0,27079:0:0:0:0:
320,192,27079,1,4,0:0:0:0:
448,192,27079,1,2,0:0:0:0:
192,192,27236,1,0,0:0:0:0:
64,192,27315,1,0,0:0:0:0:
320,192,27393,128,0,27550:0:0:0:0:
64,192,27550,1,4,0:0:0:0:
192,192,27550,1,2,0:0:0:0:
320,192,27864,1,2,0:0:0:0:
448,192,27864,1,4,0:0:0:0:
192,192,28178,1,4,0:0:0:0:
320,192,28178,1,2,0:0:0:0:
64,192,28335,1,0,0:0:0:0:
320,192,28493,1,2,0:0:0:0:
192,192,28571,1,2,0:0:0:0:
64,192,28650,1,2,0:0:0:0:
448,192,28728,1,2,0:0:0:0:
64,192,28807,1,2,0:0:0:0:
192,192,28807,1,4,0:0:0:0:
320,192,28885,1,0,0:0:0:0:
448,192,28964,128,0,29278:0:0:0:0:
64,192,29042,1,2,0:0:0:0:
192,192,29278,1,2,0:0:0:0:
320,192,29278,128,0,29435:0:0:0:0:
64,192,29435,128,0,29592:0:0:0:0:
448,192,29592,128,4,29749:0:0:0:0:
320,192,29592,1,0,0:0:0:0:
192,192,29749,1,2,0:0:0:0:
320,192,29828,1,0,0:0:0:0:
64,192,29906,1,2,0:0:0:0:
448,192,29906,128,0,30063:0:0:0:0:
192,192,30063,1,0,0:0:0:0:
320,192,30142,1,0,0:0:0:0:
64,192,30220,128,4,30377:0:0:0:0:
192,192,30220,1,2,0:0:0:0:
448,192,30377,128,0,30534:0:0:0:0:
192,192,30534,128,2,30691:0:0:0:0:
320,192,30534,1,0,0:0:0:0:
448,192,30691,128,0,30849:0:0:0:0:
64,192,30849,128,2,31006:0:0:0:0:
192,192,30849,1,4,0:0:0:0:
320,192,31006,1,0,0:0:0:0:
192,192,31084,1,0,0:0:0:0:
64,192,31163,128,2,31320:0:0:0:0:
448,192,31163,1,0,0:0:0:0:
320,192,31320,1,0,0:0:0:0:
448,192,31398,1,0,0:0:0:0:
64,192,31477,1,2,0:0:0:0:
192,192,31477,1,4,0:0:0:0:
320,192,31555,1,0,0:0:0:0:
64,192,31634,1,0,0:0:0:0:
192,192,31712,1,0,0:0:0:0:
320,192,31791,1,2,0:0:0:0:
448,192,31791,128,0,31948:0:0:0:0:
192,192,31948,128,0,32105:0:0:0:0:
64,192,32105,1,4,0:0:0:0:
448,192,32105,1,2,0:0:0:0:
320,192,32262,1,0,0:0:0:0:
192,192,32341,1,0,0:0:0:0:
64,192,32419,128,0,32576:0:0:0:0:
320,192,32576,1,4,0:0:0:0:
448,192,32576,1,2,0:0:0:0:
192,192,32890,1,2,0:0:0:0:
320,192,32890,1,4,0:0:0:0:
64,192,33205,1,4,0:0:0:0:
192,192,33205,1,2,0:0:0:0:
320,192,33362,1,0,0:0:0:0:
448,192,33519,1,2,0:0:0:0:
64,192,33597,1,2,0:0:0:0:
320,192,33676,1,2,0:0:0:0:
192,192,33754,1,2,0:0:0:0:
64,192,33833,1,2,0:0:0:0:
448,192,33833,128,4,34147:0:0:0:0:
64,192,34068,1,2,0:0:0:0:
320,192,34147,128,0,34304:0:0:0:0:
192,192,34304,128,2,34461:0:0:0:0:
448,192,34304,1,0,0:0:0:0:
64,192,34461,128,0,34618:0:0:0:0:
448,192,34618,128,0,34775:0:0:0:0:
64,192,34775,1,2,0:0:0:0:
192,192,34854,1,0,0:0:0:0:
320,192,34932,1,6,0:0:0:0:
448,192,34932,128,0,35089:0:0:0:70:electronic08.wav
192,192,35089,128,0,35246:0:0:0:0:
64,192,35246,1,2,0:0:0:0:
448,192,35246,1,0,0:0:0:0:
320,192,35404,1,0,0:0:0:0:
448,192,35482,1,0,0:0:0:0:
64,192,35561,1,2,0:0:0:0:
192,192,35561,128,0,35718:0:0:0:0:
320,192,35718,128,0,35875:0:0:0:0:
64,192,35875,128,2,36032:0:0:0:0:
192,192,35875,1,0,0:0:0:0:
448,192,36032,1,0,0:0:0:0:
320,192,36110,1,0,0:0:0:0:
64,192,36189,128,2,36346:0:0:0:0:
192,192,36189,1,0,0:0:0:0:
320,192,36346,128,0,36503:0:0:0:0:
64,192,36503,1,2,0:0:0:0:
448,192,36503,1,0,0:0:0:0:
192,192,36582,1,0,0:0:0:0:
320,192,36660,1,0,0:0:0:0:
192,192,36739,1,0,0:0:0:0:
64,192,36817,1,2,0:0:0:0:
448,192,36817,128,0,36974:0:0:0:0:
192,192,36974,128,0,37131:0:0:0:0:
320,192,37131,1,2,0:0:0:0:
448,192,37131,1,4,0:0:0:0:
64,192,37288,1,0,0:0:0:0:
64,192,37445,1,0,0:0:0:0:
192,192,37602,128,2,37917:0:0:0:0:
320,192,37602,1,4,0:0:0:0:
64,192,37917,1,4,0:0:0:0:
448,192,37917,1,2,0:0:0:0:
64,192,38074,1,0,0:0:0:0:
192,192,38231,1,2,0:0:0:0:
320,192,38231,128,4,38545:0:0:0:0:
64,192,38545,1,2,0:0:0:0:
192,192,38623,1,2,0:0:0:0:
448,192,38702,1,2,0:0:0:0:
320,192,38781,1,2,0:0:0:0:
64,192,38859,1,4,0:0:0:0:
192,192,38859,1,2,0:0:0:0:
64,192,39016,1,0,0:0:0:0:
448,192,39095,1,2,0:0:0:0:
64,192,39173,1,0,0:0:0:0:
192,192,39330,1,2,0:0:0:0:
320,192,39330,1,0,0:0:0:0:
320,192,39487,1,0,0:0:0:0:
320,192,39644,1,4,0:0:0:0:
448,192,39644,1,2,0:0:0:0:
64,192,39854,1,2,0:0:0:0:
192,192,39854,1,4,0:0:0:0:
320,192,40063,1,4,0:0:0:0:
448,192,40063,1,2,0:0:0:0:
64,192,40273,1,2,0:0:0:0:
448,192,40273,1,4,0:0:0:0:
192,192,40482,1,4,0:0:0:0:
320,192,40482,1,2,0:0:0:0:
64,192,40691,1,2,0:0:0:0:
448,192,40691,1,4,0:0:0:0:
64,192,40901,1,4,0:0:0:0:
192,192,40901,1,2,0:0:0:0:
320,192,41006,1,4,0:0:0:0:
64,192,41110,1,4,0:0:0:0:
448,192,41215,1,4,0:0:0:0:
192,192,41320,1,4,0:0:0:0:
320,192,41424,1,4,0:0:0:0:
64,192,41529,1,6,0:0:0:0:
192,192,41608,1,2,0:0:0:0:
448,192,41686,1,6,0:0:0:0:
320,192,41765,1,2,0:0:0:0:
64,192,41843,1,6,0:0:0:0:
192,192,41922,1,2,0:0:0:0:
448,192,42000,1,6,0:0:0:0:
320,192,42079,1,2,0:0:0:0:
