osu file format v14

[General]
AudioFilename: audio.mp3
AudioLeadIn: 0
PreviewTime: 692
Countdown: 0
SampleSet: Soft
StackLeniency: 0.7
Mode: 3
LetterboxInBreaks: 0
SpecialStyle: 0
WidescreenStoryboard: 1

[Editor]
DistanceSpacing: 1.4
BeatDivisor: 3
GridSize: 8
TimelineZoom: 2.199999

[Metadata]
Title:Coffin dance (Hard Renaissance)
TitleUnicode:Coffin dance (Hard Renaissance)
Artist:Evin a'k
ArtistUnicode:Evin a’k
Creator:Shima Rin
Version:Easy
Source:
Tags:Tofu1222 AchsanLovers FAMoss Astronomia Vicetone Tony Igy Electronic Instrumental Cover
BeatmapID:2503373
BeatmapSetID:1166478

[Difficulty]
HPDrainRate:6.5
CircleSize:4
OverallDifficulty:6.5
ApproachRate:5
SliderMultiplier:1.4
SliderTickRate:1

[Events]
//Background and Video events
0,0,"BG.jpg",0,0
//Break Periods
//Storyboard Layer 0 (Background)
//Storyboard Layer 1 (Fail)
//Storyboard Layer 2 (Pass)
//Storyboard Layer 3 (Foreground)
//Storyboard Layer 4 (Overlay)
//Storyboard Sound Samples

[TimingPoints]
692,314.13612565445,4,2,1,70,1,0
40901,-100,4,2,1,60,0,0
41215,-100,4,2,1,50,0,0
41372,-100,4,2,1,40,0,0
41529,-100,4,2,1,30,0,0
41686,-100,4,2,1,20,0,0
41843,-100,4,2,1,10,0,0

[HitObjects]
64,192,692,128,0,1634:0:0:0:0:
448,192,1634,1,0,0:0:0:70:h03.wav
64,192,1948,1,2,0:0:0:0:
192,192,1948,1,4,0:0:0:0:
192,192,2419,1,2,0:0:0:0:
320,192,2419,1,4,0:0:0:0:
320,192,2733,1,4,0:0:0:0:
448,192,2733,1,2,0:0:0:0:
64,192,3048,128,2,3676:0:0:0:0:
192,192,3048,1,4,0:0:0:0:
320,192,3676,1,4,0:0:0:0:
448,192,3676,1,2,0:0:0:0:
192,192,3990,1,0,0:0:0:0:
64,192,4147,1,2,0:0:0:0:
320,192,4304,1,0,0:0:0:0:
448,192,4461,1,0,0:0:0:0:
64,192,4775,1,2,0:0:0:0:
192,192,4775,1,4,0:0:0:0:
320,192,5089,1,2,0:0:0:0:
64,192,5404,1,2,0:0:0:0:
448,192,5718,1,2,0:0:0:0:
192,192,6032,1,2,0:0:0:0:
320,192,6346,1,2,0:0:0:0:
64,192,6503,1,0,0:0:0:0:
448,192,6660,1,2,0:0:0:0:
192,192,6974,1,4,0:0:0:0:
320,192,6974,1,2,0:0:0:0:
64,192,7445,1,4,0:0:0:0:
192,192,7445,1,2,0:0:0:0:
320,192,7760,1,2,0:0:0:0:
448,192,7760,1,4,0:0:0:0:
192,192,8074,128,4,8702:0:0:0:0:
320,192,8074,1,2,0:0:0:0:
64,192,8702,1,2,0:0:0:0:
448,192,8702,1,4,0:0:0:0:
192,192,9173,1,2,0:0:0:0:
448,192,9330,1,0,0:0:0:0:
64,192,9487,1,4,0:0:0:0:
320,192,9801,1,2,0:0:0:0:
64,192,10116,1,4,0:0:0:0:
192,192,10116,1,2,0:0:0:0:
448,192,10430,1,2,0:0:0:0:
192,192,10744,1,2,0:0:0:0:
320,192,10744,1,4,0:0:0:0:
64,192,11058,1,2,0:0:0:0:
320,192,11372,1,2,0:0:0:0:
448,192,11372,1,4,0:0:0:0:
192,192,11686,1,2,0:0:0:0:
64,192,12000,1,4,0:0:0:0:
448,192,12000,1,2,0:0:0:0:
320,192,12472,1,4,0:0:0:0:
448,192,12472,1,2,0:0:0:0:
64,192,12786,1,2,0:0:0:0:
192,192,12786,1,4,0:0:0:0:
64,192,13100,1,4,0:0:0:0:
448,192,13100,128,2,13728:0:0:0:0:
192,192,13728,1,2,0:0:0:0:
320,192,13728,1,4,0:0:0:0:
448,192,14042,1,0,0:0:0:0:
320,192,14199,1,2,0:0:0:0:
64,192,14356,1,0,0:0:0:0:
192,192,14513,1,0,0:0:0:0:
320,192,14828,1,4,0:0:0:0:
448,192,14828,1,2,0:0:0:0:
64,192,15142,1,2,0:0:0:0:
192,192,15456,1,2,0:0:0:0:
320,192,15770,1,2,0:0:0:0:
448,192,16084,1,2,0:0:0:0:
192,192,16398,1,2,0:0:0:0:
320,192,16555,1,0,0:0:0:0:
64,192,16712,1,2,0:0:0:0:
320,192,17027,1,2,0:0:0:0:
448,192,17027,128,4,17498:0:0:0:0:
64,192,17498,1,2,0:0:0:0:
192,192,17498,1,4,0:0:0:0:
320,192,17812,1,4,0:0:0:0:
448,192,17812,1,2,0:0:0:0:
192,192,18126,128,2,18754:0:0:0:0:
320,192,18126,1,4,0:0:0:0:
64,192,18754,1,4,0:0:0:0:
448,192,18754,128,2,19540:0:0:0:0:
64,192,19540,1,4,0:0:0:0:
192,192,19540,1,2,0:0:0:0:
320,192,19749,1,6,0:0:0:0:
64,192,19959,1,6,0:0:0:0:
448,192,20168,1,6,0:0:0:0:
192,192,20377,1,6,0:0:0:0:
320,192,20587,1,6,0:0:0:0:
64,192,20796,128,4,21110:0:0:0:0:
192,192,20796,1,2,0:0:0:0:
448,192,21110,128,4,21424:0:0:0:0:
192,192,21424,1,6,0:0:0:0:
64,192,21582,1,6,0:0:0:0:
448,192,21739,1,6,0:0:0:0:
320,192,21896,1,6,0:0:0:0:
64,192,22053,1,2,0:0:0:0:
192,192,22053,1,4,0:0:0:0:
192,192,22524,1,2,0:0:0:0:
320,192,22524,1,4,0:0:0:0:
320,192,22838,1,4,0:0:0:0:
448,192,22838,1,2,0:0:0:0:
192,192,23152,1,2,0:0:0:0:
64,192,23152,128,4,23781:0:0:0:0:
320,192,23781,1,4,0:0:0:0:
448,192,23781,1,2,0:0:0:0:
192,192,24095,1,0,0:0:0:0:
64,192,24252,1,2,0:0:0:0:
320,192,24409,1,0,0:0:0:0:
448,192,24566,1,0,0:0:0:0:
64,192,24880,1,6,0:0:0:0:
192,192,24880,1,0,0:0:0:100:electronic08.wav
320,192,25194,1,2,0:0:0:0:
448,192,25508,1,2,0:0:0:0:
64,192,25822,1,2,0:0:0:0:
192,192,26137,1,2,0:0:0:0:
320,192,26451,1,2,0:0:0:0:
64,192,26608,1,0,0:0:0:0:
448,192,26765,1,2,0:0:0:0:
192,192,27079,1,4,0:0:0:0:
320,192,27079,1,2,0:0:0:0:
64,192,27550,1,4,0:0:0:0:
192,192,27550,1,2,0:0:0:0:
320,192,27864,1,2,0:0:0:0:
448,192,27864,1,4,0:0:0:0:
192,192,28178,128,4,28807:0:0:0:0:
320,192,28178,1,2,0:0:0:0:
64,192,28807,1,2,0:0:0:0:
448,192,28807,1,4,0:0:0:0:
320,192,29278,1,2,0:0:0:0:
192,192,29435,1,0,0:0:0:0:
64,192,29592,1,4,0:0:0:0:
192,192,29906,1,2,0:0:0:0:
320,192,30220,1,4,0:0:0:0:
448,192,30220,1,2,0:0:0:0:
192,192,30534,1,2,0:0:0:0:
64,192,30849,1,2,0:0:0:0:
448,192,30849,1,4,0:0:0:0:
320,192,31163,1,2,0:0:0:0:
192,192,31477,1,2,0:0:0:0:
64,192,31477,1,4,0:0:0:0:
320,192,31791,1,2,0:0:0:0:
64,192,32105,1,4,0:0:0:0:
448,192,32105,1,2,0:0:0:0:
320,192,32576,1,4,0:0:0:0:
448,192,32576,1,2,0:0:0:0:
64,192,32890,1,2,0:0:0:0:
192,192,32890,1,4,0:0:0:0:
64,192,33205,1,4,0:0:0:0:
448,192,33205,128,2,33833:0:0:0:0:
192,192,33833,1,2,0:0:0:0:
320,192,33833,1,4,0:0:0:0:
64,192,34147,1,0,0:0:0:0:
448,192,34304,1,2,0:0:0:0:
192,192,34461,1,0,0:0:0:0:
320,192,34618,1,0,0:0:0:0:
64,192,34932,1,6,0:0:0:0:
192,192,34932,1,0,0:0:0:70:electronic08.wav
448,192,35246,1,2,0:0:0:0:
320,192,35561,1,2,0:0:0:0:
192,192,35875,1,2,0:0:0:0:
64,192,36189,1,2,0:0:0:0:
448,192,36503,1,2,0:0:0:0:
192,192,36660,1,0,0:0:0:0:
320,192,36817,1,2,0:0:0:0:
64,192,37131,128,2,37602:0:0:0:0:
192,192,37131,1,4,0:0:0:0:
320,192,37602,1,2,0:0:0:0:
448,192,37602,1,4,0:0:0:0:
64,192,37917,1,4,0:0:0:0:
192,192,37917,1,2,0:0:0:0:
192,192,38231,128,2,38859:0:0:0:0:
320,192,38231,1,4,0:0:0:0:
64,192,38859,1,4,0:0:0:0:
448,192,38859,128,2,39644:0:0:0:0:
64,192,39644,1,4,0:0:0:0:
192,192,39644,1,2,0:0:0:0:
320,192,39854,1,6,0:0:0:0:
64,192,40063,1,6,0:0:0:0:
448,192,40273,1,6,0:0:0:0:
192,192,40482,1,6,0:0:0:0:
320,192,40691,1,6,0:0:0:0:
64,192,40901,128,4,41215:0:0:0:0:
192,192,40901,1,2,0:0:0:0:
448,192,41215,128,4,41529:0:0:0:0:
192,192,41529,1,6,0:0:0:0:
64,192,41686,1,6,0:0:0:0:
320,192,41843,1,6,0:0:0:0:
192,192,42000,1,6,0:0:0:0:
