osu file format v14

[General]
AudioFilename: audio.mp3
AudioLeadIn: 0
PreviewTime: -1
Countdown: 0
SampleSet: Normal
StackLeniency: 1
Mode: 0
LetterboxInBreaks: 0
WidescreenStoryboard: 0

[Editor]
Bookmarks: 16121,28921,35321,48121,60921,72121,73721,86521,99321,112121,124921,137721,150521,201721
DistanceSpacing: 0.6
BeatDivisor: 8
GridSize: 8
TimelineZoom: 2.799999

[Metadata]
Title:Silence
TitleUnicode:Silence
Artist:Evilwave
ArtistUnicode:Evilwave
Creator:nitsuga5124
Version:an odd attempt at a technical map...
Source:From hell.
Tags:this is a dubstep tag
BeatmapID:1563338
BeatmapSetID:741109

[Difficulty]
HPDrainRate:6
CircleSize:4
OverallDifficulty:7
ApproachRate:9.2
SliderMultiplier:3.29999990463257
SliderTickRate:1

[Events]
//Background and Video events
0,0,"gas-mask-soldiers-gun-1080P-wallpaper.jpg",0,0
//Break Periods
2,32321,34521
2,57921,59951
//Storyboard Layer 0 (Background)
//Storyboard Layer 1 (Fail)
//Storyboard Layer 2 (Pass)
//Storyboard Layer 3 (Foreground)
//Storyboard Sound Samples

[TimingPoints]
121,400,4,1,0,100,1,0
41721,-200,4,1,0,100,0,0
43321,-100,4,1,0,100,0,0
47921,-66.6666666666667,4,1,0,100,0,0
49121,-133.333333333333,4,1,0,100,0,0
49221,-80,4,1,0,100,0,0
51721,-133.333333333333,4,1,0,100,0,0
52121,-80,4,1,0,100,0,0
53721,-133.333333333333,4,1,0,100,0,0
54121,-200,4,1,0,100,0,0
54321,-80,4,1,0,100,0,0
60721,-133.333333333333,4,1,0,100,0,0
60921,-71.4285714285714,4,1,0,100,0,0
61321,-90.9090909090909,4,1,0,100,0,0
62121,-100,4,1,0,100,0,0
62321,-111.111111111111,4,1,0,100,0,0
66921,-400,4,1,0,100,0,0
67321,-100,4,1,0,100,0,0
67721,-133.333333333333,4,1,0,100,0,0
70521,-200,4,1,0,100,0,0
73321,-76.9230769230769,4,1,0,100,0,0
73721,-90.9090909090909,4,1,0,100,0,0
73921,-133.333333333333,4,1,0,100,0,0
75121,-200,4,1,0,100,0,0
75321,-133.333333333333,4,1,0,100,0,0

[Colours]
Combo1 : 250,121,5
Combo2 : 0,244,238
Combo3 : 255,128,64
Combo4 : 128,128,128

[HitObjects]
255,192,28921,5,0,0:0:0:0:
256,192,28971,12,0,32121,0:0:0:0:
167,107,35321,6,0,L|182:211,1,82.4999976158143
178,188,35521,1,0,0:0:0:0:
178,188,35721,1,0,0:0:0:0:
178,188,35921,1,0,0:0:0:0:
345,107,36121,5,0,0:0:0:0:
334,188,36321,1,0,0:0:0:0:
334,188,36521,1,0,0:0:0:0:
334,188,36721,1,0,0:0:0:0:
77,306,36921,5,0,0:0:0:0:
161,153,37121,1,0,0:0:0:0:
75,103,37321,1,0,0:0:0:0:
75,202,37521,1,0,0:0:0:0:
315,155,37721,5,0,0:0:0:0:
300,264,37921,1,0,0:0:0:0:
300,264,38121,1,0,0:0:0:0:
300,264,38321,1,0,0:0:0:0:
277,181,38521,5,0,0:0:0:0:
263,78,38721,1,0,0:0:0:0:
263,78,38921,1,0,0:0:0:0:
263,78,39121,1,0,0:0:0:0:
269,287,39321,5,0,0:0:0:0:
283,184,39521,1,0,0:0:0:0:
283,184,39721,1,0,0:0:0:0:
283,184,39921,1,0,0:0:0:0:
435,306,40121,5,0,0:0:0:0:
351,153,40321,1,0,0:0:0:0:
437,103,40521,1,0,0:0:0:0:
437,202,40721,1,0,0:0:0:0:
426,310,40921,5,0,0:0:0:0:
440,207,41121,1,0,0:0:0:0:
440,207,41321,1,0,0:0:0:0:
440,207,41521,1,0,0:0:0:0:
5,101,41721,6,0,P|50:41|125:0,1,123.749996423721
102,121,42121,2,0,P|172:95|257:102,1,123.749996423721
172,191,42521,2,0,P|244:208|312:260,1,123.749996423721
192,287,42921,2,0,P|243:341|271:421,1,123.749996423721
128,280,43321,5,0,0:0:0:0:
171,129,43521,2,0,L|190:63,1,41.2499988079071
180,279,43721,5,0,0:0:0:0:
274,153,43921,2,0,L|315:98,1,41.2499988079071
228,296,44121,5,0,0:0:0:0:
361,212,44321,2,0,L|419:175,1,41.2499988079071
266,329,44521,5,0,0:0:0:0:
420,298,44721,2,0,L|487:284,1,41.2499988079071
266,329,44921,5,0,0:0:0:0:
305,110,45121,1,0,0:0:0:0:
218,218,45321,5,0,0:0:0:0:
179,0,45521,1,0,0:0:0:0:
294,218,45721,5,0,0:0:0:0:
333,0,45921,1,0,0:0:0:0:
246,329,46121,5,0,0:0:0:0:
206,110,46321,1,0,0:0:0:0:
206,110,46521,1,0,0:0:0:0:
256,192,46571,12,0,47821,0:0:0:0:
220,111,47921,6,0,B|263:106|238:209|296:205|296:205,1,118.125004506111
405,110,48121,6,0,B|443:142|443:142|500:86|500:86|454:22|303:41|266:122,1,371.250003433228
354,190,48521,2,0,P|286:97|252:88,1,123.750001144409
260,257,48721,5,0,0:0:0:0:
299,18,48921,1,0,0:0:0:0:
160,290,49121,6,0,L|126:216,1,61.8750005722046
260,257,49321,2,0,L|254:176,1,61.8750005722046
367,284,49521,2,4,L|390:206,1,61.8750005722046
437,65,49721,5,0,0:0:0:0:
287,281,49921,6,0,L|253:354,1,61.8750005722046
387,313,50121,2,0,L|381:393,1,61.8750005722046
494,287,50321,2,4,L|517:364,1,61.8750005722046
444,125,50521,5,0,0:0:0:0:
252,25,50721,5,0,0:0:0:0:
279,42,50821,1,0,0:0:0:0:
314,61,50921,2,0,B|376:86|400:145|400:145|359:100|248:101|226:159,1,309.374991059303
12,94,51321,6,0,L|199:219,1,206.249994039536
256,266,51621,5,0,0:0:0:0:
10,257,51721,2,0,P|121:246|199:192,1,185.625001716614
245,137,52121,5,0,0:0:0:0:
164,384,52321,6,0,L|130:311,1,61.8750005722046
264,352,52521,2,0,L|258:272,1,61.8750005722046
371,378,52721,2,4,L|394:301,1,61.8750005722046
443,101,52921,5,0,0:0:0:0:
209,250,53121,6,0,L|229:172,1,61.8750005722046
306,289,53321,2,0,L|352:223,1,61.8750005722046
371,378,53521,2,4,L|438:333,1,61.8750005722046
371,378,53721,6,4,L|217:247,1,185.625001716614
182,217,54121,2,4,L|286:307,1,123.749996423721
371,378,54521,6,0,P|475:322|359:298,1,309.374991059303
359,298,54921,2,0,B|372:263|436:223|476:273|480:315|495:353|432:387|432:387|408:318,1,309.374991059303
352,167,55321,5,0,0:0:0:0:
77,110,55521,6,0,L|93:50,1,61.8750005722046
173,149,55722,2,0,L|209:98,1,61.8750005722046
239,238,55922,2,4,L|290:203,1,61.8750005722046
62,333,56121,5,0,0:0:0:0:
249,100,56321,6,0,L|232:40,1,61.8750005722046
153,139,56522,2,0,L|116:88,1,61.8750005722046
87,228,56722,2,4,L|35:193,1,61.8750005722046
254,337,56921,5,0,0:0:0:0:
273,309,57021,1,0,0:0:0:0:
292,281,57121,1,0,0:0:0:0:
292,281,57321,6,0,B|296:252|308:255|308:255|318:221|306:218|306:218|292:194|312:174|312:174|329:181,1,103.124997019768
314,59,57521,5,0,0:0:0:0:
292,281,57721,1,0,0:0:0:0:
83,204,60521,6,0,L|275:182,1,154.687495529652
328,174,60721,2,0,L|221:188,1,92.812500858307
83,204,60921,6,0,B|99:152|188:82|240:86|240:86|256:137|256:137|230:203,1,288.7499828434
373,271,61321,6,0,P|329:194|232:165,2,181.500000293732
163,343,61921,6,0,L|124:248,1,90.7500001468659
244,239,62121,2,0,L|282:145,1,82.4999976158143
163,135,62321,2,0,L|131:52,1,74.2499955883028
244,239,62521,5,0,0:0:0:0:
325,343,62721,6,0,L|364:248,1,90.7500001468659
244,239,62921,2,0,L|206:145,1,82.4999976158143
325,135,63121,2,0,L|357:52,1,74.2499955883028
213,162,63321,6,0,L|256:264,1,111.374993382454
270,293,63521,1,0,0:0:0:0:
196,154,63721,6,0,P|190:116|221:147,1,111.374993382454
237,257,63921,2,0,L|196:154,1,111.374993382454
213,162,64121,6,0,L|300:378,1,222.749986764908
351,292,64521,2,0,L|267:85,1,222.749986764908
213,162,64921,5,0,0:0:0:0:
142,313,65121,6,0,L|106:223,1,74.2499955883028
185,230,65321,2,0,L|220:144,1,74.2499955883028
70,134,65521,2,0,L|39:51,1,74.2499955883028,0|4,0:0|0:0,0:0:0:0:
212,161,65721,5,0,0:0:0:0:
283,313,65921,6,0,L|319:223,1,74.2499955883028
240,230,66121,2,0,L|205:144,1,74.2499955883028
354,135,66321,2,0,L|385:52,1,74.2499955883028,0|4,0:0|0:0,0:0:0:0:
300,182,66521,5,0,0:0:0:0:
300,182,66721,5,0,0:0:0:0:
302,197,66821,1,0,0:0:0:0:
306,212,66921,2,0,L|317:285,1,61.8749982118607
291,110,67321,6,0,P|228:37|242:141,1,257.81249254942
228,138,67721,6,0,P|218:28|274:35,1,185.625001716614
291,110,68121,1,0,0:0:0:0:
388,41,68221,6,0,L|396:111,2,61.8750005722046
485,110,68521,6,0,L|486:211,1,92.812500858307
451,183,68721,2,0,L|452:284,1,92.812500858307
416,202,68921,5,0,0:0:0:0:
417,110,69121,1,0,0:0:0:0:
336,205,69321,5,0,0:0:0:0:
336,93,69521,1,0,0:0:0:0:
227,269,69721,5,0,0:0:0:0:
227,142,69921,1,0,0:0:0:0:
336,205,70121,1,0,0:0:0:0:
336,205,70521,6,0,B|354:138|391:89|391:89|333:52|256:52|200:88|200:88|237:100|269:140|269:140|231:206|88:169|61:91,1,659.999980926514
72,224,72321,6,0,L|72:180,1,41.2499988079071
103,250,72521,2,0,L|103:191,1,41.2499988079071
156,281,72721,2,0,L|156:226,1,41.2499988079071
236,302,72921,2,0,L|236:248,1,41.2499988079071
338,294,73121,2,0,L|338:248,1,41.2499988079071
447,237,73321,6,0,P|252:308|71:213,1,402.187469966413
85,229,73721,6,0,P|165:199|239:238,1,136.125000220299
210,213,73921,2,0,P|136:157|48:174,1,185.625001716614
210,213,74321,5,0,0:0:0:0:
49,173,74521,2,0,P|81:139|128:140,1,92.812500858307
201,173,74721,2,0,P|170:140|124:139,1,92.812500858307
256,48,74921,5,0,0:0:0:0:
256,80,75021,1,0,0:0:0:0:
256,112,75121,2,0,L|256:170,1,41.2499988079071
463,173,75321,6,0,P|430:139|383:140,1,92.812500858307
311,173,75521,2,0,P|341:140|387:139,1,92.812500858307
471,213,75721,6,0,P|397:157|309:174,1,185.625001716614
392,238,76121,6,0,P|425:208|471:212,1,92.812500858307
467,272,76321,2,0,P|437:239|391:238,1,92.812500858307
360,302,76521,6,0,P|411:263|472:274,2,123.750001144409
120,266,77121,6,0,P|86:236|40:240,1,92.812500858307
45,302,77321,2,0,P|75:269|121:268,1,92.812500858307
