osu file format v14

[General]
AudioFilename: audio.mp3
AudioLeadIn: 0
PreviewTime: 55586
Countdown: 0
SampleSet: Soft
StackLeniency: 0.3
Mode: 0
LetterboxInBreaks: 0
WidescreenStoryboard: 0

[Editor]
DistanceSpacing: 1.2
BeatDivisor: 4
GridSize: 32
TimelineZoom: 1.9

[Metadata]
Title:Grip! (TV Size)
TitleUnicode:Grip! (TV Size)
Artist:Every Little Thing
ArtistUnicode:Every Little Thing
Creator:Pepekcz
Version:Shikon no Tama
Source:犬夜叉
Tags:Nachmark ELT Inuyashya inuyasha 持田香織 Mochida kaori まだスイミー 結婚できない男 Kazuhiro Hara japanese anime op opening 4 four pop jpop j-pop vocal female
BeatmapID:3787808
BeatmapSetID:1844038

[Difficulty]
HPDrainRate:5
CircleSize:4.2
OverallDifficulty:8.6
ApproachRate:9.2
SliderMultiplier:2.78
SliderTickRate:1

[Events]
//Background and Video events
0,0,"bg.jpg",0,0
Video,-160,"video.mp4"
//Break Periods
//Storyboard Layer 0 (Background)
//Storyboard Layer 1 (Fail)
//Storyboard Layer 2 (Pass)
//Storyboard Layer 3 (Foreground)
//Storyboard Layer 4 (Overlay)
//Storyboard Sound Samples

[TimingPoints]
649,500,4,2,1,8,1,0
1149,-100,4,2,1,18,0,0
1649,-100,4,2,1,28,0,0
2149,-100,4,2,1,38,0,0
2649,-100,4,2,1,48,0,0
3149,-100,4,2,1,58,0,0
3649,500,4,2,1,38,1,0
3649,-84.7457627118644,4,2,1,78,0,0
23649,-113.636363636364,4,2,1,58,0,0
39649,-102.040816326531,4,2,1,68,0,0
55649,-113.636363636364,4,2,1,48,0,0
56149,-92.5925925925926,4,2,1,58,0,0
56649,-92.5925925925926,4,2,1,68,0,0
57149,-92.5925925925926,4,2,1,78,0,0
57649,-78.125,4,2,1,88,0,1
62836,-78.125,4,2,1,5,0,1
62899,-78.125,4,2,1,88,0,1
73524,-78.125,4,2,1,88,0,0
73649,-78.125,4,2,1,88,0,1
78836,-78.125,4,2,1,5,0,1
78899,-78.125,4,2,1,88,0,1
81649,-92.5925925925926,4,2,1,88,0,1
82149,-113.636363636364,4,2,1,88,0,1
82649,-147.058823529412,4,2,1,88,0,1
83649,-92.5925925925927,4,2,1,88,0,1
84149,-113.636363636364,4,2,1,88,0,1
84649,-147.058823529412,4,2,1,88,0,1
85649,-78.1250000000001,4,2,1,88,0,1
89649,-84.7457627118644,4,2,1,78,0,0
93649,-92.5925925925926,4,2,1,88,0,1
94149,-113.636363636364,4,2,1,88,0,1
94649,-147.058823529412,4,2,1,88,0,1
95649,-92.5925925925927,4,2,1,88,0,1
96149,-113.636363636364,4,2,1,88,0,1
96649,-147.058823529412,4,2,1,88,0,1
97649,-78.125,4,2,1,88,0,1
101649,-84.7457627118644,4,2,1,78,0,0
113649,-1000,4,2,1,68,0,0
113899,-1000,4,2,1,5,0,0

[Colours]
Combo1 : 214,152,214
Combo2 : 185,47,47
Combo3 : 240,112,106
Combo4 : 145,49,142

[HitObjects]
256,192,649,12,0,3149,0:0:0:0:
497,25,3399,5,2,0:0:0:0:
493,36,3524,1,2,0:0:0:0:
506,129,3649,6,0,P|437:137|341:167,1,164.019994243683,6|0,1:2|0:0,0:0:0:0:
248,238,4024,1,2,0:0:0:0:
308,286,4149,6,0,P|368:239|338:169,1,164.019994243683,6|0,1:2|0:0,0:0:0:0:
199,83,4524,1,2,0:0:0:0:
278,75,4649,6,0,P|264:118|251:168,1,82.0099971218415,6|0,1:2|0:0,0:0:0:0:
144,220,4899,1,2,0:0:0:0:
180,287,5024,1,6,0:3:0:0:
124,339,5149,2,0,P|94:311|95:266,1,82.0099971218415,10|0,1:2|0:0,0:0:0:0:
222,220,5399,2,0,P|252:192|251:147,1,82.0099971218415,2|0,1:2|0:0,0:0:0:0:
130,31,5649,6,0,B|172:10|212:42|196:57|227:88|287:72,1,164.019994243683,6|0,1:2|0:0,0:0:0:0:
419,25,6024,1,2,0:0:0:0:
356,75,6149,6,0,P|378:155|393:259,1,164.019994243683,6|0,1:2|0:0,0:0:0:0:
493,340,6524,1,2,0:0:0:0:
428,377,6649,6,0,P|409:362|405:304,1,82.0099971218415,6|0,1:2|0:0,0:0:0:0:
458,190,6899,1,2,0:0:0:0:
390,234,7024,1,6,0:3:0:0:
308,210,7149,2,0,P|317:250|326:303,1,82.0099971218415,10|0,1:2|0:0,0:0:0:0:
239,373,7399,2,0,P|231:332|222:292,1,82.0099971218415,2|0,1:2|0:0,0:0:0:0:
77,200,7649,6,0,P|139:151|103:79,1,164.019994243683,6|0,1:2|0:0,0:0:0:0:
39,44,8024,2,0,P|120:54|199:75,1,164.019994243683,2|0,0:0|0:0,0:0:0:0:
286,133,8399,2,0,P|224:84|260:12,1,164.019994243683,2|8,0:2|1:2,0:0:0:0:
403,94,8899,5,2,0:0:0:0:
403,94,9149,2,0,P|429:127|429:179,1,82.0099971218415,10|0,1:2|0:0,0:0:0:0:
512,178,9399,2,0,P|496:217|451:243,1,82.0099971218415,2|0,1:2|0:0,0:0:0:0:
496,371,9649,6,0,P|393:338|229:311,1,246.029991365525,6|2,1:2|0:0,0:0:0:0:
149,366,10149,2,0,P|132:353|128:292,1,82.0099971218415,8|0,1:2|0:0,0:0:0:0:
210,237,10399,1,2,0:0:0:0:
235,164,10524,1,2,0:0:0:0:
183,107,10649,6,0,P|167:127|160:181,1,82.0099971218415,10|0,1:2|0:0,0:0:0:0:
310,145,10899,2,0,P|309:185|287:219,1,82.0099971218415,8|0,0:3|0:0,0:0:0:0:
264,78,11149,5,4,0:3:0:0:
319,26,11274,1,4,0:3:0:0:
419,157,11399,5,2,1:2:0:0:
369,88,11524,1,2,0:0:0:0:
467,1,11649,6,0,P|443:81|426:170,1,164.019994243683,6|0,1:2|0:0,0:0:0:0:
494,301,12024,1,2,0:0:0:0:
430,264,12149,6,0,B|388:243|348:275|364:290|333:321|273:305,1,164.019994243683,6|0,1:2|0:0,0:0:0:0:
150,225,12524,1,2,0:0:0:0:
207,177,12649,6,0,P|244:202|244:245,1,82.0099971218415,6|0,1:2|0:0,0:0:0:0:
127,365,12899,1,2,0:0:0:0:
80,302,13024,1,6,0:3:0:0:
11,342,13149,2,0,P|-10:303|2:259,1,82.0099971218415,10|0,1:2|0:0,0:0:0:0:
78,153,13399,2,0,P|83:192|63:227,1,82.0099971218415,2|0,1:2|0:0,0:0:0:0:
8,47,13649,6,0,P|81:19|166:9,1,164.019994243683,6|0,1:2|0:0,0:0:0:0:
272,93,14024,1,2,0:0:0:0:
211,136,14149,6,0,P|161:112|183:12,1,164.019994243683,6|0,1:2|0:0,0:0:0:0:
277,97,14524,1,0,0:0:0:0:
328,149,14649,6,0,P|367:135|408:130,1,82.0099971218415,6|0,1:2|0:0,0:0:0:0:
456,295,14899,1,2,0:0:0:0:
497,231,15024,1,6,0:3:0:0:
430,203,15149,2,0,P|389:208|350:221,1,82.0099971218415,10|0,1:2|0:0,0:0:0:0:
244,299,15399,2,0,P|213:284|202:234,1,82.0099971218415,2|0,1:2|0:0,0:0:0:0:
277,97,15649,6,0,B|235:118|195:86|211:71|180:40|120:56,1,164.019994243683,6|0,1:2|0:0,0:0:0:0:
105,168,16024,2,0,P|161:127|111:55,1,164.019994243683,2|0,0:0|0:0,0:0:0:0:
51,107,16399,2,0,P|67:190|76:296,1,164.019994243683,2|8,0:0|1:2,0:0:0:0:
227,365,16899,5,2,0:0:0:0:
227,365,17149,2,0,P|246:331|242:286,1,82.0099971218415,10|0,1:2|0:0,0:0:0:0:
323,256,17399,2,0,P|303:222|262:203,1,82.0099971218415,2|0,1:2|0:0,0:0:0:0:
153,279,17649,6,0,P|250:245|410:213,1,246.029991365525,6|0,1:2|0:0,0:0:0:0:
451,350,18149,2,0,P|422:330|415:281,1,82.0099971218415,8|0,1:2|0:0,0:0:0:0:
464,166,18399,1,2,0:0:0:0:
506,101,18524,1,2,0:0:0:0:
448,48,18649,6,0,P|412:30|362:38,1,82.0099971218415,10|0,1:2|1:2,0:0:0:0:
318,123,18899,2,0,P|358:126|394:108,1,82.0099971218415,8|8,0:3|0:3,0:0:0:0:
217,81,19149,5,4,0:3:0:0:
248,154,19274,1,4,0:3:0:0:
123,91,19399,5,2,1:2:0:0:
150,26,19524,1,8,0:3:0:0:
22,149,19649,5,6,1:2:0:0:
84,195,19774,2,0,P|168:171|249:163,1,164.019994243683,2|2,0:0|0:0,0:0:0:0:
341,260,20149,2,0,P|313:240|313:192,1,82.0099971218415,10|0,1:2|0:0,0:0:0:0:
446,155,20399,5,2,0:0:0:0:
391,207,20524,2,0,P|369:293|354:374,1,164.019994243683,2|2,0:0|0:0,0:0:0:0:
244,337,20899,5,2,0:0:0:0:
244,337,21149,2,0,P|206:317|165:317,1,82.0099971218415,10|0,1:2|0:0,0:0:0:0:
146,238,21399,2,0,P|109:260|89:296,1,82.0099971218415,2|0,1:2|0:0,0:0:0:0:
25,338,21649,5,2,1:2:0:0:
13,316,21774,1,2,0:0:0:0:
11,291,21899,1,2,0:0:0:0:
19,267,22024,1,2,0:0:0:0:
2,187,22149,5,10,0:3:0:0:
17,160,22274,1,2,0:0:0:0:
41,143,22399,1,2,0:0:0:0:
71,137,22524,1,6,0:3:0:0:
160,164,22649,5,2,1:2:0:0:
218,119,22774,2,0,B|243:111|271:119|286:147|281:152|290:178|316:199|359:187,1,164.019994243683,2|0,0:0|0:0,0:0:0:0:
485,121,23149,5,10,1:2:0:0:
425,77,23274,1,6,0:3:0:0:
354,113,23399,1,8,1:2:0:0:
352,188,23524,1,8,0:3:0:0:
481,271,23649,6,0,P|426:277|360:320,1,122.32000373291,6|0,1:2|0:0,0:0:0:0:
289,335,24024,1,2,0:0:0:0:
355,376,24149,2,0,P|368:350|360:312,1,61.1600018664551,0|2,1:2|0:0,0:0:0:0:
287,248,24399,6,0,P|274:222|282:184,1,61.1600018664551,2|0,0:0|0:0,0:0:0:0:
352,188,24649,2,0,P|264:161|173:149,1,183.480005599365,0|0,1:2|0:0,0:0:0:0:
95,219,25149,5,8,1:2:0:0:
95,219,25399,2,0,P|80:194|84:156,1,61.1600018664551,2|0,0:0|0:0,0:0:0:0:
44,80,25649,6,0,P|101:61|162:53,1,122.32000373291,2|0,1:2|0:0,0:0:0:0:
246,15,26024,2,0,P|306:22|364:42,1,122.32000373291,2|0,0:0|0:0,0:0:0:0:
381,111,26399,6,0,P|364:79|370:49,1,61.1600018664551,2|0,0:0|0:0,0:0:0:0:
484,87,26649,2,0,P|457:172|437:288,1,183.480005599365,0|0,1:2|0:0,0:0:0:0:
489,344,27149,5,8,1:2:0:0:
489,344,27399,2,0,P|455:355|423:367,1,61.1600018664551,2|0,1:2|0:0,0:0:0:0:
269,194,27649,6,0,P|335:200|337:305,1,183.480005599365,2|0,1:2|0:0,0:0:0:0:
347,380,28149,2,0,P|258:357|167:346,1,183.480005599365,2|0,1:2|0:0,0:0:0:0:
94,374,28649,2,0,P|144:331|86:246,1,183.480005599365,2|0,1:2|0:0,0:0:0:0:
36,187,29149,5,8,1:2:0:0:
36,187,29399,2,0,P|73:174|103:168,1,61.1600018664551
176,205,29649,6,0,P|248:227|369:272,1,183.480005599365,2|2,1:2|0:0,0:0:0:0:
416,318,30149,1,0,1:2:0:0:
416,318,30399,2,0,P|441:290|441:264,1,61.1600018664551,2|0,0:0|0:0,0:0:0:0:
371,170,30649,5,0,1:2:0:0:
385,180,30774,1,2,0:0:0:0:
403,179,30899,2,0,P|413:149|426:113,1,61.1600018664551,2|0,0:0|0:0,0:0:0:0:
482,206,31149,2,0,P|492:176|505:140,1,61.1600018664551,8|0,1:2|0:0,0:0:0:0:
503,49,31399,5,2,0:0:0:0:
493,41,31524,1,2,0:0:0:0:
382,49,31649,6,0,P|349:61|315:78,1,61.1600018664551,6|0,1:2|0:0,0:0:0:0:
221,127,31899,1,2,0:0:0:0:
159,167,32024,2,0,P|112:139|128:73,1,122.32000373291,2|0,0:0|0:0,0:0:0:0:
211,0,32399,6,0,P|198:36|189:70,1,61.1600018664551,2|0,0:0|0:0,0:0:0:0:
159,167,32649,2,0,B|206:183|248:137|228:121|266:80|314:96,1,183.480005599365,0|0,1:2|0:0,0:0:0:0:
372,143,33149,5,8,1:2:0:0:
372,143,33399,1,2,0:0:0:0:
375,154,33524,1,2,0:0:0:0:
458,238,33649,6,0,P|431:247|408:276,1,61.1600018664551,2|0,1:2|0:0,0:0:0:0:
474,312,33899,1,2,0:0:0:0:
470,212,34024,2,0,P|409:236|384:302,1,122.32000373291,2|2,0:0|0:0,0:0:0:0:
321,374,34399,6,0,P|313:346|303:313,1,61.1600018664551,2|0,0:0|0:0,0:0:0:0:
212,265,34649,2,0,P|279:237|227:160,1,183.480005599365,0|0,1:2|0:0,0:0:0:0:
155,122,35149,5,8,1:2:0:0:
155,122,35399,1,2,0:0:0:0:
152,133,35524,1,2,0:0:0:0:
81,197,35649,6,0,P|93:231|99:261,1,61.1600018664551,2|0,1:2|0:0,0:0:0:0:
60,361,35899,1,2,0:0:0:0:
22,286,36024,2,0,P|83:288|143:333,1,122.32000373291,2|0,0:0|0:0,0:0:0:0:
196,259,36399,2,0,P|217:288|223:319,1,61.1600018664551,2|0,0:0|0:0,0:0:0:0:
183,379,36649,5,0,1:2:0:0:
183,379,36899,2,0,P|204:350|210:319,1,61.1600018664551,2|0,0:0|0:0,0:0:0:0:
306,296,37149,2,0,P|291:263|267:242,1,61.1600018664551,10|0,1:2|0:0,0:0:0:0:
297,169,37399,2,0,P|261:165|231:175,1,61.1600018664551,2|0,0:0|0:0,0:0:0:0:
133,205,37649,6,0,P|166:170|129:103,1,122.32000373291,2|0,1:2|0:0,0:0:0:0:
79,61,38024,1,2,0:0:0:0:
22,117,38149,5,2,0:0:0:0:
22,117,38399,2,0,P|34:164|36:199,1,61.1600018664551,2|0,0:0|0:0,0:0:0:0:
83,295,38649,6,0,P|115:292|142:277,1,61.1600018664551,10|2,1:2|0:0,0:0:0:0:
190,221,38899,2,0,P|163:206|132:204,1,61.1600018664551,8|0,0:3|0:0,0:0:0:0:
255,284,39149,5,8,1:2:0:0:
315,231,39274,1,8,1:2:0:0:
259,177,39399,1,10,0:3:0:0:
254,170,39524,1,6,0:3:0:0:
360,96,39649,6,0,P|337:160|322:226,1,136.219998752869,6|0,1:2|0:0,0:0:0:0:
371,288,40024,2,0,P|342:271|329:236,1,68.1099993764343,2|0,0:0|1:2,0:0:0:0:
444,297,40274,1,2,0:0:0:0:
402,358,40399,2,0,P|372:374|335:368,1,68.1099993764343,2|0,0:0|0:0,0:0:0:0:
255,284,40649,6,0,B|214:269|183:282|162:314|168:313|171:320|159:360|129:376|83:362,1,204.329998129303,0|0,1:2|0:0,0:0:0:0:
62,230,41149,2,0,P|90:247|103:278,1,68.1099993764343,10|0,1:2|0:0,0:0:0:0:
5,363,41399,2,0,P|6:330|26:303,1,68.1099993764343,2|0,1:2|0:0,0:0:0:0:
195,328,41649,6,0,P|259:305|325:290,1,136.219998752869,2|0,1:2|0:0,0:0:0:0:
397,327,42024,2,0,P|348:283|360:219,1,136.219998752869,2|0,0:0|0:0,0:0:0:0:
426,162,42399,2,0,P|386:143|351:132,1,68.1099993764343,2|0,0:0|0:0,0:0:0:0:
264,178,42649,6,0,P|281:153|283:113,1,68.1099993764343,0|0,1:2|0:0,0:0:0:0:
188,151,42899,2,0,P|189:117|207:88,1,68.1099993764343,2|0,0:0|0:0,0:0:0:0:
271,38,43149,5,8,1:2:0:0:
271,38,43399,2,0,P|245:15|212:8,1,68.1099993764343,2|0,1:2|0:0,0:0:0:0:
103,140,43649,6,0,P|159:110|148:48,1,136.219998752869,2|0,1:2|0:0,0:0:0:0:
6,35,44024,1,0,0:0:0:0:
83,8,44149,2,0,P|65:100|49:234,1,204.329998129303,2|0,1:2|0:0,0:0:0:0:
36,300,44649,6,0,B|77:315|108:302|129:270|123:271|120:264|132:224|162:208|207:221,1,204.329998129303,2|0,1:2|0:0,0:0:0:0:
224,296,45149,2,0,B|183:311|152:298|131:266|137:267|140:260|128:220|98:204|52:217,1,204.329998129303,10|0,1:2|0:0,0:0:0:0:
27,305,45649,6,0,P|81:260|41:214,1,136.219998752869,2|0,1:2|0:0,0:0:0:0:
4,152,46024,1,2,0:0:0:0:
80,142,46149,2,0,P|92:120|84:70,1,68.1099993764343,0|0,1:2|0:0,0:0:0:0:
17,14,46399,2,0,P|5:36|13:86,1,68.1099993764343,2|0,0:0|0:0,0:0:0:0:
82,149,46649,6,0,P|181:125|283:121,1,204.329998129303,0|0,1:2|0:0,0:0:0:0:
346,163,47149,1,8,1:2:0:0:
346,163,47399,5,2,1:2:0:0:
360,147,47524,1,2,0:0:0:0:
300,39,47649,6,0,P|362:74|367:145,1,136.219998752869,6|0,1:2|0:0,0:0:0:0:
462,109,48024,2,0,P|462:180|403:220,1,136.219998752869,2|0,0:0|0:0,0:0:0:0:
443,321,48399,2,0,P|378:291|292:265,1,136.219998752869,2|0,0:0|1:2,0:0:0:0:
175,336,48899,5,2,0:0:0:0:
175,336,49149,2,0,P|157:303|157:263,1,68.1099993764343,10|0,1:2|0:0,0:0:0:0:
74,246,49399,2,0,P|93:213|128:193,1,68.1099993764343,2|0,0:0|0:0,0:0:0:0:
232,257,49649,6,0,P|150:219|192:134,1,204.329998129303,6|0,1:2|0:0,0:0:0:0:
300,153,50149,2,0,P|269:252|238:367,1,204.329998129303,2|0,1:2|0:0,0:0:0:0:
318,372,50649,6,0,P|344:273|375:175,1,204.329998129303,2|0,1:2|0:0,0:0:0:0:
486,128,51149,2,0,P|467:107|428:95,1,68.1099993764343,10|0,1:2|0:0,0:0:0:0:
420,16,51399,2,0,P|392:21|362:49,1,68.1099993764343,0|0,1:2|0:0,0:0:0:0:
382,172,51649,6,0,B|341:187|310:174|289:142|295:143|298:136|286:96|256:80|210:93,1,204.329998129303,6|0,1:2|0:0,0:0:0:0:
111,174,52149,2,0,P|89:168|63:126,1,68.1099993764343,2|0,1:2|0:0,0:0:0:0:
208,94,52399,2,0,P|187:170|159:336,1,204.329998129303,2|0,0:0|0:0,0:0:0:0:
149,372,52899,2,0,P|182:372|209:352,1,68.1099993764343
256,264,53149,5,8,1:2:0:0:
256,264,53399,2,0,L|329:287,1,68.1099993764343,2|0,0:0|0:0,0:0:0:0:
400,367,53649,6,0,B|415:326|402:295|370:274|371:280|364:283|324:271|308:241|321:195,1,204.329998129303,6|0,1:2|0:0,0:0:0:0:
413,162,54149,2,0,P|436:135|438:101,1,68.1099993764343,0|0,1:2|0:0,0:0:0:0:
376,16,54399,5,2,0:0:0:0:
376,16,54649,2,0,P|363:47|354:80,1,68.1099993764343,2|0,1:2|0:0,0:0:0:0:
459,38,54899,2,0,P|446:69|437:102,1,68.1099993764343,2|0,0:0|1:2,0:0:0:0:
349,88,55149,6,0,P|368:172|388:302,1,204.329998129303,10|0,1:2|0:0,0:0:0:0:
289,362,55649,6,0,P|226:329|267:231,1,183.480005599365,10|8,1:2|3:0,0:0:0:0:
339,236,56149,5,10,1:2:0:0:
299,171,56274,1,10,1:2:0:0:
383,149,56399,5,8,0:3:0:0:
385,138,56524,1,4,0:3:0:0:
283,36,56649,5,10,1:2:0:0:
324,101,56774,1,10,1:2:0:0:
209,163,56899,5,8,0:3:0:0:
213,145,57024,1,4,0:3:0:0:
127,162,57149,5,10,1:2:0:0:
158,245,57274,1,10,0:3:0:0:
1,308,57399,5,8,1:2:0:0:
69,229,57524,1,8,0:3:0:0:
24,56,57649,6,0,P|67:63|132:89,1,88.96,6|0,1:2|0:0,0:0:0:0:
207,174,57899,1,2,0:0:0:0:
127,162,58024,2,0,P|99:128|110:82,1,88.96,2|8,0:0|1:2,0:0:0:0:
209,163,58274,5,2,0:0:0:0:
158,245,58399,2,0,P|200:256|243:270,1,88.96,2|0,0:0|0:0,0:0:0:0:
379,340,58649,5,0,1:2:0:0:
442,258,58774,1,4,0:3:0:0:
297,190,58899,5,4,0:3:0:0:
348,259,59024,1,4,0:3:0:0:
452,106,59149,6,0,P|422:73|372:72,1,88.96,10|0,1:2|0:0,0:0:0:0:
307,190,59399,2,0,P|350:185|379:153,1,88.96,2|0,1:2|0:0,0:0:0:0:
113,81,59649,6,0,P|90:166|75:254,1,177.92,2|0,1:2|0:0,0:0:0:0:
171,369,60024,1,2,0:0:0:0:
73,268,60149,1,8,1:2:0:0:
160,218,60274,5,2,0:0:0:0:
72,352,60399,2,0,P|20:337|-1:306,1,88.96,2|0,0:0|0:0,0:0:0:0:
165,213,60649,2,0,B|210:180|252:182|284:229|280:234|274:236|299:282|340:311|404:272,1,266.88,2|4,1:2|0:3,0:0:0:0:
452,144,61149,6,0,P|408:152|383:189,1,88.96,10|0,1:2|0:0,0:0:0:0:
464,316,61399,2,0,P|479:273|459:233,1,88.96,2|0,1:2|0:0,0:0:0:0:
278,343,61649,6,0,P|316:354|370:374,1,88.96,6|0,1:2|0:0,0:0:0:0:
238,259,61899,1,2,0:0:0:0:
164,289,62024,2,0,P|179:330|191:373,1,88.96,2|8,0:2|1:2,0:0:0:0:
133,207,62274,5,2,0:0:0:0:
75,262,62399,2,0,P|24:261|-1:217,1,88.96,2|0,0:2|0:0,0:0:0:0:
169,67,62649,6,0,P|150:131|136:201,1,133.44,6|0,1:2|0:0,0:0:0:0:
133,207,62899,2,0,P|189:197|216:166,1,88.96,2|0,0:0|0:0,0:0:0:0:
291,53,63149,6,0,P|302:102|313:152,1,88.96,10|0,1:2|0:0,0:0:0:0:
390,32,63399,2,0,P|401:81|412:131,1,88.96,2|0,1:2|0:0,0:0:0:0:
499,308,63649,6,0,P|456:286|445:248,1,88.96,6|0,1:2|0:0,0:0:0:0:
470,175,63899,1,2,0:0:0:0:
366,273,64024,6,0,P|363:224|390:196,1,88.96,2|8,0:0|1:2,0:0:0:0:
475,167,64274,1,10,0:3:0:0:
332,136,64399,6,0,P|372:109|410:119,1,88.96,2|4,0:0|0:3,0:0:0:0:
268,229,64649,6,0,P|187:209|68:192,1,177.92,0|0,1:2|0:0,0:0:0:0:
0,284,65024,1,4,0:3:0:0:
55,338,65149,2,0,P|97:301|95:269,1,88.96,8|0,1:2|0:0,0:0:0:0:
9,113,65399,5,10,1:2:0:0:
86,195,65524,1,10,1:2:0:0:
199,66,65649,6,0,B|246:47|281:86|275:87|275:87|274:94|304:137|359:116,1,177.92,6|0,1:2|0:0,0:0:0:0:
466,13,66024,2,0,P|433:24|415:72,1,88.96,2|8,0:0|1:2,0:0:0:0:
509,218,66274,1,2,0:0:0:0:
451,271,66399,2,0,P|369:246|269:229,1,177.92,2|0,0:0|1:2,0:0:0:0:
278,229,66899,6,0,P|299:188|286:149,1,88.96,2|0,0:0|0:0,0:0:0:0:
147,76,67149,2,0,P|172:114|212:122,1,88.96,10|0,1:2|0:0,0:0:0:0:
344,39,67399,2,0,P|297:41|270:72,1,88.96,2|0,1:2|0:0,0:0:0:0:
151,206,67649,6,0,P|162:254|170:307,1,88.96,2|0,1:2|0:0,0:0:0:0:
193,372,67899,1,2,0:0:0:0:
229,192,68024,6,0,P|240:240|248:293,1,88.96,2|8,0:0|0:2,0:0:0:0:
289,354,68274,1,2,0:0:0:0:
141,203,68399,6,0,P|152:251|160:304,1,88.96,2|0,0:2|0:0,0:0:0:0:
279,346,68649,2,0,B|234:379|192:377|160:330|164:325|170:323|145:277|104:248|40:287,1,266.88,2|4,1:2|0:3,0:0:0:0:
81,361,69149,5,8,1:2:0:0:
81,361,69399,2,0,P|47:325|57:288,1,88.96,2|0,1:2|0:0,0:0:0:0:
190,243,69649,6,0,P|252:157|211:97,1,177.92,6|0,1:2|0:0,0:0:0:0:
105,7,70024,2,0,P|148:103|220:98,1,177.92,2|0,0:0|0:0,0:0:0:0:
290,63,70399,2,0,P|246:63|218:95,1,88.96,2|0,0:0|0:0,0:0:0:0:
343,197,70649,5,0,1:2:0:0:
343,197,70899,2,0,P|348:151|359:110,1,88.96,2|0,0:0|0:0,0:0:0:0:
417,255,71149,6,0,P|382:286|329:290,1,88.96,10|0,1:2|0:0,0:0:0:0:
198,205,71399,2,0,P|241:212|273:242,1,88.96,2|0,1:2|0:0,0:0:0:0:
76,353,71649,6,0,P|60:220|31:90,1,266.88,6|0,1:2|0:0,0:0:0:0:
150,42,72149,6,0,P|117:19|66:25,1,88.96,8|0,1:2|0:0,0:0:0:0:
211,100,72399,2,0,P|234:67|228:16,1,88.96,2|0,0:0|0:0,0:0:0:0:
125,165,72649,5,8,1:2:0:0:
217,225,72774,1,10,1:2:0:0:
294,163,72899,1,8,0:3:0:0:
364,203,73024,1,4,0:3:0:0:
257,354,73149,5,10,1:2:0:0:
217,225,73274,1,10,1:2:0:0:
362,276,73399,5,8,1:2:0:0:
280,281,73524,1,8,0:3:0:0:
294,163,73649,6,0,P|332:134|371:131,1,88.96,6|0,1:2|0:0,0:0:0:0:
491,179,73899,1,2,0:0:0:0:
502,107,74024,2,0,P|464:78|425:75,1,88.96,2|0,0:2|1:2,0:0:0:0:
294,163,74274,5,2,0:0:0:0:
215,133,74399,2,0,P|187:107|189:50,1,88.96,2|0,0:0|0:0,0:0:0:0:
321,13,74649,5,0,1:2:0:0:
278,90,74774,1,4,0:3:0:0:
410,201,74899,5,4,0:3:0:0:
371,131,75024,1,4,0:3:0:0:
269,271,75149,6,0,P|315:282|364:295,1,88.96,10|0,1:2|0:0,0:0:0:0:
185,204,75399,2,0,P|139:215|90:228,1,88.96,2|0,1:2|0:0,0:0:0:0:
193,343,75649,6,0,P|243:284|184:209,1,177.92,2|2,1:2|0:0,0:0:0:0:
35,147,76024,1,2,0:0:0:0:
103,234,76149,1,8,1:2:0:0:
149,123,76274,1,2,0:0:0:0:
17,228,76399,6,0,P|30:270|47:332,1,88.96,2|0,0:0|0:0,0:0:0:0:
193,343,76649,2,0,B|226:298|224:256|177:224|172:228|170:234|124:209|95:168|134:104,1,266.88,2|4,1:2|0:3,0:0:0:0:
258,57,77149,6,0,P|226:27|176:27,1,88.96,10|0,1:2|0:0,0:0:0:0:
254,170,77399,2,0,P|297:167|329:137,1,88.96,2|0,1:2|0:0,0:0:0:0:
104,22,77649,6,0,P|116:65|129:132,1,88.96,6|0,1:2|0:0,0:0:0:0:
196,239,77899,1,2,0:0:0:0:
132,291,78024,2,0,P|102:264|99:210,1,88.96,2|8,0:0|1:2,0:0:0:0:
227,313,78274,1,2,0:0:0:0:
164,367,78399,2,0,P|125:379|77:355,1,88.96,2|0,0:0|0:0,0:0:0:0:
196,239,78649,6,0,P|246:197|330:207,1,133.44,0|0,1:2|0:0,0:0:0:0:
320,205,78899,2,0,P|312:248|304:309,1,88.96,2|0,0:0|0:0,0:0:0:0:
422,377,79149,6,0,P|442:333|429:292,1,88.96,10|0,1:2|0:0,0:0:0:0:
512,254,79399,2,0,P|483:214|441:205,1,88.96,2|0,1:2|0:0,0:0:0:0:
306,292,79649,6,0,P|312:248|320:205,1,88.96,2|0,1:2|0:0,0:0:0:0:
378,144,79899,1,2,0:0:0:0:
235,255,80024,6,0,P|241:210|248:167,1,88.96,2|8,0:0|1:2,0:0:0:0:
306,106,80274,1,2,0:0:0:0:
166,203,80399,6,0,P|172:158|179:115,1,88.96,2|0,0:0|0:0,0:0:0:0:
317,27,80649,6,0,P|267:32|243:62,1,88.96,8|0,1:2|0:0,0:0:0:0:
378,144,80899,2,0,P|398:98|384:62,1,88.96,8|0,0:3|0:0,0:0:0:0:
248,167,81149,5,8,1:2:0:0:
310,242,81274,1,0,1:2:0:0:
232,301,81399,1,10,0:3:0:0:
170,226,81524,1,4,0:3:0:0:
359,322,81649,6,0,P|425:273|374:143,1,225.180005497559,6|0,1:2|0:0,0:0:0:0:
211,30,82149,6,0,P|233:114|321:131,1,183.480005599365,6|0,1:2|0:0,0:0:0:0:
491,42,82649,6,0,P|424:29|374:78,1,141.780000865356,6|0,1:2|0:0,0:0:0:0:
336,207,83149,6,0,P|342:229|345:253,1,47.2600002884521,10|0,1:2|0:0,0:0:0:0:
261,222,83399,2,0,P|267:244|270:268,1,47.2600002884521,0|0,1:2|0:0,0:0:0:0:
153,322,83649,6,0,P|87:273|138:143,1,225.180005497559,6|0,1:2|0:0,0:0:0:0:
301,30,84149,6,0,P|278:114|191:131,1,183.480005599365,6|0,1:2|0:0,0:0:0:0:
22,41,84649,6,0,P|89:28|138:77,1,141.780000865356,6|0,1:2|0:0,0:0:0:0:
177,205,85149,5,8,1:2:0:0:
177,205,85399,1,2,1:2:0:0:
260,160,85524,1,2,0:0:0:0:
84,176,85649,6,0,P|94:213|106:280,1,88.96,6|0,1:2|0:0,0:0:0:0:
167,306,85899,1,0,0:0:0:0:
77,173,86024,6,0,P|87:210|99:277,1,88.96,2|8,0:0|1:2,0:0:0:0:
173,305,86274,1,2,0:0:0:0:
70,170,86399,6,0,P|-1:211|25:289,1,177.92,2|0,0:0|1:2,0:0:0:0:
236,363,86899,6,0,P|259:334|254:280,1,88.96,2|0,0:0|0:0,0:0:0:0:
336,258,87149,2,0,P|322:223|273:200,1,88.96,10|0,1:2|0:0,0:0:0:0:
295,111,87399,2,0,P|258:105|214:136,1,88.96,0|0,1:2|0:0,0:0:0:0:
135,204,87649,6,0,P|261:162|392:134,1,266.88,6|0,1:2|0:0,0:0:0:0:
428,276,88149,2,0,P|383:263|364:225,1,88.96,8|0,1:2|0:0,0:0:0:0:
448,83,88399,5,2,0:0:0:0:
494,143,88524,1,2,0:0:0:0:
442,197,88649,2,0,B|397:230|355:228|323:181|327:176|333:174|308:128|267:99|203:138,1,266.88,2|0,1:2|0:0,0:0:0:0:
185,239,89149,5,8,0:0:0:0:
185,238,89399,2,0,P|226:236|251:195,1,88.96,2|0,1:2|0:0,0:0:0:0:
209,58,89649,5,6,1:2:0:0:
141,15,89774,2,0,P|53:32|36:109,1,164.019994243683,2|2,0:0|0:0,0:0:0:0:
91,242,90149,2,0,P|49:227|4:217,1,82.0099971218415,10|0,1:2|0:0,0:0:0:0:
140,176,90399,5,2,0:0:0:0:
185,238,90524,2,0,P|265:222|347:215,1,164.019994243683,2|2,0:0|0:0,0:0:0:0:
433,206,90899,5,2,0:0:0:0:
433,206,91149,2,0,P|444:172|419:124,1,82.0099971218415,10|0,1:2|0:0,0:0:0:0:
355,220,91399,2,0,P|333:182|343:140,1,82.0099971218415,2|0,1:2|0:0,0:0:0:0:
407,280,91649,5,2,1:2:0:0:
341,322,91774,2,0,B|306:336|281:318|271:295|273:290|278:289|263:259|235:246|200:259,1,164.019994243683,2|2,0:0|0:0,0:0:0:0:
118,354,92149,2,0,P|89:328|91:276,1,82.0099971218415,10|0,1:2|0:0,0:0:0:0:
163,193,92399,5,2,0:0:0:0:
207,256,92524,2,0,P|236:230|234:178,1,82.0099971218415,2|0,0:0|1:2,0:0:0:0:
123,126,92774,1,2,0:0:0:0:
79,189,92899,2,0,P|50:163|52:111,1,82.0099971218415,2|8,1:2|0:3,0:0:0:0:
209,15,93149,5,10,1:2:0:0:
132,43,93274,1,0,1:2:0:0:
62,6,93399,1,10,0:3:0:0:
132,50,93524,1,4,0:3:0:0:
275,56,93649,6,0,P|251:166|233:282,1,225.180005497559,6|0,1:2|0:0,0:0:0:0:
393,289,94149,6,0,P|406:198|424:108,1,183.480005599365,6|0,1:2|0:0,0:0:0:0:
341,114,94649,6,0,P|324:191|311:272,1,141.780000865356,6|0,1:2|0:0,0:0:0:0:
218,369,95149,6,0,P|247:360|268:338,1,47.2600002884521,10|0,1:2|0:0,0:0:0:0:
334,372,95399,2,0,P|340:342|332:313,1,47.2600002884521,0|0,1:2|0:0,0:0:0:0:
164,305,95649,6,0,P|140:195|122:79,1,225.180005497559,6|0,1:2|0:0,0:0:0:0:
282,72,96149,6,0,P|295:162|313:252,1,183.480005599365,6|0,1:2|0:0,0:0:0:0:
230,247,96649,6,0,P|213:170|200:88,1,141.780000865356,6|0,1:2|0:0,0:0:0:0:
215,26,97149,5,8,1:2:0:0:
215,26,97399,1,2,1:2:0:0:
279,76,97524,1,2,0:0:0:0:
134,150,97649,6,0,P|93:151|58:111,1,88.96,6|0,1:2|0:0,0:0:0:0:
203,107,97899,1,2,0:0:0:0:
205,185,98024,6,0,P|185:221|133:231,1,88.96,2|8,0:0|1:2,0:0:0:0:
200,100,98274,1,2,0:0:0:0:
289,171,98399,6,0,P|268:258|253:346,1,177.92,2|0,0:0|1:2,0:0:0:0:
84,339,98899,6,0,P|75:292|64:245,1,88.96,2|0,0:0|0:0,0:0:0:0:
159,320,99149,2,0,P|150:273|139:226,1,88.96,10|0,1:2|0:0,0:0:0:0:
75,342,99399,2,0,P|66:295|55:248,1,88.96,2|0,1:2|0:0,0:0:0:0:
201,157,99649,6,0,P|99:101|177:16,1,266.88,6|0,1:2|0:0,0:0:0:0:
260,64,100149,2,0,P|302:76|343:93,1,88.96,8|0,1:2|0:0,0:0:0:0:
448,51,100399,1,2,0:0:0:0:
511,99,100524,1,10,0:3:0:0:
429,246,100649,5,10,0:3:0:0:
377,186,100774,1,8,0:3:0:0:
428,126,100899,1,8,0:3:0:0:
482,184,101024,1,8,0:3:0:0:
341,253,101149,5,4,0:3:0:0:
260,207,101274,1,4,0:3:0:0:
174,243,101399,1,6,0:3:0:0:
260,197,101524,1,4,0:3:0:0:
257,350,101649,5,6,1:2:0:0:
331,333,101774,2,0,B|373:312|413:344|397:359|428:390|488:374,1,164.019994243683,2|2,0:0|0:0,0:0:0:0:
512,254,102149,2,0,P|470:267|430:286,1,82.0099971218415,10|0,1:2|0:0,0:0:0:0:
342,175,102399,5,2,0:0:0:0:
414,164,102524,2,0,P|324:130|235:110,1,164.019994243683,2|2,0:0|0:0,0:0:0:0:
181,174,102899,5,2,0:0:0:0:
181,174,103149,2,0,P|154:159|138:105,1,82.0099971218415,10|0,1:2|0:0,0:0:0:0:
52,117,103399,2,0,P|51:86|90:45,1,82.0099971218415,2|0,1:2|0:0,0:0:0:0:
227,26,103649,5,6,1:2:0:0:
150,12,103774,2,0,P|167:94|184:198,1,164.019994243683,2|2,0:0|0:0,0:0:0:0:
296,231,104149,6,0,P|285:269|273:313,1,82.0099971218415,10|0,1:2|0:0,0:0:0:0:
200,350,104399,1,10,1:2:0:0:
302,225,104524,6,0,P|329:253|361:285,1,82.0099971218415,10|0,1:2|1:2,0:0:0:0:
351,360,104774,1,2,0:0:0:0:
297,220,104899,6,0,P|335:210|379:198,1,82.0099971218415,2|0,0:0|0:0,0:0:0:0:
359,111,105149,2,0,P|319:121|279:132,1,82.0099971218415,10|0,1:2|0:0,0:0:0:0:
153,201,105399,1,2,1:2:0:0:
199,134,105524,1,2,0:0:0:0:
63,94,105649,6,0,B|107:113|143:82|129:68|161:36|220:50,1,164.019994243683,6|0,1:2|0:0,0:0:0:0:
359,111,106024,1,2,0:0:0:0:
305,58,106149,6,0,P|321:138|333:220,1,164.019994243683,6|0,1:2|0:0,0:0:0:0:
394,313,106524,1,2,0:0:0:0:
348,371,106649,6,0,P|309:368|272:333,1,82.0099971218415,6|0,1:2|0:0,0:0:0:0:
199,214,106899,1,2,0:0:0:0:
268,184,107024,1,6,0:3:0:0:
328,230,107149,6,0,P|296:255|256:259,1,82.0099971218415,10|0,1:2|0:0,0:0:0:0:
123,179,107399,2,0,P|163:182|194:208,1,82.0099971218415,2|0,0:0|0:0,0:0:0:0:
36,302,107649,6,0,P|22:220|1:139,1,164.019994243683,6|0,1:2|0:0,0:0:0:0:
75,14,108024,1,2,0:0:0:0:
55,87,108149,6,0,B|99:100|135:72|125:61|157:37|206:46,1,164.019994243683,6|0,1:2|0:0,0:0:0:0:
299,119,108524,1,2,0:0:0:0:
360,168,108649,2,0,P|376:129|366:84,1,82.0099971218415,6|0,1:2|0:0,0:0:0:0:
223,139,108899,5,2,0:0:0:0:
281,206,109024,1,6,0:3:0:0:
360,168,109149,2,0,P|370:207|377:248,1,82.0099971218415,10|0,1:2|0:0,0:0:0:0:
466,307,109399,2,0,P|473:266|483:226,1,82.0099971218415,2|0,1:2|0:0,0:0:0:0:
493,90,109649,6,0,B|458:104|433:86|423:63|425:58|430:57|415:27|387:14|352:27,1,164.019994243683,6|2,1:2|0:0,0:0:0:0:
298,129,110024,2,0,P|363:112|351:28,1,164.019994243683,2|0,0:0|0:0,0:0:0:0:
207,58,110399,2,0,P|215:98|222:138,1,82.0099971218415,2|0,0:0|0:0,0:0:0:0:
157,212,110649,5,0,1:2:0:0:
157,212,110899,2,0,P|124:192|106:145,1,82.0099971218415,2|0,0:0|0:0,0:0:0:0:
137,67,111149,2,0,P|136:105|104:144,1,82.0099971218415,10|0,1:2|0:0,0:0:0:0:
26,156,111399,2,0,P|59:137|109:145,1,82.0099971218415,2|0,0:0|0:0,0:0:0:0:
226,247,111649,6,0,P|350:210|466:189,1,246.029991365525,6|0,1:2|0:0,0:0:0:0:
449,300,112149,2,0,P|418:275|408:234,1,82.0099971218415,8|0,1:2|0:0,0:0:0:0:
329,240,112399,2,0,P|335:200|365:171,1,82.0099971218415,2|2,0:0|0:0,0:0:0:0:
472,84,112649,5,10,1:2:0:0:
400,28,112774,1,8,1:2:0:0:
335,92,112899,1,8,0:3:0:0:
337,102,113024,1,8,0:3:0:0:
255,156,113149,5,4,0:3:0:0:
253,146,113274,1,4,0:3:0:0:
194,101,113399,1,2,1:2:0:0:
137,149,113524,1,0,1:2:0:0:
141,30,113649,6,0,P|180:191|204:356,1,333.6,6|0,1:2|0:0,0:0:0:0:
