osu file format v14

[General]
AudioFilename: audio.mp3
AudioLeadIn: 0
PreviewTime: 35373
Countdown: 0
SampleSet: None
StackLeniency: 0.7
Mode: 3
LetterboxInBreaks: 0
SpecialStyle: 0
WidescreenStoryboard: 0

[Editor]
DistanceSpacing: 1.4
BeatDivisor: 4
GridSize: 8
TimelineZoom: 1.9

[Metadata]
Title:Titanomachia
TitleUnicode:티타노 마치아
Artist:Evergreen
ArtistUnicode:상록수
Creator:Damaree
Version:Insane
Source:라이드제로
Tags:
BeatmapID:1700706
BeatmapSetID:810112

[Difficulty]
HPDrainRate:8
CircleSize:4
OverallDifficulty:8
ApproachRate:5
SliderMultiplier:1.4
SliderTickRate:1

[Events]
//Background and Video events
0,0,"tita wall.jpg",0,0
//Break Periods
//Storyboard Layer 0 (Background)
//Storyboard Layer 1 (Fail)
//Storyboard Layer 2 (Pass)
//Storyboard Layer 3 (Foreground)
//Storyboard Sound Samples

[TimingPoints]
1268,315.789473684211,4,1,0,0,1,0
35373,-100,4,1,0,0,0,1
55583,-100,4,1,0,0,0,0
97268,-100,4,1,0,0,0,1
101057,-100,4,1,0,0,0,0

[HitObjects]
64,192,1268,128,0,3794:0:0:0:0:
320,192,2531,128,0,5057:0:0:0:0:
192,192,3794,128,0,6320:0:0:0:0:
448,192,5057,128,0,7583:0:0:0:0:
64,192,6320,128,0,8846:0:0:0:0:
320,192,7583,128,0,10110:0:0:0:0:
192,192,8846,128,0,11373:0:0:0:0:
448,192,10110,128,0,13820:0:0:0:0:
320,192,11373,128,0,13820:0:0:0:0:
64,192,12952,128,0,13899:0:0:0:0:
192,192,13899,1,0,0:0:0:0:
320,192,13899,1,0,0:0:0:0:
448,192,13899,1,0,0:0:0:0:
64,192,14373,1,0,0:0:0:0:
192,192,14373,1,0,0:0:0:0:
320,192,14373,1,0,0:0:0:0:
448,192,14846,1,0,0:0:0:0:
320,192,14846,1,0,0:0:0:0:
192,192,14846,1,0,0:0:0:0:
64,192,15320,1,0,0:0:0:0:
192,192,15320,1,0,0:0:0:0:
320,192,15320,1,0,0:0:0:0:
320,192,15794,1,0,0:0:0:0:
192,192,15794,1,0,0:0:0:0:
64,192,15794,1,0,0:0:0:0:
448,192,16110,1,0,0:0:0:0:
320,192,16110,1,0,0:0:0:0:
192,192,16110,1,0,0:0:0:0:
448,192,16425,1,0,0:0:0:0:
64,192,16425,1,0,0:0:0:0:
320,192,16425,1,0,0:0:0:0:
64,192,16899,1,0,0:0:0:0:
192,192,16899,1,0,0:0:0:0:
448,192,16899,1,0,0:0:0:0:
320,192,17373,1,0,0:0:0:0:
448,192,17373,1,0,0:0:0:0:
64,192,17373,1,0,0:0:0:0:
192,192,17846,1,0,0:0:0:0:
64,192,17846,1,0,0:0:0:0:
448,192,17846,1,0,0:0:0:0:
192,192,18320,1,0,0:0:0:0:
64,192,18320,1,0,0:0:0:0:
320,192,18399,1,0,0:0:0:0:
448,192,18478,1,0,0:0:0:0:
64,192,18478,1,0,0:0:0:0:
192,192,18557,1,0,0:0:0:0:
320,192,18636,1,0,0:0:0:0:
192,192,18715,1,0,0:0:0:0:
320,192,18794,1,0,0:0:0:0:
192,192,18873,1,0,0:0:0:0:
448,192,18952,1,0,0:0:0:0:
64,192,18952,1,0,0:0:0:0:
320,192,18952,1,0,0:0:0:0:
192,192,19425,1,0,0:0:0:0:
64,192,19425,1,0,0:0:0:0:
320,192,19425,1,0,0:0:0:0:
448,192,19899,1,0,0:0:0:0:
192,192,19899,1,0,0:0:0:0:
320,192,19899,1,0,0:0:0:0:
64,192,20373,1,0,0:0:0:0:
192,192,20373,1,0,0:0:0:0:
320,192,20373,1,0,0:0:0:0:
448,192,20846,1,0,0:0:0:0:
64,192,20846,1,0,0:0:0:0:
192,192,20925,1,0,0:0:0:0:
448,192,21004,1,0,0:0:0:0:
320,192,21004,1,0,0:0:0:0:
64,192,21162,1,0,0:0:0:0:
192,192,21162,1,0,0:0:0:0:
448,192,21241,1,0,0:0:0:0:
320,192,21320,1,0,0:0:0:0:
64,192,21320,1,0,0:0:0:0:
192,192,21478,1,0,0:0:0:0:
64,192,21478,1,0,0:0:0:0:
192,192,21636,1,0,0:0:0:0:
64,192,21636,1,0,0:0:0:0:
448,192,21794,1,0,0:0:0:0:
320,192,21794,1,0,0:0:0:0:
448,192,22110,1,0,0:0:0:0:
320,192,22110,1,0,0:0:0:0:
320,192,22268,1,0,0:0:0:0:
448,192,22268,1,0,0:0:0:0:
192,192,22425,1,0,0:0:0:0:
64,192,22425,1,0,0:0:0:0:
448,192,22583,1,0,0:0:0:0:
64,192,22583,1,0,0:0:0:0:
192,192,22741,1,0,0:0:0:0:
448,192,22741,1,0,0:0:0:0:
320,192,22899,1,0,0:0:0:0:
192,192,22899,1,0,0:0:0:0:
64,192,23057,1,0,0:0:0:0:
448,192,23057,1,0,0:0:0:0:
448,192,23373,1,0,0:0:0:0:
320,192,23373,1,0,0:0:0:0:
192,192,23452,1,0,0:0:0:0:
448,192,23531,1,0,0:0:0:0:
320,192,23531,1,0,0:0:0:0:
64,192,23610,1,0,0:0:0:0:
320,192,23689,1,0,0:0:0:0:
448,192,23689,1,0,0:0:0:0:
192,192,23768,1,0,0:0:0:0:
64,192,23846,1,0,0:0:0:0:
320,192,23925,1,0,0:0:0:0:
448,192,24004,1,0,0:0:0:0:
192,192,24004,1,0,0:0:0:0:
64,192,24004,1,0,0:0:0:0:
320,192,24162,1,0,0:0:0:0:
64,192,24162,1,0,0:0:0:0:
192,192,24320,1,0,0:0:0:0:
320,192,24320,1,0,0:0:0:0:
448,192,24478,1,0,0:0:0:0:
192,192,24478,1,0,0:0:0:0:
448,192,24636,1,0,0:0:0:0:
64,192,24636,1,0,0:0:0:0:
192,192,24794,1,0,0:0:0:0:
64,192,24794,1,0,0:0:0:0:
320,192,24873,1,0,0:0:0:0:
448,192,24873,1,0,0:0:0:0:
192,192,24952,1,0,0:0:0:0:
64,192,24952,1,0,0:0:0:0:
448,192,25110,1,0,0:0:0:0:
64,192,25110,1,0,0:0:0:0:
192,192,25189,1,0,0:0:0:0:
320,192,25268,1,0,0:0:0:0:
448,192,25268,1,0,0:0:0:0:
64,192,25425,1,0,0:0:0:0:
320,192,25425,1,0,0:0:0:0:
448,192,25583,1,0,0:0:0:0:
64,192,25583,1,0,0:0:0:0:
448,192,25741,1,0,0:0:0:0:
192,192,25741,1,0,0:0:0:0:
192,192,25899,1,0,0:0:0:0:
64,192,25899,1,0,0:0:0:0:
448,192,26057,1,0,0:0:0:0:
320,192,26057,1,0,0:0:0:0:
64,192,26136,1,0,0:0:0:0:
192,192,26136,1,0,0:0:0:0:
320,192,26215,1,0,0:0:0:0:
448,192,26215,1,0,0:0:0:0:
448,192,26373,1,0,0:0:0:0:
64,192,26373,1,0,0:0:0:0:
192,192,26452,1,0,0:0:0:0:
320,192,26531,1,0,0:0:0:0:
448,192,26531,1,0,0:0:0:0:
64,192,26531,1,0,0:0:0:0:
192,192,26689,1,0,0:0:0:0:
320,192,26689,1,0,0:0:0:0:
192,192,26846,1,0,0:0:0:0:
64,192,26846,1,0,0:0:0:0:
448,192,26846,1,0,0:0:0:0:
448,192,27004,1,0,0:0:0:0:
320,192,27004,1,0,0:0:0:0:
320,192,27162,1,0,0:0:0:0:
192,192,27162,1,0,0:0:0:0:
448,192,27320,1,0,0:0:0:0:
64,192,27320,1,0,0:0:0:0:
192,192,27399,1,0,0:0:0:0:
320,192,27399,1,0,0:0:0:0:
64,192,27478,1,0,0:0:0:0:
448,192,27478,1,0,0:0:0:0:
320,192,27636,1,0,0:0:0:0:
192,192,27636,1,0,0:0:0:0:
64,192,27715,1,0,0:0:0:0:
448,192,27794,1,0,0:0:0:0:
320,192,27794,1,0,0:0:0:0:
192,192,27952,1,0,0:0:0:0:
448,192,27952,1,0,0:0:0:0:
64,192,28110,1,0,0:0:0:0:
192,192,28110,1,0,0:0:0:0:
320,192,28268,1,0,0:0:0:0:
64,192,28268,1,0,0:0:0:0:
448,192,28425,1,0,0:0:0:0:
320,192,28425,1,0,0:0:0:0:
448,192,28583,1,0,0:0:0:0:
192,192,28583,1,0,0:0:0:0:
64,192,28741,1,0,0:0:0:0:
192,192,28741,1,0,0:0:0:0:
448,192,28820,1,0,0:0:0:0:
320,192,28899,1,0,0:0:0:0:
192,192,28978,1,0,0:0:0:0:
64,192,29057,1,0,0:0:0:0:
448,192,29057,1,0,0:0:0:0:
320,192,29057,1,0,0:0:0:0:
192,192,29373,1,0,0:0:0:0:
64,192,29373,1,0,0:0:0:0:
320,192,29452,1,0,0:0:0:0:
448,192,29452,1,0,0:0:0:0:
192,192,29531,1,0,0:0:0:0:
64,192,29531,1,0,0:0:0:0:
320,192,29610,1,0,0:0:0:0:
448,192,29610,1,0,0:0:0:0:
192,192,29689,1,0,0:0:0:0:
64,192,29689,1,0,0:0:0:0:
448,192,30004,1,0,0:0:0:0:
320,192,30004,1,0,0:0:0:0:
192,192,30083,1,0,0:0:0:0:
64,192,30083,1,0,0:0:0:0:
320,192,30162,1,0,0:0:0:0:
448,192,30162,1,0,0:0:0:0:
192,192,30241,1,0,0:0:0:0:
64,192,30241,1,0,0:0:0:0:
320,192,30320,1,0,0:0:0:0:
448,192,30320,1,0,0:0:0:0:
64,192,30636,1,0,0:0:0:0:
192,192,30636,1,0,0:0:0:0:
448,192,30715,1,0,0:0:0:0:
320,192,30715,1,0,0:0:0:0:
192,192,30794,1,0,0:0:0:0:
64,192,30794,1,0,0:0:0:0:
320,192,30873,1,0,0:0:0:0:
448,192,30873,1,0,0:0:0:0:
192,192,30952,1,0,0:0:0:0:
64,192,30952,1,0,0:0:0:0:
448,192,31268,1,0,0:0:0:0:
320,192,31268,1,0,0:0:0:0:
192,192,31346,1,0,0:0:0:0:
64,192,31346,1,0,0:0:0:0:
320,192,31425,1,0,0:0:0:0:
448,192,31425,1,0,0:0:0:0:
192,192,31504,1,0,0:0:0:0:
64,192,31504,1,0,0:0:0:0:
320,192,31583,1,0,0:0:0:0:
448,192,31583,1,0,0:0:0:0:
64,192,31741,1,0,0:0:0:0:
192,192,31741,1,0,0:0:0:0:
448,192,31899,1,0,0:0:0:0:
320,192,31899,1,0,0:0:0:0:
192,192,32215,1,0,0:0:0:0:
64,192,32215,1,0,0:0:0:0:
448,192,32373,1,0,0:0:0:0:
64,192,32373,1,0,0:0:0:0:
320,192,32531,1,0,0:0:0:0:
448,192,32531,1,0,0:0:0:0:
192,192,32689,1,0,0:0:0:0:
320,192,32689,1,0,0:0:0:0:
64,192,32846,1,0,0:0:0:0:
192,192,32846,1,0,0:0:0:0:
448,192,32846,1,0,0:0:0:0:
448,192,33004,1,0,0:0:0:0:
320,192,33004,1,0,0:0:0:0:
192,192,33162,1,0,0:0:0:0:
64,192,33162,1,0,0:0:0:0:
448,192,33320,1,0,0:0:0:0:
320,192,33320,1,0,0:0:0:0:
192,192,33478,1,0,0:0:0:0:
64,192,33478,1,0,0:0:0:0:
448,192,33636,1,0,0:0:0:0:
320,192,33636,1,0,0:0:0:0:
192,192,33794,1,0,0:0:0:0:
64,192,33794,1,0,0:0:0:0:
448,192,33952,1,0,0:0:0:0:
320,192,33952,1,0,0:0:0:0:
64,192,34110,1,0,0:0:0:0:
192,192,34110,1,0,0:0:0:0:
448,192,34189,1,0,0:0:0:0:
192,192,34268,1,0,0:0:0:0:
64,192,34268,1,0,0:0:0:0:
320,192,34346,1,0,0:0:0:0:
192,192,34425,1,0,0:0:0:0:
64,192,34425,1,0,0:0:0:0:
448,192,34504,1,0,0:0:0:0:
64,192,34583,1,0,0:0:0:0:
192,192,34583,1,0,0:0:0:0:
320,192,34662,1,0,0:0:0:0:
448,192,34741,1,0,0:0:0:0:
64,192,34741,1,0,0:0:0:0:
192,192,34820,1,0,0:0:0:0:
320,192,34899,1,0,0:0:0:0:
448,192,34899,1,0,0:0:0:0:
64,192,34978,1,0,0:0:0:0:
320,192,35057,1,0,0:0:0:0:
448,192,35057,1,0,0:0:0:0:
192,192,35136,1,0,0:0:0:0:
320,192,35215,1,0,0:0:0:0:
448,192,35215,1,0,0:0:0:0:
64,192,35294,1,0,0:0:0:0:
448,192,35373,1,0,0:0:0:0:
320,192,35373,1,0,0:0:0:0:
192,192,35373,1,0,0:0:0:0:
64,192,35452,1,0,0:0:0:0:
192,192,35531,1,0,0:0:0:0:
320,192,35610,1,0,0:0:0:0:
448,192,35689,1,0,0:0:0:0:
64,192,35768,1,0,0:0:0:0:
320,192,35846,1,0,0:0:0:0:
192,192,35925,1,0,0:0:0:0:
448,192,36004,1,0,0:0:0:0:
320,192,36083,1,0,0:0:0:0:
192,192,36162,1,0,0:0:0:0:
64,192,36241,1,0,0:0:0:0:
448,192,36320,1,0,0:0:0:0:
192,192,36399,1,0,0:0:0:0:
320,192,36478,1,0,0:0:0:0:
64,192,36557,1,0,0:0:0:0:
448,192,36636,1,0,0:0:0:0:
320,192,36636,1,0,0:0:0:0:
192,192,36636,1,0,0:0:0:0:
64,192,36715,1,0,0:0:0:0:
320,192,36794,1,0,0:0:0:0:
448,192,36873,1,0,0:0:0:0:
192,192,36952,1,0,0:0:0:0:
64,192,36952,1,0,0:0:0:0:
320,192,37031,1,0,0:0:0:0:
64,192,37110,1,0,0:0:0:0:
448,192,37189,1,0,0:0:0:0:
320,192,37268,1,0,0:0:0:0:
192,192,37268,1,0,0:0:0:0:
64,192,37346,1,0,0:0:0:0:
320,192,37425,1,0,0:0:0:0:
192,192,37504,1,0,0:0:0:0:
448,192,37583,1,0,0:0:0:0:
320,192,37583,1,0,0:0:0:0:
64,192,37662,1,0,0:0:0:0:
192,192,37741,1,0,0:0:0:0:
320,192,37820,1,0,0:0:0:0:
448,192,37899,1,0,0:0:0:0:
64,192,37899,1,0,0:0:0:0:
192,192,37978,1,0,0:0:0:0:
448,192,38057,1,0,0:0:0:0:
64,192,38136,1,0,0:0:0:0:
320,192,38215,1,0,0:0:0:0:
448,192,38215,1,0,0:0:0:0:
192,192,38294,1,0,0:0:0:0:
64,192,38373,1,0,0:0:0:0:
320,192,38452,1,0,0:0:0:0:
448,192,38531,1,0,0:0:0:0:
192,192,38531,1,0,0:0:0:0:
64,192,38610,1,0,0:0:0:0:
448,192,38689,1,0,0:0:0:0:
192,192,38768,1,0,0:0:0:0:
320,192,38846,1,0,0:0:0:0:
64,192,38846,1,0,0:0:0:0:
448,192,38925,1,0,0:0:0:0:
192,192,39004,1,0,0:0:0:0:
320,192,39083,1,0,0:0:0:0:
448,192,39162,1,0,0:0:0:0:
64,192,39162,1,0,0:0:0:0:
192,192,39241,1,0,0:0:0:0:
448,192,39320,1,0,0:0:0:0:
64,192,39399,1,0,0:0:0:0:
320,192,39478,1,0,0:0:0:0:
448,192,39478,1,0,0:0:0:0:
192,192,39557,1,0,0:0:0:0:
64,192,39636,1,0,0:0:0:0:
448,192,39715,1,0,0:0:0:0:
320,192,39794,1,0,0:0:0:0:
192,192,39794,1,0,0:0:0:0:
64,192,39873,1,0,0:0:0:0:
320,192,39952,1,0,0:0:0:0:
448,192,40031,1,0,0:0:0:0:
192,192,40110,1,0,0:0:0:0:
64,192,40110,1,0,0:0:0:0:
320,192,40189,1,0,0:0:0:0:
192,192,40268,1,0,0:0:0:0:
64,192,40346,1,0,0:0:0:0:
448,192,40425,1,0,0:0:0:0:
320,192,40425,1,0,0:0:0:0:
192,192,40504,1,0,0:0:0:0:
448,192,40583,1,0,0:0:0:0:
64,192,40662,1,0,0:0:0:0:
192,192,40741,1,0,0:0:0:0:
320,192,40741,1,0,0:0:0:0:
448,192,40820,1,0,0:0:0:0:
192,192,40899,1,0,0:0:0:0:
64,192,40978,1,0,0:0:0:0:
448,192,41057,1,0,0:0:0:0:
320,192,41057,1,0,0:0:0:0:
64,192,41136,1,0,0:0:0:0:
320,192,41215,1,0,0:0:0:0:
448,192,41294,1,0,0:0:0:0:
192,192,41373,1,0,0:0:0:0:
64,192,41373,1,0,0:0:0:0:
448,192,41452,1,0,0:0:0:0:
192,192,41531,1,0,0:0:0:0:
320,192,41610,1,0,0:0:0:0:
64,192,41689,1,0,0:0:0:0:
448,192,41689,1,0,0:0:0:0:
192,192,41768,1,0,0:0:0:0:
448,192,41846,1,0,0:0:0:0:
320,192,41925,1,0,0:0:0:0:
64,192,42004,1,0,0:0:0:0:
192,192,42004,1,0,0:0:0:0:
448,192,42083,1,0,0:0:0:0:
64,192,42162,1,0,0:0:0:0:
448,192,42241,1,0,0:0:0:0:
192,192,42320,1,0,0:0:0:0:
64,192,42320,1,0,0:0:0:0:
320,192,42399,1,0,0:0:0:0:
448,192,42478,1,0,0:0:0:0:
64,192,42557,1,0,0:0:0:0:
192,192,42636,1,0,0:0:0:0:
320,192,42636,1,0,0:0:0:0:
448,192,42715,1,0,0:0:0:0:
64,192,42794,1,0,0:0:0:0:
320,192,42873,1,0,0:0:0:0:
192,192,42952,1,0,0:0:0:0:
64,192,42952,1,0,0:0:0:0:
448,192,43031,1,0,0:0:0:0:
64,192,43110,1,0,0:0:0:0:
448,192,43189,1,0,0:0:0:0:
64,192,43268,1,0,0:0:0:0:
448,192,43346,1,0,0:0:0:0:
64,192,43425,1,0,0:0:0:0:
448,192,43504,1,0,0:0:0:0:
64,192,43583,1,0,0:0:0:0:
448,192,43662,1,0,0:0:0:0:
64,192,43741,1,0,0:0:0:0:
448,192,43820,1,0,0:0:0:0:
64,192,43899,1,0,0:0:0:0:
192,192,43899,1,0,0:0:0:0:
320,192,43978,1,0,0:0:0:0:
192,192,44057,1,0,0:0:0:0:
320,192,44136,1,0,0:0:0:0:
448,192,44215,1,0,0:0:0:0:
64,192,44215,1,0,0:0:0:0:
192,192,44294,1,0,0:0:0:0:
320,192,44373,1,0,0:0:0:0:
192,192,44452,1,0,0:0:0:0:
64,192,44531,1,0,0:0:0:0:
448,192,44531,1,0,0:0:0:0:
320,192,44610,1,0,0:0:0:0:
192,192,44689,1,0,0:0:0:0:
320,192,44768,1,0,0:0:0:0:
448,192,44846,1,0,0:0:0:0:
64,192,44846,1,0,0:0:0:0:
192,192,44925,1,0,0:0:0:0:
320,192,45004,1,0,0:0:0:0:
192,192,45083,1,0,0:0:0:0:
448,192,45162,1,0,0:0:0:0:
64,192,45162,1,0,0:0:0:0:
320,192,45241,1,0,0:0:0:0:
192,192,45320,1,0,0:0:0:0:
320,192,45399,1,0,0:0:0:0:
448,192,45478,1,0,0:0:0:0:
64,192,45478,1,0,0:0:0:0:
192,192,45478,1,0,0:0:0:0:
320,192,45557,1,0,0:0:0:0:
64,192,45636,1,0,0:0:0:0:
192,192,45715,1,0,0:0:0:0:
320,192,45794,1,0,0:0:0:0:
448,192,45794,1,0,0:0:0:0:
192,192,45873,1,0,0:0:0:0:
448,192,45952,1,0,0:0:0:0:
192,192,46031,1,0,0:0:0:0:
64,192,46110,1,0,0:0:0:0:
320,192,46110,1,0,0:0:0:0:
448,192,46189,1,0,0:0:0:0:
192,192,46268,1,0,0:0:0:0:
320,192,46346,1,0,0:0:0:0:
448,192,46425,1,0,0:0:0:0:
64,192,46425,1,0,0:0:0:0:
192,192,46504,1,0,0:0:0:0:
448,192,46583,1,0,0:0:0:0:
64,192,46662,1,0,0:0:0:0:
192,192,46741,1,0,0:0:0:0:
320,192,46741,1,0,0:0:0:0:
448,192,46820,1,0,0:0:0:0:
192,192,46899,1,0,0:0:0:0:
64,192,46978,1,0,0:0:0:0:
448,192,47057,1,0,0:0:0:0:
320,192,47057,1,0,0:0:0:0:
192,192,47136,1,0,0:0:0:0:
64,192,47215,1,0,0:0:0:0:
448,192,47294,1,0,0:0:0:0:
320,192,47373,1,0,0:0:0:0:
192,192,47373,1,0,0:0:0:0:
64,192,47452,1,0,0:0:0:0:
448,192,47531,1,0,0:0:0:0:
192,192,47610,1,0,0:0:0:0:
320,192,47689,1,0,0:0:0:0:
448,192,47689,1,0,0:0:0:0:
64,192,47768,1,0,0:0:0:0:
320,192,47846,1,0,0:0:0:0:
192,192,47925,1,0,0:0:0:0:
64,192,48004,1,0,0:0:0:0:
448,192,48004,1,0,0:0:0:0:
320,192,48083,1,0,0:0:0:0:
64,192,48162,1,0,0:0:0:0:
448,192,48241,1,0,0:0:0:0:
320,192,48320,1,0,0:0:0:0:
192,192,48320,1,0,0:0:0:0:
64,192,48399,1,0,0:0:0:0:
448,192,48478,1,0,0:0:0:0:
192,192,48557,1,0,0:0:0:0:
320,192,48636,1,0,0:0:0:0:
448,192,48636,1,0,0:0:0:0:
64,192,48715,1,0,0:0:0:0:
320,192,48794,1,0,0:0:0:0:
192,192,48873,1,0,0:0:0:0:
448,192,48952,1,0,0:0:0:0:
64,192,48952,1,0,0:0:0:0:
320,192,49031,1,0,0:0:0:0:
192,192,49110,1,0,0:0:0:0:
64,192,49189,1,0,0:0:0:0:
320,192,49268,1,0,0:0:0:0:
448,192,49268,1,0,0:0:0:0:
192,192,49346,1,0,0:0:0:0:
448,192,49425,1,0,0:0:0:0:
64,192,49504,1,0,0:0:0:0:
320,192,49583,1,0,0:0:0:0:
448,192,49583,1,0,0:0:0:0:
192,192,49662,1,0,0:0:0:0:
448,192,49741,1,0,0:0:0:0:
320,192,49820,1,0,0:0:0:0:
192,192,49899,1,0,0:0:0:0:
64,192,49899,1,0,0:0:0:0:
448,192,49978,1,0,0:0:0:0:
64,192,50057,1,0,0:0:0:0:
320,192,50136,1,0,0:0:0:0:
192,192,50215,1,0,0:0:0:0:
64,192,50215,1,0,0:0:0:0:
448,192,50294,1,0,0:0:0:0:
64,192,50373,1,0,0:0:0:0:
192,192,50452,1,0,0:0:0:0:
320,192,50531,1,0,0:0:0:0:
448,192,50531,1,0,0:0:0:0:
64,192,50531,1,0,0:0:0:0:
192,192,50610,1,0,0:0:0:0:
64,192,50689,1,0,0:0:0:0:
448,192,50768,1,0,0:0:0:0:
320,192,50846,1,0,0:0:0:0:
192,192,50846,1,0,0:0:0:0:
64,192,50925,1,0,0:0:0:0:
320,192,51004,1,0,0:0:0:0:
448,192,51083,1,0,0:0:0:0:
64,192,51162,1,0,0:0:0:0:
320,192,51162,1,0,0:0:0:0:
192,192,51241,1,0,0:0:0:0:
448,192,51320,1,0,0:0:0:0:
64,192,51399,1,0,0:0:0:0:
320,192,51478,1,0,0:0:0:0:
192,192,51478,1,0,0:0:0:0:
448,192,51557,1,0,0:0:0:0:
64,192,51636,1,0,0:0:0:0:
320,192,51715,1,0,0:0:0:0:
192,192,51794,1,0,0:0:0:0:
64,192,51794,1,0,0:0:0:0:
448,192,51873,1,0,0:0:0:0:
192,192,51952,1,0,0:0:0:0:
320,192,52031,1,0,0:0:0:0:
448,192,52110,1,0,0:0:0:0:
64,192,52110,1,0,0:0:0:0:
192,192,52189,1,0,0:0:0:0:
320,192,52268,1,0,0:0:0:0:
64,192,52346,1,0,0:0:0:0:
448,192,52425,1,0,0:0:0:0:
192,192,52425,1,0,0:0:0:0:
320,192,52504,1,0,0:0:0:0:
64,192,52583,1,0,0:0:0:0:
448,192,52662,1,0,0:0:0:0:
320,192,52741,1,0,0:0:0:0:
192,192,52741,1,0,0:0:0:0:
64,192,52820,1,0,0:0:0:0:
320,192,52899,1,0,0:0:0:0:
448,192,52978,1,0,0:0:0:0:
192,192,53057,1,0,0:0:0:0:
64,192,53057,1,0,0:0:0:0:
320,192,53136,1,0,0:0:0:0:
192,192,53215,1,0,0:0:0:0:
320,192,53294,1,0,0:0:0:0:
192,192,53373,1,0,0:0:0:0:
320,192,53452,1,0,0:0:0:0:
192,192,53531,1,0,0:0:0:0:
320,192,53610,1,0,0:0:0:0:
192,192,53689,1,0,0:0:0:0:
320,192,53768,1,0,0:0:0:0:
192,192,53846,1,0,0:0:0:0:
320,192,53925,1,0,0:0:0:0:
192,192,54004,1,0,0:0:0:0:
64,192,54004,1,0,0:0:0:0:
448,192,54083,1,0,0:0:0:0:
320,192,54162,1,0,0:0:0:0:
192,192,54241,1,0,0:0:0:0:
64,192,54320,1,0,0:0:0:0:
448,192,54320,128,0,54636:0:0:0:0:
320,192,54478,128,0,54794:0:0:0:0:
192,192,54636,128,0,54952:0:0:0:0:
64,192,54794,128,0,55110:0:0:0:0:
448,192,54952,128,0,55268:0:0:0:0:
320,192,55110,128,0,55425:0:0:0:0:
192,192,55268,128,0,55583:0:0:0:0:
64,192,55425,128,0,55583:0:0:0:0:
448,192,55583,1,0,0:0:0:0:
320,192,55583,1,0,0:0:0:0:
192,192,55899,1,0,0:0:0:0:
64,192,55899,1,0,0:0:0:0:
448,192,56057,1,0,0:0:0:0:
192,192,56215,1,0,0:0:0:0:
64,192,56215,1,0,0:0:0:0:
320,192,56373,1,0,0:0:0:0:
192,192,56531,1,0,0:0:0:0:
64,192,56531,1,0,0:0:0:0:
448,192,56689,1,0,0:0:0:0:
192,192,56846,1,0,0:0:0:0:
64,192,56846,1,0,0:0:0:0:
320,192,57004,1,0,0:0:0:0:
192,192,57162,1,0,0:0:0:0:
64,192,57162,1,0,0:0:0:0:
448,192,57320,1,0,0:0:0:0:
192,192,57478,1,0,0:0:0:0:
64,192,57478,1,0,0:0:0:0:
320,192,57636,1,0,0:0:0:0:
192,192,57794,1,0,0:0:0:0:
64,192,57794,1,0,0:0:0:0:
448,192,57952,1,0,0:0:0:0:
320,192,58110,1,0,0:0:0:0:
192,192,58110,1,0,0:0:0:0:
64,192,58268,1,0,0:0:0:0:
320,192,58425,1,0,0:0:0:0:
448,192,58425,1,0,0:0:0:0:
192,192,58583,1,0,0:0:0:0:
320,192,58741,1,0,0:0:0:0:
448,192,58741,1,0,0:0:0:0:
64,192,58899,1,0,0:0:0:0:
320,192,59057,1,0,0:0:0:0:
448,192,59057,1,0,0:0:0:0:
192,192,59215,1,0,0:0:0:0:
320,192,59373,1,0,0:0:0:0:
448,192,59373,1,0,0:0:0:0:
64,192,59531,1,0,0:0:0:0:
320,192,59689,1,0,0:0:0:0:
448,192,59689,1,0,0:0:0:0:
192,192,59846,1,0,0:0:0:0:
320,192,60004,1,0,0:0:0:0:
448,192,60004,1,0,0:0:0:0:
64,192,60162,1,0,0:0:0:0:
320,192,60320,1,0,0:0:0:0:
448,192,60320,1,0,0:0:0:0:
192,192,60478,1,0,0:0:0:0:
320,192,60636,1,0,0:0:0:0:
448,192,60636,1,0,0:0:0:0:
64,192,60636,1,0,0:0:0:0:
64,192,60952,1,0,0:0:0:0:
192,192,60952,1,0,0:0:0:0:
448,192,61110,1,0,0:0:0:0:
192,192,61110,1,0,0:0:0:0:
320,192,61268,1,0,0:0:0:0:
448,192,61268,1,0,0:0:0:0:
320,192,61425,1,0,0:0:0:0:
64,192,61425,1,0,0:0:0:0:
192,192,61504,1,0,0:0:0:0:
448,192,61583,1,0,0:0:0:0:
320,192,61583,1,0,0:0:0:0:
448,192,61741,1,0,0:0:0:0:
64,192,61741,1,0,0:0:0:0:
320,192,61820,1,0,0:0:0:0:
192,192,61899,1,0,0:0:0:0:
64,192,61899,1,0,0:0:0:0:
448,192,62057,1,0,0:0:0:0:
192,192,62057,1,0,0:0:0:0:
320,192,62136,1,0,0:0:0:0:
192,192,62215,1,0,0:0:0:0:
64,192,62215,1,0,0:0:0:0:
448,192,62373,1,0,0:0:0:0:
320,192,62373,1,0,0:0:0:0:
64,192,62452,1,0,0:0:0:0:
192,192,62531,1,0,0:0:0:0:
320,192,62531,1,0,0:0:0:0:
64,192,62689,1,0,0:0:0:0:
448,192,62689,1,0,0:0:0:0:
192,192,62768,1,0,0:0:0:0:
320,192,62846,1,0,0:0:0:0:
448,192,62846,1,0,0:0:0:0:
64,192,63004,1,0,0:0:0:0:
192,192,63004,1,0,0:0:0:0:
448,192,63083,1,0,0:0:0:0:
320,192,63162,1,0,0:0:0:0:
192,192,63162,1,0,0:0:0:0:
64,192,63162,1,0,0:0:0:0:
448,192,63320,1,0,0:0:0:0:
320,192,63320,1,0,0:0:0:0:
448,192,63478,1,0,0:0:0:0:
64,192,63478,1,0,0:0:0:0:
320,192,63636,1,0,0:0:0:0:
64,192,63636,1,0,0:0:0:0:
192,192,63794,1,0,0:0:0:0:
320,192,63794,1,0,0:0:0:0:
448,192,63952,1,0,0:0:0:0:
192,192,63952,1,0,0:0:0:0:
448,192,64110,1,0,0:0:0:0:
64,192,64110,1,0,0:0:0:0:
64,192,64268,1,0,0:0:0:0:
320,192,64268,1,0,0:0:0:0:
192,192,64425,1,0,0:0:0:0:
320,192,64425,1,0,0:0:0:0:
448,192,64425,1,0,0:0:0:0:
448,192,64583,1,0,0:0:0:0:
64,192,64583,1,0,0:0:0:0:
320,192,64662,1,0,0:0:0:0:
448,192,64741,1,0,0:0:0:0:
192,192,64741,1,0,0:0:0:0:
64,192,64899,1,0,0:0:0:0:
320,192,64899,1,0,0:0:0:0:
448,192,64978,1,0,0:0:0:0:
64,192,65057,1,0,0:0:0:0:
192,192,65057,1,0,0:0:0:0:
320,192,65136,1,0,0:0:0:0:
192,192,65215,1,0,0:0:0:0:
64,192,65215,1,0,0:0:0:0:
448,192,65294,1,0,0:0:0:0:
192,192,65373,1,0,0:0:0:0:
64,192,65373,1,0,0:0:0:0:
320,192,65452,1,0,0:0:0:0:
192,192,65531,1,0,0:0:0:0:
64,192,65531,1,0,0:0:0:0:
448,192,65610,1,0,0:0:0:0:
320,192,65689,1,0,0:0:0:0:
64,192,65689,128,0,66004:0:0:0:0:
192,192,65689,128,0,65846:0:0:0:0:
448,192,66004,1,0,0:0:0:0:
320,192,66004,1,0,0:0:0:0:
192,192,66162,1,0,0:0:0:0:
320,192,66241,1,0,0:0:0:0:
448,192,66241,1,0,0:0:0:0:
64,192,66399,1,0,0:0:0:0:
192,192,66478,1,0,0:0:0:0:
320,192,66478,1,0,0:0:0:0:
448,192,66636,1,0,0:0:0:0:
64,192,66636,1,0,0:0:0:0:
320,192,66794,1,0,0:0:0:0:
192,192,66794,1,0,0:0:0:0:
448,192,66952,1,0,0:0:0:0:
64,192,66952,1,0,0:0:0:0:
192,192,67110,1,0,0:0:0:0:
320,192,67189,1,0,0:0:0:0:
448,192,67189,1,0,0:0:0:0:
64,192,67346,1,0,0:0:0:0:
192,192,67425,1,0,0:0:0:0:
320,192,67425,1,0,0:0:0:0:
448,192,67583,1,0,0:0:0:0:
320,192,67583,1,0,0:0:0:0:
448,192,67741,1,0,0:0:0:0:
320,192,67741,1,0,0:0:0:0:
192,192,67899,1,0,0:0:0:0:
64,192,67899,1,0,0:0:0:0:
64,192,68057,1,0,0:0:0:0:
192,192,68057,1,0,0:0:0:0:
448,192,68215,128,0,68531:0:0:0:0:
320,192,68215,128,0,68373:0:0:0:0:
192,192,68215,1,0,0:0:0:0:
192,192,68531,1,0,0:0:0:0:
64,192,68531,1,0,0:0:0:0:
320,192,68689,1,0,0:0:0:0:
192,192,68768,1,0,0:0:0:0:
64,192,68768,1,0,0:0:0:0:
448,192,68925,1,0,0:0:0:0:
320,192,69004,1,0,0:0:0:0:
192,192,69004,1,0,0:0:0:0:
448,192,69162,1,0,0:0:0:0:
64,192,69162,1,0,0:0:0:0:
320,192,69320,1,0,0:0:0:0:
192,192,69320,1,0,0:0:0:0:
64,192,69478,1,0,0:0:0:0:
448,192,69478,1,0,0:0:0:0:
320,192,69557,1,0,0:0:0:0:
192,192,69636,1,0,0:0:0:0:
320,192,69715,1,0,0:0:0:0:
448,192,69794,1,0,0:0:0:0:
64,192,69794,1,0,0:0:0:0:
192,192,69873,1,0,0:0:0:0:
320,192,69952,1,0,0:0:0:0:
192,192,70031,1,0,0:0:0:0:
64,192,70110,1,0,0:0:0:0:
448,192,70110,128,0,70425:0:0:0:0:
64,192,70425,128,0,70741:0:0:0:0:
192,192,70425,1,0,0:0:0:0:
448,192,70741,128,0,71057:0:0:0:0:
320,192,70741,128,0,70899:0:0:0:0:
192,192,70741,1,0,0:0:0:0:
64,192,71057,1,0,0:0:0:0:
192,192,71057,1,0,0:0:0:0:
320,192,71215,1,0,0:0:0:0:
64,192,71294,1,0,0:0:0:0:
192,192,71294,1,0,0:0:0:0:
448,192,71452,1,0,0:0:0:0:
320,192,71531,1,0,0:0:0:0:
192,192,71531,1,0,0:0:0:0:
448,192,71689,1,0,0:0:0:0:
64,192,71689,1,0,0:0:0:0:
192,192,71846,1,0,0:0:0:0:
320,192,71846,1,0,0:0:0:0:
64,192,72004,1,0,0:0:0:0:
448,192,72004,1,0,0:0:0:0:
320,192,72162,1,0,0:0:0:0:
192,192,72241,1,0,0:0:0:0:
64,192,72241,1,0,0:0:0:0:
448,192,72399,1,0,0:0:0:0:
320,192,72478,1,0,0:0:0:0:
192,192,72478,1,0,0:0:0:0:
192,192,72636,1,0,0:0:0:0:
64,192,72636,1,0,0:0:0:0:
192,192,72794,1,0,0:0:0:0:
64,192,72794,1,0,0:0:0:0:
448,192,72952,1,0,0:0:0:0:
320,192,72952,1,0,0:0:0:0:
320,192,73110,1,0,0:0:0:0:
448,192,73110,1,0,0:0:0:0:
64,192,73268,128,0,73583:0:0:0:0:
192,192,73268,128,0,73425:0:0:0:0:
320,192,73268,1,0,0:0:0:0:
448,192,73583,1,0,0:0:0:0:
320,192,73583,1,0,0:0:0:0:
192,192,73741,1,0,0:0:0:0:
64,192,73741,1,0,0:0:0:0:
320,192,73820,1,0,0:0:0:0:
448,192,73820,1,0,0:0:0:0:
192,192,73978,1,0,0:0:0:0:
64,192,73978,1,0,0:0:0:0:
320,192,74057,1,0,0:0:0:0:
448,192,74057,1,0,0:0:0:0:
192,192,74215,1,0,0:0:0:0:
64,192,74215,1,0,0:0:0:0:
320,192,74294,1,0,0:0:0:0:
448,192,74294,1,0,0:0:0:0:
192,192,74452,1,0,0:0:0:0:
64,192,74452,1,0,0:0:0:0:
320,192,74531,1,0,0:0:0:0:
448,192,74531,1,0,0:0:0:0:
192,192,74689,1,0,0:0:0:0:
64,192,74689,1,0,0:0:0:0:
320,192,74846,1,0,0:0:0:0:
192,192,74846,1,0,0:0:0:0:
448,192,75004,1,0,0:0:0:0:
320,192,75004,1,0,0:0:0:0:
64,192,75162,1,0,0:0:0:0:
448,192,75162,1,0,0:0:0:0:
192,192,75320,1,0,0:0:0:0:
64,192,75320,1,0,0:0:0:0:
448,192,75478,128,0,75794:0:0:0:0:
320,192,75478,128,0,75636:0:0:0:0:
64,192,75794,128,0,76110:0:0:0:0:
192,192,75794,128,0,75952:0:0:0:0:
448,192,76110,1,0,0:0:0:0:
320,192,76110,1,0,0:0:0:0:
192,192,76268,1,0,0:0:0:0:
320,192,76346,1,0,0:0:0:0:
448,192,76346,1,0,0:0:0:0:
64,192,76504,1,0,0:0:0:0:
192,192,76583,1,0,0:0:0:0:
320,192,76583,1,0,0:0:0:0:
448,192,76741,1,0,0:0:0:0:
64,192,76741,1,0,0:0:0:0:
448,192,76899,1,0,0:0:0:0:
192,192,76899,1,0,0:0:0:0:
448,192,77057,1,0,0:0:0:0:
320,192,77057,1,0,0:0:0:0:
64,192,77215,1,0,0:0:0:0:
192,192,77294,1,0,0:0:0:0:
320,192,77294,1,0,0:0:0:0:
64,192,77452,1,0,0:0:0:0:
320,192,77531,1,0,0:0:0:0:
448,192,77531,1,0,0:0:0:0:
192,192,77689,1,0,0:0:0:0:
64,192,77689,1,0,0:0:0:0:
320,192,77846,1,0,0:0:0:0:
192,192,77846,1,0,0:0:0:0:
448,192,78004,1,0,0:0:0:0:
320,192,78004,1,0,0:0:0:0:
448,192,78162,1,0,0:0:0:0:
64,192,78162,1,0,0:0:0:0:
64,192,78320,128,0,78636:0:0:0:0:
192,192,78320,128,0,78478:0:0:0:0:
320,192,78320,1,0,0:0:0:0:
192,192,78636,1,0,0:0:0:0:
448,192,78636,1,0,0:0:0:0:
320,192,78794,1,0,0:0:0:0:
192,192,78873,1,0,0:0:0:0:
64,192,78873,1,0,0:0:0:0:
448,192,79031,1,0,0:0:0:0:
320,192,79110,1,0,0:0:0:0:
192,192,79110,1,0,0:0:0:0:
448,192,79268,1,0,0:0:0:0:
64,192,79268,1,0,0:0:0:0:
320,192,79425,1,0,0:0:0:0:
192,192,79425,1,0,0:0:0:0:
64,192,79583,1,0,0:0:0:0:
192,192,79583,1,0,0:0:0:0:
320,192,79662,1,0,0:0:0:0:
64,192,79741,1,0,0:0:0:0:
192,192,79741,1,0,0:0:0:0:
448,192,79820,1,0,0:0:0:0:
192,192,79899,1,0,0:0:0:0:
64,192,79899,1,0,0:0:0:0:
320,192,79978,1,0,0:0:0:0:
192,192,80057,1,0,0:0:0:0:
64,192,80057,1,0,0:0:0:0:
448,192,80136,1,0,0:0:0:0:
64,192,80215,128,0,80531:0:0:0:0:
320,192,80215,1,0,0:0:0:0:
192,192,80215,1,0,0:0:0:0:
448,192,80531,128,0,80846:0:0:0:0:
320,192,80531,1,0,0:0:0:0:
192,192,80531,1,0,0:0:0:0:
64,192,80846,128,0,81162:0:0:0:0:
192,192,80846,128,0,81004:0:0:0:0:
320,192,80846,1,0,0:0:0:0:
448,192,81162,1,0,0:0:0:0:
320,192,81162,1,0,0:0:0:0:
192,192,81320,1,0,0:0:0:0:
320,192,81399,1,0,0:0:0:0:
448,192,81399,1,0,0:0:0:0:
64,192,81557,1,0,0:0:0:0:
192,192,81636,1,0,0:0:0:0:
320,192,81636,1,0,0:0:0:0:
448,192,81794,1,0,0:0:0:0:
320,192,81794,1,0,0:0:0:0:
448,192,81952,1,0,0:0:0:0:
192,192,81952,1,0,0:0:0:0:
64,192,82110,1,0,0:0:0:0:
448,192,82110,1,0,0:0:0:0:
192,192,82268,1,0,0:0:0:0:
320,192,82346,1,0,0:0:0:0:
448,192,82346,1,0,0:0:0:0:
64,192,82504,1,0,0:0:0:0:
192,192,82583,1,0,0:0:0:0:
320,192,82583,1,0,0:0:0:0:
448,192,82741,1,0,0:0:0:0:
320,192,82741,1,0,0:0:0:0:
192,192,82899,1,0,0:0:0:0:
320,192,82899,1,0,0:0:0:0:
192,192,83057,1,0,0:0:0:0:
64,192,83057,1,0,0:0:0:0:
448,192,83215,1,0,0:0:0:0:
64,192,83215,1,0,0:0:0:0:
448,192,83373,128,0,83689:0:0:0:0:
320,192,83373,128,0,83531:0:0:0:0:
192,192,83373,1,0,0:0:0:0:
192,192,83689,1,0,0:0:0:0:
64,192,83689,1,0,0:0:0:0:
448,192,83846,1,0,0:0:0:0:
320,192,83846,1,0,0:0:0:0:
192,192,83925,1,0,0:0:0:0:
64,192,83925,1,0,0:0:0:0:
448,192,84083,1,0,0:0:0:0:
320,192,84083,1,0,0:0:0:0:
192,192,84162,1,0,0:0:0:0:
64,192,84162,1,0,0:0:0:0:
448,192,84320,1,0,0:0:0:0:
320,192,84320,1,0,0:0:0:0:
192,192,84399,1,0,0:0:0:0:
64,192,84399,1,0,0:0:0:0:
448,192,84557,1,0,0:0:0:0:
320,192,84557,1,0,0:0:0:0:
192,192,84636,1,0,0:0:0:0:
64,192,84636,1,0,0:0:0:0:
448,192,84794,1,0,0:0:0:0:
320,192,84794,1,0,0:0:0:0:
192,192,84952,1,0,0:0:0:0:
64,192,84952,1,0,0:0:0:0:
448,192,85110,1,0,0:0:0:0:
320,192,85110,1,0,0:0:0:0:
64,192,85268,1,0,0:0:0:0:
448,192,85268,1,0,0:0:0:0:
192,192,85346,1,0,0:0:0:0:
448,192,85425,1,0,0:0:0:0:
64,192,85425,1,0,0:0:0:0:
320,192,85504,1,0,0:0:0:0:
448,192,85583,1,0,0:0:0:0:
64,192,85583,1,0,0:0:0:0:
192,192,85662,1,0,0:0:0:0:
448,192,85741,1,0,0:0:0:0:
64,192,85741,1,0,0:0:0:0:
320,192,85820,1,0,0:0:0:0:
448,192,85899,1,0,0:0:0:0:
64,192,85899,128,0,86215:0:0:0:0:
192,192,85899,128,0,86057:0:0:0:0:
448,192,86215,1,0,0:0:0:0:
320,192,86215,1,0,0:0:0:0:
192,192,86373,1,0,0:0:0:0:
64,192,86452,1,0,0:0:0:0:
320,192,86452,1,0,0:0:0:0:
320,192,86610,1,0,0:0:0:0:
448,192,86689,1,0,0:0:0:0:
192,192,86689,1,0,0:0:0:0:
192,192,86846,1,0,0:0:0:0:
64,192,86846,1,0,0:0:0:0:
320,192,87004,1,0,0:0:0:0:
192,192,87004,1,0,0:0:0:0:
448,192,87162,1,0,0:0:0:0:
320,192,87162,1,0,0:0:0:0:
192,192,87320,1,0,0:0:0:0:
320,192,87399,1,0,0:0:0:0:
64,192,87399,1,0,0:0:0:0:
320,192,87557,1,0,0:0:0:0:
448,192,87636,1,0,0:0:0:0:
192,192,87636,1,0,0:0:0:0:
320,192,87794,1,0,0:0:0:0:
64,192,87794,1,0,0:0:0:0:
448,192,87952,1,0,0:0:0:0:
192,192,87952,1,0,0:0:0:0:
320,192,88110,1,0,0:0:0:0:
64,192,88110,1,0,0:0:0:0:
64,192,88268,1,0,0:0:0:0:
448,192,88268,1,0,0:0:0:0:
192,192,88425,128,0,88583:0:0:0:0:
320,192,88425,128,0,88741:0:0:0:0:
64,192,88741,1,0,0:0:0:0:
448,192,88741,1,0,0:0:0:0:
192,192,88899,1,0,0:0:0:0:
64,192,88978,1,0,0:0:0:0:
320,192,88978,1,0,0:0:0:0:
320,192,89215,1,0,0:0:0:0:
192,192,89294,1,0,0:0:0:0:
448,192,89294,1,0,0:0:0:0:
320,192,89531,1,0,0:0:0:0:
192,192,89531,1,0,0:0:0:0:
448,192,89689,1,0,0:0:0:0:
320,192,89689,1,0,0:0:0:0:
192,192,89768,1,0,0:0:0:0:
64,192,89768,1,0,0:0:0:0:
448,192,89846,1,0,0:0:0:0:
320,192,89846,1,0,0:0:0:0:
192,192,89925,1,0,0:0:0:0:
64,192,89925,1,0,0:0:0:0:
320,192,90004,1,0,0:0:0:0:
448,192,90004,1,0,0:0:0:0:
192,192,90083,1,0,0:0:0:0:
64,192,90083,1,0,0:0:0:0:
448,192,90162,1,0,0:0:0:0:
320,192,90162,1,0,0:0:0:0:
192,192,90241,1,0,0:0:0:0:
64,192,90241,1,0,0:0:0:0:
320,192,90320,1,0,0:0:0:0:
448,192,90320,128,0,90636:0:0:0:0:
64,192,90636,128,0,90952:0:0:0:0:
192,192,90636,1,0,0:0:0:0:
448,192,90952,128,0,91268:0:0:0:0:
320,192,90952,128,0,91110:0:0:0:0:
192,192,91268,1,0,0:0:0:0:
64,192,91268,1,0,0:0:0:0:
320,192,91425,1,0,0:0:0:0:
448,192,91504,1,0,0:0:0:0:
64,192,91504,1,0,0:0:0:0:
192,192,91662,1,0,0:0:0:0:
64,192,91741,1,0,0:0:0:0:
448,192,91741,1,0,0:0:0:0:
320,192,91899,1,0,0:0:0:0:
192,192,91899,1,0,0:0:0:0:
448,192,92057,1,0,0:0:0:0:
64,192,92057,1,0,0:0:0:0:
320,192,92215,1,0,0:0:0:0:
192,192,92215,1,0,0:0:0:0:
320,192,92373,1,0,0:0:0:0:
64,192,92452,1,0,0:0:0:0:
448,192,92452,1,0,0:0:0:0:
192,192,92610,1,0,0:0:0:0:
64,192,92689,1,0,0:0:0:0:
448,192,92689,1,0,0:0:0:0:
320,192,92846,1,0,0:0:0:0:
192,192,92846,1,0,0:0:0:0:
192,192,93004,1,0,0:0:0:0:
64,192,93004,1,0,0:0:0:0:
320,192,93162,1,0,0:0:0:0:
448,192,93162,1,0,0:0:0:0:
320,192,93320,1,0,0:0:0:0:
192,192,93320,1,0,0:0:0:0:
64,192,93478,128,0,93794:0:0:0:0:
448,192,93478,128,0,93636:0:0:0:0:
320,192,93794,1,0,0:0:0:0:
192,192,93794,1,0,0:0:0:0:
448,192,93952,1,0,0:0:0:0:
64,192,93952,1,0,0:0:0:0:
192,192,94031,1,0,0:0:0:0:
320,192,94031,1,0,0:0:0:0:
320,192,94189,1,0,0:0:0:0:
192,192,94189,1,0,0:0:0:0:
64,192,94268,1,0,0:0:0:0:
448,192,94268,1,0,0:0:0:0:
448,192,94425,1,0,0:0:0:0:
64,192,94425,1,0,0:0:0:0:
320,192,94504,1,0,0:0:0:0:
192,192,94504,1,0,0:0:0:0:
320,192,94662,1,0,0:0:0:0:
192,192,94662,1,0,0:0:0:0:
64,192,94741,1,0,0:0:0:0:
448,192,94741,1,0,0:0:0:0:
320,192,94899,1,0,0:0:0:0:
192,192,94899,1,0,0:0:0:0:
64,192,95057,1,0,0:0:0:0:
448,192,95057,1,0,0:0:0:0:
320,192,95215,1,0,0:0:0:0:
192,192,95215,1,0,0:0:0:0:
64,192,95373,1,0,0:0:0:0:
448,192,95373,1,0,0:0:0:0:
192,192,95452,1,0,0:0:0:0:
320,192,95531,1,0,0:0:0:0:
448,192,95610,1,0,0:0:0:0:
64,192,95689,128,0,96004:0:0:0:0:
192,192,95689,128,0,95925:0:0:0:0:
320,192,95689,128,0,95846:0:0:0:0:
448,192,95846,1,0,0:0:0:0:
320,192,96004,1,0,0:0:0:0:
448,192,96004,128,0,97268:0:0:0:0:
320,192,96320,128,0,96478:0:0:0:0:
64,192,96478,128,0,96636:0:0:0:0:
192,192,96636,128,0,96794:0:0:0:0:
320,192,96794,128,0,96952:0:0:0:0:
64,192,96952,128,0,97110:0:0:0:0:
192,192,97110,128,0,97268:0:0:0:0:
320,192,97268,1,0,0:0:0:0:
64,192,97268,1,0,0:0:0:0:
192,192,97346,1,0,0:0:0:0:
320,192,97425,1,0,0:0:0:0:
448,192,97504,1,0,0:0:0:0:
192,192,97583,1,0,0:0:0:0:
64,192,97662,1,0,0:0:0:0:
320,192,97741,1,0,0:0:0:0:
448,192,97741,1,0,0:0:0:0:
192,192,97741,1,0,0:0:0:0:
64,192,97820,1,0,0:0:0:0:
320,192,97899,1,0,0:0:0:0:
448,192,97978,1,0,0:0:0:0:
64,192,98057,1,0,0:0:0:0:
192,192,98136,1,0,0:0:0:0:
320,192,98215,1,0,0:0:0:0:
448,192,98215,1,0,0:0:0:0:
64,192,98215,1,0,0:0:0:0:
192,192,98294,1,0,0:0:0:0:
320,192,98373,1,0,0:0:0:0:
192,192,98452,1,0,0:0:0:0:
64,192,98531,1,0,0:0:0:0:
448,192,98531,1,0,0:0:0:0:
320,192,98531,1,0,0:0:0:0:
192,192,98610,1,0,0:0:0:0:
64,192,98689,1,0,0:0:0:0:
320,192,98768,1,0,0:0:0:0:
448,192,98846,1,0,0:0:0:0:
192,192,98846,1,0,0:0:0:0:
64,192,98925,1,0,0:0:0:0:
320,192,99004,1,0,0:0:0:0:
448,192,99083,1,0,0:0:0:0:
192,192,99162,1,0,0:0:0:0:
320,192,99162,1,0,0:0:0:0:
64,192,99241,1,0,0:0:0:0:
448,192,99320,1,0,0:0:0:0:
192,192,99399,1,0,0:0:0:0:
64,192,99478,1,0,0:0:0:0:
320,192,99478,1,0,0:0:0:0:
192,192,99557,1,0,0:0:0:0:
448,192,99636,1,0,0:0:0:0:
64,192,99715,1,0,0:0:0:0:
320,192,99794,1,0,0:0:0:0:
192,192,99794,1,0,0:0:0:0:
448,192,99873,1,0,0:0:0:0:
64,192,99952,1,0,0:0:0:0:
192,192,100031,1,0,0:0:0:0:
320,192,100110,1,0,0:0:0:0:
448,192,100110,1,0,0:0:0:0:
64,192,100189,1,0,0:0:0:0:
320,192,100268,1,0,0:0:0:0:
192,192,100346,1,0,0:0:0:0:
64,192,100425,1,0,0:0:0:0:
448,192,100425,1,0,0:0:0:0:
320,192,100504,1,0,0:0:0:0:
64,192,100583,1,0,0:0:0:0:
448,192,100662,1,0,0:0:0:0:
320,192,100741,1,0,0:0:0:0:
192,192,100741,1,0,0:0:0:0:
64,192,100820,1,0,0:0:0:0:
320,192,100899,1,0,0:0:0:0:
448,192,100978,1,0,0:0:0:0:
192,192,101057,1,0,0:0:0:0:
64,192,101057,1,0,0:0:0:0:
320,192,101057,1,0,0:0:0:0:
448,192,101373,1,0,0:0:0:0:
320,192,101373,1,0,0:0:0:0:
192,192,101452,1,0,0:0:0:0:
64,192,101452,1,0,0:0:0:0:
448,192,101531,1,0,0:0:0:0:
320,192,101531,1,0,0:0:0:0:
192,192,101610,1,0,0:0:0:0:
64,192,101610,1,0,0:0:0:0:
320,192,101689,1,0,0:0:0:0:
448,192,101689,1,0,0:0:0:0:
320,192,102004,1,0,0:0:0:0:
192,192,102004,1,0,0:0:0:0:
192,192,102320,1,0,0:0:0:0:
64,192,102320,1,0,0:0:0:0:
448,192,102320,1,0,0:0:0:0:
192,192,102636,1,0,0:0:0:0:
64,192,102636,1,0,0:0:0:0:
448,192,102715,1,0,0:0:0:0:
320,192,102715,1,0,0:0:0:0:
192,192,102794,1,0,0:0:0:0:
64,192,102794,1,0,0:0:0:0:
448,192,102873,1,0,0:0:0:0:
320,192,102873,1,0,0:0:0:0:
192,192,102952,1,0,0:0:0:0:
64,192,102952,1,0,0:0:0:0:
448,192,103268,1,0,0:0:0:0:
64,192,103268,1,0,0:0:0:0:
192,192,103583,1,0,0:0:0:0:
320,192,103583,1,0,0:0:0:0:
448,192,103583,1,0,0:0:0:0:
64,192,103662,1,0,0:0:0:0:
448,192,103741,1,0,0:0:0:0:
64,192,103820,1,0,0:0:0:0:
448,192,103899,1,0,0:0:0:0:
64,192,103978,1,0,0:0:0:0:
448,192,104057,1,0,0:0:0:0:
64,192,104136,1,0,0:0:0:0:
448,192,104215,1,0,0:0:0:0:
64,192,104294,1,0,0:0:0:0:
448,192,104373,1,0,0:0:0:0:
64,192,104452,1,0,0:0:0:0:
448,192,104531,1,0,0:0:0:0:
64,192,104610,1,0,0:0:0:0:
448,192,104689,1,0,0:0:0:0:
64,192,104768,1,0,0:0:0:0:
320,192,104846,1,0,0:0:0:0:
192,192,104925,1,0,0:0:0:0:
320,192,105004,1,0,0:0:0:0:
192,192,105083,1,0,0:0:0:0:
320,192,105162,1,0,0:0:0:0:
192,192,105241,1,0,0:0:0:0:
320,192,105320,1,0,0:0:0:0:
192,192,105399,1,0,0:0:0:0:
320,192,105478,1,0,0:0:0:0:
192,192,105557,1,0,0:0:0:0:
320,192,105636,1,0,0:0:0:0:
192,192,105715,1,0,0:0:0:0:
320,192,105794,1,0,0:0:0:0:
192,192,105873,1,0,0:0:0:0:
320,192,105952,1,0,0:0:0:0:
192,192,106031,1,0,0:0:0:0:
64,192,106110,1,0,0:0:0:0:
448,192,106110,1,0,0:0:0:0:
192,192,106162,1,0,0:0:0:0:
320,192,106215,1,0,0:0:0:0:
448,192,106268,1,0,0:0:0:0:
64,192,106320,1,0,0:0:0:0:
192,192,106373,1,0,0:0:0:0:
320,192,106425,1,0,0:0:0:0:
448,192,106478,1,0,0:0:0:0:
64,192,106531,1,0,0:0:0:0:
192,192,106583,1,0,0:0:0:0:
320,192,106636,1,0,0:0:0:0:
448,192,106689,1,0,0:0:0:0:
64,192,106741,1,0,0:0:0:0:
192,192,106794,1,0,0:0:0:0:
320,192,106846,1,0,0:0:0:0:
448,192,106899,1,0,0:0:0:0:
64,192,106952,1,0,0:0:0:0:
192,192,107004,1,0,0:0:0:0:
320,192,107057,1,0,0:0:0:0:
448,192,107110,1,0,0:0:0:0:
64,192,107162,1,0,0:0:0:0:
192,192,107215,1,0,0:0:0:0:
320,192,107268,1,0,0:0:0:0:
192,192,107320,1,0,0:0:0:0:
448,192,107373,1,0,0:0:0:0:
64,192,107373,1,0,0:0:0:0:
320,192,107425,1,0,0:0:0:0:
192,192,107478,1,0,0:0:0:0:
64,192,107531,1,0,0:0:0:0:
448,192,107583,1,0,0:0:0:0:
320,192,107636,1,0,0:0:0:0:
192,192,107689,1,0,0:0:0:0:
64,192,107741,1,0,0:0:0:0:
448,192,107794,1,0,0:0:0:0:
320,192,107846,1,0,0:0:0:0:
192,192,107899,1,0,0:0:0:0:
64,192,107952,1,0,0:0:0:0:
448,192,108004,1,0,0:0:0:0:
320,192,108057,1,0,0:0:0:0:
192,192,108110,1,0,0:0:0:0:
64,192,108162,1,0,0:0:0:0:
448,192,108215,1,0,0:0:0:0:
320,192,108268,1,0,0:0:0:0:
192,192,108320,1,0,0:0:0:0:
64,192,108373,1,0,0:0:0:0:
448,192,108425,1,0,0:0:0:0:
320,192,108478,1,0,0:0:0:0:
192,192,108531,1,0,0:0:0:0:
64,192,108583,1,0,0:0:0:0:
448,192,108636,1,0,0:0:0:0:
320,192,108636,1,0,0:0:0:0:
192,192,108715,1,0,0:0:0:0:
64,192,108715,1,0,0:0:0:0:
448,192,108794,1,0,0:0:0:0:
320,192,108794,1,0,0:0:0:0:
192,192,108873,1,0,0:0:0:0:
64,192,108873,1,0,0:0:0:0:
320,192,108952,1,0,0:0:0:0:
448,192,108952,1,0,0:0:0:0:
192,192,109110,1,0,0:0:0:0:
64,192,109110,1,0,0:0:0:0:
448,192,109189,1,0,0:0:0:0:
320,192,109189,1,0,0:0:0:0:
192,192,109268,1,0,0:0:0:0:
64,192,109268,1,0,0:0:0:0:
448,192,109346,1,0,0:0:0:0:
320,192,109346,1,0,0:0:0:0:
192,192,109425,1,0,0:0:0:0:
64,192,109425,1,0,0:0:0:0:
448,192,109583,1,0,0:0:0:0:
320,192,109583,1,0,0:0:0:0:
64,192,109662,1,0,0:0:0:0:
192,192,109662,1,0,0:0:0:0:
320,192,109741,1,0,0:0:0:0:
448,192,109741,1,0,0:0:0:0:
64,192,109820,1,0,0:0:0:0:
192,192,109820,1,0,0:0:0:0:
320,192,109899,1,0,0:0:0:0:
448,192,109899,1,0,0:0:0:0:
64,192,110057,1,0,0:0:0:0:
192,192,110057,1,0,0:0:0:0:
320,192,110136,1,0,0:0:0:0:
448,192,110136,1,0,0:0:0:0:
192,192,110215,1,0,0:0:0:0:
64,192,110215,1,0,0:0:0:0:
320,192,110294,1,0,0:0:0:0:
448,192,110294,1,0,0:0:0:0:
192,192,110373,1,0,0:0:0:0:
64,192,110373,1,0,0:0:0:0:
320,192,110531,1,0,0:0:0:0:
448,192,110531,1,0,0:0:0:0:
64,192,110610,1,0,0:0:0:0:
192,192,110610,1,0,0:0:0:0:
320,192,110689,1,0,0:0:0:0:
448,192,110689,1,0,0:0:0:0:
64,192,110846,1,0,0:0:0:0:
192,192,110846,1,0,0:0:0:0:
320,192,110925,1,0,0:0:0:0:
448,192,110925,1,0,0:0:0:0:
192,192,111004,1,0,0:0:0:0:
64,192,111004,1,0,0:0:0:0:
320,192,111162,1,0,0:0:0:0:
448,192,111162,1,0,0:0:0:0:
64,192,111241,1,0,0:0:0:0:
192,192,111241,1,0,0:0:0:0:
320,192,111320,1,0,0:0:0:0:
448,192,111320,1,0,0:0:0:0:
64,192,111399,1,0,0:0:0:0:
192,192,111399,1,0,0:0:0:0:
320,192,111478,1,0,0:0:0:0:
448,192,111478,1,0,0:0:0:0:
64,192,111636,1,0,0:0:0:0:
192,192,111636,1,0,0:0:0:0:
320,192,111715,1,0,0:0:0:0:
448,192,111715,1,0,0:0:0:0:
192,192,111794,1,0,0:0:0:0:
64,192,111794,1,0,0:0:0:0:
320,192,111873,1,0,0:0:0:0:
448,192,111873,1,0,0:0:0:0:
192,192,111952,1,0,0:0:0:0:
64,192,111952,1,0,0:0:0:0:
320,192,112110,1,0,0:0:0:0:
448,192,112110,1,0,0:0:0:0:
64,192,112189,1,0,0:0:0:0:
192,192,112189,1,0,0:0:0:0:
320,192,112268,1,0,0:0:0:0:
448,192,112268,1,0,0:0:0:0:
192,192,112346,1,0,0:0:0:0:
64,192,112346,1,0,0:0:0:0:
320,192,112425,1,0,0:0:0:0:
448,192,112425,1,0,0:0:0:0:
64,192,112583,1,0,0:0:0:0:
192,192,112583,1,0,0:0:0:0:
320,192,112662,1,0,0:0:0:0:
448,192,112662,1,0,0:0:0:0:
192,192,112741,1,0,0:0:0:0:
64,192,112741,1,0,0:0:0:0:
320,192,112820,1,0,0:0:0:0:
448,192,112820,1,0,0:0:0:0:
192,192,112899,1,0,0:0:0:0:
64,192,112899,1,0,0:0:0:0:
320,192,113057,1,0,0:0:0:0:
448,192,113057,1,0,0:0:0:0:
64,192,113136,1,0,0:0:0:0:
192,192,113136,1,0,0:0:0:0:
320,192,113215,1,0,0:0:0:0:
448,192,113215,1,0,0:0:0:0:
64,192,113294,1,0,0:0:0:0:
192,192,113294,1,0,0:0:0:0:
320,192,113373,1,0,0:0:0:0:
448,192,113373,1,0,0:0:0:0:
64,192,113689,1,0,0:0:0:0:
192,192,113689,1,0,0:0:0:0:
320,192,113768,1,0,0:0:0:0:
448,192,113768,1,0,0:0:0:0:
192,192,113846,1,0,0:0:0:0:
64,192,113846,1,0,0:0:0:0:
320,192,113925,1,0,0:0:0:0:
448,192,113925,1,0,0:0:0:0:
192,192,114004,1,0,0:0:0:0:
64,192,114004,1,0,0:0:0:0:
320,192,114162,1,0,0:0:0:0:
448,192,114162,1,0,0:0:0:0:
64,192,114241,1,0,0:0:0:0:
192,192,114241,1,0,0:0:0:0:
320,192,114320,1,0,0:0:0:0:
448,192,114320,1,0,0:0:0:0:
192,192,114399,1,0,0:0:0:0:
64,192,114399,1,0,0:0:0:0:
320,192,114478,1,0,0:0:0:0:
448,192,114478,1,0,0:0:0:0:
64,192,114636,1,0,0:0:0:0:
192,192,114636,1,0,0:0:0:0:
320,192,114715,1,0,0:0:0:0:
448,192,114715,1,0,0:0:0:0:
192,192,114794,1,0,0:0:0:0:
64,192,114794,1,0,0:0:0:0:
320,192,114873,1,0,0:0:0:0:
448,192,114873,1,0,0:0:0:0:
192,192,114952,1,0,0:0:0:0:
64,192,114952,1,0,0:0:0:0:
448,192,115110,1,0,0:0:0:0:
320,192,115110,1,0,0:0:0:0:
192,192,115189,1,0,0:0:0:0:
64,192,115189,1,0,0:0:0:0:
448,192,115268,1,0,0:0:0:0:
320,192,115268,1,0,0:0:0:0:
192,192,115346,1,0,0:0:0:0:
64,192,115346,1,0,0:0:0:0:
448,192,115425,1,0,0:0:0:0:
320,192,115425,1,0,0:0:0:0:
192,192,115583,1,0,0:0:0:0:
64,192,115583,1,0,0:0:0:0:
448,192,115662,1,0,0:0:0:0:
320,192,115662,1,0,0:0:0:0:
64,192,115741,1,0,0:0:0:0:
192,192,115741,1,0,0:0:0:0:
448,192,115899,1,0,0:0:0:0:
320,192,115899,1,0,0:0:0:0:
192,192,115978,1,0,0:0:0:0:
64,192,115978,1,0,0:0:0:0:
448,192,116057,1,0,0:0:0:0:
320,192,116057,1,0,0:0:0:0:
192,192,116215,1,0,0:0:0:0:
64,192,116215,1,0,0:0:0:0:
448,192,116215,1,0,0:0:0:0:
320,192,116373,1,0,0:0:0:0:
448,192,116531,1,0,0:0:0:0:
192,192,116689,1,0,0:0:0:0:
320,192,116846,1,0,0:0:0:0:
64,192,117004,1,0,0:0:0:0:
192,192,117162,1,0,0:0:0:0:
448,192,117320,1,0,0:0:0:0:
192,192,117478,1,0,0:0:0:0:
64,192,117636,1,0,0:0:0:0:
320,192,117794,1,0,0:0:0:0:
192,192,117952,1,0,0:0:0:0:
448,192,118110,1,0,0:0:0:0:
320,192,118268,1,0,0:0:0:0:
64,192,118425,1,0,0:0:0:0:
448,192,118583,1,0,0:0:0:0:
320,192,118741,1,0,0:0:0:0:
192,192,118741,1,0,0:0:0:0:
64,192,118741,1,0,0:0:0:0:
