osu file format v14

[General]
AudioFilename: audio.mp3
AudioLeadIn: 0
PreviewTime: 24758
Countdown: 0
SampleSet: Soft
StackLeniency: 0.7
Mode: 0
LetterboxInBreaks: 0
WidescreenStoryboard: 0

[Editor]
Bookmarks: 67525
DistanceSpacing: 1
BeatDivisor: 4
GridSize: 4
TimelineZoom: 1

[Metadata]
Title:Ice Cave Chant
TitleUnicode:Ice Cave Chant
Artist:Eveline Fischer
ArtistUnicode:Eveline Fischer
Creator:milr_
Version:Easy
Source:Donkey Kong Country
Tags:Nintendo Slipslide Ride dkc Video Game rare rareware Instrumental MoodyRPG Super Entertainment System SNES スーパードンキーコング Super Famicom SFC スーパーファミコン VGM BGM OST
BeatmapID:2937603
BeatmapSetID:1426332

[Difficulty]
HPDrainRate:3
CircleSize:3
OverallDifficulty:3
ApproachRate:3
SliderMultiplier:1
SliderTickRate:1

[Events]
//Background and Video events
0,0,"dk5.jpg",0,0
//Break Periods
2,58709,61570
2,101466,104327
//Storyboard Layer 0 (Background)
//Storyboard Layer 1 (Fail)
//Storyboard Layer 2 (Pass)
//Storyboard Layer 3 (Foreground)
//Storyboard Layer 4 (Overlay)
//Storyboard Sound Samples

[TimingPoints]
15753,562.587904360056,4,2,1,55,1,0
67511,-100,4,2,1,60,0,1
84951,-100,4,2,1,60,0,0
85513,-100,4,2,1,60,0,1
99016,-100,4,2,1,60,0,0

[Colours]
Combo1 : 118,245,204
Combo2 : 136,199,255
Combo3 : 163,130,251

[HitObjects]
275,229,15753,6,0,P|216:218|174:211,1,100,4|2,0:0|0:0,0:0:0:0:
85,272,16878,2,0,P|59:238|63:182,1,100,2|0,0:0|0:0,0:0:0:0:
124,92,18003,2,0,P|190:84|232:78,1,100,4|2,0:0|0:0,0:0:0:0:
314,141,19128,2,0,P|369:149|431:157,1,100,2|0,0:0|0:0,0:0:0:0:
456,190,19972,1,0,0:0:0:0:
497,227,20253,6,0,P|486:278|477:340,1,100,4|2,0:0|0:0,0:0:0:0:
376,368,21378,2,0,P|334:367|297:318,1,100,2|0,0:0|0:0,0:0:0:0:
329,221,22504,2,0,P|322:183|312:115,1,100,4|2,0:0|0:0,0:0:0:0:
218,64,23629,2,0,P|177:61|134:97,1,100,2|0,0:0|0:0,0:0:0:0:
113,148,24473,1,0,0:0:0:0:
138,197,24754,6,0,P|196:204|253:213,1,100,6|2,0:3|0:3,0:0:0:0:
303,160,25738,2,0,P|350:152|441:139,1,125,2|2,0:3|0:3,0:0:0:0:
487,234,27004,2,0,P|487:272|441:318,1,100,6|2,0:3|0:3,0:0:0:0:
381,365,27989,2,0,P|325:357|276:294,1,125,2|0,0:3|0:0,0:0:0:0:
226,213,29255,6,0,P|178:217|124:224,1,100,6|2,0:3|0:3,0:0:0:0:
53,186,30239,2,0,P|37:149|74:74,1,125,2|2,0:3|0:3,0:0:0:0:
179,55,31505,2,0,P|228:62|288:71,1,100,6|2,0:3|0:3,0:0:0:0:
349,27,32489,2,0,P|395:29|428:61,1,75,2|2,0:3|0:0,0:0:0:0:
448,90,33193,1,2,0:0:0:0:
362,160,33755,6,0,P|318:153|241:231,1,150,6|2,0:3|0:3,0:0:0:0:
320,362,35443,1,2,0:0:0:0:
409,297,36006,2,0,P|416:257|435:142,1,150,6|2,0:3|0:3,0:0:0:0:
334,20,37693,1,2,0:0:0:0:
240,76,38256,6,0,P|249:127|264:230,1,150,6|0,0:3|0:0,0:0:0:0:
182,299,39662,2,0,P|177:334|173:369,2,50,2|2|2,0:0|0:0|0:3,0:0:0:0:
134,273,40506,2,0,P|90:267|42:177,1,150,6|0,0:3|0:0,0:0:0:0:
1,79,41913,2,0,P|37:45|94:51,1,100,0|2,0:0|0:3,0:0:0:0:
137,66,42757,6,0,P|146:113|156:182,1,100,6|2,0:3|0:3,0:0:0:0:
102,229,43741,2,0,P|97:285|159:328,1,125,2|2,0:3|0:3,0:0:0:0:
253,306,45007,2,0,P|287:297|359:285,1,100,6|2,0:3|0:3,0:0:0:0:
408,346,45992,2,0,P|456:349|504:280,1,125,2|0,0:3|0:0,0:0:0:0:
504,240,46976,1,0,0:0:0:0:
460,207,47257,6,0,P|402:199|352:194,1,100,6|2,0:3|0:3,0:0:0:0:
301,252,48242,2,0,P|260:257|165:275,1,125,2|2,0:3|0:3,0:0:0:0:
88,207,49508,2,0,P|73:167|98:116,1,100,6|2,0:3|0:3,0:0:0:0:
177,137,50492,2,0,P|236:136|281:78,1,125,2|0,0:3|0:0,0:0:0:0:
307,43,51477,1,2,0:3:0:0:
362,52,51758,6,0,P|408:83|409:183,1,150,6|2,0:3|0:3,0:0:0:0:
339,317,53446,1,0,0:0:0:0:
233,292,54008,2,0,P|187:261|186:161,1,150,6|2,0:3|0:3,0:0:0:0:
274,38,55696,1,2,0:3:0:0:
377,75,56259,6,0,P|385:141|396:240,1,150,6|0,0:3|0:0,0:0:0:0:
361,268,57384,2,0,P|314:280|276:245,2,100
256,192,63010,12,0,66385,0:0:0:0:
388,204,67511,6,0,P|338:195|280:185,1,100,6|0,0:3|0:0,0:0:0:0:
252,228,68354,2,0,P|201:233|94:251,1,150,2|2,0:3|0:3,0:0:0:0:
15,184,69761,2,0,P|21:139|32:76,1,100,6|0,0:3|0:0,0:0:0:0:
69,45,70605,2,0,P|114:14|219:33,1,150,2|0,0:3|0:0,0:0:0:0:
276,107,72011,6,0,P|266:155|254:221,1,100,6|0,0:3|0:0,0:0:0:0:
203,218,72855,2,0,P|214:275|232:388,1,150,2|2,0:3|0:3,0:0:0:0:
337,346,74262,2,0,P|356:319|438:319,1,100,6|0,0:3|0:0,0:0:0:0:
474,325,75106,2,0,P|481:280|490:225,1,100,2|2,0:3|0:0,0:0:0:0:
471,174,75949,1,2,0:0:0:0:
364,203,76512,6,0,P|323:195|251:184,1,100,6|0,0:3|0:0,0:0:0:0:
225,224,77356,2,0,P|164:232|104:174,1,150,2|2,0:3|0:0,0:0:0:0:
127,67,78762,2,0,P|173:57|229:49,1,100,6|0,0:3|0:0,0:0:0:0:
267,13,79606,2,0,P|333:20|378:26,1,100,2|2,0:3|0:0,0:0:0:0:
412,55,80450,1,2,0:0:0:0:
337,135,81013,6,0,P|294:142|266:250,1,150,6|2,0:3|0:3,0:0:0:0:
332,379,82700,1,2,0:0:0:0:
432,334,83263,2,0,P|438:299|461:163,1,150,6|0,0:3|0:0,0:0:0:0:
420,82,84670,1,0,0:0:0:0:
265,142,85513,6,0,P|257:190|248:251,1,100,6|0,0:3|0:0,0:0:0:0:
232,293,86357,2,0,P|197:298|115:219,1,150,2|0,0:3|0:0,0:0:0:0:
18,181,87764,2,0,P|11:135|-1:80,1,100,6|0,0:3|0:0,0:0:0:0:
41,46,88608,2,0,P|65:15|177:11,1,150,2|2,0:3|0:3,0:0:0:0:
262,65,90014,6,0,P|252:127|246:179,1,100,6|0,0:3|0:0,0:0:0:0:
195,181,90858,2,0,P|203:233|214:336,1,150,2|0,0:3|0:0,0:0:0:0:
319,361,92264,2,0,P|376:367|416:324,1,100,6|0,0:3|0:0,0:0:0:0:
454,313,93108,2,0,P|459:260|471:160,1,150,2|2,0:3|0:3,0:0:0:0:
388,91,94515,6,0,P|342:101|271:117,1,100,6|0,0:3|0:0,0:0:0:0:
249,76,95359,2,0,P|223:40|165:27,1,100,2|0,0:3|0:0,0:0:0:0:
70,69,96484,1,2,0:3:0:0:
38,114,96765,2,0,P|27:154|62:217,1,100,6|0,0:3|0:0,0:0:0:0:
99,230,97609,2,0,P|186:214|251:203,1,150,2|2,0:3|0:3,0:0:0:0:
323,284,99016,6,0,P|373:336|451:327,1,150,4|0,0:0|0:0,0:0:0:0:
478,292,100141,2,0,P|469:243|457:187,2,100
256,192,105767,12,4,110267,0:0:0:0:
