osu file format v14

[General]
AudioFilename: audio.ogg
AudioLeadIn: 0
PreviewTime: 58664
Countdown: 0
SampleSet: Normal
StackLeniency: 0.7
Mode: 1
LetterboxInBreaks: 0
WidescreenStoryboard: 1

[Editor]
Bookmarks: 558,10254,19951,29648,39345,49042,58739,68436,78133,85406,95103,104800,114497,124194,133891,143588,148436,158133,172679,182376,192073,199345,209042
DistanceSpacing: 0.1
BeatDivisor: 4
GridSize: 32
TimelineZoom: 2.1

[Metadata]
Title:Fake
TitleUnicode:フェイク
Artist:Eve x Sou
ArtistUnicode:Eve × Sou
Creator:gaston_2199
Version:Oni
Source:
Tags:蒼 Ao Aoi Blue くっか Kukka japanese rock jrock j-rock male vocal KyeX
BeatmapID:3405049
BeatmapSetID:1667607

[Difficulty]
HPDrainRate:5
CircleSize:2
OverallDifficulty:6
ApproachRate:10
SliderMultiplier:1.4
SliderTickRate:1

[Events]
//Background and Video events
0,0,"BG2.jpg",0,-100
//Break Periods
2,148636,164956
//Storyboard Layer 0 (Background)
//Storyboard Layer 1 (Fail)
//Storyboard Layer 2 (Pass)
//Storyboard Layer 3 (Foreground)
//Storyboard Layer 4 (Overlay)
//Storyboard Sound Samples

[TimingPoints]
558,303.030303030303,4,1,0,70,1,0
558,-125,4,1,0,70,0,0
9497,-111.111111111111,4,1,0,80,0,0
9800,-125,4,1,0,70,0,0
10254,-100,4,1,0,80,0,0
20254,-111.111111111111,4,1,0,70,0,0
29648,-100,4,1,0,80,0,0
39648,-111.111111111111,4,1,0,70,0,0
49042,-100,4,1,0,80,0,0
58739,-100,4,1,0,90,0,1
84800,-111.111111111111,4,1,0,90,0,1
85406,-100,4,1,0,80,0,0
95406,-111.111111111111,4,1,0,70,0,0
104800,-100,4,1,0,80,0,0
114800,-111.111111111111,4,1,0,70,0,0
124194,-100,4,1,0,80,0,0
149648,-142.857142857143,4,1,0,60,0,0
167376,-111.111111111111,4,1,0,70,0,0
167830,-100,4,1,0,80,0,0
172679,-100,4,1,0,90,0,1
198739,-111.111111111111,4,1,0,90,0,1
199345,-100,4,1,0,80,0,0

[HitObjects]
256,160,558,5,8,0:0:0:0:
256,160,861,1,0,0:0:0:0:
256,160,1164,1,8,0:0:0:0:
256,160,1315,1,0,0:0:0:0:
256,160,1618,1,0,0:0:0:0:
256,160,1770,1,8,0:0:0:0:
256,160,2073,1,0,0:0:0:0:
256,160,2376,1,8,0:0:0:0:
256,160,2527,1,0,0:0:0:0:
256,160,2679,1,8,0:0:0:0:
256,160,2982,1,0,0:0:0:0:
256,160,3285,1,8,0:0:0:0:
256,160,3588,1,0,0:0:0:0:
256,160,3739,1,8,0:0:0:0:
256,160,4042,1,0,0:0:0:0:
256,160,4345,1,8,0:0:0:0:
256,160,4497,1,0,0:0:0:0:
256,160,4648,1,8,0:0:0:0:
256,160,4951,1,0,0:0:0:0:
256,160,5103,1,0,0:0:0:0:
256,160,5406,1,8,0:0:0:0:
256,160,5709,1,0,0:0:0:0:
256,160,6012,1,8,0:0:0:0:
256,160,6164,1,0,0:0:0:0:
256,160,6467,1,0,0:0:0:0:
256,160,6618,1,8,0:0:0:0:
256,160,6921,1,0,0:0:0:0:
256,160,7224,1,8,0:0:0:0:
256,160,7376,1,0,0:0:0:0:
256,160,7527,1,8,0:0:0:0:
256,160,7830,1,0,0:0:0:0:
256,160,8133,1,8,0:0:0:0:
256,160,8436,1,0,0:0:0:0:
256,160,8588,1,8,0:0:0:0:
256,160,8739,1,0,0:0:0:0:
256,160,9042,1,8,0:0:0:0:
256,160,9194,1,0,0:0:0:0:
256,160,9345,1,0,0:0:0:0:
256,160,9497,1,12,0:0:0:0:
256,160,9800,1,0,0:0:0:0:
256,160,9951,5,8,0:0:0:0:
256,160,10254,1,4,0:0:0:0:
256,192,10558,1,8,0:0:0:0:
256,192,10709,1,0,0:0:0:0:
256,192,10861,1,8,0:0:0:0:
256,192,11012,1,0,0:0:0:0:
256,192,11164,1,8,0:0:0:0:
256,192,11315,1,8,0:0:0:0:
256,192,11467,1,0,0:0:0:0:
256,192,11770,1,8,0:0:0:0:
256,192,11921,1,0,0:0:0:0:
256,192,11997,1,0,0:0:0:0:
256,192,12073,1,8,0:0:0:0:
256,192,12224,1,0,0:0:0:0:
256,192,12376,1,8,0:0:0:0:
256,192,12527,1,8,0:0:0:0:
256,192,12679,1,0,0:0:0:0:
256,192,12982,1,8,0:0:0:0:
256,192,13285,1,0,0:0:0:0:
256,192,13436,1,0,0:0:0:0:
256,192,13588,1,8,0:0:0:0:
256,192,13891,1,0,0:0:0:0:
256,192,14042,1,8,0:0:0:0:
256,192,14194,1,8,0:0:0:0:
256,192,14345,1,4,0:0:0:0:
256,192,14800,1,8,0:0:0:0:
256,192,14951,1,8,0:0:0:0:
256,192,15103,1,4,0:0:0:0:
256,192,15406,1,8,0:0:0:0:
256,192,15557,1,0,0:0:0:0:
256,192,15709,1,8,0:0:0:0:
256,192,15861,1,0,0:0:0:0:
256,192,16012,1,8,0:0:0:0:
256,192,16164,1,8,0:0:0:0:
256,192,16315,1,0,0:0:0:0:
256,192,16618,1,8,0:0:0:0:
256,192,16770,1,0,0:0:0:0:
256,192,16845,1,0,0:0:0:0:
256,192,16921,1,8,0:0:0:0:
256,192,17073,1,0,0:0:0:0:
256,192,17224,1,8,0:0:0:0:
256,192,17376,1,8,0:0:0:0:
256,192,17527,1,0,0:0:0:0:
256,192,17830,1,8,0:0:0:0:
256,192,18133,1,0,0:0:0:0:
256,192,18285,1,8,0:0:0:0:
256,192,18436,1,8,0:0:0:0:
256,192,18588,1,0,0:0:0:0:
256,192,18739,1,0,0:0:0:0:
256,192,18891,1,8,0:0:0:0:
256,192,19042,1,0,0:0:0:0:
256,192,19194,1,12,0:0:0:0:
256,192,19497,1,0,0:0:0:0:
256,192,19648,1,8,0:0:0:0:
256,192,19951,1,4,0:0:0:0:
256,192,20254,1,8,0:0:0:0:
256,192,20558,1,0,0:0:0:0:
256,192,20861,1,8,0:0:0:0:
256,192,21164,1,0,0:0:0:0:
256,192,21467,1,8,0:0:0:0:
256,192,21618,1,8,0:0:0:0:
256,192,21770,1,0,0:0:0:0:
256,192,22073,1,8,0:0:0:0:
256,192,22376,1,0,0:0:0:0:
256,192,22679,1,8,0:0:0:0:
256,192,22982,1,0,0:0:0:0:
256,192,23133,1,0,0:0:0:0:
256,192,23285,1,8,0:0:0:0:
256,192,23588,1,0,0:0:0:0:
256,192,23891,1,8,0:0:0:0:
256,192,24194,1,8,0:0:0:0:
256,192,24345,1,0,0:0:0:0:
256,192,24497,1,8,0:0:0:0:
256,192,24800,1,0,0:0:0:0:
256,192,25103,1,8,0:0:0:0:
256,192,25406,1,8,0:0:0:0:
256,192,25557,1,0,0:0:0:0:
256,192,25709,1,8,0:0:0:0:
256,192,26012,1,0,0:0:0:0:
256,192,26315,1,8,0:0:0:0:
256,192,26618,1,0,0:0:0:0:
256,192,26770,1,0,0:0:0:0:
256,192,26921,1,8,0:0:0:0:
256,192,27224,1,0,0:0:0:0:
256,192,27527,1,8,0:0:0:0:
256,192,27830,1,0,0:0:0:0:
256,192,28133,1,8,0:0:0:0:
256,192,28436,1,0,0:0:0:0:
256,192,28739,1,8,0:0:0:0:
256,192,28891,1,8,0:0:0:0:
256,192,29042,1,0,0:0:0:0:
256,192,29648,5,4,0:0:0:0:
256,192,29951,1,8,0:0:0:0:
256,192,30103,1,0,0:0:0:0:
256,192,30254,1,8,0:0:0:0:
256,192,30406,1,0,0:0:0:0:
256,192,30557,1,0,0:0:0:0:
256,192,30709,1,8,0:0:0:0:
256,192,31012,1,0,0:0:0:0:
256,192,31164,1,8,0:0:0:0:
256,192,31315,1,8,0:0:0:0:
256,192,31467,1,0,0:0:0:0:
256,192,31618,1,0,0:0:0:0:
256,192,31770,1,8,0:0:0:0:
256,192,32073,1,0,0:0:0:0:
256,192,32376,1,8,0:0:0:0:
256,192,32527,1,0,0:0:0:0:
256,192,32679,1,8,0:0:0:0:
256,192,32830,1,0,0:0:0:0:
256,192,32982,1,8,0:0:0:0:
256,192,33133,1,8,0:0:0:0:
256,192,33436,1,0,0:0:0:0:
256,192,33588,1,8,0:0:0:0:
256,192,33739,1,8,0:0:0:0:
256,192,33891,1,0,0:0:0:0:
256,192,34042,1,0,0:0:0:0:
256,192,34194,1,8,0:0:0:0:
256,192,34497,1,0,0:0:0:0:
256,192,34648,1,8,0:0:0:0:
256,192,34800,1,8,0:0:0:0:
256,192,34951,1,0,0:0:0:0:
256,192,35103,1,8,0:0:0:0:
256,192,35406,1,8,0:0:0:0:
256,192,35558,1,8,0:0:0:0:
256,192,35709,1,0,0:0:0:0:
256,192,35861,1,0,0:0:0:0:
256,192,36012,1,8,0:0:0:0:
256,192,36164,1,8,0:0:0:0:
256,192,36467,1,0,0:0:0:0:
256,192,36618,1,8,0:0:0:0:
256,192,36770,1,8,0:0:0:0:
256,192,36921,1,0,0:0:0:0:
256,192,37073,1,0,0:0:0:0:
256,192,37224,1,8,0:0:0:0:
256,192,37376,1,0,0:0:0:0:
256,192,37679,1,8,0:0:0:0:
256,192,37830,1,8,0:0:0:0:
256,192,37982,1,4,0:0:0:0:
256,192,38285,1,8,0:0:0:0:
256,192,38436,1,0,0:0:0:0:
256,192,38588,1,0,0:0:0:0:
256,192,38739,1,8,0:0:0:0:
256,192,38891,1,0,0:0:0:0:
256,192,39042,1,8,0:0:0:0:
256,192,39345,1,4,0:0:0:0:
256,192,39800,1,0,0:0:0:0:
256,192,39951,1,8,0:0:0:0:
256,192,40254,1,0,0:0:0:0:
256,192,40406,1,0,0:0:0:0:
256,192,40709,1,8,0:0:0:0:
256,192,40861,1,0,0:0:0:0:
256,192,41164,1,0,0:0:0:0:
256,192,41467,1,8,0:0:0:0:
256,192,41770,1,0,0:0:0:0:
256,192,42224,1,0,0:0:0:0:
256,192,42376,1,8,0:0:0:0:
256,192,42679,1,8,0:0:0:0:
256,192,42830,1,0,0:0:0:0:
256,192,43133,1,8,0:0:0:0:
256,192,43285,1,0,0:0:0:0:
256,192,43588,1,8,0:0:0:0:
256,192,43739,1,0,0:0:0:0:
256,192,43891,1,8,0:0:0:0:
256,192,44194,1,0,0:0:0:0:
256,192,44648,1,0,0:0:0:0:
256,192,44800,1,8,0:0:0:0:
256,192,45103,1,0,0:0:0:0:
256,192,45254,1,0,0:0:0:0:
256,192,45557,1,8,0:0:0:0:
256,192,45709,1,0,0:0:0:0:
256,192,46012,1,0,0:0:0:0:
256,192,46315,1,8,0:0:0:0:
256,192,46618,1,0,0:0:0:0:
256,192,47073,1,0,0:0:0:0:
256,192,47224,1,8,0:0:0:0:
256,192,47527,1,0,0:0:0:0:
256,192,47679,1,0,0:0:0:0:
256,192,47982,1,8,0:0:0:0:
256,192,48285,1,0,0:0:0:0:
256,192,48436,1,8,0:0:0:0:
256,192,48588,1,0,0:0:0:0:
256,192,48739,1,8,0:0:0:0:
256,192,49042,1,4,0:0:0:0:
256,192,49345,1,8,0:0:0:0:
256,192,49648,1,0,0:0:0:0:
256,192,49800,1,0,0:0:0:0:
256,192,49951,1,8,0:0:0:0:
256,192,50103,1,8,0:0:0:0:
256,192,50254,1,0,0:0:0:0:
256,192,50557,1,8,0:0:0:0:
256,192,50709,1,0,0:0:0:0:
256,192,50861,1,8,0:0:0:0:
256,192,51012,1,0,0:0:0:0:
256,192,51164,1,8,0:0:0:0:
256,192,51315,1,8,0:0:0:0:
256,192,51467,1,0,0:0:0:0:
256,192,51770,1,8,0:0:0:0:
256,192,52073,1,8,0:0:0:0:
256,192,52224,1,0,0:0:0:0:
256,192,52376,1,8,0:0:0:0:
256,192,52451,1,8,0:0:0:0:
256,192,52527,1,8,0:0:0:0:
256,192,52679,1,0,0:0:0:0:
256,192,52830,1,0,0:0:0:0:
256,192,52982,1,8,0:0:0:0:
256,192,53133,1,0,0:0:0:0:
256,192,53209,1,0,0:0:0:0:
256,192,53285,1,8,0:0:0:0:
256,192,53436,1,8,0:0:0:0:
256,192,53588,1,0,0:0:0:0:
256,192,53891,1,12,0:0:0:0:
256,192,54194,1,0,0:0:0:0:
256,192,54345,1,12,0:0:0:0:
256,192,54800,1,12,0:0:0:0:
256,192,55103,1,0,0:0:0:0:
256,192,55254,1,12,0:0:0:0:
256,192,55709,1,12,0:0:0:0:
256,192,55861,1,0,0:0:0:0:
256,192,56012,1,12,0:0:0:0:
256,192,56315,1,0,0:0:0:0:
256,192,56467,1,8,0:0:0:0:
256,192,56542,1,8,0:0:0:0:
256,192,56618,1,0,0:0:0:0:
256,192,56770,1,0,0:0:0:0:
256,192,56845,1,0,0:0:0:0:
256,192,56921,1,8,0:0:0:0:
256,192,57073,1,8,0:0:0:0:
256,192,57148,1,8,0:0:0:0:
256,192,57224,1,0,0:0:0:0:
256,192,57376,1,0,0:0:0:0:
256,192,57451,1,0,0:0:0:0:
256,192,57527,1,8,0:0:0:0:
256,192,57679,1,0,0:0:0:0:
256,192,57830,1,8,0:0:0:0:
256,192,57906,1,0,0:0:0:0:
256,192,57982,1,8,0:0:0:0:
256,192,58057,1,8,0:0:0:0:
256,192,58133,1,0,0:0:0:0:
256,192,58739,5,4,0:0:0:0:
256,192,59042,1,8,0:0:0:0:
256,192,59345,1,8,0:0:0:0:
256,192,59497,1,0,0:0:0:0:
256,192,59573,1,0,0:0:0:0:
256,192,59648,1,8,0:0:0:0:
256,192,59800,1,8,0:0:0:0:
256,192,59951,1,0,0:0:0:0:
256,192,60103,1,0,0:0:0:0:
256,192,60254,1,8,0:0:0:0:
256,192,60330,1,8,0:0:0:0:
256,192,60406,1,0,0:0:0:0:
256,192,60482,1,0,0:0:0:0:
256,192,60557,1,8,0:0:0:0:
256,192,60709,1,0,0:0:0:0:
256,192,60861,1,8,0:0:0:0:
256,192,61012,1,8,0:0:0:0:
256,192,61164,1,0,0:0:0:0:
256,192,61467,1,8,0:0:0:0:
256,192,61770,1,8,0:0:0:0:
256,192,61921,1,0,0:0:0:0:
256,192,62073,1,8,0:0:0:0:
256,192,62148,1,8,0:0:0:0:
256,192,62224,1,8,0:0:0:0:
256,192,62376,1,0,0:0:0:0:
256,192,62527,1,0,0:0:0:0:
256,192,62679,1,8,0:0:0:0:
256,192,62830,1,0,0:0:0:0:
256,192,62906,1,0,0:0:0:0:
256,192,62982,1,8,0:0:0:0:
256,192,63057,1,0,0:0:0:0:
256,192,63133,1,0,0:0:0:0:
256,192,63285,1,8,0:0:0:0:
256,192,63436,1,8,0:0:0:0:
256,192,63588,1,0,0:0:0:0:
256,192,63891,1,8,0:0:0:0:
256,192,64194,1,0,0:0:0:0:
256,192,64345,1,0,0:0:0:0:
256,192,64497,1,8,0:0:0:0:
256,192,64648,1,0,0:0:0:0:
256,192,64800,1,8,0:0:0:0:
256,192,64951,1,0,0:0:0:0:
256,192,65027,1,8,0:0:0:0:
256,192,65103,1,0,0:0:0:0:
256,192,65254,1,8,0:0:0:0:
256,192,65406,1,0,0:0:0:0:
256,192,65558,1,0,0:0:0:0:
256,192,65633,1,0,0:0:0:0:
256,192,65709,1,8,0:0:0:0:
256,192,65861,1,8,0:0:0:0:
256,192,66012,1,0,0:0:0:0:
256,192,66164,1,0,0:0:0:0:
256,192,66315,1,8,0:0:0:0:
256,192,66618,1,0,0:0:0:0:
256,192,66770,1,0,0:0:0:0:
256,192,66921,1,8,0:0:0:0:
256,192,67073,1,8,0:0:0:0:
256,192,67148,1,8,0:0:0:0:
256,192,67224,1,0,0:0:0:0:
256,192,67376,1,0,0:0:0:0:
256,192,67527,1,8,0:0:0:0:
256,192,67679,1,0,0:0:0:0:
256,192,67830,1,8,0:0:0:0:
256,192,67906,1,8,0:0:0:0:
256,192,67982,1,0,0:0:0:0:
256,192,68058,1,0,0:0:0:0:
256,192,68133,1,8,0:0:0:0:
256,192,68285,1,8,0:0:0:0:
256,192,68436,1,4,0:0:0:0:
256,192,68739,1,8,0:0:0:0:
256,192,68891,1,8,0:0:0:0:
256,192,69042,1,0,0:0:0:0:
256,192,69194,1,0,0:0:0:0:
256,192,69270,1,0,0:0:0:0:
256,192,69345,1,8,0:0:0:0:
256,192,69497,1,8,0:0:0:0:
256,192,69648,1,0,0:0:0:0:
256,192,69800,1,8,0:0:0:0:
256,192,69951,1,8,0:0:0:0:
256,192,70103,1,0,0:0:0:0:
256,192,70406,1,8,0:0:0:0:
256,192,70709,1,0,0:0:0:0:
256,192,70861,1,8,0:0:0:0:
256,192,71164,1,8,0:0:0:0:
256,192,71315,1,8,0:0:0:0:
256,192,71467,1,0,0:0:0:0:
256,192,71618,1,0,0:0:0:0:
256,192,71694,1,0,0:0:0:0:
256,192,71770,1,8,0:0:0:0:
256,192,71921,1,0,0:0:0:0:
256,192,72073,1,8,0:0:0:0:
256,192,72224,1,0,0:0:0:0:
256,184,72376,1,8,0:0:0:0:
256,192,72527,1,8,0:0:0:0:
256,192,72830,1,8,0:0:0:0:
256,192,72982,1,8,0:0:0:0:
256,192,73133,1,0,0:0:0:0:
256,192,73285,1,8,0:0:0:0:
256,192,73436,1,0,0:0:0:0:
256,192,73512,1,0,0:0:0:0:
256,192,73588,1,8,0:0:0:0:
256,192,73739,1,0,0:0:0:0:
256,192,73891,1,8,0:0:0:0:
256,192,74194,1,8,0:0:0:0:
256,192,74345,1,8,0:0:0:0:
256,192,74497,1,0,0:0:0:0:
256,192,74648,1,0,0:0:0:0:
256,192,74724,1,0,0:0:0:0:
256,192,74800,1,8,0:0:0:0:
256,192,74951,1,0,0:0:0:0:
256,192,75103,1,8,0:0:0:0:
256,192,75254,1,0,0:0:0:0:
256,192,75406,1,8,0:0:0:0:
256,192,75482,1,8,0:0:0:0:
256,192,75558,1,0,0:0:0:0:
256,192,75633,1,0,0:0:0:0:
257,185,75709,1,8,0:0:0:0:
256,192,75861,1,0,0:0:0:0:
256,192,76012,1,8,0:0:0:0:
256,192,76164,1,0,0:0:0:0:
256,192,76239,1,0,0:0:0:0:
256,192,76315,1,8,0:0:0:0:
256,192,76467,1,0,0:0:0:0:
256,192,76618,1,8,0:0:0:0:
256,192,76770,1,8,0:0:0:0:
256,192,76921,1,0,0:0:0:0:
256,192,77224,1,8,0:0:0:0:
256,192,77376,1,8,0:0:0:0:
256,192,77527,1,0,0:0:0:0:
256,192,77679,1,0,0:0:0:0:
256,192,77830,1,8,0:0:0:0:
256,192,77906,1,8,0:0:0:0:
256,192,77982,1,8,0:0:0:0:
256,192,78133,1,4,0:0:0:0:
256,192,78436,1,8,0:0:0:0:
256,192,78588,1,0,0:0:0:0:
256,192,78739,1,8,0:0:0:0:
256,192,78891,1,0,0:0:0:0:
256,192,79042,1,8,0:0:0:0:
256,192,79194,1,8,0:0:0:0:
256,192,79345,1,4,0:0:0:0:
256,192,79648,1,8,0:0:0:0:
256,192,79800,1,8,0:0:0:0:
256,192,79951,1,0,0:0:0:0:
256,192,80103,1,0,0:0:0:0:
256,192,80254,1,8,0:0:0:0:
256,192,80406,1,8,0:0:0:0:
256,192,80558,1,4,0:0:0:0:
256,192,80861,1,8,0:0:0:0:
256,192,81012,1,8,0:0:0:0:
256,192,81164,1,0,0:0:0:0:
256,192,81315,1,0,0:0:0:0:
256,192,81467,1,8,0:0:0:0:
256,192,81542,1,0,0:0:0:0:
256,192,81618,1,8,0:0:0:0:
256,192,81770,1,0,0:0:0:0:
256,192,81921,1,8,0:0:0:0:
256,192,82224,1,0,0:0:0:0:
256,192,82376,1,8,0:0:0:0:
256,192,82527,1,0,0:0:0:0:
256,192,82679,1,0,0:0:0:0:
256,192,82830,1,0,0:0:0:0:
256,192,82982,1,12,0:0:0:0:
256,192,84194,1,4,0:0:0:0:
256,160,84800,1,0,0:0:0:0:
256,160,85406,1,12,0:0:0:0:
256,192,85709,1,8,0:0:0:0:
256,192,85861,1,0,0:0:0:0:
256,192,86012,1,8,0:0:0:0:
256,192,86164,1,0,0:0:0:0:
256,192,86315,1,8,0:0:0:0:
256,192,86467,1,8,0:0:0:0:
256,192,86618,1,0,0:0:0:0:
256,192,86921,1,8,0:0:0:0:
256,192,87073,1,0,0:0:0:0:
256,192,87148,1,0,0:0:0:0:
256,192,87224,1,8,0:0:0:0:
256,192,87376,1,0,0:0:0:0:
256,192,87527,1,8,0:0:0:0:
256,192,87679,1,8,0:0:0:0:
256,192,87830,1,0,0:0:0:0:
256,192,88133,1,8,0:0:0:0:
256,192,88436,1,0,0:0:0:0:
256,192,88588,1,0,0:0:0:0:
256,192,88739,1,8,0:0:0:0:
256,192,89042,1,0,0:0:0:0:
256,192,89194,1,0,0:0:0:0:
256,192,89345,1,8,0:0:0:0:
256,192,89497,1,4,0:0:0:0:
256,192,89800,1,8,0:0:0:0:
256,192,89951,1,8,0:0:0:0:
256,192,90103,1,8,0:0:0:0:
256,192,90254,1,4,0:0:0:0:
256,192,90557,1,8,0:0:0:0:
256,192,90709,1,0,0:0:0:0:
256,192,90861,1,8,0:0:0:0:
256,192,91012,1,0,0:0:0:0:
256,192,91164,1,8,0:0:0:0:
256,192,91315,1,8,0:0:0:0:
256,192,91467,1,0,0:0:0:0:
256,192,91770,1,8,0:0:0:0:
256,192,91921,1,0,0:0:0:0:
256,192,91997,1,0,0:0:0:0:
256,192,92073,1,8,0:0:0:0:
256,192,92224,1,0,0:0:0:0:
256,192,92376,1,8,0:0:0:0:
256,192,92527,1,8,0:0:0:0:
256,192,92679,1,0,0:0:0:0:
256,192,92982,1,8,0:0:0:0:
256,192,93285,1,0,0:0:0:0:
256,192,93436,1,8,0:0:0:0:
256,192,93588,1,8,0:0:0:0:
256,192,93891,1,4,0:0:0:0:
256,192,94042,1,8,0:0:0:0:
256,192,94194,1,8,0:0:0:0:
256,192,94345,1,4,0:0:0:0:
256,192,94648,1,0,0:0:0:0:
256,192,94800,1,0,0:0:0:0:
256,192,95103,1,4,0:0:0:0:
256,192,95406,5,8,0:0:0:0:
256,192,96012,1,8,0:0:0:0:
256,192,96618,1,8,0:0:0:0:
256,192,97073,1,0,0:0:0:0:
256,192,97224,1,8,0:0:0:0:
256,192,97527,1,0,0:0:0:0:
256,192,97830,1,8,0:0:0:0:
256,192,98436,1,8,0:0:0:0:
256,192,99042,1,8,0:0:0:0:
256,192,99648,1,8,0:0:0:0:
256,192,99951,1,0,0:0:0:0:
256,192,100254,1,8,0:0:0:0:
256,192,100861,1,8,0:0:0:0:
256,192,101467,1,8,0:0:0:0:
256,192,101921,1,0,0:0:0:0:
256,192,102073,1,8,0:0:0:0:
256,192,102376,1,0,0:0:0:0:
256,192,102679,1,8,0:0:0:0:
256,192,103285,1,8,0:0:0:0:
256,192,103891,1,8,0:0:0:0:
256,192,104800,5,4,0:0:0:0:
256,192,105103,1,8,0:0:0:0:
256,192,105254,1,0,0:0:0:0:
256,192,105406,1,8,0:0:0:0:
256,192,105557,1,0,0:0:0:0:
256,192,105709,1,0,0:0:0:0:
256,192,105861,1,8,0:0:0:0:
256,192,106164,1,0,0:0:0:0:
256,192,106315,1,8,0:0:0:0:
256,192,106467,1,8,0:0:0:0:
256,192,106618,1,0,0:0:0:0:
256,192,106770,1,0,0:0:0:0:
256,192,106921,1,8,0:0:0:0:
256,192,107224,1,0,0:0:0:0:
256,192,107527,1,8,0:0:0:0:
256,192,107679,1,0,0:0:0:0:
256,192,107830,1,8,0:0:0:0:
256,192,107982,1,0,0:0:0:0:
256,192,108133,1,8,0:0:0:0:
256,192,108285,1,8,0:0:0:0:
256,192,108588,1,0,0:0:0:0:
256,192,108739,1,8,0:0:0:0:
256,192,108891,1,8,0:0:0:0:
256,192,109042,1,0,0:0:0:0:
256,192,109194,1,0,0:0:0:0:
256,192,109345,1,8,0:0:0:0:
256,192,109648,1,0,0:0:0:0:
256,192,109800,1,8,0:0:0:0:
256,192,109951,1,8,0:0:0:0:
256,192,110103,1,0,0:0:0:0:
256,192,110254,1,8,0:0:0:0:
256,192,110406,1,0,0:0:0:0:
256,192,110557,1,8,0:0:0:0:
256,192,110709,1,8,0:0:0:0:
256,192,110861,1,0,0:0:0:0:
256,192,111012,1,0,0:0:0:0:
256,192,111164,1,8,0:0:0:0:
256,192,111315,1,8,0:0:0:0:
256,192,111618,1,0,0:0:0:0:
256,192,111770,1,8,0:0:0:0:
256,192,111921,1,8,0:0:0:0:
256,192,112073,1,0,0:0:0:0:
256,192,112224,1,0,0:0:0:0:
256,192,112376,1,8,0:0:0:0:
256,192,112527,1,0,0:0:0:0:
256,192,112830,1,8,0:0:0:0:
256,192,112982,1,8,0:0:0:0:
256,192,113133,1,4,0:0:0:0:
256,192,113436,1,8,0:0:0:0:
256,192,113588,1,0,0:0:0:0:
256,192,113739,1,0,0:0:0:0:
256,192,113891,1,8,0:0:0:0:
256,192,114042,1,0,0:0:0:0:
256,192,114194,1,8,0:0:0:0:
256,192,114497,1,4,0:0:0:0:
256,192,114800,1,0,0:0:0:0:
256,192,115103,1,8,0:0:0:0:
256,192,115406,1,0,0:0:0:0:
256,192,115557,1,0,0:0:0:0:
256,192,115861,1,8,0:0:0:0:
256,192,116012,1,0,0:0:0:0:
256,192,116315,1,8,0:0:0:0:
256,192,116467,1,0,0:0:0:0:
256,192,116921,1,0,0:0:0:0:
256,192,117224,1,0,0:0:0:0:
256,192,117527,1,8,0:0:0:0:
256,192,117830,1,8,0:0:0:0:
256,192,117982,1,0,0:0:0:0:
256,192,118285,1,8,0:0:0:0:
256,192,118436,1,0,0:0:0:0:
256,192,118739,1,8,0:0:0:0:
256,192,118891,1,0,0:0:0:0:
256,192,119042,1,8,0:0:0:0:
256,192,119345,1,0,0:0:0:0:
256,192,119648,1,0,0:0:0:0:
256,192,119951,1,8,0:0:0:0:
256,192,120254,1,0,0:0:0:0:
256,192,120406,1,0,0:0:0:0:
256,192,120709,1,8,0:0:0:0:
256,192,120861,1,0,0:0:0:0:
256,192,121164,1,8,0:0:0:0:
256,192,121315,1,0,0:0:0:0:
256,192,121770,1,0,0:0:0:0:
256,192,122073,1,0,0:0:0:0:
256,192,122376,1,8,0:0:0:0:
256,192,122679,1,0,0:0:0:0:
256,192,122830,1,0,0:0:0:0:
256,192,123133,1,8,0:0:0:0:
256,192,123285,1,0,0:0:0:0:
256,192,123436,1,0,0:0:0:0:
256,192,123588,1,8,0:0:0:0:
256,192,123891,1,8,0:0:0:0:
256,192,124042,1,8,0:0:0:0:
256,192,124194,1,4,0:0:0:0:
256,192,124497,1,8,0:0:0:0:
256,192,124800,1,0,0:0:0:0:
256,192,124951,1,0,0:0:0:0:
256,192,125103,1,8,0:0:0:0:
256,192,125254,1,8,0:0:0:0:
256,192,125406,1,0,0:0:0:0:
256,192,125709,1,8,0:0:0:0:
256,192,125861,1,0,0:0:0:0:
256,192,126012,1,8,0:0:0:0:
256,192,126164,1,0,0:0:0:0:
256,192,126315,1,8,0:0:0:0:
256,192,126467,1,8,0:0:0:0:
256,192,126618,1,0,0:0:0:0:
256,192,126921,1,8,0:0:0:0:
256,192,127224,1,8,0:0:0:0:
256,192,127376,1,0,0:0:0:0:
256,192,127527,1,8,0:0:0:0:
256,192,127603,1,8,0:0:0:0:
256,192,127679,1,8,0:0:0:0:
256,192,127830,1,0,0:0:0:0:
256,192,127982,1,0,0:0:0:0:
256,192,128133,1,8,0:0:0:0:
256,192,128285,1,0,0:0:0:0:
256,192,128361,1,0,0:0:0:0:
256,192,128436,1,8,0:0:0:0:
256,192,128588,1,0,0:0:0:0:
256,192,128739,1,8,0:0:0:0:
256,192,129042,1,12,0:0:0:0:
256,192,129345,1,0,0:0:0:0:
256,192,129497,1,12,0:0:0:0:
256,192,129951,1,12,0:0:0:0:
256,192,130254,1,0,0:0:0:0:
256,192,130406,1,12,0:0:0:0:
256,192,130861,1,12,0:0:0:0:
256,192,131012,1,0,0:0:0:0:
256,192,131164,1,12,0:0:0:0:
256,192,131467,1,0,0:0:0:0:
256,192,131618,1,8,0:0:0:0:
256,192,131694,1,8,0:0:0:0:
256,192,131770,1,0,0:0:0:0:
256,192,131921,1,0,0:0:0:0:
256,192,131997,1,0,0:0:0:0:
256,192,132073,1,8,0:0:0:0:
256,192,132224,5,8,0:0:0:0:
256,192,132300,1,8,0:0:0:0:
256,192,132376,1,0,0:0:0:0:
256,192,132527,5,0,0:0:0:0:
256,192,132603,1,0,0:0:0:0:
256,192,132679,1,8,0:0:0:0:
256,192,132830,1,8,0:0:0:0:
256,192,132906,1,8,0:0:0:0:
256,192,132982,1,0,0:0:0:0:
256,192,133133,1,8,0:0:0:0:
256,192,133285,1,8,0:0:0:0:
256,192,133361,1,8,0:0:0:0:
256,192,133436,1,0,0:0:0:0:
256,192,133512,1,0,0:0:0:0:
256,192,133588,1,8,0:0:0:0:
256,192,133739,1,8,0:0:0:0:
256,192,133891,1,4,0:0:0:0:
256,192,134194,1,8,0:0:0:0:
256,192,134345,1,0,0:0:0:0:
256,192,134648,1,0,0:0:0:0:
256,192,134800,1,8,0:0:0:0:
256,192,134951,1,0,0:0:0:0:
256,192,135027,1,0,0:0:0:0:
256,192,135103,1,8,0:0:0:0:
256,192,135254,1,0,0:0:0:0:
256,192,135406,1,8,0:0:0:0:
256,192,135558,1,8,0:0:0:0:
256,192,135709,1,0,0:0:0:0:
256,192,135861,1,0,0:0:0:0:
256,192,136012,1,8,0:0:0:0:
256,192,136164,1,0,0:0:0:0:
256,192,136315,1,0,0:0:0:0:
256,192,136618,1,8,0:0:0:0:
256,192,136770,1,0,0:0:0:0:
256,192,136921,1,8,0:0:0:0:
256,192,137073,1,0,0:0:0:0:
256,189,137148,1,0,0:0:0:0:
256,192,137224,1,8,0:0:0:0:
256,192,137376,1,8,0:0:0:0:
256,192,137527,1,0,0:0:0:0:
256,192,137679,1,0,0:0:0:0:
256,192,137830,1,8,0:0:0:0:
256,192,138133,1,8,0:0:0:0:
256,192,138285,1,0,0:0:0:0:
256,192,138436,1,8,0:0:0:0:
256,192,138588,1,8,0:0:0:0:
256,192,138739,1,0,0:0:0:0:
256,192,139042,1,8,0:0:0:0:
256,192,139194,1,0,0:0:0:0:
256,192,139497,1,0,0:0:0:0:
256,192,139648,1,8,0:0:0:0:
256,192,139800,1,8,0:0:0:0:
256,192,139951,1,0,0:0:0:0:
256,192,140103,1,0,0:0:0:0:
256,192,140179,1,0,0:0:0:0:
256,192,140254,1,8,0:0:0:0:
256,192,140406,1,0,0:0:0:0:
256,192,140558,1,8,0:0:0:0:
256,192,140709,1,0,0:0:0:0:
256,192,140861,1,8,0:0:0:0:
256,192,141012,1,8,0:0:0:0:
256,192,141164,1,0,0:0:0:0:
256,192,141467,1,8,0:0:0:0:
256,192,141618,1,0,0:0:0:0:
256,192,141770,1,8,0:0:0:0:
256,192,141921,1,0,0:0:0:0:
256,189,141997,1,0,0:0:0:0:
256,192,142073,1,8,0:0:0:0:
256,192,142224,1,8,0:0:0:0:
256,192,142376,1,0,0:0:0:0:
256,192,142527,1,0,0:0:0:0:
256,192,142679,1,8,0:0:0:0:
256,192,142830,1,0,0:0:0:0:
256,192,143133,1,0,0:0:0:0:
256,192,143285,1,8,0:0:0:0:
256,192,143588,1,4,0:0:0:0:
256,192,143891,1,8,0:0:0:0:
256,192,144042,1,0,0:0:0:0:
256,192,144194,1,8,0:0:0:0:
256,192,144345,1,8,0:0:0:0:
256,192,144497,1,0,0:0:0:0:
256,192,144648,1,0,0:0:0:0:
256,192,144800,1,8,0:0:0:0:
256,192,144951,1,0,0:0:0:0:
256,192,145027,1,0,0:0:0:0:
256,192,145103,1,8,0:0:0:0:
256,192,145254,1,0,0:0:0:0:
256,192,145406,1,8,0:0:0:0:
256,192,145558,1,8,0:0:0:0:
256,192,145709,1,0,0:0:0:0:
256,192,145861,1,0,0:0:0:0:
256,192,146012,1,12,0:0:0:0:
256,192,146467,1,4,0:0:0:0:
256,192,146921,1,12,0:0:0:0:
256,192,147224,1,4,0:0:0:0:
256,192,147679,1,0,0:0:0:0:
256,192,147982,1,0,0:0:0:0:
256,192,148133,1,0,0:0:0:0:
256,192,148285,1,0,0:0:0:0:
256,192,148436,1,12,0:0:0:0:
256,192,165406,12,0,167224,0:0:0:0:
256,192,167376,5,0,0:0:0:0:
256,192,167527,1,8,0:0:0:0:
256,192,167830,1,12,0:0:0:0:
256,192,168133,1,0,0:0:0:0:
256,192,168285,1,12,0:0:0:0:
256,192,168739,1,12,0:0:0:0:
256,192,169042,1,0,0:0:0:0:
256,192,169194,1,12,0:0:0:0:
256,192,169648,1,12,0:0:0:0:
256,192,169800,1,0,0:0:0:0:
256,192,169951,1,12,0:0:0:0:
256,192,170254,1,0,0:0:0:0:
256,192,170406,1,8,0:0:0:0:
256,192,170482,1,8,0:0:0:0:
256,192,170557,1,0,0:0:0:0:
256,192,170709,1,0,0:0:0:0:
256,192,170785,1,0,0:0:0:0:
256,192,170861,1,8,0:0:0:0:
256,192,171012,1,8,0:0:0:0:
256,192,171088,1,8,0:0:0:0:
256,192,171164,1,0,0:0:0:0:
256,192,171315,1,0,0:0:0:0:
256,192,171391,1,0,0:0:0:0:
256,192,171467,1,8,0:0:0:0:
256,192,171618,1,0,0:0:0:0:
256,192,171770,1,8,0:0:0:0:
256,192,171845,1,0,0:0:0:0:
256,192,171921,1,8,0:0:0:0:
256,192,171997,1,8,0:0:0:0:
256,192,172073,1,0,0:0:0:0:
256,192,172679,5,4,0:0:0:0:
256,192,172982,1,8,0:0:0:0:
256,192,173285,1,8,0:0:0:0:
256,192,173436,1,0,0:0:0:0:
256,192,173512,1,0,0:0:0:0:
256,192,173588,1,8,0:0:0:0:
256,192,173739,1,8,0:0:0:0:
256,192,173891,1,0,0:0:0:0:
256,192,174042,1,0,0:0:0:0:
256,192,174194,1,8,0:0:0:0:
256,192,174270,1,8,0:0:0:0:
256,192,174345,1,0,0:0:0:0:
256,192,174421,1,0,0:0:0:0:
256,192,174497,1,8,0:0:0:0:
256,192,174648,1,0,0:0:0:0:
256,192,174800,1,8,0:0:0:0:
256,192,174951,1,8,0:0:0:0:
256,192,175103,1,0,0:0:0:0:
256,192,175406,1,8,0:0:0:0:
256,192,175709,1,8,0:0:0:0:
256,192,175861,1,0,0:0:0:0:
256,192,176012,1,8,0:0:0:0:
256,192,176088,1,8,0:0:0:0:
256,192,176164,1,8,0:0:0:0:
256,192,176315,1,0,0:0:0:0:
256,192,176467,1,0,0:0:0:0:
256,192,176618,1,8,0:0:0:0:
256,192,176770,1,0,0:0:0:0:
256,192,176845,1,0,0:0:0:0:
256,192,176921,1,8,0:0:0:0:
256,192,176997,1,0,0:0:0:0:
256,192,177073,1,0,0:0:0:0:
256,192,177224,1,8,0:0:0:0:
256,192,177376,1,8,0:0:0:0:
256,192,177527,1,0,0:0:0:0:
256,192,177830,1,8,0:0:0:0:
256,192,178133,1,0,0:0:0:0:
256,192,178285,1,0,0:0:0:0:
256,192,178436,1,8,0:0:0:0:
256,192,178588,1,0,0:0:0:0:
256,192,178739,1,8,0:0:0:0:
256,192,178891,1,0,0:0:0:0:
256,192,178967,1,8,0:0:0:0:
256,192,179042,1,0,0:0:0:0:
256,192,179194,1,8,0:0:0:0:
256,192,179345,1,0,0:0:0:0:
256,192,179497,1,0,0:0:0:0:
256,192,179573,1,0,0:0:0:0:
256,192,179648,1,8,0:0:0:0:
256,192,179800,1,8,0:0:0:0:
256,192,179951,1,0,0:0:0:0:
256,192,180103,1,0,0:0:0:0:
256,192,180254,1,8,0:0:0:0:
256,192,180557,1,0,0:0:0:0:
256,192,180709,1,0,0:0:0:0:
256,192,180861,1,8,0:0:0:0:
256,192,181012,1,8,0:0:0:0:
256,192,181088,1,8,0:0:0:0:
256,192,181164,1,0,0:0:0:0:
256,192,181315,1,0,0:0:0:0:
256,192,181467,1,8,0:0:0:0:
256,192,181618,1,0,0:0:0:0:
256,192,181770,1,8,0:0:0:0:
256,192,181845,1,8,0:0:0:0:
256,192,181921,1,0,0:0:0:0:
256,192,181997,1,0,0:0:0:0:
256,192,182073,1,8,0:0:0:0:
256,192,182224,1,8,0:0:0:0:
256,192,182376,1,4,0:0:0:0:
256,192,182679,1,8,0:0:0:0:
256,192,182830,1,8,0:0:0:0:
256,192,182982,1,0,0:0:0:0:
256,192,183133,1,0,0:0:0:0:
256,192,183209,1,0,0:0:0:0:
256,192,183285,1,8,0:0:0:0:
256,192,183436,1,8,0:0:0:0:
256,192,183588,1,0,0:0:0:0:
256,192,183739,1,8,0:0:0:0:
256,192,183891,1,8,0:0:0:0:
256,192,184042,1,0,0:0:0:0:
256,192,184345,1,8,0:0:0:0:
256,192,184648,1,0,0:0:0:0:
256,192,184800,1,8,0:0:0:0:
256,192,185103,1,8,0:0:0:0:
256,192,185254,1,8,0:0:0:0:
256,192,185406,1,0,0:0:0:0:
256,192,185557,1,0,0:0:0:0:
256,192,185633,1,0,0:0:0:0:
256,192,185709,1,8,0:0:0:0:
256,192,185861,1,0,0:0:0:0:
256,192,186012,1,8,0:0:0:0:
256,192,186164,1,0,0:0:0:0:
256,184,186315,1,8,0:0:0:0:
256,192,186467,1,8,0:0:0:0:
256,192,186770,1,8,0:0:0:0:
256,192,186921,1,8,0:0:0:0:
256,192,187073,1,0,0:0:0:0:
256,192,187224,1,8,0:0:0:0:
256,192,187376,1,0,0:0:0:0:
256,192,187451,1,0,0:0:0:0:
256,192,187527,1,8,0:0:0:0:
256,192,187679,1,0,0:0:0:0:
256,192,187830,1,8,0:0:0:0:
256,192,188133,1,8,0:0:0:0:
256,192,188285,1,8,0:0:0:0:
256,192,188436,1,0,0:0:0:0:
256,192,188588,1,0,0:0:0:0:
256,192,188664,1,0,0:0:0:0:
256,192,188739,1,8,0:0:0:0:
256,192,188891,1,0,0:0:0:0:
256,192,189042,1,8,0:0:0:0:
256,192,189194,1,0,0:0:0:0:
256,192,189345,1,8,0:0:0:0:
256,192,189421,1,8,0:0:0:0:
256,192,189497,1,0,0:0:0:0:
256,192,189573,1,0,0:0:0:0:
257,185,189648,1,8,0:0:0:0:
256,192,189800,1,0,0:0:0:0:
256,192,189951,1,8,0:0:0:0:
256,192,190103,1,0,0:0:0:0:
256,192,190179,1,0,0:0:0:0:
256,192,190254,1,8,0:0:0:0:
256,192,190406,1,0,0:0:0:0:
256,192,190557,1,8,0:0:0:0:
256,192,190709,1,8,0:0:0:0:
256,192,190861,1,0,0:0:0:0:
256,192,191164,1,8,0:0:0:0:
256,192,191315,1,8,0:0:0:0:
256,192,191467,1,0,0:0:0:0:
256,192,191618,1,0,0:0:0:0:
256,192,191770,1,8,0:0:0:0:
256,192,191845,1,8,0:0:0:0:
256,192,191921,1,8,0:0:0:0:
256,192,192073,1,4,0:0:0:0:
256,192,192376,1,8,0:0:0:0:
256,192,192527,1,0,0:0:0:0:
256,192,192679,1,8,0:0:0:0:
256,192,192830,1,0,0:0:0:0:
256,192,192982,1,8,0:0:0:0:
256,192,193133,1,8,0:0:0:0:
256,192,193285,1,4,0:0:0:0:
256,192,193588,1,8,0:0:0:0:
256,192,193739,1,8,0:0:0:0:
256,192,193891,1,0,0:0:0:0:
256,192,194042,1,0,0:0:0:0:
256,192,194194,1,8,0:0:0:0:
256,192,194345,1,8,0:0:0:0:
256,192,194497,1,4,0:0:0:0:
256,192,194800,1,8,0:0:0:0:
256,192,194951,1,8,0:0:0:0:
256,192,195103,1,0,0:0:0:0:
256,192,195254,1,0,0:0:0:0:
256,192,195406,1,8,0:0:0:0:
256,192,195482,1,0,0:0:0:0:
256,192,195557,1,8,0:0:0:0:
256,192,195709,1,0,0:0:0:0:
256,192,196012,1,0,0:0:0:0:
256,192,196164,1,8,0:0:0:0:
256,192,196315,1,8,0:0:0:0:
256,192,196467,1,0,0:0:0:0:
256,192,196618,1,0,0:0:0:0:
256,192,196770,1,0,0:0:0:0:
256,192,196921,1,12,0:0:0:0:
256,192,198133,1,4,0:0:0:0:
256,160,198891,1,0,0:0:0:0:
256,160,199042,1,0,0:0:0:0:
256,192,199345,5,12,0:0:0:0:
256,192,199648,1,8,0:0:0:0:
256,192,199800,1,0,0:0:0:0:
256,192,199951,1,8,0:0:0:0:
256,192,200103,1,0,0:0:0:0:
256,192,200254,1,8,0:0:0:0:
256,192,200406,1,8,0:0:0:0:
256,192,200557,1,0,0:0:0:0:
256,192,200861,1,8,0:0:0:0:
256,192,201012,1,0,0:0:0:0:
256,192,201088,1,0,0:0:0:0:
256,192,201164,1,8,0:0:0:0:
256,192,201315,1,0,0:0:0:0:
256,192,201467,1,8,0:0:0:0:
256,192,201618,1,8,0:0:0:0:
256,192,201770,1,0,0:0:0:0:
256,192,202073,1,8,0:0:0:0:
256,192,202376,1,0,0:0:0:0:
256,192,202527,1,0,0:0:0:0:
256,192,202679,1,8,0:0:0:0:
256,192,202982,1,0,0:0:0:0:
256,192,203133,1,0,0:0:0:0:
256,192,203285,1,8,0:0:0:0:
256,192,203436,1,0,0:0:0:0:
256,192,203739,1,0,0:0:0:0:
256,192,203891,1,8,0:0:0:0:
256,192,204042,1,8,0:0:0:0:
256,192,204194,1,4,0:0:0:0:
256,192,204497,1,8,0:0:0:0:
256,192,204648,1,0,0:0:0:0:
256,192,204800,1,8,0:0:0:0:
256,192,204951,1,0,0:0:0:0:
256,192,205103,1,8,0:0:0:0:
256,192,205254,1,8,0:0:0:0:
256,192,205406,1,0,0:0:0:0:
256,192,205709,1,8,0:0:0:0:
256,192,205861,1,0,0:0:0:0:
256,192,205936,1,0,0:0:0:0:
256,192,206012,1,8,0:0:0:0:
256,192,206164,1,0,0:0:0:0:
256,192,206315,1,8,0:0:0:0:
256,192,206467,1,8,0:0:0:0:
256,192,206618,1,0,0:0:0:0:
256,192,206921,1,8,0:0:0:0:
256,192,207224,1,0,0:0:0:0:
256,192,207376,1,0,0:0:0:0:
256,192,207527,1,8,0:0:0:0:
256,192,207830,1,0,0:0:0:0:
256,192,207982,1,8,0:0:0:0:
256,192,208133,1,8,0:0:0:0:
256,192,208285,1,4,0:0:0:0:
256,192,208588,1,0,0:0:0:0:
256,192,208739,1,0,0:0:0:0:
256,192,209042,1,12,0:0:0:0:
256,192,209194,12,0,211467,0:0:0:0:
