osu file format v14

[General]
AudioFilename: audio.ogg
AudioLeadIn: 0
PreviewTime: 58664
Countdown: 0
SampleSet: Normal
StackLeniency: 0.7
Mode: 1
LetterboxInBreaks: 0
WidescreenStoryboard: 1

[Editor]
Bookmarks: 558,10254,19951,29648,39345,49042,58739,68436,78133,85406,95103,104800,114497,124194,133891,143588,148436,158133,172679,182376,192073,199345,209042
DistanceSpacing: 0.1
BeatDivisor: 2
GridSize: 32
TimelineZoom: 0.8999999

[Metadata]
Title:Fake
TitleUnicode:フェイク
Artist:Eve x Sou
ArtistUnicode:Eve × Sou
Creator:gaston_2199
Version:KyeX's Kantan
Source:
Tags:蒼 Ao Aoi Blue くっか Kukka japanese rock jrock j-rock male vocal KyeX
BeatmapID:3405047
BeatmapSetID:1667607

[Difficulty]
HPDrainRate:8
CircleSize:2
OverallDifficulty:3
ApproachRate:10
SliderMultiplier:1.4
SliderTickRate:1

[Events]
//Background and Video events
0,0,"BG.jpg",0,-100
//Break Periods
2,148636,164956
//Storyboard Layer 0 (Background)
//Storyboard Layer 1 (Fail)
//Storyboard Layer 2 (Pass)
//Storyboard Layer 3 (Foreground)
//Storyboard Layer 4 (Overlay)
//Storyboard Sound Samples

[TimingPoints]
558,303.030303030303,4,1,0,70,1,0
558,-125,4,1,0,70,0,0
9497,-111.111111111111,4,1,0,80,0,0
9800,-125,4,1,0,70,0,0
10254,-100,4,1,0,80,0,0
20254,-111.111111111111,4,1,0,70,0,0
29648,-100,4,1,0,80,0,0
39648,-111.111111111111,4,1,0,70,0,0
49042,-100,4,1,0,80,0,0
58739,-100,4,1,0,90,0,1
84800,-111.111111111111,4,1,0,90,0,1
85406,-100,4,1,0,80,0,0
95406,-111.111111111111,4,1,0,70,0,0
104800,-100,4,1,0,80,0,0
114800,-111.111111111111,4,1,0,70,0,0
124194,-100,4,1,0,80,0,0
149648,-142.857142857143,4,1,0,60,0,0
167376,-111.111111111111,4,1,0,70,0,0
167830,-100,4,1,0,80,0,0
172679,-100,4,1,0,90,0,1
198739,-111.111111111111,4,1,0,90,0,1
199345,-100,4,1,0,80,0,0

[HitObjects]
256,192,558,5,8,0:0:0:0:
247,168,1164,1,8,0:0:0:0:
256,192,1770,1,0,0:0:0:0:
256,192,2376,1,8,0:0:0:0:
256,192,2982,1,0,0:0:0:0:
256,192,4194,1,0,0:0:0:0:
256,192,5406,1,8,0:0:0:0:
256,192,6012,1,8,0:0:0:0:
256,192,6618,1,0,0:0:0:0:
256,192,7224,1,8,0:0:0:0:
256,192,7830,1,0,0:0:0:0:
256,192,9042,1,8,0:0:0:0:
256,192,9497,1,12,0:0:0:0:
256,192,10254,1,4,0:0:0:0:
256,192,10861,1,8,0:0:0:0:
256,192,11467,1,0,0:0:0:0:
256,192,12073,1,0,0:0:0:0:
256,192,12376,1,0,0:0:0:0:
256,192,12679,1,8,0:0:0:0:
256,192,13891,1,0,0:0:0:0:
256,192,14345,1,4,0:0:0:0:
256,192,15103,1,4,0:0:0:0:
256,192,15709,1,8,0:0:0:0:
256,192,16315,1,0,0:0:0:0:
256,192,16618,1,0,0:0:0:0:
256,192,16921,1,8,0:0:0:0:
256,192,17527,1,0,0:0:0:0:
256,192,18739,1,0,0:0:0:0:
256,192,19194,1,12,0:0:0:0:
256,192,19951,1,4,0:0:0:0:
256,192,20558,1,0,0:0:0:0:
256,192,21164,1,8,0:0:0:0:
256,192,21770,1,8,0:0:0:0:
256,192,22982,1,0,0:0:0:0:
256,192,23588,1,8,0:0:0:0:
256,192,24194,1,0,0:0:0:0:
256,192,25406,1,0,0:0:0:0:
256,192,26012,1,8,0:0:0:0:
256,192,26618,1,8,0:0:0:0:
256,192,27224,1,0,0:0:0:0:
256,192,28436,1,0,0:0:0:0:
256,192,29042,1,8,0:0:0:0:
256,192,29648,1,4,0:0:0:0:
256,192,30254,1,0,0:0:0:0:
256,192,30861,1,8,0:0:0:0:
256,192,31164,1,0,0:0:0:0:
256,192,31467,1,8,0:0:0:0:
256,192,32679,1,0,0:0:0:0:
256,192,33285,1,8,0:0:0:0:
256,192,33891,1,8,0:0:0:0:
249,181,34194,1,8,0:0:0:0:
256,192,34497,1,0,0:0:0:0:
256,192,35103,1,0,0:0:0:0:
256,192,35709,1,8,0:0:0:0:
256,192,36315,1,0,0:0:0:0:
250,179,36618,1,8,0:0:0:0:
256,192,36921,1,8,0:0:0:0:
256,192,37982,1,4,0:0:0:0:
256,192,38739,1,0,0:0:0:0:
256,192,39345,1,4,0:0:0:0:
256,192,40406,1,0,0:0:0:0:
256,192,40861,1,0,0:0:0:0:
256,192,41467,1,8,0:0:0:0:
256,192,41770,1,0,0:0:0:0:
256,192,42830,1,0,0:0:0:0:
256,192,43285,1,0,0:0:0:0:
256,192,43891,1,8,0:0:0:0:
256,192,44194,1,0,0:0:0:0:
256,192,45254,1,0,0:0:0:0:
256,192,45709,1,0,0:0:0:0:
256,192,46315,1,8,0:0:0:0:
256,192,46618,1,0,0:0:0:0:
256,192,47679,1,0,0:0:0:0:
256,192,48133,1,0,0:0:0:0:
256,192,48436,1,8,0:0:0:0:
256,192,49042,1,4,0:0:0:0:
256,192,49648,1,8,0:0:0:0:
256,192,49951,1,8,0:0:0:0:
256,192,50861,1,0,0:0:0:0:
256,192,51164,1,8,0:0:0:0:
256,192,51467,1,0,0:0:0:0:
256,192,52073,1,8,0:0:0:0:
256,192,52376,1,8,0:0:0:0:
256,192,52982,1,8,0:0:0:0:
256,192,53285,1,0,0:0:0:0:
250,178,53588,1,0,0:0:0:0:
256,192,53891,1,12,0:0:0:0:
256,192,54800,1,4,0:0:0:0:
256,192,55709,1,12,0:0:0:0:
256,192,56315,1,0,0:0:0:0:
256,192,56921,1,8,0:0:0:0:
247,181,57224,1,0,0:0:0:0:
256,192,57527,1,8,0:0:0:0:
256,192,57830,1,8,0:0:0:0:
256,192,58133,1,0,0:0:0:0:
256,192,58739,1,4,0:0:0:0:
256,192,59345,1,8,0:0:0:0:
256,192,60254,1,0,0:0:0:0:
256,192,60557,1,0,0:0:0:0:
256,192,61164,1,8,0:0:0:0:
256,192,61770,1,8,0:0:0:0:
256,192,62073,1,8,0:0:0:0:
256,192,62679,1,8,0:0:0:0:
251,179,62982,1,0,0:0:0:0:
244,169,63285,1,8,0:0:0:0:
256,192,63588,1,0,0:0:0:0:
256,192,64497,1,8,0:0:0:0:
256,192,64800,1,8,0:0:0:0:
256,192,65406,1,8,0:0:0:0:
256,192,66012,1,0,0:0:0:0:
256,192,66315,1,8,0:0:0:0:
256,192,66921,1,8,0:0:0:0:
256,192,67830,1,8,0:0:0:0:
256,192,68436,1,4,0:0:0:0:
256,192,69042,1,0,0:0:0:0:
256,192,69648,1,8,0:0:0:0:
256,192,69951,1,8,0:0:0:0:
251,180,70254,1,0,0:0:0:0:
256,192,70861,1,8,0:0:0:0:
256,192,71467,1,0,0:0:0:0:
256,192,72073,1,8,0:0:0:0:
256,192,73285,1,0,0:0:0:0:
256,192,73588,1,8,0:0:0:0:
256,192,73891,1,0,0:0:0:0:
256,192,74497,1,8,0:0:0:0:
256,192,75103,1,0,0:0:0:0:
256,192,75406,1,8,0:0:0:0:
256,192,75709,1,8,0:0:0:0:
256,192,76315,1,8,0:0:0:0:
256,192,76921,1,0,0:0:0:0:
256,192,78133,1,4,0:0:0:0:
256,192,78739,1,8,0:0:0:0:
256,192,79345,1,4,0:0:0:0:
256,192,79951,1,8,0:0:0:0:
256,192,80558,1,4,0:0:0:0:
256,192,81921,1,8,0:0:0:0:
256,192,82376,1,0,0:0:0:0:
256,192,82982,1,12,0:0:0:0:
256,192,84194,1,4,0:0:0:0:
256,192,85406,1,4,0:0:0:0:
256,192,86012,1,8,0:0:0:0:
256,192,86618,1,0,0:0:0:0:
256,192,87224,1,0,0:0:0:0:
256,192,87527,1,0,0:0:0:0:
256,192,87830,1,8,0:0:0:0:
256,192,89042,1,0,0:0:0:0:
256,192,89497,1,4,0:0:0:0:
256,192,90254,1,4,0:0:0:0:
256,192,90861,1,8,0:0:0:0:
256,192,91467,1,0,0:0:0:0:
256,192,91770,1,0,0:0:0:0:
256,192,92073,1,8,0:0:0:0:
256,192,92679,1,0,0:0:0:0:
256,192,93891,1,4,0:0:0:0:
256,192,94345,1,12,0:0:0:0:
256,192,95103,1,4,0:0:0:0:
256,192,97073,1,0,0:0:0:0:
256,192,97527,1,0,0:0:0:0:
256,192,99951,1,0,0:0:0:0:
256,192,101921,1,0,0:0:0:0:
256,192,102376,1,0,0:0:0:0:
256,192,104800,1,4,0:0:0:0:
256,192,105861,1,8,0:0:0:0:
256,192,106315,1,8,0:0:0:0:
242,168,106921,1,8,0:0:0:0:
256,192,107224,1,0,0:0:0:0:
256,192,108285,1,8,0:0:0:0:
256,192,108739,1,8,0:0:0:0:
240,167,109345,1,8,0:0:0:0:
256,192,109648,1,0,0:0:0:0:
256,192,110709,1,8,0:0:0:0:
256,192,111164,1,8,0:0:0:0:
256,192,111770,1,8,0:0:0:0:
256,192,112073,1,0,0:0:0:0:
256,192,113133,1,4,0:0:0:0:
256,192,113891,1,8,0:0:0:0:
256,192,114497,1,4,0:0:0:0:
256,192,115557,1,0,0:0:0:0:
256,192,116012,1,0,0:0:0:0:
256,192,116315,1,8,0:0:0:0:
256,192,116921,1,0,0:0:0:0:
256,192,117982,1,0,0:0:0:0:
256,192,118436,1,0,0:0:0:0:
256,192,118739,1,8,0:0:0:0:
256,192,119345,1,0,0:0:0:0:
256,192,120406,1,0,0:0:0:0:
256,192,120861,1,0,0:0:0:0:
256,192,121164,1,8,0:0:0:0:
256,192,121770,1,0,0:0:0:0:
256,192,122830,1,0,0:0:0:0:
256,192,123133,1,8,0:0:0:0:
256,192,123588,1,8,0:0:0:0:
256,192,124194,1,4,0:0:0:0:
256,192,124800,1,8,0:0:0:0:
256,192,125103,1,8,0:0:0:0:
256,192,126012,1,0,0:0:0:0:
256,192,126315,1,8,0:0:0:0:
256,192,126618,1,0,0:0:0:0:
256,192,127224,1,8,0:0:0:0:
256,192,127527,1,0,0:0:0:0:
256,192,128133,1,8,0:0:0:0:
256,192,128436,1,0,0:0:0:0:
256,192,128739,1,0,0:0:0:0:
256,192,129042,1,12,0:0:0:0:
256,192,129951,1,12,0:0:0:0:
256,192,130861,1,12,0:0:0:0:
256,192,131467,1,0,0:0:0:0:
256,192,132073,1,8,0:0:0:0:
250,180,132376,1,0,0:0:0:0:
256,192,132679,1,8,0:0:0:0:
256,192,132982,1,8,0:0:0:0:
256,192,133285,1,0,0:0:0:0:
256,192,133891,1,4,0:0:0:0:
256,192,134800,1,8,0:0:0:0:
256,192,135406,1,8,0:0:0:0:
249,182,135709,1,0,0:0:0:0:
256,192,136012,1,8,0:0:0:0:
256,192,136315,1,0,0:0:0:0:
256,192,137224,1,8,0:0:0:0:
247,182,137527,1,0,0:0:0:0:
256,192,138739,1,0,0:0:0:0:
256,192,139345,1,8,0:0:0:0:
256,192,139951,1,0,0:0:0:0:
249,179,140254,1,0,0:0:0:0:
256,192,140558,1,8,0:0:0:0:
250,181,140861,1,8,0:0:0:0:
256,192,141164,1,0,0:0:0:0:
256,192,142073,1,8,0:0:0:0:
256,192,142376,1,0,0:0:0:0:
256,192,143588,1,4,0:0:0:0:
256,192,144194,1,8,0:0:0:0:
256,192,144800,1,0,0:0:0:0:
256,192,145103,1,8,0:0:0:0:
256,192,145406,1,0,0:0:0:0:
256,192,146012,1,4,0:0:0:0:
256,192,146467,1,4,0:0:0:0:
256,192,147224,1,4,0:0:0:0:
256,192,148436,1,12,0:0:0:0:
256,192,165406,12,0,167073,0:0:0:0:
256,192,167830,5,12,0:0:0:0:
256,192,168739,1,12,0:0:0:0:
256,192,169648,1,12,0:0:0:0:
256,192,170254,1,0,0:0:0:0:
256,192,170861,1,8,0:0:0:0:
250,181,171164,1,0,0:0:0:0:
256,192,171467,1,8,0:0:0:0:
256,192,171770,1,8,0:0:0:0:
256,192,172073,1,0,0:0:0:0:
256,192,172679,1,4,0:0:0:0:
256,192,173285,1,8,0:0:0:0:
256,192,174194,1,0,0:0:0:0:
256,192,174497,1,0,0:0:0:0:
256,192,175104,1,8,0:0:0:0:
256,192,175710,1,8,0:0:0:0:
256,192,176013,1,8,0:0:0:0:
256,192,176619,1,8,0:0:0:0:
251,179,176922,1,0,0:0:0:0:
244,169,177225,1,8,0:0:0:0:
256,192,177528,1,0,0:0:0:0:
256,192,178437,1,8,0:0:0:0:
256,192,178740,1,8,0:0:0:0:
256,192,179346,1,8,0:0:0:0:
256,192,179952,1,0,0:0:0:0:
256,192,180255,1,8,0:0:0:0:
256,192,180861,1,8,0:0:0:0:
256,192,181770,1,8,0:0:0:0:
256,192,182376,1,4,0:0:0:0:
256,192,182982,1,0,0:0:0:0:
256,192,183588,1,8,0:0:0:0:
256,192,183891,1,8,0:0:0:0:
251,180,184194,1,0,0:0:0:0:
256,192,184801,1,8,0:0:0:0:
256,192,185407,1,0,0:0:0:0:
256,192,186013,1,8,0:0:0:0:
256,192,187225,1,0,0:0:0:0:
256,192,187528,1,8,0:0:0:0:
256,192,187831,1,0,0:0:0:0:
256,192,188437,1,8,0:0:0:0:
256,192,189043,1,0,0:0:0:0:
256,192,189346,1,8,0:0:0:0:
256,192,189649,1,8,0:0:0:0:
256,192,190255,1,8,0:0:0:0:
256,192,190861,1,0,0:0:0:0:
256,192,192073,1,4,0:0:0:0:
256,192,192679,1,8,0:0:0:0:
256,192,193285,1,4,0:0:0:0:
256,192,193891,1,8,0:0:0:0:
256,192,194498,1,4,0:0:0:0:
256,192,195861,1,8,0:0:0:0:
256,192,196316,1,0,0:0:0:0:
256,192,196922,1,12,0:0:0:0:
256,192,198134,1,4,0:0:0:0:
256,192,199345,5,4,0:0:0:0:
256,192,199951,1,8,0:0:0:0:
256,192,200557,1,0,0:0:0:0:
256,192,201164,1,0,0:0:0:0:
256,192,201467,1,0,0:0:0:0:
256,192,201770,1,8,0:0:0:0:
256,192,202982,1,0,0:0:0:0:
256,192,203436,1,8,0:0:0:0:
256,192,204194,1,4,0:0:0:0:
256,192,204800,1,8,0:0:0:0:
256,192,205406,1,0,0:0:0:0:
256,192,205709,1,0,0:0:0:0:
256,192,206012,1,8,0:0:0:0:
256,192,206618,1,0,0:0:0:0:
256,192,207830,1,8,0:0:0:0:
256,192,208285,1,4,0:0:0:0:
256,192,209042,1,12,0:0:0:0:
256,192,209194,12,0,211467,0:0:0:0:
