osu file format v14

[General]
AudioFilename: audio.mp3
AudioLeadIn: 0
PreviewTime: 143775
Countdown: 0
SampleSet: Soft
StackLeniency: 0.5
Mode: 0
LetterboxInBreaks: 0
WidescreenStoryboard: 0

[Editor]
DistanceSpacing: 0.6
BeatDivisor: 4
GridSize: 8
TimelineZoom: 1.7

[Metadata]
Title:Gunjou Sanka
TitleUnicode:群青讃歌
Artist:Eve feat. Hatsune Miku
ArtistUnicode:Eve feat. 初音ミク
Creator:alevi
Version:Ultramarine
Source:プロジェクトセカイ カラフルステージ! feat. 初音ミク
Tags:japanese pop jpop j-pop male vocalist cover yuseiboushi vocaloid video game project sekai pjsekai colorful stage! pepekcz ernua
BeatmapID:3255055
BeatmapSetID:1593601

[Difficulty]
HPDrainRate:5
CircleSize:4.4
OverallDifficulty:8
ApproachRate:8.5
SliderMultiplier:1.8
SliderTickRate:1

[Events]
//Background and Video events
0,0,"resized-image-Promo (9).jpeg",0,0
//Break Periods
2,193350,198190
//Storyboard Layer 0 (Background)
//Storyboard Layer 1 (Fail)
//Storyboard Layer 2 (Pass)
//Storyboard Layer 3 (Foreground)
//Storyboard Layer 4 (Overlay)
//Storyboard Sound Samples

[TimingPoints]
2437,357.142857142857,4,2,1,40,1,0
2437,-100,4,2,1,40,0,0
8151,-133.333333333333,4,2,1,40,0,0
13419,-133.333333333333,4,2,1,5,0,0
13508,-133.333333333333,4,2,1,40,0,0
13865,-111.111111111111,4,2,1,60,0,0
14133,-111.111111111111,4,2,1,5,0,0
14222,-111.111111111111,4,2,1,60,0,0
19847,-111.111111111111,4,2,1,5,0,0
19936,-111.111111111111,4,2,1,60,0,0
23686,-111.111111111111,4,2,1,65,0,0
23954,-111.111111111111,4,2,1,5,0,0
24044,-111.111111111111,4,2,1,65,0,0
25294,-142.857142857143,4,2,1,35,0,0
32526,-142.857142857143,4,2,1,5,0,0
32615,-142.857142857143,4,2,1,35,0,0
36722,-125,4,2,1,45,0,0
36990,-125,4,2,1,5,0,0
37079,-125,4,2,1,45,0,0
48151,-200,4,2,1,30,0,0
51008,-285.714285714286,4,2,1,30,0,0
53865,-200,4,2,1,40,0,0
59579,-133.333333333333,4,2,1,50,0,0
61008,-133.333333333333,4,2,1,60,0,0
62436,-100,4,2,1,80,0,1
62526,-100,4,2,1,80,0,0
62972,-200,4,2,1,80,0,0
63061,-200,4,2,1,5,0,0
63151,-100,4,2,1,80,0,0
63419,-100,4,2,1,5,0,0
63508,-100,4,2,1,80,0,0
64847,-100,4,2,1,5,0,0
64936,-100,4,2,1,80,0,0
65561,-100,4,2,1,5,0,0
65651,-100,4,2,1,80,0,0
66990,-100,4,2,1,5,0,0
67079,-100,4,2,1,80,0,0
68686,-200,4,2,1,80,0,0
68776,-200,4,2,1,5,0,0
68865,-100,4,2,1,80,0,0
69847,-100,4,2,1,5,0,0
69936,-100,4,2,1,80,0,0
70561,-100,4,2,1,5,0,0
70651,-100,4,2,1,80,0,0
71276,-100,4,2,1,5,0,0
71365,-100,4,2,1,80,0,0
74401,-200,4,2,1,80,0,0
74490,-200,4,2,1,5,0,0
74579,-100,4,2,1,80,0,0
76276,-100,4,2,1,5,0,0
76365,-100,4,2,1,80,0,0
76990,-100,4,2,1,5,0,0
77079,-200,4,2,1,80,0,0
77169,-200,4,2,1,5,0,0
77258,-100,4,2,1,80,0,0
79847,-100,4,2,1,5,0,0
79936,-100,4,2,1,80,0,0
88329,-100,4,2,1,5,0,0
88419,-100,4,2,1,80,0,0
88597,-100,4,2,1,5,0,0
88686,-100,4,2,1,80,0,0
89758,-100,4,2,1,5,0,0
89847,-100,4,2,1,80,0,0
90026,-100,4,2,1,5,0,0
90115,-100,4,2,1,80,0,0
91365,-200,4,2,1,80,0,0
91454,-200,4,2,1,5,0,0
91544,-100,4,2,1,80,0,0
91811,-100,4,2,1,5,0,0
91901,-100,4,2,1,80,0,0
92794,-200,4,2,1,80,0,0
92883,-200,4,2,1,5,0,0
92972,-100,4,2,1,80,0,0
93240,-100,4,2,1,5,0,0
93329,-100,4,2,1,80,0,0
93865,-200,4,2,1,50,0,0
96008,357.142857142857,4,2,1,40,1,0
96008,-111.111111111111,4,2,1,60,0,0
101990,-111.111111111111,4,2,1,5,0,0
102079,-111.111111111111,4,2,1,60,0,0
105294,-111.111111111111,4,2,1,50,0,0
105829,-111.111111111111,4,2,1,65,0,0
106097,-111.111111111111,4,2,1,5,0,0
106186,-111.111111111111,4,2,1,65,0,0
107436,-166.666666666667,4,2,1,35,0,0
118865,-125,4,2,1,50,0,0
130294,-200,4,2,1,30,0,0
133151,-285.714285714286,4,2,1,30,0,0
136008,-200,4,2,1,40,0,0
141722,-133.333333333333,4,2,1,50,0,0
143151,-133.333333333333,4,2,1,60,0,0
144579,-100,4,2,1,80,0,1
144668,-100,4,2,1,80,0,0
145115,-200,4,2,1,80,0,0
145204,-200,4,2,1,5,0,0
145294,-100,4,2,1,80,0,0
147704,-100,4,2,1,5,0,0
147794,-100,4,2,1,80,0,0
149133,-100,4,2,1,5,0,0
149222,-100,4,2,1,80,0,0
150561,-100,4,2,1,5,0,0
150651,-100,4,2,1,80,0,0
150829,-200,4,2,1,80,0,0
150919,-200,4,2,1,5,0,0
151008,-100,4,2,1,80,0,0
152704,-100,4,2,1,5,0,0
152794,-100,4,2,1,80,0,0
153419,-100,4,2,1,5,0,0
153508,-100,4,2,1,80,0,0
156007,-100,4,2,1,80,0,1
156097,-100,4,2,1,80,0,0
156544,-200,4,2,1,80,0,0
156633,-200,4,2,1,5,0,0
156722,-100,4,2,1,80,0,0
159133,-100,4,2,1,5,0,0
159222,-200,4,2,1,80,0,0
159311,-200,4,2,1,5,0,0
159401,-100,4,2,1,80,0,0
161008,-200,4,2,1,80,0,0
161097,-200,4,2,1,5,0,0
161186,-100,4,2,1,80,0,0
161990,-100,4,2,1,5,0,0
162079,-100,4,2,1,80,0,0
164133,-100,4,2,1,5,0,0
164222,-100,4,2,1,80,0,0
164847,-100,4,2,1,5,0,0
164936,-100,4,2,1,80,0,0
167436,-166.666666666667,4,2,1,40,0,0
188329,397.350993377483,4,2,1,40,1,0
188527,442.80442804428,4,2,1,40,1,0
188748,457.66590389016,4,2,1,40,1,0
189434,487.80487804878,4,2,1,40,1,0
189434,-250,4,2,1,40,0,0
189677,500,4,2,1,40,1,0
189677,-250,4,2,1,40,0,0
190177,386.349001931745,4,2,1,40,1,0
191722,357.142857142857,4,2,1,40,1,0
192257,-100,4,2,1,40,0,0
192436,-100,4,2,1,45,0,0
192615,-100,4,2,1,50,0,0
192793,-100,4,2,1,55,0,0
192972,-100,4,2,1,60,0,0
193149,-100,4,2,1,65,0,0
198864,-100,4,2,1,50,0,0
200292,-133.333333333333,4,2,1,50,0,0
204578,-133.333333333333,4,2,1,60,0,0
205114,-200,4,2,1,60,0,0
205203,-200,4,2,1,5,0,0
205292,-133.333333333333,4,2,1,60,0,0
207703,-133.333333333333,4,2,1,5,0,0
207792,-200,4,2,1,60,0,0
207882,-200,4,2,1,5,0,0
207971,-133.333333333333,4,2,1,60,0,0
209042,-133.333333333333,4,2,1,5,0,0
209132,-133.333333333333,4,2,1,60,0,0
209310,-133.333333333333,4,2,1,5,0,0
209400,-133.333333333333,4,2,1,60,0,0
213417,-133.333333333333,4,2,1,5,0,0
213507,-133.333333333333,4,2,1,60,0,0
213953,-133.333333333333,4,2,1,5,0,0
214042,-133.333333333333,4,2,1,60,0,0
214578,-133.333333333333,4,2,1,65,0,0
215650,-200,4,2,1,65,0,0
217435,-200,4,2,1,40,0,0
217971,-200,4,2,1,65,0,0
218864,-100,4,2,1,80,0,1
219400,-200,4,2,1,80,0,1
219489,-200,4,2,1,5,0,1
219579,-100,4,2,1,80,0,1
219847,-100,4,2,1,5,0,1
219936,-100,4,2,1,80,0,1
221275,-100,4,2,1,5,0,1
221364,-100,4,2,1,80,0,1
221989,-100,4,2,1,5,0,1
222079,-100,4,2,1,80,0,1
223061,-100,4,2,1,5,0,1
223150,-100,4,2,1,80,0,1
225114,-200,4,2,1,80,0,1
225204,-200,4,2,1,5,0,1
225293,-100,4,2,1,80,0,1
227704,-100,4,2,1,5,0,1
227793,-100,4,2,1,80,0,1
228418,-100,4,2,1,5,0,1
228507,-100,4,2,1,80,0,1
230829,-200,4,2,1,80,0,1
230918,-200,4,2,1,5,0,1
231007,-100,4,2,1,80,0,1
233061,-100,4,2,1,5,0,1
233150,-100,4,2,1,80,0,1
233507,-200,4,2,1,80,0,1
233597,-200,4,2,1,5,0,1
233686,-100,4,2,1,80,0,1
233954,-100,4,2,1,5,0,1
234043,-100,4,2,1,80,0,1
235382,-100,4,2,1,5,0,1
235472,-100,4,2,1,80,0,1
238775,-100,4,2,1,5,0,1
238864,-100,4,2,1,80,0,1
240918,-100,4,2,1,5,0,1
241007,-100,4,2,1,80,0,1
244757,-100,4,2,1,5,0,1
244846,-100,4,2,1,80,0,1
245025,-100,4,2,1,5,0,1
245114,-100,4,2,1,80,0,1
246186,-100,4,2,1,5,0,1
246275,-100,4,2,1,80,0,1
246454,-100,4,2,1,5,0,1
246543,-100,4,2,1,80,0,1
247793,-200,4,2,1,80,0,1
247882,-200,4,2,1,5,0,1
247971,-100,4,2,1,80,0,1
248239,-100,4,2,1,5,0,1
248329,-100,4,2,1,80,0,1
249221,-200,4,2,1,80,0,1
249311,-200,4,2,1,5,0,1
249400,-100,4,2,1,80,0,1
249668,-100,4,2,1,5,0,1
249757,-100,4,2,1,80,0,1
250293,-100,4,2,1,70,0,0
250561,-100,4,2,1,5,0,0
250650,-100,4,2,1,70,0,0
252257,-100,4,2,1,70,0,0
256275,-100,4,2,1,5,0,0
256364,-100,4,2,1,70,0,0

[Colours]
Combo1 : 21,21,230
Combo2 : 18,194,106
Combo3 : 116,205,205
Combo4 : 87,164,240

[HitObjects]
428,151,8151,5,0,1:0:0:0:
431,164,8508,1,0,1:0:0:0:
435,176,8865,1,0,1:0:0:0:
438,188,9222,1,0,1:0:0:0:
295,299,9579,5,0,1:0:0:0:
292,312,9936,1,0,1:0:0:0:
288,324,10293,1,0,1:0:0:0:
285,336,10650,1,0,1:0:0:0:
270,21,11008,5,0,1:0:0:0:
273,34,11365,1,0,1:0:0:0:
277,46,11722,1,0,1:0:0:0:
280,58,12079,1,0,1:2:0:0:
155,143,12258,6,0,B|76:121|76:121|56:149|15:157,1,135.000005149842,2|2,0:0|0:0,0:0:0:0:
33,151,12972,2,0,P|26:172|22:194,1,33.7500012874604,2|0,0:0|0:0,0:0:0:0:
121,294,13151,2,0,B|105:220|105:220|107:233|99:256,1,101.250003862381,2|0,0:0|0:0,0:0:0:0:
102,245,13508,1,2,0:0:0:0:
29,296,13686,1,2,0:0:0:0:
187,361,13865,6,0,L|312:339,1,121.499996292114,6|0,0:0|0:0,0:0:0:0:
369,377,14222,1,10,0:0:0:0:
379,256,14401,2,0,L|364:175,1,80.9999975280763,2|0,0:0|1:0,0:0:0:0:
465,313,14758,2,0,L|480:232,1,80.9999975280763,2|8,0:0|0:0,0:0:0:0:
379,87,15115,6,0,B|319:93|319:93|287:128|287:128|222:135,1,161.999995056153,2|0,0:0|0:0,0:0:0:0:
233,133,15829,2,0,L|282:128,1,40.4999987640381,2|0,0:0|0:0,0:0:0:0:
189,282,16008,5,2,1:2:0:0:
213,209,16186,1,2,0:0:0:0:
90,343,16365,5,8,0:0:0:0:
66,270,16543,1,2,0:0:0:0:
226,354,16722,6,0,B|332:332|332:332|354:360|390:358,1,161.999995056153,2|8,1:2|0:0,0:0:0:0:
377,357,17258,1,2,0:0:0:0:
408,200,17436,2,0,L|394:282,1,80.9999975280763,2|0,1:2|0:0,0:0:0:0:
320,145,17794,1,8,0:0:0:0:
189,215,17972,6,0,B|84:212|150:159|44:157,1,161.999995056153,2|2,0:0|0:0,0:0:0:0:
45,157,18686,2,0,P|84:162|96:166,1,40.4999987640381,2|0,0:0|0:0,0:0:0:0:
144,283,18865,5,2,1:2:0:0:
122,363,19044,1,0,0:0:0:0:
3,237,19222,5,10,0:0:0:0:
25,317,19401,1,2,0:0:0:0:
167,198,19579,6,0,B|157:151|157:151|170:119|170:119|158:66,1,121.499996292114,0|0,1:0|0:0,0:0:0:0:
143,14,19936,1,8,0:0:0:0:
309,43,20115,2,0,L|228:31,1,80.9999975280763,2|0,0:0|1:0,0:0:0:0:
378,107,20472,2,0,L|297:119,1,80.9999975280763,2|8,0:0|0:0,0:0:0:0:
446,186,20829,6,0,B|465:160|494:147|494:147|474:49,1,161.999995056153,2|0,0:0|0:0,0:0:0:0:
474,49,21544,2,0,L|485:99,1,40.4999987640381,2|0,0:0|0:0,0:0:0:0:
378,107,21722,5,2,1:2:0:0:
284,70,21901,1,2,0:0:0:0:
224,228,22079,5,8,0:0:0:0:
318,191,22258,1,2,0:0:0:0:
164,90,22436,6,0,B|140:196|140:196|148:160|174:149,1,161.999995056153,2|8,1:2|0:0,0:0:0:0:
80,66,22972,1,2,0:0:0:0:
80,66,23151,2,0,B|-3:55|-2:55,1,80.9999975280763,2|0,1:2|0:0,0:0:0:0:
62,229,23508,1,8,0:0:0:0:
210,188,23686,6,0,L|191:65,1,121.499996292114,6|0,1:2|0:0,0:0:0:0:
252,25,24044,1,8,0:0:0:0:
210,188,24222,1,8,0:0:0:0:
307,122,24401,1,10,3:0:0:0:
307,122,24490,1,0,1:0:0:0:
307,122,24579,2,0,B|406:97|406:97|434:123|474:131,1,161.999995056153,2|8,1:2|0:0,0:0:0:0:
512,216,25115,1,2,1:2:0:0:
470,288,25294,5,2,1:2:0:0:
470,288,25472,2,0,L|402:278,1,62.9999980773926,2|0,0:0|1:0,0:0:0:0:
319,235,25829,1,2,0:0:0:0:
319,235,26007,2,0,L|251:245,1,62.9999980773926,2|0,1:2|0:0,0:0:0:0:
182,305,26365,1,2,1:2:0:0:
65,223,26544,6,0,B|72:169|72:169|83:156|83:156|89:97,1,125.999996154785,2|2,0:0|0:0,0:0:0:0:
197,21,27079,2,0,L|206:85,1,62.9999980773926,2|2,1:2|0:0,0:0:0:0:
221,158,27436,1,2,1:2:0:0:
294,178,27615,1,2,0:0:0:0:
344,118,27794,1,2,1:2:0:0:
403,239,27972,1,2,0:0:0:0:
403,239,28329,6,0,B|390:322|390:322|394:296|412:286,1,125.999996154785,2|2,0:0|0:0,0:0:0:0:
317,359,28865,2,0,L|241:350,1,62.9999980773926,2|0,1:2|0:0,0:0:0:0:
188,384,29222,1,2,1:2:0:0:
70,307,29401,6,0,L|91:181,1,125.999996154785,2|0,0:0|0:0,0:0:0:0:
88,108,29936,1,2,1:2:0:0:
88,108,30115,1,2,0:0:0:0:
157,145,30294,1,2,1:2:0:0:
206,83,30472,1,2,0:0:0:0:
206,83,30651,2,0,L|274:74,1,62.9999980773926,2|2,1:2|0:0,0:0:0:0:
381,126,31008,6,0,L|370:195,1,62.9999980773926,2|2,1:2|0:0,0:0:0:0:
301,255,31365,2,0,L|322:392,1,125.999996154785,2|0,1:2|1:0,0:0:0:0:
435,312,31901,1,2,0:0:0:0:
398,380,32079,1,0,1:0:0:0:
231,338,32258,6,0,L|132:324,1,94.499997116089,2|0,0:0|0:0,0:0:0:0:
137,324,32615,1,2,0:0:0:0:
57,289,32794,1,2,1:2:0:0:
18,364,32972,1,2,0:0:0:0:
128,242,33151,1,2,1:2:0:0:
90,168,33329,1,2,0:0:0:0:
90,168,33508,2,0,L|99:102,1,62.9999980773926,2|2,1:2|0:0,0:0:0:0:
214,229,33865,6,0,L|288:215,1,62.9999980773926,2|2,1:2|0:0,0:0:0:0:
347,158,34222,2,0,L|482:182,1,125.999996154785,2|0,1:2|1:0,0:0:0:0:
471,180,34936,1,0,1:0:0:0:
354,274,35115,6,0,B|328:233|328:233|349:149,1,125.999996154785,2|2,0:0|0:0,0:0:0:0:
428,116,35651,1,2,0:0:0:0:
428,116,35829,2,0,B|454:75|454:75|433:-9,1,125.999996154785,2|2,0:0|0:0,0:0:0:0:
302,72,36365,1,2,0:0:0:0:
374,52,36544,1,2,0:0:0:0:
290,150,36722,6,0,L|177:134,1,108,4|0,1:0|0:0,0:0:0:0:
141,78,37079,1,8,0:0:0:0:
100,197,37258,1,2,0:0:0:0:
210,295,37436,2,0,L|196:205,1,72,2|0,1:2|0:0,0:0:0:0:
225,375,37794,1,10,0:0:0:0:
299,323,37972,2,0,B|386:300|386:300|413:327|446:327,1,144,2|2,0:0|0:0,0:0:0:0:
481,166,38508,5,10,0:0:0:0:
397,281,38686,1,2,0:0:0:0:
397,281,38776,1,0,1:0:0:0:
397,281,38865,1,2,1:2:0:0:
353,193,39044,1,2,0:0:0:0:
480,321,39222,1,10,0:0:0:0:
417,127,39401,1,2,0:0:0:0:
417,127,39758,6,0,B|321:124|381:76|285:74,1,144,2|2,0:0|0:0,0:0:0:0:
191,171,40294,2,0,L|269:158,1,72,2|0,1:2|0:0,0:0:0:0:
144,20,40651,1,10,0:0:0:0:
88,117,40829,1,2,0:0:0:0:
88,117,40919,1,0,1:0:0:0:
88,117,41008,2,0,L|-11:101,1,72,0|2,1:0|0:0,0:0:0:0:
125,259,41365,5,10,0:0:0:0:
161,165,41544,1,2,0:0:0:0:
29,247,41722,1,2,1:2:0:0:
68,341,41901,1,2,0:0:0:0:
222,286,42079,1,10,0:0:0:0:
125,259,42258,1,2,0:0:0:0:
186,374,42436,6,0,L|266:361,1,72,2|2,1:2|0:0,0:0:0:0:
322,243,42794,2,0,B|342:342|342:342|336:313|313:303,1,144,10|0,0:0|1:0,0:0:0:0:
237,210,43329,1,0,0:0:0:0:
237,210,43508,2,0,P|269:159|348:157,1,144,8|0,0:0|1:0,0:0:0:0:
416,238,44044,1,2,0:0:0:0:
283,364,44222,5,10,0:0:0:0:
322,243,44401,1,2,0:0:0:0:
322,243,44490,1,0,1:0:0:0:
322,243,44579,1,2,1:2:0:0:
378,332,44758,1,2,0:0:0:0:
230,224,44936,1,10,0:0:0:0:
369,164,45115,1,2,0:0:0:0:
208,311,45294,6,0,L|130:298,1,72,2|2,1:2|0:0,0:0:0:0:
2,180,45651,2,0,B|88:162|88:162|57:169|45:200,1,144,10|0,0:0|1:0,0:0:0:0:
46,196,46365,1,8,0:0:0:0:
208,311,46544,6,0,B|260:304|260:304|289:276|289:276|348:268,1,144,6|2,0:0|0:0,0:0:0:0:
426,346,47079,1,10,0:0:0:0:
427,179,47258,2,0,B|375:172|375:172|346:144|346:144|287:136,1,144,6|10,0:0|3:0,0:0:0:0:
209,214,47793,1,2,1:2:0:0:
294,236,47972,1,2,0:0:0:0:
207,112,48151,6,0,B|149:52|66:22|-12:78|13:190|108:148,1,315,2|0,0:0|0:0,0:0:0:0:
223,19,49579,2,0,B|300:-8|383:46|322:104|415:158|490:126,1,315,2|2,0:0|0:0,0:0:0:0:
440,14,51008,6,0,B|389:-21|309:-11|261:61|289:106|323:156|323:156|376:230|335:305|263:288,1,472.499985580445,2|2,0:0|0:0,0:0:0:0:
267,289,53865,6,0,P|146:273|235:351,1,315,2|2,0:0|0:0,0:0:0:0:
205,296,55294,2,0,B|172:255|118:237|118:237|166:27,1,315,2|2,0:0|0:0,0:0:0:0:
256,0,56722,6,0,B|335:35|335:150|335:150|362:37|448:26,1,360,2|0,0:0|0:0,0:0:0:0:
424,164,58508,2,0,L|334:149,1,90,2|2,0:0|0:0,0:0:0:0:
335,149,59222,1,2,0:0:0:0:
301,231,59401,1,2,0:0:0:0:
251,333,59579,6,0,B|340:314|340:314|363:343|400:344,1,135.000005149842,2|0,1:2|1:0,0:0:0:0:
450,275,60115,1,2,0:0:0:0:
450,275,60294,2,0,B|436:176|436:176|440:203|426:215,1,135.000005149842,2|0,1:2|1:0,0:0:0:0:
430,209,61008,5,8,1:2:0:0:
249,88,61186,1,8,1:2:0:0:
302,347,61365,1,8,1:2:0:0:
302,347,62436,6,0,B|199:364|239:278|140:296,1,180,6|8,0:0|0:0,0:0:0:0:
277,178,62972,2,0,L|271:215,1,22.5,2|0,0:0|0:0,0:0:0:0:
325,127,63151,2,0,L|305:265,1,135,2|0,1:2|0:0,0:0:0:0:
305,260,63508,2,0,B|337:275|337:275|368:260,1,60,10|0,0:0|0:0,0:0:0:0:
423,209,63746,5,2,0:0:0:0:
441,184,63865,6,0,L|418:65,1,120,2|2,1:2|0:0,0:0:0:0:
342,33,64222,2,0,B|295:49|295:49|287:59|287:59|231:78,1,120,10|0,0:0|0:0,0:0:0:0:
180,141,64579,2,0,B|216:212|216:212|199:241|204:277,1,135,2|0,1:2|0:0,0:0:0:0:
203,265,64936,2,0,B|219:302|219:302|159:279,1,90,10|0,0:0|0:0,0:0:0:0:
68,210,65294,6,0,B|85:117|85:117|82:143|94:161,1,135,2|0,1:2|0:0,0:0:0:0:
91,156,65651,2,0,L|183:140,1,90,10|0,0:0|0:0,0:0:0:0:
284,51,66008,2,0,L|192:34,1,90,2|0,1:2|0:0,0:0:0:0:
317,222,66365,2,0,L|300:125,1,90,10|0,0:0|0:0,0:0:0:0:
365,75,66633,1,2,0:0:0:0:
377,69,66722,6,0,P|429:75|449:154,1,135,2|0,1:2|0:0,0:0:0:0:
452,145,67079,2,0,B|437:176|437:176|452:234,1,90,10|0,0:0|0:0,0:0:0:0:
354,324,67436,2,0,L|263:310,1,90,2|2,1:2|0:0,0:0:0:0:
174,255,67704,1,2,0:0:0:0:
162,250,67794,1,10,0:0:0:0:
110,345,67972,1,2,0:0:0:0:
255,204,68151,6,0,B|240:139|240:139|257:98|257:98|241:31,1,180,2|8,1:2|0:0,0:0:0:0:
393,105,68686,2,0,L|429:97,1,22.5,2|0,0:0|0:0,0:0:0:0:
321,152,68865,2,0,L|500:119,1,180,2|8,1:2|0:0,0:0:0:0:
401,238,69401,1,2,0:0:0:0:
256,88,69579,6,0,B|207:100|207:100|188:138|188:138|140:153,1,135,2|0,1:2|0:0,0:0:0:0:
147,150,69936,2,0,B|171:184|171:184|158:246,1,90,10|0,0:0|0:0,0:0:0:0:
44,300,70294,2,0,B|126:317|126:317|97:310|85:280,1,135,2|0,1:2|0:0,0:0:0:0:
87,285,70651,2,0,B|75:305|75:305|93:380,1,90,10|0,0:0|0:0,0:0:0:0:
206,383,71008,6,0,B|252:374|252:374|276:340|276:340|331:329,1,135,0|0,1:0|0:0,0:0:0:0:
321,330,71365,2,0,L|309:248,1,60,10|0,0:0|0:0,0:0:0:0:
253,195,71603,5,2,0:0:0:0:
243,165,71722,6,0,L|264:38,1,120,2|0,1:2|0:0,0:0:0:0:
345,2,72079,2,0,B|416:30|416:30|394:23|370:39,1,120,14|0,0:0|0:0,0:0:0:0:
231,266,72436,5,2,1:2:0:0:
174,78,72615,1,14,0:0:0:0:
348,156,72794,5,2,1:2:0:0:
329,230,72973,1,8,0:0:0:0:
462,208,73151,5,10,1:2:0:0:
290,110,73329,1,10,1:2:0:0:
430,63,73508,1,2,1:2:0:0:
403,258,73686,1,10,0:0:0:0:
402,273,73776,1,8,0:0:0:0:
388,340,73865,6,0,B|282:318|282:318|258:351|214:355,1,180,6|8,0:0|0:0,0:0:0:0:
147,247,74401,2,0,L|153:210,1,22.5,2|0,0:0|0:0,0:0:0:0:
108,322,74579,2,0,L|137:137,1,180,2|8,1:2|0:0,0:0:0:0:
154,44,75115,1,2,0:0:0:0:
247,174,75294,6,0,L|331:155,1,60,2|0,1:2|0:0,0:0:0:0:
369,97,75532,5,2,0:0:0:0:
396,79,75651,6,0,L|494:97,1,90,10|0,0:0|0:0,0:0:0:0:
444,260,76008,2,0,B|426:169|426:169|433:201|471:217,1,135,2|0,1:2|0:0,0:0:0:0:
448,203,76365,2,0,B|423:189|423:189|354:208,1,90,10|0,0:0|0:0,0:0:0:0:
246,317,76722,6,0,B|196:311|196:311|169:285|169:285|119:278,1,135,0|0,1:0|0:0,0:0:0:0:
122,278,77079,2,0,L|131:319,1,22.5,10|0,0:0|0:0,0:0:0:0:
86,244,77258,2,0,L|106:339,1,90,2|0,0:0|1:0,0:0:0:0:
251,136,77615,2,0,L|230:231,1,90,2|8,0:0|0:0,0:0:0:0:
335,326,77972,2,0,L|423:301,1,90,2|0,0:0|1:2,0:0:0:0:
512,208,78329,2,0,L|424:183,1,90,2|8,0:0|0:0,0:0:0:0:
273,42,78686,6,0,L|367:27,1,90,2|0,0:0|1:2,0:0:0:0:
451,98,79044,1,2,0:0:0:0:
451,98,79222,2,0,P|431:135|425:188,1,90,8|0,0:0|0:0,0:0:0:0:
449,343,79579,6,0,B|403:362|403:362|356:344,1,90,2|0,1:2|0:0,0:0:0:0:
231,281,79936,2,0,L|244:189,1,90,10|0,0:0|0:0,0:0:0:0:
300,124,80204,1,0,1:0:0:0:
305,111,80294,2,0,L|292:18,1,90,0|2,1:0|0:0,0:0:0:0:
203,108,80651,1,10,0:0:0:0:
203,108,80829,2,0,L|115:93,1,90,2|0,0:0|1:0,0:0:0:0:
26,260,81186,5,2,0:0:0:0:
185,208,81365,1,10,0:0:0:0:
171,288,81544,1,2,0:0:0:0:
80,147,81722,5,2,1:2:0:0:
103,229,81901,1,2,0:0:0:0:
145,384,82079,2,0,B|261:358|261:358|223:366|191:353,1,180,10|0,0:0|1:0,0:0:0:0:
250,256,82615,1,2,0:0:0:0:
368,377,82794,1,10,0:0:0:0:
368,377,82972,2,0,L|352:284,1,90,2|0,0:0|1:0,0:0:0:0:
322,137,83329,5,2,0:0:0:0:
481,192,83508,1,8,0:0:0:0:
439,111,83686,1,2,0:0:0:0:
298,220,83865,2,0,L|204:208,1,90,2|0,1:2|0:0,0:0:0:0:
140,144,84133,1,2,0:0:0:0:
132,134,84222,2,0,L|152:42,1,90,10|0,0:0|0:0,0:0:0:0:
43,0,84579,5,2,1:2:0:0:
89,210,84758,1,8,0:0:0:0:
43,0,84936,1,10,0:0:0:0:
233,101,85115,1,8,0:0:0:0:
245,108,85204,1,8,0:0:0:0:
313,144,85294,6,0,B|375:133|375:133|414:97|414:97|491:84,1,180,6|8,0:0|0:0,0:0:0:0:
480,289,85829,2,0,B|457:172|457:172|463:205|449:230,1,180,2|0,0:0|0:0,0:0:0:0:
374,343,86365,2,0,L|286:325,1,90,10|0,0:0|0:0,0:0:0:0:
212,260,86633,1,2,0:0:0:0:
200,249,86722,6,0,B|97:232|137:318|38:300,1,180,2|8,1:2|0:0,0:0:0:0:
109,116,87258,2,0,B|152:128|177:173|177:173|174:122|215:98,1,180,2|0,0:0|0:0,0:0:0:0:
335,190,87794,2,0,P|343:227|317:203,1,90,10|0,0:0|0:0,0:0:0:0:
454,83,88151,6,0,P|473:121|481:171,1,90,2|0,1:2|0:0,0:0:0:0:
435,245,88419,6,0,P|416:283|408:333,1,90,2|0,0:0|0:0,0:0:0:0:
331,374,88686,6,0,B|264:364|264:364|232:328|232:328|155:317,1,180,2|2,0:0|0:0,0:0:0:0:
104,224,89133,1,2,0:0:0:0:
113,213,89222,2,0,L|208:196,1,90,10|0,0:0|0:0,0:0:0:0:
315,88,89579,6,0,P|293:48|253:32,1,90,2|0,1:2|0:0,0:0:0:0:
172,63,89847,6,0,B|124:58|124:58|116:61|116:61|72:56,1,90,2|0,0:0|0:0,0:0:0:0:
13,45,90115,5,2,0:0:0:0:
303,228,90472,5,10,0:0:0:0:
59,160,90651,1,10,0:0:0:0:
303,228,90830,1,2,0:0:0:0:
93,363,91008,6,0,L|109:268,1,90,0|2,1:0|0:0,0:0:0:0:
155,206,91276,1,2,0:0:0:0:
162,192,91365,2,0,L|158:165,1,22.5,10|0,0:0|0:0,0:0:0:0:
202,252,91544,2,0,L|178:95,1,135,2|0,0:0|0:0,0:0:0:0:
182,118,91901,1,2,0:0:0:0:
362,37,92079,1,10,0:0:0:0:
403,125,92258,1,2,0:0:0:0:
218,32,92436,6,0,L|130:17,1,90,0|2,1:0|0:0,0:0:0:0:
63,79,92704,1,2,0:0:0:0:
55,89,92794,2,0,L|59:116,1,22.5,14|0,0:0|0:0,0:0:0:0:
15,29,92973,2,0,L|38:185,1,135,2|0,0:0|0:0,0:0:0:0:
34,162,93329,1,10,3:0:0:0:
199,260,93508,2,0,B|208:196|208:196|206:212|191:222,1,90,10|0,0:0|0:0,0:0:0:0:
129,329,93865,6,0,B|165:363|211:377|257:367|287:342|323:305|388:263|465:274|503:326|494:388|430:403|360:384|357:312|389:226,1,540,2|6,0:0|0:0,0:0:0:0:
385,236,96365,1,10,0:0:0:0:
331,150,96544,2,0,L|316:66,1,80.9999975280763,2|0,0:0|1:0,0:0:0:0:
218,219,96901,2,0,L|233:135,1,80.9999975280763,2|8,0:0|0:0,0:0:0:0:
402,32,97258,6,0,P|457:42|475:144,1,161.999995056153,2|0,0:0|0:0,0:0:0:0:
480,134,97972,2,0,L|490:179,1,40.4999987640381,2|0,0:0|0:0,0:0:0:0:
445,272,98151,5,2,1:2:0:0:
356,248,98329,1,2,0:0:0:0:
225,337,98508,5,8,0:0:0:0:
136,361,98686,1,2,0:0:0:0:
39,244,98865,6,0,B|69:209|65:167|65:167|78:207|133:218,1,161.999995056153,2|8,1:2|0:0,0:0:0:0:
122,215,99401,1,2,0:0:0:0:
180,113,99579,2,0,L|165:34,1,80.9999975280763,2|0,1:2|0:0,0:0:0:0:
194,188,99936,1,8,0:0:0:0:
45,79,100115,1,2,0:0:0:0:
45,79,100204,1,0,1:0:0:0:
45,79,100294,2,0,L|60:0,1,80.9999975280763,0|2,1:0|0:0,0:0:0:0:
24,152,100651,1,8,0:0:0:0:
129,46,100829,1,2,0:0:0:0:
129,46,100919,1,0,1:0:0:0:
129,46,101008,5,2,1:2:0:0:
213,61,101186,1,2,0:0:0:0:
348,154,101365,5,10,0:0:0:0:
432,139,101543,1,2,0:0:0:0:
280,244,101722,6,0,B|233:237|233:237|213:214|213:214|162:206,1,121.499996292114,0|0,1:0|0:0,0:0:0:0:
125,152,102079,1,8,0:0:0:0:
61,318,102258,2,0,L|48:238,1,80.9999975280763,2|0,0:0|1:0,0:0:0:0:
147,370,102615,2,0,L|160:290,1,80.9999975280763,2|8,0:0|0:0,0:0:0:0:
269,337,102972,2,0,B|367:313|367:313|392:342|427:343,1,161.999995056153,2|0,0:0|0:0,0:0:0:0:
418,342,103686,2,0,P|395:335|376:322,1,40.4999987640381,2|0,0:0|0:0,0:0:0:0:
330,220,103865,5,2,1:2:0:0:
358,128,104044,1,2,0:0:0:0:
474,269,104222,5,8,0:0:0:0:
445,177,104401,1,2,0:0:0:0:
398,48,104579,6,0,B|335:40|335:40|299:59|299:59|241:52,1,161.999995056153,2|8,1:2|0:0,0:0:0:0:
150,181,105115,1,2,0:0:0:0:
150,181,105294,2,0,B|237:166|236:166,1,80.9999975280763,2|0,1:2|0:0,0:0:0:0:
143,35,105651,1,8,0:0:0:0:
320,154,105829,6,0,B|304:286,1,121.499996292114,6|0,0:0|0:0,0:0:0:0:
295,347,106186,1,8,0:0:0:0:
409,243,106365,1,8,0:0:0:0:
246,130,106544,1,2,1:2:0:0:
231,127,106633,1,0,1:0:0:0:
216,122,106722,5,10,0:0:0:0:
134,300,106901,1,2,1:2:0:0:
217,272,107079,5,2,1:2:0:0:
165,195,107258,1,2,1:2:0:0:
322,235,107436,5,2,0:0:0:0:
322,235,107615,2,0,P|363:203|436:213,1,107.999996704102,2|2,0:0|0:0,0:0:0:0:
506,133,108151,2,0,P|465:101|392:111,1,107.999996704102,2|2,0:0|0:0,0:0:0:0:
319,134,108686,2,0,B|272:126|272:126|260:111|260:111|209:103,1,107.999996704102,2|2,0:0|0:0,0:0:0:0:
219,104,109401,1,2,0:0:0:0:
148,193,109579,5,2,0:0:0:0:
169,271,109758,1,2,0:0:0:0:
279,324,109936,5,2,0:0:0:0:
354,300,110115,1,2,0:0:0:0:
354,300,110472,6,0,B|366:264|366:264|346:184,1,107.999996704102,2|2,0:0|0:0,0:0:0:0:
410,134,111008,2,0,P|450:153|514:164,1,107.999996704102,2|2,0:0|0:0,0:0:0:0:
512,245,111544,2,0,P|490:297|481:357,1,107.999996704102,2|2,0:0|0:0,0:0:0:0:
416,384,112079,1,2,0:0:0:0:
416,384,112258,1,2,0:0:0:0:
330,326,112436,5,2,0:0:0:0:
253,350,112615,1,2,0:0:0:0:
305,238,112794,5,2,0:0:0:0:
380,262,112972,1,2,0:0:0:0:
489,219,113151,6,0,L|479:157,1,53.9999983520508,2|2,0:0|0:0,0:0:0:0:
417,106,113508,2,0,L|435:-7,1,107.999996704102,2|0,0:0|0:0,0:0:0:0:
434,0,114222,1,2,0:0:0:0:
321,89,114401,6,0,L|206:74,1,107.999996704102,2|2,0:0|0:0,0:0:0:0:
213,75,115115,2,0,B|188:105|188:105|203:178,1,107.999996704102
267,231,115651,2,0,L|258:293,1,53.9999983520508,2|2,0:0|0:0,0:0:0:0:
156,370,116008,6,0,B|84:358|84:358|110:362|120:352,1,107.999996704102,0|2,0:0|0:0,0:0:0:0:
79,279,116544,2,0,B|66:221|66:221|82:184|82:184|68:123,1,161.999995056153,2|2,0:0|0:0,0:0:0:0:
40,41,117258,1,2,0:0:0:0:
256,192,117347,12,0,118865,1:0:0:0:
256,192,119044,6,0,B|165:177|165:177|154:200|121:212,1,144,2|2,0:0|0:0,0:0:0:0:
54,129,119579,2,0,L|67:50,1,72,2|0,1:2|0:0,0:0:0:0:
42,215,119936,1,10,0:0:0:0:
140,140,120115,2,0,B|189:133|189:133|221:107|221:107|283:99,1,144,2|2,0:0|0:0,0:0:0:0:
289,278,120651,5,10,0:0:0:0:
338,165,120829,1,2,0:0:0:0:
338,165,120919,1,0,1:0:0:0:
338,165,121008,1,2,1:2:0:0:
391,262,121186,1,2,0:0:0:0:
243,135,121365,1,10,0:0:0:0:
195,342,121544,1,2,0:0:0:0:
195,342,121901,6,0,B|101:324|101:324|80:354|46:359,1,144,2|2,0:0|0:0,0:0:0:0:
82,223,122436,2,0,L|93:295,1,72,2|0,1:2|0:0,0:0:0:0:
67,146,122794,1,10,0:0:0:0:
219,102,122972,1,2,0:0:0:0:
219,102,123061,1,0,1:0:0:0:
219,102,123151,2,0,L|208:174,1,72,0|2,1:0|0:0,0:0:0:0:
371,231,123508,5,10,0:0:0:0:
287,202,123686,1,2,0:0:0:0:
165,293,123865,5,2,1:2:0:0:
81,322,124043,1,2,0:0:0:0:
67,146,124222,5,10,0:0:0:0:
95,246,124401,1,2,0:0:0:0:
32,68,124579,6,0,B|54:57|54:57|117:71,1,72,2|2,1:2|0:0,0:0:0:0:
194,130,124936,2,0,B|291:127|230:78|328:76,1,144,10|0,0:0|1:0,0:0:0:0:
410,136,125472,1,0,0:0:0:0:
410,136,125651,2,0,B|399:227|399:227|403:197|389:171,1,144,8|0,0:0|1:0,0:0:0:0:
313,225,126186,5,2,0:0:0:0:
153,284,126365,1,10,0:0:0:0:
238,186,126544,1,2,0:0:0:0:
238,186,126633,1,0,1:0:0:0:
238,186,126722,2,0,L|227:258,1,72,0|0,1:0|0:0,0:0:0:0:
339,374,127079,2,0,L|328:302,1,72,10|2,0:0|0:0,0:0:0:0:
143,370,127436,6,0,L|69:359,1,72,2|0,1:2|0:0,0:0:0:0:
8,267,127794,2,0,P|31:198|107:185,1,144,10|0,0:0|1:0,0:0:0:0:
88,265,128329,1,2,0:0:0:0:
88,265,128508,1,10,0:0:0:0:
220,132,128686,6,0,B|203:34|203:34|208:62|194:84,1,144,6|2,0:0|0:0,0:0:0:0:
128,158,129222,1,10,0:0:0:0:
264,284,129401,6,0,B|319:271|319:271|341:243|341:243|404:229,1,144,6|10,0:0|3:0,0:0:0:0:
490,175,129936,1,2,1:2:0:0:
471,93,130115,1,2,1:2:0:0:
416,44,130294,6,0,B|339:17|256:71|317:129|224:183|149:151,1,315,2|0,0:0|0:0,0:0:0:0:
74,113,131722,2,0,B|8:164|-30:243|17:327|131:314|99:215,1,315,2|2,0:0|0:0,0:0:0:0:
74,113,133151,6,0,B|136:94|177:118|177:118|221:150|270:141|313:104|292:35|232:22|180:46|177:118|170:160|194:231,1,472.499985580445,2|2,0:0|0:0,0:0:0:0:
167,331,136008,6,0,B|244:358|327:304|266:246|359:192|434:224,1,315,2|2,0:0|0:0,0:0:0:0:
392,314,137436,2,0,P|260:278|323:136,1,315,2|2,0:0|0:0,0:0:0:0:
344,231,138865,6,0,B|294:143|81:179|203:340|46:335,1,360
61,334,140829,1,2,0:0:0:0:
4,251,141008,1,2,0:0:0:0:
4,251,141186,2,0,L|18:159,1,90,2|2,0:0|0:0,0:0:0:0:
166,75,141722,6,0,L|306:95,1,135.000005149842,2|0,1:2|1:0,0:0:0:0:
419,79,142258,1,2,0:0:0:0:
419,79,142436,2,0,B|398:68|391:43|391:43|413:132,1,135.000005149842,2|2,1:2|1:2,0:0:0:0:
432,223,142972,1,2,0:0:0:0:
220,275,143151,5,10,0:0:0:0:
442,351,143329,1,10,0:0:0:0:
305,115,143508,1,8,0:0:0:0:
305,115,144579,6,0,B|239:130|239:130|210:169|210:169|146:185,1,180,6|8,0:0|0:0,0:0:0:0:
27,130,145115,2,0,L|33:97,1,22.5,2|0,0:0|0:0,0:0:0:0:
41,212,145294,2,0,L|73:32,1,180,2|8,1:2|0:0,0:0:0:0:
218,118,145829,1,2,0:0:0:0:
218,118,145919,1,0,1:0:0:0:
218,118,146008,6,0,B|160:106|160:106|178:110|185:126,1,90,2|2,1:2|0:0,0:0:0:0:
235,211,146276,1,2,0:0:0:0:
244,223,146365,2,0,L|233:324,1,90,10|0,0:0|0:0,0:0:0:0:
359,371,146722,1,2,1:2:0:0:
332,278,146901,1,0,0:0:0:0:
185,384,147079,2,0,L|93:371,1,90,10|0,0:0|0:0,0:0:0:0:
1,217,147436,6,0,B|36:237|33:272|33:272|43:237|82:226,1,135,2|0,1:2|0:0,0:0:0:0:
78,226,147794,2,0,B|65:196|65:196|79:161,1,60,10|0,0:0|0:0,0:0:0:0:
113,87,148032,5,2,0:0:0:0:
134,66,148151,6,0,B|182:58|182:58|198:63|198:63|253:55,1,120,2|0,1:2|0:0,0:0:0:0:
307,1,148508,2,0,B|287:42|287:42|318:126,1,120,10|0,0:0|0:0,0:0:0:0:
392,137,148865,2,0,B|419:173|419:173|400:267,1,135,2|0,1:2|0:0,0:0:0:0:
401,261,149222,2,0,B|357:242|357:242|315:261,1,90,10|0,0:0|0:0,0:0:0:0:
258,374,149579,5,2,1:2:0:0:
361,324,149758,1,2,0:0:0:0:
242,177,149936,1,10,0:0:0:0:
190,299,150115,1,2,0:0:0:0:
338,165,150294,6,0,B|328:112|328:112|335:79|335:79|324:26,1,135,2|0,1:2|0:0,0:0:0:0:
325,32,150651,1,8,0:0:0:0:
168,86,150829,2,0,L|140:80,1,22.5,2|0,0:0|0:0,0:0:0:0:
250,77,151008,2,0,L|68:38,1,180,2|8,1:2|0:0,0:0:0:0:
26,191,151544,1,2,0:0:0:0:
26,191,151633,1,0,1:0:0:0:
26,191,151722,6,0,B|44:160|44:160|32:93,1,90,2|2,1:2|0:0,0:0:0:0:
167,181,152079,2,0,B|149:212|149:212|161:279,1,90,10|0,0:0|0:0,0:0:0:0:
83,365,152436,2,0,B|-2:352|-2:352|29:357|52:347,1,135,2|0,1:2|0:0,0:0:0:0:
46,349,152794,2,0,P|88:314|85:265,1,90,10|0,0:0|0:0,0:0:0:0:
206,369,153151,6,0,B|253:357|253:357|275:330|275:330|327:318,1,135,0|0,1:0|0:0,0:0:0:0:
325,318,153508,1,10,0:0:0:0:
245,172,153686,1,2,0:0:0:0:
245,172,153776,1,0,1:0:0:0:
245,172,153865,1,0,1:0:0:0:
199,277,154044,1,2,0:0:0:0:
324,90,154222,1,10,0:0:0:0:
358,199,154401,1,2,0:0:0:0:
237,81,154579,5,2,1:2:0:0:
325,318,154758,2,0,B|441:284|441:284|465:310|505:309,1,180,14|2,0:0|0:0,0:0:0:0:
473,105,155294,2,0,P|460:144|453:195,1,90,10|2,0:0|0:0,0:0:0:0:
331,42,155651,1,10,0:0:0:0:
270,197,155829,1,2,1:2:0:0:
264,211,155919,1,0,1:0:0:0:
234,279,156008,6,0,B|165:271|165:271|118:294|118:294|56:287,1,180,6|8,0:0|0:0,0:0:0:0:
104,162,156544,2,0,L|111:199,1,22.5,2|0,0:0|0:0,0:0:0:0:
112,70,156722,2,0,L|145:247,1,180,2|8,1:2|0:0,0:0:0:0:
250,354,157258,1,2,0:0:0:0:
250,354,157347,1,0,1:0:0:0:
250,354,157436,6,0,L|322:339,1,60,2|0,1:2|0:0,0:0:0:0:
373,292,157675,5,2,0:0:0:0:
405,275,157794,6,0,L|496:293,1,90,10|0,0:0|0:0,0:0:0:0:
387,147,158151,1,2,1:2:0:0:
319,229,158329,1,0,0:0:0:0:
211,116,158508,2,0,L|226:27,1,90,10|0,0:0|0:0,0:0:0:0:
103,202,158865,6,0,L|79:63,1,135,0|0,1:0|0:0,0:0:0:0:
80,68,159222,2,0,L|116:62,1,22.5,10|0,0:0|0:0,0:0:0:0:
37,40,159401,2,0,L|135:23,1,90,2|0,0:0|1:0,0:0:0:0:
299,130,159758,2,0,L|200:113,1,90,2|8,0:0|0:0,0:0:0:0:
388,72,160115,1,2,0:0:0:0:
388,72,160204,1,0,1:0:0:0:
388,72,160294,6,0,L|403:163,1,90,0|2,1:2|0:0,0:0:0:0:
425,259,160651,1,8,0:0:0:0:
251,217,160829,1,2,0:0:0:0:
251,217,160919,1,0,1:0:0:0:
251,217,161008,2,0,L|289:210,1,22.5,0|0,1:2|0:0,0:0:0:0:
258,310,161186,2,0,B|200:301|200:301|165:264|165:264|96:253,1,180,2|0,0:0|0:0,0:0:0:0:
6,136,161722,6,0,B|20:226|20:226|16:200|33:174,1,135,6|0,1:2|0:0,0:0:0:0:
27,183,162079,2,0,B|58:164|58:164|128:182,1,90,10|0,0:0|0:0,0:0:0:0:
195,121,162347,1,2,0:0:0:0:
203,108,162437,2,0,L|190:15,1,90,0|0,1:0|0:0,0:0:0:0:
219,195,162794,1,10,0:0:0:0:
330,90,162972,1,2,0:0:0:0:
330,90,163061,1,0,1:0:0:0:
330,90,163151,6,0,B|383:77|383:77|396:91|416:94,1,90,2|2,1:2|0:0,0:0:0:0:
494,173,163508,2,0,P|480:203|475:272,1,90,10|0,0:0|0:0,0:0:0:0:
408,365,163865,2,0,B|318:348|318:348|344:353|367:345,1,135,0|0,1:2|0:0,0:0:0:0:
361,346,164222,1,10,0:0:0:0:
329,264,164401,1,2,0:0:0:0:
283,146,164579,6,0,B|198:128|198:128|181:150|151:157,1,135,4|0,1:2|0:0,0:0:0:0:
158,154,164936,1,10,0:0:0:0:
66,92,165115,2,0,L|84:4,1,90,2|0,0:0|1:0,0:0:0:0:
48,167,165472,5,2,0:0:0:0:
231,78,165651,1,14,0:0:0:0:
148,32,165829,1,2,0:0:0:0:
236,203,166008,2,0,L|325:187,1,90,0|8,1:0|0:0,0:0:0:0:
395,109,166276,1,2,0:0:0:0:
403,99,166365,2,0,L|383:7,1,90,10|2,0:0|0:0,0:0:0:0:
432,194,166722,5,2,1:2:0:0:
432,194,167079,1,8,0:0:0:0:
155,121,167258,1,8,0:0:0:0:
195,221,167436,6,0,B|276:249|364:192|299:131|398:73|477:107,1,323.999990112305,2|2,0:0|0:0,0:0:0:0:
479,188,168686,2,0,B|450:234|448:283|394:331|411:419|480:442|545:416|562:333|520:285|448:283|437:348|378:351,1,431.999986816407,2|0,0:0|0:0,0:0:0:0:
340,274,170293,6,0,P|255:172|252:298,1,323.999990112305,2|0,0:0|0:0,0:0:0:0:
282,235,171544,2,0,B|223:252|167:198|176:130|176:130|182:76|187:25|115:-12|38:9|25:76,1,431.999986816407,2|2,0:0|0:0,0:0:0:0:
166,50,173151,6,0,B|228:115|318:147|403:86|374:-27|267:11,1,323.999990112305,2|2,0:0|0:0,0:0:0:0:
266,106,174401,2,0,B|369:100|405:250|405:250|400:98|496:74,1,431.999986816407,2|2,0:0|0:0,0:0:0:0:
405,250,176008,6,0,B|324:222|236:279|301:340|202:398|123:364,1,323.999990112305,2|2,0:0|0:0,0:0:0:0:
50,293,177258,2,0,B|145:231|113:111|18:74|76:-14|180:-38|265:31|200:125,1,485.999985168458,2|2,0:0|0:0,0:0:0:0:
201,122,179401,5,2,0:0:0:0:
269,182,179579,2,0,L|382:163,1,107.999996704102,2|2,0:0|0:0,0:0:0:0:
375,164,180829,5,2,0:0:0:0:
450,227,181008,2,0,L|432:355,1,107.999996704102,2|2,0:0|0:0,0:0:0:0:
434,333,182079,5,2,0:0:0:0:
434,333,182258,2,0,L|371:322,1,53.9999983520508,2|0,0:0|0:0,0:0:0:0:
290,273,182615,2,0,L|180:292,1,107.999996704102,2|2,0:0|0:0,0:0:0:0:
183,291,183329,1,2,0:0:0:0:
115,209,183686,5,2,0:0:0:0:
115,209,183865,2,0,L|129:125,2,80.9999975280763,2|2|2,0:0|0:0|0:0,0:0:0:0:
67,287,184579,2,0,L|79:344,2,53.9999983520508,2|2|2,0:0|0:0|0:0,0:0:0:0:
189,366,185651,5,2,0:0:0:0:
189,366,185918,2,0,B|257:349|257:349|297:304|297:304|366:287,1,188.999994232178,2|2,0:0|0:0,0:0:0:0:
446,348,186722,1,2,0:0:0:0:
446,348,187079,5,2,0:0:0:0:
511,271,187258,2,0,B|518:171|476:220|491:106,1,161.999995056153,2|2,0:0|0:0,0:0:0:0:
434,41,187972,2,0,P|376:51|341:107,1,107.999996704102,2|2,0:0|0:0,0:0:0:0:
326,161,188527,1,2,0:0:0:0:
326,161,188748,1,2,0:0:0:0:
374,221,189434,5,2,0:0:0:0:
311,264,189677,2,0,P|273:256|253:229,1,72,2|2,0:0|0:0,0:0:0:0:
99,159,192257,5,2,0:0:0:0:
167,125,192436,1,2,0:0:0:0:
255,187,192615,1,2,0:0:0:0:
351,87,192793,1,2,0:0:0:0:
390,256,192972,1,2,0:0:0:0:
257,41,193150,1,6,1:2:0:0:
84,89,198865,5,2,1:2:0:0:
88,96,199222,1,0,1:0:0:0:
91,103,199579,1,2,1:2:0:0:
95,110,199936,1,0,1:0:0:0:
132,197,200115,1,2,0:0:0:0:
298,148,200293,6,0,L|376:134,1,67.5000025749208,2|0,1:2|0:0,0:0:0:0:
438,181,200561,1,2,0:0:0:0:
447,190,200651,2,0,L|435:267,1,67.5000025749208,2|0,1:2|0:0,0:0:0:0:
371,313,201008,2,0,L|383:390,1,67.5000025749208,2|0,1:2|0:0,0:0:0:0:
268,242,201365,2,0,L|256:319,1,67.5000025749208,2|0,1:2|0:0,0:0:0:0:
109,374,201722,6,0,P|68:364|54:335,1,67.5000025749208,0|0,1:0|0:0,0:0:0:0:
18,258,201990,1,2,0:0:0:0:
14,248,202079,2,0,L|25:179,1,67.5000025749208,2|0,1:2|0:0,0:0:0:0:
88,105,202436,2,0,L|77:36,1,67.5000025749208,2|0,1:2|0:0,0:0:0:0:
184,165,202793,2,0,L|195:96,1,67.5000025749208,2|0,1:2|0:0,0:0:0:0:
293,231,203151,6,0,B|373:213|373:213|398:237|426:236,1,135.000005149842,2|2,1:2|1:2,0:0:0:0:
358,71,203686,1,10,3:0:0:0:
431,157,203865,1,2,1:2:0:0:
484,80,204043,1,2,0:0:0:0:
504,214,204222,1,2,1:2:0:0:
426,21,204401,1,2,0:0:0:0:
293,231,204579,6,0,B|241:225|241:225|211:201|211:201|148:194,1,135.000005149842,2|0,1:2|1:0,0:0:0:0:
173,305,205115,2,0,L|177:275,1,22.5,2|0,0:0|0:0,0:0:0:0:
191,372,205293,2,0,L|209:236,1,135.000005149842,2|0,1:2|1:0,0:0:0:0:
305,139,205829,1,2,0:0:0:0:
305,139,205918,1,0,1:0:0:0:
305,139,206008,6,0,P|343:150|368:185,1,67.5000025749208,2|2,1:2|0:0,0:0:0:0:
241,68,206365,2,0,P|231:29|249:-9,1,67.5000025749208,2|0,1:2|0:0,0:0:0:0:
211,158,206722,2,0,P|182:185|139:189,1,67.5000025749208,2|0,1:2|0:0,0:0:0:0:
305,139,207079,2,0,P|343:150|368:185,1,67.5000025749208,2|0,1:2|0:0,0:0:0:0:
300,294,207436,6,0,B|287:358|287:358|291:334|309:327,1,101.250003862381,0|0,1:0|0:0,0:0:0:0:
305,328,207793,2,0,L|343:319,1,22.5,2|0,1:2|0:0,0:0:0:0:
287,358,207972,2,0,L|361:338,1,67.5000025749208,2|0,0:0|1:0,0:0:0:0:
216,265,208329,2,0,L|142:245,1,67.5000025749208,2|0,0:0|1:0,0:0:0:0:
281,181,208686,1,2,0:0:0:0:
281,181,208776,1,0,1:0:0:0:
281,181,208865,6,0,P|320:153|321:122,1,67.5000025749208,2|0,1:2|0:0,0:0:0:0:
297,67,209133,6,0,P|312:40|366:26,1,67.5000025749208,2|0,0:0|0:0,0:0:0:0:
416,33,209401,1,6,1:2:0:0:
492,91,209579,5,2,1:2:0:0:
380,216,209758,1,8,3:0:0:0:
419,141,209936,1,0,1:0:0:0:
281,181,210115,1,2,1:2:0:0:
281,181,210204,1,0,1:0:0:0:
281,181,210293,6,0,L|293:252,1,67.5000025749208,6|2,0:0|0:0,0:0:0:0:
384,380,210651,1,2,1:2:0:0:
239,299,210829,1,8,0:0:0:0:
207,369,211008,1,0,1:0:0:0:
382,296,211186,5,2,0:0:0:0:
202,202,211365,1,2,1:2:0:0:
364,92,211543,1,2,0:0:0:0:
364,92,211633,1,0,1:0:0:0:
364,92,211722,6,0,L|348:168,1,67.5000025749208,2|2,1:2|0:0,0:0:0:0:
281,226,212079,1,2,1:2:0:0:
107,132,212258,2,0,B|155:123|155:123|187:95|187:95|243:87,1,135.000005149842,12|0,0:0|0:0,0:0:0:0:
81,244,212793,1,10,0:0:0:0:
16,190,212972,1,2,1:2:0:0:
16,190,213061,1,0,1:0:0:0:
16,190,213151,6,0,L|35:84,1,101.250003862381,4|0,1:2|0:0,0:0:0:0:
34,91,213508,1,2,1:2:0:0:
173,276,213686,2,0,L|154:170,1,101.250003862381,6|0,0:0|0:0,0:0:0:0:
155,176,214043,1,2,0:0:0:0:
295,122,214222,1,6,0:0:0:0:
316,214,214401,1,2,0:0:0:0:
205,94,214579,5,0,1:0:0:0:
205,94,214936,1,2,1:2:0:0:
277,45,215115,1,2,1:2:0:0:
127,18,215293,1,8,0:0:0:0:
295,122,215472,1,10,0:0:0:0:
86,201,215651,1,14,0:0:0:0:
256,192,215740,12,0,217436,0:0:0:0:
339,266,217972,5,2,0:0:0:0:
417,221,218151,1,2,0:0:0:0:
294,177,218329,1,2,0:0:0:0:
420,304,218508,1,2,0:0:0:0:
366,140,218686,1,2,0:0:0:0:
193,313,218865,6,0,B|73:288|73:288|111:296|143:280,1,180,6|8,0:0|0:0,0:0:0:0:
210,195,219401,2,0,L|215:225,1,22.5,2|0,0:0|0:0,0:0:0:0:
234,135,219579,2,0,L|257:276,1,135,2|0,1:2|0:0,0:0:0:0:
255,268,219936,2,0,B|285:255|285:255|324:272,1,60,8|0,0:0|0:0,0:0:0:0:
393,220,220174,5,2,0:0:0:0:
412,196,220293,6,0,L|387:74,1,120,2|2,1:2|0:0,0:0:0:0:
321,25,220651,2,0,B|253:15|275:59|206:48,1,120,10|0,0:0|0:0,0:0:0:0:
144,102,221008,2,0,B|170:123|164:161|164:161|190:132|223:130,1,135,2|0,1:2|0:0,0:0:0:0:
224,130,221365,2,0,B|238:159|238:159|216:230,1,90,10|0,0:0|0:0,0:0:0:0:
161,384,221722,6,0,L|311:346,1,135,2|0,1:2|0:0,0:0:0:0:
291,350,222079,2,0,B|308:304|308:304|291:264,1,90,10|2,0:0|0:0,0:0:0:0:
234,221,222347,1,2,0:0:0:0:
221,214,222436,2,0,B|201:172|201:172|222:133,1,90,2|0,1:2|0:0,0:0:0:0:
401,90,222793,2,0,B|381:6|381:6|388:38|375:55,1,135,10|0,0:0|0:0,0:0:0:0:
376,53,223151,6,0,L|282:32,1,90,2|2,1:2|0:0,0:0:0:0:
418,189,223508,2,0,L|509:171,1,90,10|0,0:0|0:0,0:0:0:0:
368,308,223865,2,0,L|276:290,1,90,2|2,1:2|0:0,0:0:0:0:
181,243,224133,1,2,0:0:0:0:
165,238,224222,1,10,0:0:0:0:
230,139,224401,1,2,0:0:0:0:
192,339,224579,6,0,B|77:313|77:313|58:343|20:349,1,180,2|8,1:2|0:0,0:0:0:0:
23,183,225115,2,0,L|28:213,1,22.5,2|0,0:0|0:0,0:0:0:0:
39,104,225293,2,0,L|68:282,1,180,2|8,1:2|0:0,0:0:0:0:
216,196,225829,1,2,0:0:0:0:
216,196,225918,1,0,1:0:0:0:
216,196,226008,6,0,P|177:159|139:155,1,90,2|2,1:2|0:0,0:0:0:0:
280,254,226365,2,0,P|331:238|354:207,1,90,10|0,0:0|0:0,0:0:0:0:
197,280,226722,2,0,P|184:332|199:367,1,90,2|0,1:2|0:0,0:0:0:0:
216,196,227079,2,0,P|177:159|139:155,1,90,10|0,0:0|0:0,0:0:0:0:
49,175,227347,1,2,0:0:0:0:
39,167,227436,6,0,L|61:26,1,135,0|0,1:0|0:0,0:0:0:0:
59,33,227793,2,0,B|90:21|90:21|127:37,1,60,10|0,0:0|0:0,0:0:0:0:
215,57,228031,5,2,0:0:0:0:
201,40,228151,6,0,B|185:30|180:0|180:0|196:89,1,135,2|0,1:2|0:0,0:0:0:0:
195,87,228508,2,0,B|225:107|225:107|299:93,1,90,14|0,0:0|0:0,0:0:0:0:
436,69,228865,5,2,1:2:0:0:
370,259,229043,1,12,0:0:0:0:
277,187,229222,1,2,1:2:0:0:
334,348,229401,1,2,1:2:0:0:
452,183,229579,5,2,1:2:0:0:
364,148,229758,1,10,0:0:0:0:
220,241,229936,5,10,0:0:0:0:
66,307,230115,1,10,0:0:0:0:
58,299,230204,1,8,0:0:0:0:
11,240,230293,6,0,B|20:170|20:170|49:144|49:144|57:69,1,180,6|8,0:0|0:0,0:0:0:0:
226,145,230829,2,0,L|192:152,1,22.5,2|0,0:0|0:0,0:0:0:0:
301,159,231008,2,0,L|120:196,1,180,2|8,1:2|0:0,0:0:0:0:
270,340,231543,1,2,0:0:0:0:
270,340,231633,1,0,1:0:0:0:
270,340,231722,6,0,L|285:246,1,90,2|2,1:2|0:0,0:0:0:0:
423,380,232079,2,0,L|408:286,1,90,10|0,0:0|0:0,0:0:0:0:
374,208,232347,1,2,0:0:0:0:
366,198,232436,2,0,L|381:104,1,90,2|0,1:2|0:0,0:0:0:0:
237,177,232793,2,0,B|144:160|144:160|175:166|206:154,1,135,10|0,0:0|0:0,0:0:0:0:
184,160,233151,6,0,B|198:190|198:190|186:251,1,90,0|0,1:0|0:0,0:0:0:0:
253,327,233508,2,0,L|285:321,1,22.5,10|0,0:0|0:0,0:0:0:0:
205,372,233686,2,0,L|343:346,1,135,2|0,0:0|0:0,0:0:0:0:
337,347,234043,2,0,B|351:315|351:315|337:253,1,90,2|8,0:0|0:0,0:0:0:0:
300,127,234401,1,2,0:0:0:0:
300,127,234490,1,0,1:0:0:0:
300,127,234579,6,0,B|351:113|351:113|366:127|388:128,1,90,0|2,1:2|0:0,0:0:0:0:
224,203,234936,1,8,0:0:0:0:
338,261,235115,1,2,0:0:0:0:
338,261,235204,1,0,1:0:0:0:
338,261,235293,2,0,L|325:209,1,45,0|0,1:2|0:0,0:0:0:0:
228,304,235472,2,0,B|162:293|162:293|134:259|134:259|64:247,1,180,2|0,0:0|0:0,0:0:0:0:
6,174,235918,1,2,0:0:0:0:
8,161,236008,6,0,L|24:70,1,90,2|2,1:2|0:0,0:0:0:0:
148,225,236365,2,0,L|133:134,1,90,10|0,0:0|0:0,0:0:0:0:
193,32,236722,1,0,1:0:0:0:
133,136,236901,1,2,0:0:0:0:
303,252,237079,1,10,0:0:0:0:
303,252,237258,2,0,L|398:234,1,90,2|0,0:0|1:0,0:0:0:0:
221,275,237615,5,2,0:0:0:0:
287,93,237793,1,10,0:0:0:0:
348,171,237972,1,2,0:0:0:0:
193,32,238150,1,2,1:2:0:0:
253,176,238329,1,2,0:0:0:0:
371,12,238508,2,0,B|425:3|425:3|461:16|461:16|510:8,1,135,10|0,0:0|0:0,0:0:0:0:
502,9,238865,5,0,1:0:0:0:
462,140,239043,1,2,0:0:0:0:
287,93,239222,1,10,0:0:0:0:
287,93,239400,2,0,L|188:79,1,90,2|0,0:0|1:0,0:0:0:0:
94,160,239758,5,2,0:0:0:0:
193,309,239936,1,8,0:0:0:0:
259,204,240115,1,2,0:0:0:0:
259,204,240204,1,0,1:0:0:0:
259,204,240293,1,2,1:2:0:0:
85,296,240472,1,2,0:0:0:0:
197,80,240650,2,0,B|285:59|285:59|310:80|345:82,1,135,10|0,0:0|0:0,0:0:0:0:
324,78,241008,5,2,1:2:0:0:
498,178,241186,1,8,0:0:0:0:
421,8,241365,1,10,0:0:0:0:
327,216,241543,1,8,0:0:0:0:
322,230,241633,1,8,0:0:0:0:
289,294,241722,6,0,B|224:284|224:284|185:251|185:251|100:239,1,180,6|8,0:0|0:0,0:0:0:0:
0,170,242258,2,0,B|65:160|65:160|104:127|104:127|189:115,1,180,2|0,0:0|0:0,0:0:0:0:
32,6,242793,2,0,B|16:31|16:31|27:95,1,90,10|0,0:0|0:0,0:0:0:0:
139,192,243061,1,2,0:0:0:0:
147,198,243150,6,0,P|225:179|217:73,1,180,2|8,1:2|0:0,0:0:0:0:
385,136,243686,2,0,B|428:162|430:210|430:210|445:165|496:154,1,180,2|0,0:0|0:0,0:0:0:0:
276,278,244222,2,0,L|183:261,1,90,10|0,0:0|0:0,0:0:0:0:
363,326,244579,6,0,P|377:275|365:235,1,90,2|0,1:2|0:0,0:0:0:0:
300,199,244847,6,0,P|286:148|298:108,1,90,2|0,0:0|0:0,0:0:0:0:
340,47,245115,6,0,B|447:24|447:24|474:53|510:55,1,180,2|2,0:0|0:0,0:0:0:0:
475,223,245650,2,0,L|494:127,1,90,10|0,0:0|0:0,0:0:0:0:
455,298,246008,6,0,L|364:279,1,90,2|0,1:2|0:0,0:0:0:0:
306,229,246275,6,0,L|215:248,1,90,2|0,0:0|0:0,0:0:0:0:
150,266,246543,5,2,0:0:0:0:
63,168,246900,5,10,0:0:0:0:
7,384,247079,1,10,0:0:0:0:
63,168,247258,1,2,0:0:0:0:
147,348,247436,6,0,L|244:322,1,90,0|2,1:0|0:0,0:0:0:0:
282,264,247704,1,2,0:0:0:0:
289,250,247793,2,0,L|285:223,1,22.5,14|0,0:0|0:0,0:0:0:0:
329,310,247972,2,0,L|305:153,1,135,2|0,0:0|0:0,0:0:0:0:
308,176,248329,1,2,0:0:0:0:
397,64,248507,1,10,0:0:0:0:
474,138,248686,1,2,0:0:0:0:
307,74,248864,6,0,L|211:88,1,90,0|2,1:0|0:0,0:0:0:0:
161,148,249132,1,2,0:0:0:0:
153,160,249222,2,0,L|157:187,1,22.5,14|0,0:0|0:0,0:0:0:0:
113,100,249401,2,0,L|136:256,1,135,2|8,0:0|0:0,0:0:0:0:
132,233,249758,6,0,L|187:247,1,45,10|8,0:2|0:2,0:2:0:0:
282,331,249936,1,2,1:2:0:0:
251,337,250025,1,8,0:0:0:0:
219,343,250115,1,8,0:0:0:0:
188,351,250204,1,8,0:0:0:0:
158,361,250293,6,0,B|69:344|69:344|49:373|4:364,1,135,6|0,0:0|0:0,0:0:0:0:
31,365,250650,1,10,0:0:0:0:
39,180,250829,2,0,P|52:215|60:267,1,90,2|0,0:0|1:0,0:0:0:0:
172,103,251186,2,0,P|159:138|151:190,1,90,2|8,0:0|0:0,0:0:0:0:
294,320,251543,6,0,P|371:280|348:191,1,180,2|0,0:0|0:0,0:0:0:0:
357,199,252258,2,0,P|374:225|378:243,1,45,2|0,0:0|0:0,0:0:0:0:
264,224,252436,5,2,1:2:0:0:
290,134,252615,1,2,0:0:0:0:
177,279,252793,5,10,0:0:0:0:
151,189,252972,1,2,0:0:0:0:
294,352,253150,6,0,B|362:339|362:339|412:358|412:358|485:345,1,180,2|8,1:2|0:0,0:0:0:0:
468,347,253686,1,2,0:0:0:0:
412,178,253865,2,0,B|398:204|398:204|414:271,1,90,2|0,1:2|0:0,0:0:0:0:
497,113,254222,1,8,0:0:0:0:
325,238,254400,6,0,B|208:220|208:220|245:226|275:211,1,180,2|2,0:0|0:0,0:0:0:0:
268,213,255115,2,0,P|244:221|217:221,1,45,2|0,0:0|0:0,0:0:0:0:
125,174,255293,5,2,1:2:0:0:
97,95,255472,1,2,0:0:0:0:
38,210,255650,5,10,0:0:0:0:
15,286,255829,1,2,0:0:0:0:
189,86,256008,6,0,B|276:61|276:61|296:83|318:82,1,135,2|0,1:2|0:0,0:0:0:0:
314,82,256365,1,10,0:0:0:0:
291,252,256543,2,0,L|305:163,1,90,2|0,0:0|1:0,0:0:0:0:
425,306,256900,2,0,L|410:215,1,90,2|8,0:0|0:0,0:0:0:0:
266,359,257258,6,0,P|183:343|175:252,1,180,2|0,0:0|0:0,0:0:0:0:
170,259,257972,2,0,P|163:282|166:311,1,45,2|0,0:0|0:0,0:0:0:0:
84,373,258150,5,2,1:2:0:0:
56,285,258329,1,2,0:0:0:0:
141,143,258508,5,10,0:0:0:0:
169,55,258687,1,2,0:0:0:0:
292,198,258865,6,0,B|356:185|356:185|389:144|389:144|458:130,1,180,2|8,1:2|0:0,0:0:0:0:
449,131,259400,1,2,0:0:0:0:
431,301,259579,2,0,L|444:206,1,90,2|0,1:2|0:0,0:0:0:0:
308,117,259936,1,8,0:0:0:0:
343,328,260115,6,0,B|224:298|224:298|201:327|155:331,1,180,6|10,0:0|0:0,0:0:0:0:
194,115,260650,5,8,0:0:0:0:
220,226,260829,1,2,1:2:0:0:
45,81,261008,5,10,0:0:0:0:
0,184,261186,1,2,1:2:0:0:
138,9,261365,5,10,0:0:0:0:
79,299,261543,1,10,0:0:0:0:
