osu file format v14

[General]
AudioFilename: audio.mp3
AudioLeadIn: 0
PreviewTime: 148845
Countdown: 0
SampleSet: Soft
StackLeniency: 0.7
Mode: 3
LetterboxInBreaks: 0
SpecialStyle: 0
WidescreenStoryboard: 1

[Editor]
Bookmarks: 52095,85245,144645,149145,230445,268845,282645,283845,294345
DistanceSpacing: 1
BeatDivisor: 4
GridSize: 8
TimelineZoom: 1.9

[Metadata]
Title:Gekka - Midare Botan
TitleUnicode:月華❁乱れ牡丹
Artist:Eve feat. Hatsune Miku
ArtistUnicode:Eve feat. 初音ミク
Creator:Mirsaaa
Version:Normal
Source:
Tags:Moon Flower Wild Peony Japanese vocaloid rock jrock pop J-pop いぶ mayurimu あひる Ahiru niconico ニコニコ Gekka*Midare
BeatmapID:2711127
BeatmapSetID:1307715

[Difficulty]
HPDrainRate:7
CircleSize:4
OverallDifficulty:7
ApproachRate:5
SliderMultiplier:1.4
SliderTickRate:1

[Events]
//Background and Video events
0,0,"Background.jpg",0,0
//Break Periods
//Storyboard Layer 0 (Background)
//Storyboard Layer 1 (Fail)
//Storyboard Layer 2 (Pass)
//Storyboard Layer 3 (Foreground)
//Storyboard Layer 4 (Overlay)
//Storyboard Sound Samples
Sample,28245,0,"1.wav",40
Sample,29145,0,"1.wav",40
Sample,29295,0,"1.wav",40
Sample,30045,0,"1.wav",40
Sample,31845,0,"1.wav",40
Sample,32745,0,"1.wav",40
Sample,32895,0,"1.wav",40
Sample,34545,0,"Praise.wav",60
Sample,34545,0,"splash.wav",60
Sample,34545,0,"2.wav",40
Sample,34695,0,"2.wav",40
Sample,34995,0,"2.wav",40
Sample,35295,0,"1.wav",40
Sample,35445,0,"2.wav",40
Sample,35745,0,"2.wav",40
Sample,36045,0,"2.wav",40
Sample,36195,0,"2.wav",40
Sample,36495,0,"2.wav",40
Sample,36795,0,"1.wav",40
Sample,36945,0,"2.wav",40
Sample,37245,0,"1.wav",40
Sample,37395,0,"1.wav",40
Sample,37395,0,"Tom3.wav",60
Sample,37545,0,"1.wav",40
Sample,37695,0,"Tom3.wav",60
Sample,37695,0,"1.wav",40
Sample,39945,0,"2.wav",40
Sample,41745,0,"2.wav",40
Sample,41745,0,"Kick.wav",40
Sample,42045,0,"2.wav",40
Sample,42345,0,"2.wav",40
Sample,42495,0,"1.wav",40
Sample,42645,0,"2.wav",40
Sample,42945,0,"2.wav",40
Sample,43245,0,"2.wav",40
Sample,43395,0,"1.wav",40
Sample,43545,0,"2.wav",40
Sample,43845,0,"2.wav",40
Sample,44145,0,"2.wav",40
Sample,44295,0,"1.wav",40
Sample,44445,0,"2.wav",40
Sample,45045,0,"2.wav",40
Sample,45345,0,"2.wav",40
Sample,45645,0,"2.wav",40
Sample,45945,0,"2.wav",40
Sample,46095,0,"1.wav",40
Sample,46245,0,"2.wav",40
Sample,46545,0,"2.wav",40
Sample,46845,0,"2.wav",40
Sample,46995,0,"1.wav",40
Sample,48045,0,"2.wav",40
Sample,48945,0,"2.wav",40
Sample,49695,0,"1.wav",40
Sample,50145,0,"2.wav",40
Sample,50445,0,"2.wav",40
Sample,50745,0,"2.wav",40
Sample,51495,0,"1.wav",40
Sample,52245,0,"1.wav",40
Sample,52545,0,"2.wav",40
Sample,53295,0,"1.wav",40
Sample,53745,0,"1.wav",40
Sample,54045,0,"1.wav",40
Sample,54345,0,"2.wav",40
Sample,54945,0,"2.wav",40
Sample,55095,0,"1.wav",40
Sample,55245,0,"2.wav",40
Sample,63195,0,"1.wav",40
Sample,64245,0,"1.wav",40
Sample,64545,0,"1.wav",40
Sample,64845,0,"1.wav",40
Sample,65145,0,"1.wav",40
Sample,66345,0,"1.wav",40
Sample,66645,0,"1.wav",40
Sample,66945,0,"1.wav",40
Sample,67245,0,"1.wav",40
Sample,67545,0,"1.wav",40
Sample,67845,0,"1.wav",40
Sample,75945,0,"1.wav",40
Sample,82245,0,"1.wav",40
Sample,83145,0,"1.wav",40
Sample,84045,0,"1.wav",40
Sample,84345,0,"1.wav",40
Sample,85245,0,"Kick.wav",40
Sample,85545,0,"2.wav",40
Sample,86145,0,"2.wav",40
Sample,86745,0,"2.wav",40
Sample,87345,0,"2.wav",40
Sample,87945,0,"2.wav",40
Sample,88545,0,"2.wav",40
Sample,89145,0,"2.wav",40
Sample,89295,0,"2.wav",40
Sample,89745,0,"2.wav",40
Sample,90345,0,"2.wav",40
Sample,90945,0,"2.wav",40
Sample,91545,0,"2.wav",40
Sample,92145,0,"2.wav",40
Sample,92445,0,"Kick.wav",30
Sample,92445,0,"2.wav",40
Sample,92745,0,"2.wav",40
Sample,93045,0,"2.wav",40
Sample,94845,0,"Kick.wav",40
Sample,95145,0,"2.wav",40
Sample,95745,0,"2.wav",40
Sample,96345,0,"2.wav",40
Sample,96945,0,"2.wav",40
Sample,97545,0,"2.wav",40
Sample,98145,0,"2.wav",40
Sample,98745,0,"2.wav",40
Sample,98895,0,"2.wav",40
Sample,99345,0,"2.wav",40
Sample,99795,0,"1.wav",40
Sample,99945,0,"2.wav",40
Sample,100095,0,"1.wav",40
Sample,100245,0,"2.wav",40
Sample,100395,0,"1.wav",40
Sample,100545,0,"2.wav",40
Sample,100695,0,"1.wav",40
Sample,100995,0,"1.wav",40
Sample,101145,0,"2.wav",40
Sample,101295,0,"1.wav",40
Sample,101445,0,"2.wav",40
Sample,101595,0,"1.wav",40
Sample,101745,0,"2.wav",40
Sample,101895,0,"1.wav",40
Sample,102045,0,"2.wav",40
Sample,102195,0,"1.wav",40
Sample,102345,0,"2.wav",40
Sample,102495,0,"1.wav",40
Sample,102645,0,"2.wav",40
Sample,102795,0,"1.wav",40
Sample,102945,0,"2.wav",40
Sample,103095,0,"1.wav",40
Sample,105045,0,"Kick.wav",40
Sample,105045,0,"2.wav",40
Sample,105795,0,"1.wav",40
Sample,106245,0,"2.wav",40
Sample,106545,0,"2.wav",40
Sample,106845,0,"2.wav",40
Sample,107595,0,"1.wav",40
Sample,108345,0,"2.wav",40
Sample,108645,0,"2.wav",40
Sample,109395,0,"1.wav",40
Sample,109845,0,"2.wav",40
Sample,110145,0,"2.wav",40
Sample,110445,0,"2.wav",40
Sample,110745,0,"1.wav",40
Sample,111045,0,"1.wav",40
Sample,112245,0,"2.wav",40
Sample,112995,0,"1.wav",40
Sample,113445,0,"2.wav",40
Sample,113745,0,"2.wav",40
Sample,114045,0,"2.wav",40
Sample,114795,0,"1.wav",40
Sample,115545,0,"1.wav",40
Sample,115845,0,"2.wav",40
Sample,116595,0,"1.wav",40
Sample,116745,0,"2.wav",40
Sample,117045,0,"1.wav",40
Sample,117345,0,"1.wav",40
Sample,120345,0,"1.wav",40
Sample,120495,0,"1.wav",40
Sample,122595,0,"1.wav",40
Sample,122745,0,"1.wav",40
Sample,123945,0,"1.wav",40
Sample,124095,0,"1.wav",40
Sample,137445,0,"1.wav",40
Sample,138345,0,"1.wav",40
Sample,139245,0,"1.wav",40
Sample,146745,0,"Kick.wav",40
Sample,147045,0,"Kick.wav",40
Sample,149445,0,"Kick.wav",40
Sample,149745,0,"2.wav",40
Sample,150345,0,"2.wav",40
Sample,150945,0,"2.wav",40
Sample,151545,0,"2.wav",40
Sample,152145,0,"2.wav",40
Sample,152745,0,"2.wav",40
Sample,153345,0,"2.wav",40
Sample,153495,0,"2.wav",40
Sample,153945,0,"2.wav",40
Sample,154545,0,"2.wav",40
Sample,155145,0,"2.wav",40
Sample,155745,0,"2.wav",40
Sample,156345,0,"2.wav",40
Sample,156645,0,"Kick.wav",30
Sample,156645,0,"2.wav",40
Sample,156945,0,"2.wav",40
Sample,157245,0,"2.wav",40
Sample,159045,0,"Kick.wav",40
Sample,159345,0,"2.wav",40
Sample,159945,0,"2.wav",40
Sample,160545,0,"2.wav",40
Sample,161145,0,"2.wav",40
Sample,161745,0,"2.wav",40
Sample,162345,0,"2.wav",40
Sample,162945,0,"2.wav",40
Sample,163095,0,"2.wav",40
Sample,163545,0,"2.wav",40
Sample,163995,0,"1.wav",40
Sample,164145,0,"2.wav",40
Sample,164295,0,"1.wav",40
Sample,164445,0,"2.wav",40
Sample,164595,0,"1.wav",40
Sample,164745,0,"2.wav",40
Sample,164895,0,"1.wav",40
Sample,165195,0,"1.wav",40
Sample,165345,0,"2.wav",40
Sample,165495,0,"1.wav",40
Sample,165645,0,"2.wav",40
Sample,165795,0,"1.wav",40
Sample,165945,0,"2.wav",40
Sample,166095,0,"1.wav",40
Sample,166245,0,"2.wav",40
Sample,166395,0,"1.wav",40
Sample,166545,0,"2.wav",40
Sample,166695,0,"1.wav",40
Sample,166845,0,"2.wav",40
Sample,166995,0,"1.wav",40
Sample,167145,0,"2.wav",40
Sample,167295,0,"1.wav",40
Sample,176895,0,"1.wav",40
Sample,177045,0,"1.wav",40
Sample,177795,0,"1.wav",40
Sample,177945,0,"1.wav",40
Sample,178095,0,"1.wav",40
Sample,178695,0,"1.wav",40
Sample,178845,0,"1.wav",40
Sample,179145,0,"1.wav",40
Sample,179445,0,"1.wav",40
Sample,179595,0,"1.wav",40
Sample,179745,0,"1.wav",40
Sample,179895,0,"1.wav",40
Sample,180045,0,"1.wav",40
Sample,180345,0,"1.wav",40
Sample,180495,0,"1.wav",40
Sample,180645,0,"1.wav",40
Sample,180795,0,"1.wav",40
Sample,180945,0,"1.wav",40
Sample,181845,0,"1.wav",40
Sample,182145,0,"1.wav",40
Sample,182295,0,"1.wav",40
Sample,182445,0,"1.wav",40
Sample,182595,0,"1.wav",40
Sample,182745,0,"2.wav",40
Sample,182745,0,"Kick.wav",40
Sample,183045,0,"2.wav",40
Sample,183345,0,"2.wav",40
Sample,184095,0,"1.wav",40
Sample,184395,0,"1.wav",40
Sample,184995,0,"1.wav",40
Sample,185295,0,"1.wav",40
Sample,185895,0,"1.wav",40
Sample,186195,0,"1.wav",40
Sample,186345,0,"1.wav",40
Sample,186645,0,"1.wav",40
Sample,186795,0,"1.wav",40
Sample,186945,0,"1.wav",40
Sample,187095,0,"1.wav",40
Sample,187245,0,"2.wav",40
Sample,187545,0,"1.wav",40
Sample,187695,0,"2.wav",40
Sample,187845,0,"1.wav",40
Sample,187995,0,"1.wav",40
Sample,188145,0,"2.wav",40
Sample,188445,0,"1.wav",40
Sample,188595,0,"2.wav",40
Sample,188745,0,"1.wav",40
Sample,188895,0,"1.wav",40
Sample,189045,0,"1.wav",40
Sample,189345,0,"1.wav",40
Sample,189645,0,"1.wav",40
Sample,189945,0,"1.wav",40
Sample,190245,0,"1.wav",40
Sample,190545,0,"1.wav",40
Sample,233745,0,"Tom1.wav",60
Sample,233745,0,"1.wav",40
Sample,234045,0,"1.wav",40
Sample,238245,0,"1.wav",40
Sample,241245,0,"Kick.wav",40
Sample,241545,0,"2.wav",40
Sample,242145,0,"2.wav",40
Sample,242745,0,"2.wav",40
Sample,243345,0,"2.wav",40
Sample,243945,0,"2.wav",40
Sample,244545,0,"2.wav",40
Sample,245145,0,"2.wav",40
Sample,245295,0,"2.wav",40
Sample,245745,0,"2.wav",40
Sample,249045,0,"2.wav",40
Sample,249645,0,"2.wav",40
Sample,250845,0,"Kick.wav",40
Sample,251145,0,"2.wav",40
Sample,251745,0,"2.wav",40
Sample,252345,0,"2.wav",40
Sample,252945,0,"2.wav",40
Sample,253545,0,"2.wav",40
Sample,254145,0,"2.wav",40
Sample,254745,0,"2.wav",40
Sample,254895,0,"2.wav",40
Sample,255345,0,"2.wav",40
Sample,255945,0,"2.wav",40
Sample,256545,0,"2.wav",40
Sample,257145,0,"2.wav",40
Sample,257745,0,"2.wav",40
Sample,258045,0,"Kick.wav",30
Sample,258345,0,"2.wav",40
Sample,258645,0,"2.wav",40
Sample,258945,0,"2.wav",40
Sample,260445,0,"Kick.wav",40
Sample,260745,0,"2.wav",40
Sample,261345,0,"2.wav",40
Sample,261945,0,"2.wav",40
Sample,262545,0,"2.wav",40
Sample,263145,0,"2.wav",40
Sample,263745,0,"2.wav",40
Sample,266295,0,"1.wav",40
Sample,267045,0,"2.wav",40
Sample,267645,0,"1.wav",40
Sample,267795,0,"1.wav",40
Sample,268095,0,"1.wav",40
Sample,268245,0,"1.wav",40
Sample,268395,0,"1.wav",40
Sample,268695,0,"1.wav",40
Sample,277245,0,"2.wav",40
Sample,277245,0,"Kick.wav",40
Sample,277545,0,"2.wav",40
Sample,277845,0,"2.wav",40
Sample,277995,0,"1.wav",40
Sample,278145,0,"2.wav",40
Sample,278445,0,"2.wav",40
Sample,278745,0,"2.wav",40
Sample,278895,0,"1.wav",40
Sample,279045,0,"splash.wav",60
Sample,279045,0,"2.wav",40
Sample,279345,0,"2.wav",40
Sample,279645,0,"2.wav",40
Sample,279795,0,"1.wav",40
Sample,279945,0,"2.wav",40
Sample,280545,0,"2.wav",40
Sample,280845,0,"2.wav",40
Sample,280845,0,"splash.wav",60
Sample,281145,0,"2.wav",40
Sample,281445,0,"2.wav",40
Sample,281595,0,"1.wav",40
Sample,281745,0,"2.wav",40
Sample,282045,0,"2.wav",40
Sample,282345,0,"2.wav",40
Sample,282495,0,"1.wav",40
Sample,283545,0,"2.wav",40
Sample,284445,0,"2.wav",40
Sample,285195,0,"1.wav",40
Sample,285645,0,"2.wav",40
Sample,285945,0,"2.wav",40
Sample,286245,0,"2.wav",40
Sample,286995,0,"1.wav",40
Sample,287745,0,"1.wav",40
Sample,288045,0,"2.wav",40
Sample,288795,0,"1.wav",40
Sample,288945,0,"2.wav",40
Sample,289845,0,"2.wav",40
Sample,289995,0,"2.wav",40
Sample,290745,0,"2.wav",40
Sample,290895,0,"2.wav",40
Sample,292545,0,"1.wav",40
Sample,294345,0,"1.wav",40

[TimingPoints]
11145,300,6,2,1,30,1,0
84045,300,4,2,1,30,1,0
85245,-100,4,2,1,30,0,1
103245,300,6,2,1,30,1,0
105045,-100,4,2,1,30,0,0
148245,300,4,2,1,30,1,0
149445,-100,4,2,1,30,0,1
167445,300,6,2,1,30,1,0
169245,-100,4,2,1,30,0,0
230445,300,4,2,1,30,1,0
241245,-100,4,2,1,30,0,1
273645,300,6,2,1,30,1,0
273645,-100,4,2,1,30,0,0

[HitObjects]
320,192,11145,5,0,0:0:0:40:1.wav
448,192,11145,1,0,0:0:0:0:
64,192,11445,1,0,0:0:0:0:
320,192,11745,1,0,0:0:0:0:
64,192,12045,1,0,0:0:0:40:2.wav
448,192,12045,1,0,0:0:0:0:
320,192,12345,1,0,0:0:0:0:
192,192,12645,1,0,0:0:0:0:
64,192,12945,1,0,0:0:0:40:1.wav
320,192,12945,1,0,0:0:0:0:
192,192,13245,1,0,0:0:0:0:
448,192,13545,1,0,0:0:0:0:
192,192,13845,1,0,0:0:0:40:2.wav
320,192,13845,1,0,0:0:0:0:
448,192,14145,1,0,0:0:0:0:
320,192,14445,1,0,0:0:0:0:
64,192,14745,1,0,0:0:0:40:1.wav
192,192,14745,1,0,0:0:0:0:
320,192,15045,1,0,0:0:0:0:
64,192,15345,1,0,0:0:0:0:
320,192,15645,1,0,0:0:0:40:2.wav
448,192,15645,1,0,0:0:0:0:
64,192,15945,1,0,0:0:0:40:1.wav
192,192,15945,1,0,0:0:0:0:
192,192,16245,1,0,0:0:0:40:2.wav
448,192,16245,1,0,0:0:0:0:
320,192,16545,128,0,16845:0:0:0:40:1.wav
64,192,16695,1,0,0:0:0:40:1.wav
192,192,16845,128,0,17145:0:0:0:40:1.wav
448,192,16995,1,0,0:0:0:40:1.wav
64,192,17145,128,0,17445:0:0:0:40:1.wav
320,192,17295,1,0,0:0:0:40:1.wav
448,192,17445,1,0,0:0:0:40:1.wav
320,192,17745,128,0,18345:0:0:0:40:1.wav
192,192,18045,128,0,18345:0:0:0:40:1.wav
64,192,18345,1,0,0:0:0:40:1.wav
448,192,18645,1,0,0:0:0:0:
192,192,18945,1,0,0:0:0:0:
64,192,19245,1,0,0:0:0:40:2.wav
448,192,19245,1,0,0:0:0:0:
192,192,19545,1,0,0:0:0:0:
320,192,19845,1,0,0:0:0:0:
192,192,20145,1,0,0:0:0:40:1.wav
448,192,20145,1,0,0:0:0:0:
320,192,20445,1,0,0:0:0:0:
64,192,20745,1,0,0:0:0:0:
192,192,21045,1,0,0:0:0:40:2.wav
320,192,21045,1,0,0:0:0:0:
64,192,21345,1,0,0:0:0:0:
192,192,21645,1,0,0:0:0:0:
320,192,21945,1,0,0:0:0:40:1.wav
448,192,21945,1,0,0:0:0:0:
192,192,22245,1,0,0:0:0:0:
448,192,22545,1,0,0:0:0:0:
64,192,22845,1,0,0:0:0:40:2.wav
192,192,22845,1,0,0:0:0:0:
320,192,23145,1,0,0:0:0:40:2.wav
448,192,23145,1,0,0:0:0:0:
64,192,23445,1,0,0:0:0:40:1.wav
320,192,23445,1,0,0:0:0:0:
192,192,23745,1,0,0:0:0:40:2.wav
448,192,23745,1,0,0:0:0:0:
320,192,24045,128,0,24345:0:0:0:0:
192,192,24345,128,0,24645:0:0:0:0:
64,192,24645,128,0,27045:0:0:0:0:
320,192,27045,128,0,27345:0:0:0:40:1.wav
192,192,27345,1,0,0:0:0:40:Snare.wav
448,192,27495,1,0,0:0:0:40:Kick.wav
448,192,27795,1,0,0:0:0:40:Kick.wav
64,192,28095,128,0,28245:0:0:0:30:Kick.wav
192,192,28245,1,0,0:0:0:40:Snare.wav
448,192,28395,1,0,0:0:0:40:Kick.wav
192,192,28545,1,0,0:0:0:40:1.wav
448,192,28695,1,0,0:0:0:40:Kick.wav
192,192,28845,1,0,0:0:0:40:1.wav
320,192,28995,128,0,29145:0:0:0:30:Kick.wav
448,192,29145,1,0,0:0:0:40:Snare.wav
64,192,29295,1,0,0:0:0:40:Kick.wav
64,192,29595,1,0,0:0:0:40:Kick.wav
192,192,29895,128,0,30045:0:0:0:30:Kick.wav
448,192,30045,1,0,0:0:0:40:Snare.wav
320,192,30195,1,0,0:0:0:40:1.wav
64,192,30345,1,0,0:0:0:40:1.wav
192,192,30495,1,0,0:0:0:40:1.wav
320,192,30645,1,0,0:0:0:40:1.wav
448,192,30795,1,0,0:0:0:40:2.wav
64,192,30945,1,0,0:0:0:40:Snare.wav
320,192,31095,1,0,0:0:0:40:Kick.wav
320,192,31395,1,0,0:0:0:40:Kick.wav
64,192,31695,128,0,31845:0:0:0:30:Kick.wav
448,192,31845,1,0,0:0:0:40:Snare.wav
192,192,31995,1,0,0:0:0:40:Kick.wav
448,192,32145,1,0,0:0:0:40:1.wav
192,192,32295,1,0,0:0:0:40:Kick.wav
448,192,32445,1,0,0:0:0:40:1.wav
320,192,32595,128,0,32745:0:0:0:30:Kick.wav
64,192,32745,1,0,0:0:0:40:Snare.wav
448,192,32895,1,0,0:0:0:40:Kick.wav
192,192,33045,1,0,0:0:0:40:Snare.wav
320,192,33195,1,0,0:0:0:40:Kick.wav
64,192,33345,1,0,0:0:0:60:Tom1.wav
320,192,33495,1,0,0:0:0:30:Kick.wav
192,192,33570,1,0,0:0:0:30:Kick.wav
64,192,33645,128,0,33945:0:0:0:40:Snare.wav
448,192,33645,1,0,0:0:0:0:
320,192,33945,128,0,34245:0:0:0:0:
192,192,34245,128,0,34545:0:0:0:0:
320,192,34545,1,0,0:0:0:40:Snare.wav
448,192,34695,1,0,0:0:0:40:Snare.wav
64,192,34845,128,0,34995:0:0:0:30:Kick.wav
192,192,34995,1,0,0:0:0:40:Snare.wav
448,192,35145,128,0,35295:0:0:0:30:Kick.wav
320,192,35295,1,0,0:0:0:40:Snare.wav
192,192,35445,1,0,0:0:0:40:Snare.wav
64,192,35595,128,0,35745:0:0:0:30:Kick.wav
320,192,35745,1,0,0:0:0:40:Snare.wav
448,192,35895,128,0,36045:0:0:0:30:Kick.wav
192,192,36045,1,0,0:0:0:40:Snare.wav
64,192,36195,1,0,0:0:0:40:Snare.wav
320,192,36345,128,0,36495:0:0:0:30:Kick.wav
64,192,36495,1,0,0:0:0:40:Snare.wav
448,192,36645,128,0,36795:0:0:0:30:Kick.wav
192,192,36795,1,0,0:0:0:40:Snare.wav
320,192,36945,1,0,0:0:0:40:Snare.wav
64,192,37095,128,0,37245:0:0:0:30:Kick.wav
320,192,37245,1,0,0:0:0:40:Snare.wav
448,192,37245,1,0,0:0:0:60:Tom1.wav
192,192,37395,1,0,0:0:0:30:Kick.wav
64,192,37545,1,0,0:0:0:40:Snare.wav
448,192,37545,1,0,0:0:0:60:Tom1.wav
320,192,37695,1,0,0:0:0:30:Kick.wav
64,192,37845,128,0,38145:0:0:0:30:Snare.wav
192,192,37845,1,0,0:0:0:40:1.wav
320,192,37995,1,0,0:0:0:30:Snare.wav
448,192,38145,1,0,0:0:0:30:Snare.wav
192,192,38295,1,0,0:0:0:40:Snare.wav
320,192,38445,1,0,0:0:0:40:Snare.wav
64,192,38595,1,0,0:0:0:40:Snare.wav
448,192,38745,1,0,0:0:0:40:Snare.wav
192,192,38895,1,0,0:0:0:40:Snare.wav
64,192,39045,128,0,39345:0:0:0:40:Snare.wav
320,192,39045,1,0,0:0:0:40:1.wav
192,192,39345,1,0,0:0:0:40:Snare.wav
448,192,39345,128,0,39645:0:0:0:40:1.wav
64,192,39645,1,0,0:0:0:30:Snare.wav
320,192,39645,128,0,39945:0:0:0:40:1.wav
64,192,39945,1,0,0:0:0:40:Snare.wav
192,192,39945,1,0,0:0:0:60:splash.wav
448,192,40095,1,0,0:0:0:30:Kick.wav
64,192,40245,1,0,0:0:0:60:Tom1.wav
192,192,40395,1,0,0:0:0:30:Kick.wav
448,192,40545,1,0,0:0:0:60:Tom1.wav
320,192,40695,1,0,0:0:0:30:Kick.wav
64,192,40845,1,0,0:0:0:40:Snare.wav
192,192,40845,1,0,0:0:0:0:
448,192,40995,1,0,0:0:0:40:1.wav
192,192,41145,1,0,0:0:0:40:1.wav
320,192,41295,1,0,0:0:0:40:1.wav
64,192,41445,1,0,0:0:0:40:1.wav
192,192,41595,1,0,0:0:0:40:2.wav
320,192,41745,1,0,0:0:0:40:Snare.wav
448,192,41745,1,0,0:0:0:60:Praise.wav
64,192,42045,1,0,0:0:0:40:Snare.wav
448,192,42345,1,0,0:0:0:40:Snare.wav
320,192,42495,1,0,0:0:0:40:Kick.wav
192,192,42645,1,0,0:0:0:40:Snare.wav
64,192,42945,1,0,0:0:0:40:Snare.wav
320,192,43245,1,0,0:0:0:40:Snare.wav
448,192,43395,128,0,43545:0:0:0:30:Kick.wav
192,192,43545,1,0,0:0:0:40:Snare.wav
448,192,43845,1,0,0:0:0:40:Snare.wav
192,192,44145,1,0,0:0:0:40:Snare.wav
320,192,44295,1,0,0:0:0:40:Kick.wav
64,192,44445,1,0,0:0:0:40:Snare.wav
192,192,44745,1,0,0:0:0:40:Snare.wav
448,192,45045,1,0,0:0:0:40:Snare.wav
64,192,45195,128,0,45345:0:0:0:30:Kick.wav
320,192,45345,1,0,0:0:0:40:Snare.wav
64,192,45645,1,0,0:0:0:40:Snare.wav
448,192,45945,1,0,0:0:0:40:Snare.wav
320,192,46095,1,0,0:0:0:40:Kick.wav
192,192,46245,1,0,0:0:0:40:Snare.wav
64,192,46545,1,0,0:0:0:40:Snare.wav
192,192,46845,1,0,0:0:0:40:Snare.wav
320,192,46995,1,0,0:0:0:30:Kick.wav
192,192,47145,128,0,47445:0:0:0:30:Snare.wav
448,192,47145,1,0,0:0:0:40:2.wav
320,192,47445,128,0,47745:0:0:0:60:Tom1.wav
448,192,47445,1,0,0:0:0:40:1.wav
64,192,47745,128,0,48045:0:0:0:60:Tom1.wav
448,192,47745,1,0,0:0:0:40:1.wav
192,192,48045,1,0,0:0:0:40:Snare.wav
320,192,48195,1,0,0:0:0:30:Kick.wav
64,192,48345,1,0,0:0:0:30:Kick.wav
448,192,48495,1,0,0:0:0:40:Kick.wav
64,192,48645,1,0,0:0:0:40:Kick.wav
448,192,48795,1,0,0:0:0:40:Kick.wav
192,192,48945,1,0,0:0:0:60:splash.wav
320,192,48945,1,0,0:0:0:40:Kick.wav
192,192,49245,1,0,0:0:0:40:2.wav
192,192,49545,1,0,0:0:0:40:2.wav
320,192,49695,1,0,0:0:0:40:Kick.wav
64,192,49845,1,0,0:0:0:40:Snare.wav
448,192,49845,128,0,50145:0:0:0:40:2.wav
192,192,50145,1,0,0:0:0:40:Kick.wav
192,192,50445,1,0,0:0:0:40:Kick.wav
320,192,50595,1,0,0:0:0:40:1.wav
64,192,50745,128,0,51045:0:0:0:60:splash.wav
448,192,50745,1,0,0:0:0:40:Kick.wav
320,192,51045,128,0,51345:0:0:0:40:2.wav
64,192,51345,1,0,0:0:0:40:2.wav
448,192,51495,1,0,0:0:0:30:Kick.wav
192,192,51645,128,0,51945:0:0:0:40:Snare.wav
320,192,51645,1,0,0:0:0:40:2.wav
448,192,51945,1,0,0:0:0:40:Snare.wav
64,192,52095,1,0,0:0:0:60:Tom1.wav
320,192,52245,1,0,0:0:0:60:Tom2.wav
192,192,52395,1,0,0:0:0:60:Tom3.wav
320,192,52545,1,0,0:0:0:60:splash.wav
448,192,52545,1,0,0:0:0:40:Kick.wav
448,192,52845,1,0,0:0:0:40:2.wav
448,192,53145,1,0,0:0:0:40:2.wav
320,192,53295,1,0,0:0:0:40:Kick.wav
64,192,53445,128,0,53745:0:0:0:40:Snare.wav
192,192,53445,1,0,0:0:0:40:2.wav
448,192,53595,1,0,0:0:0:30:Snare.wav
320,192,53745,1,0,0:0:0:30:Snare.wav
192,192,53895,1,0,0:0:0:40:Snare.wav
320,192,54045,1,0,0:0:0:40:Snare.wav
192,192,54195,1,0,0:0:0:40:Snare.wav
64,192,54345,1,0,0:0:0:60:splash.wav
448,192,54345,1,0,0:0:0:40:Kick.wav
320,192,54495,1,0,0:0:0:40:Snare.wav
64,192,54645,1,0,0:0:0:40:1.wav
448,192,54795,1,0,0:0:0:60:Tom1.wav
192,192,54945,1,0,0:0:0:60:Tom2.wav
64,192,55095,128,0,55245:0:0:0:30:Kick.wav
448,192,55245,1,0,0:0:0:40:Snare.wav
192,192,55395,128,0,55545:0:0:0:30:Snare.wav
320,192,55545,1,0,0:0:0:30:Snare.wav
64,192,55695,1,0,0:0:0:60:Tom1.wav
448,192,55845,1,0,0:0:0:60:Tom2.wav
320,192,55995,1,0,0:0:0:60:Tom3.wav
64,192,56145,128,0,56445:0:0:0:60:splash.wav
192,192,56145,1,0,0:0:0:40:Kick.wav
448,192,56445,128,0,56745:0:0:0:40:Kick.wav
192,192,56745,1,0,0:0:0:40:Kick.wav
64,192,56895,1,0,0:0:0:0:
320,192,57045,128,0,57645:0:0:0:40:Kick.wav
64,192,57345,1,0,0:0:0:40:Kick.wav
64,192,57645,1,0,0:0:0:40:Kick.wav
448,192,57945,128,0,58245:0:0:0:40:Kick.wav
64,192,58245,128,0,58545:0:0:0:40:Kick.wav
320,192,58545,1,0,0:0:0:40:Kick.wav
448,192,58695,1,0,0:0:0:0:
192,192,58845,128,0,59445:0:0:0:40:Kick.wav
448,192,59145,1,0,0:0:0:40:Kick.wav
320,192,59445,128,0,59745:0:0:0:40:Kick.wav
64,192,59745,1,0,0:0:0:40:Kick.wav
448,192,60045,1,0,0:0:0:40:Kick.wav
320,192,60345,1,0,0:0:0:40:Kick.wav
64,192,60645,128,0,61245:0:0:0:40:Kick.wav
320,192,60945,1,0,0:0:0:40:Kick.wav
448,192,61245,1,0,0:0:0:40:Kick.wav
320,192,61545,128,0,61845:0:0:0:40:Kick.wav
192,192,61845,128,0,62145:0:0:0:40:Kick.wav
64,192,62145,128,0,62445:0:0:0:40:Kick.wav
448,192,62445,128,0,62745:0:0:0:40:Kick.wav
320,192,62745,1,0,0:0:0:40:Kick.wav
64,192,63045,1,0,0:0:0:30:Snare.wav
192,192,63045,1,0,0:0:0:40:1.wav
320,192,63195,1,0,0:0:0:30:Snare.wav
64,192,63345,128,0,63645:0:0:0:30:Snare.wav
448,192,63345,1,0,0:0:0:60:splash.wav
320,192,63645,128,0,63945:0:0:0:40:Snare.wav
192,192,63945,1,0,0:0:0:40:Kick.wav
448,192,64095,1,0,0:0:0:40:Snare.wav
64,192,64245,128,0,64545:0:0:0:40:Kick.wav
320,192,64545,1,0,0:0:0:40:Snare.wav
448,192,64845,1,0,0:0:0:40:Kick.wav
192,192,64995,1,0,0:0:0:30:Snare.wav
320,192,65145,128,0,65445:0:0:0:40:Kick.wav
64,192,65445,128,0,65745:0:0:0:40:Snare.wav
448,192,65745,1,0,0:0:0:40:Kick.wav
192,192,65895,1,0,0:0:0:40:Snare.wav
320,192,66045,128,0,66345:0:0:0:30:Snare.wav
448,192,66045,1,0,0:0:0:40:1.wav
64,192,66195,1,0,0:0:0:30:Snare.wav
192,192,66345,1,0,0:0:0:40:Kick.wav
448,192,66495,1,0,0:0:0:40:Snare.wav
192,192,66645,128,0,66945:0:0:0:40:Kick.wav
448,192,66795,1,0,0:0:0:40:Snare.wav
64,192,66945,128,0,67245:0:0:0:60:splash.wav
320,192,66945,1,0,0:0:0:40:Kick.wav
448,192,67245,1,0,0:0:0:40:Snare.wav
320,192,67545,1,0,0:0:0:40:Kick.wav
192,192,67695,1,0,0:0:0:40:Snare.wav
448,192,67845,128,0,68145:0:0:0:40:Kick.wav
64,192,68145,1,0,0:0:0:40:Snare.wav
320,192,68445,128,0,68745:0:0:0:40:Kick.wav
192,192,68595,1,0,0:0:0:30:Snare.wav
64,192,68745,128,0,69645:0:0:0:40:Kick.wav
448,192,69045,1,0,0:0:0:40:Snare.wav
192,192,69345,1,0,0:0:0:40:Kick.wav
320,192,69495,1,0,0:0:0:40:Snare.wav
192,192,69645,1,0,0:0:0:30:Snare.wav
448,192,69645,128,0,70545:0:0:0:0:
64,192,69945,1,0,0:0:0:40:Kick.wav
320,192,70095,1,0,0:0:0:40:Snare.wav
64,192,70245,1,0,0:0:0:40:Kick.wav
320,192,70395,1,0,0:0:0:40:Snare.wav
64,192,70545,1,0,0:0:0:60:splash.wav
192,192,70545,1,0,0:0:0:40:Kick.wav
320,192,70845,1,0,0:0:0:0:
192,192,70995,1,0,0:0:0:40:Kick.wav
448,192,71145,1,0,0:0:0:0:
320,192,71295,1,0,0:0:0:40:Kick.wav
64,192,71445,128,0,71745:0:0:0:40:Snare.wav
320,192,71745,128,0,72045:0:0:0:0:
192,192,72045,128,0,72345:0:0:0:40:Kick.wav
448,192,72345,1,0,0:0:0:40:Kick.wav
320,192,72495,1,0,0:0:0:40:Kick.wav
64,192,72645,1,0,0:0:0:0:
448,192,72795,1,0,0:0:0:40:Kick.wav
192,192,72945,1,0,0:0:0:0:
320,192,73095,1,0,0:0:0:40:Kick.wav
64,192,73245,128,0,73545:0:0:0:40:Snare.wav
192,192,73545,128,0,73845:0:0:0:0:
320,192,73845,128,0,74145:0:0:0:40:Kick.wav
64,192,74145,1,0,0:0:0:60:splash.wav
448,192,74145,1,0,0:0:0:40:Kick.wav
192,192,74445,1,0,0:0:0:0:
320,192,74595,1,0,0:0:0:40:Kick.wav
64,192,74745,1,0,0:0:0:0:
192,192,74895,1,0,0:0:0:40:Kick.wav
448,192,75045,128,0,75345:0:0:0:40:Snare.wav
64,192,75345,128,0,75645:0:0:0:0:
320,192,75645,128,0,75945:0:0:0:40:Kick.wav
192,192,75945,1,0,0:0:0:40:Kick.wav
448,192,76095,1,0,0:0:0:40:Kick.wav
64,192,76245,1,0,0:0:0:0:
448,192,76395,1,0,0:0:0:40:Kick.wav
192,192,76545,1,0,0:0:0:0:
64,192,76695,1,0,0:0:0:40:Kick.wav
320,192,76845,1,0,0:0:0:40:Snare.wav
320,192,76995,1,0,0:0:0:40:Snare.wav
64,192,77145,1,0,0:0:0:60:Tom1.wav
192,192,77145,1,0,0:0:0:0:
320,192,77445,1,0,0:0:0:60:Tom2.wav
448,192,77445,1,0,0:0:0:0:
64,192,77745,1,0,0:0:0:60:splash.wav
448,192,77745,1,0,0:0:0:40:Kick.wav
192,192,77895,1,0,0:0:0:40:Kick.wav
320,192,78045,1,0,0:0:0:60:Tom1.wav
64,192,78195,1,0,0:0:0:60:Tom2.wav
448,192,78345,1,0,0:0:0:60:Tom3.wav
192,192,78495,1,0,0:0:0:40:Kick.wav
320,192,78645,1,0,0:0:0:40:Snare.wav
448,192,78645,1,0,0:0:0:0:
64,192,78945,1,0,0:0:0:60:Tom1.wav
192,192,79095,1,0,0:0:0:60:Tom2.wav
448,192,79245,1,0,0:0:0:60:Tom3.wav
64,192,79395,1,0,0:0:0:40:Kick.wav
320,192,79545,1,0,0:0:0:40:Kick.wav
448,192,79695,1,0,0:0:0:40:Kick.wav
64,192,79845,1,0,0:0:0:60:Tom2.wav
192,192,79995,1,0,0:0:0:60:Tom1.wav
448,192,80145,1,0,0:0:0:60:Tom3.wav
320,192,80295,1,0,0:0:0:40:Kick.wav
64,192,80445,1,0,0:0:0:40:Snare.wav
448,192,80595,1,0,0:0:0:40:Snare.wav
320,192,80895,1,0,0:0:0:60:Tom1.wav
192,192,81045,1,0,0:0:0:60:Tom2.wav
448,192,81195,128,0,81345:0:0:0:30:Kick.wav
64,192,81345,1,0,0:0:0:40:Snare.wav
192,192,81345,1,0,0:0:0:60:splash.wav
320,192,81495,1,0,0:0:0:40:Kick.wav
320,192,81795,1,0,0:0:0:40:Kick.wav
64,192,82095,128,0,82245:0:0:0:30:Kick.wav
320,192,82245,1,0,0:0:0:40:Snare.wav
448,192,82245,1,0,0:0:0:60:splash.wav
192,192,82395,1,0,0:0:0:40:Kick.wav
192,192,82695,1,0,0:0:0:40:Kick.wav
448,192,82995,128,0,83145:0:0:0:30:Kick.wav
64,192,83145,1,0,0:0:0:40:Snare.wav
192,192,83145,1,0,0:0:0:60:splash.wav
320,192,83295,1,0,0:0:0:40:Kick.wav
320,192,83595,1,0,0:0:0:40:Kick.wav
64,192,83895,128,0,84045:0:0:0:30:Kick.wav
448,192,84045,1,0,0:0:0:50:Snare.wav
448,192,84345,1,0,0:0:0:50:Snare.wav
64,192,84645,128,0,84945:0:0:0:0:
448,192,84945,128,0,85245:0:0:0:0:
64,192,85245,1,0,0:0:0:60:splash.wav
192,192,85245,1,0,0:0:0:60:Praise.wav
448,192,85545,1,0,0:0:0:40:Snare.wav
192,192,85845,1,0,0:0:0:40:Kick.wav
192,192,85995,1,0,0:0:0:40:Kick.wav
448,192,86145,1,0,0:0:0:40:Snare.wav
64,192,86295,1,0,0:0:0:60:splash.wav
192,192,86295,1,0,0:0:0:40:Kick.wav
320,192,86595,1,0,0:0:0:40:Kick.wav
192,192,86745,1,0,0:0:0:40:Snare.wav
64,192,87045,1,0,0:0:0:40:Kick.wav
64,192,87195,1,0,0:0:0:40:Kick.wav
448,192,87345,1,0,0:0:0:40:Snare.wav
192,192,87645,1,0,0:0:0:60:splash.wav
320,192,87645,1,0,0:0:0:40:Kick.wav
448,192,87945,1,0,0:0:0:40:Snare.wav
320,192,88245,1,0,0:0:0:40:Kick.wav
320,192,88395,1,0,0:0:0:40:Kick.wav
64,192,88545,1,0,0:0:0:40:Snare.wav
320,192,88695,1,0,0:0:0:60:splash.wav
448,192,88695,1,0,0:0:0:40:Kick.wav
192,192,88995,1,0,0:0:0:40:Kick.wav
448,192,89145,1,0,0:0:0:40:Snare.wav
448,192,89295,1,0,0:0:0:40:Snare.wav
64,192,89445,1,0,0:0:0:40:Kick.wav
64,192,89595,1,0,0:0:0:40:Kick.wav
320,192,89745,1,0,0:0:0:40:Snare.wav
192,192,89895,1,0,0:0:0:0:
64,192,90045,1,0,0:0:0:60:splash.wav
448,192,90045,1,0,0:0:0:40:Kick.wav
192,192,90345,1,0,0:0:0:40:Snare.wav
448,192,90645,1,0,0:0:0:40:Kick.wav
448,192,90795,1,0,0:0:0:40:Kick.wav
64,192,90945,1,0,0:0:0:40:Snare.wav
320,192,91095,1,0,0:0:0:60:splash.wav
448,192,91095,1,0,0:0:0:40:Kick.wav
192,192,91395,1,0,0:0:0:40:Kick.wav
448,192,91545,1,0,0:0:0:40:Snare.wav
64,192,91845,1,0,0:0:0:40:Kick.wav
64,192,91995,1,0,0:0:0:40:Kick.wav
320,192,92145,1,0,0:0:0:40:Snare.wav
192,192,92295,128,0,92445:0:0:0:30:Kick.wav
320,192,92445,1,0,0:0:0:40:Snare.wav
448,192,92445,1,0,0:0:0:60:splash.wav
64,192,92595,1,0,0:0:0:40:Kick.wav
320,192,92745,1,0,0:0:0:40:Snare.wav
64,192,92895,1,0,0:0:0:40:Kick.wav
320,192,93045,1,0,0:0:0:40:Snare.wav
192,192,93345,128,0,93495:0:0:0:60:Tom1.wav
448,192,93495,128,0,93645:0:0:0:30:Kick.wav
64,192,93645,1,0,0:0:0:40:Snare.wav
64,192,93945,1,0,0:0:0:40:Snare.wav
192,192,94245,128,0,94395:0:0:0:40:Snare.wav
320,192,94395,128,0,94545:0:0:0:30:Snare.wav
64,192,94545,128,0,94695:0:0:0:30:Snare.wav
448,192,94695,128,0,94845:0:0:0:30:Snare.wav
192,192,94845,1,0,0:0:0:60:splash.wav
320,192,94845,1,0,0:0:0:60:Praise.wav
64,192,95145,1,0,0:0:0:40:Snare.wav
320,192,95445,1,0,0:0:0:40:Kick.wav
320,192,95595,1,0,0:0:0:40:Kick.wav
64,192,95745,1,0,0:0:0:40:Snare.wav
320,192,95895,1,0,0:0:0:60:splash.wav
448,192,95895,1,0,0:0:0:40:Kick.wav
192,192,96195,1,0,0:0:0:40:Kick.wav
448,192,96345,1,0,0:0:0:40:Snare.wav
64,192,96645,1,0,0:0:0:40:Kick.wav
64,192,96795,1,0,0:0:0:40:Kick.wav
320,192,96945,1,0,0:0:0:40:Snare.wav
192,192,97245,1,0,0:0:0:60:splash.wav
448,192,97245,1,0,0:0:0:40:Kick.wav
64,192,97545,1,0,0:0:0:40:Snare.wav
320,192,97845,1,0,0:0:0:40:Kick.wav
320,192,97995,1,0,0:0:0:40:Kick.wav
192,192,98145,1,0,0:0:0:40:Snare.wav
320,192,98295,1,0,0:0:0:60:splash.wav
448,192,98295,1,0,0:0:0:40:Kick.wav
64,192,98595,1,0,0:0:0:40:Kick.wav
448,192,98745,1,0,0:0:0:40:Snare.wav
448,192,98895,1,0,0:0:0:40:Snare.wav
192,192,99045,128,0,99195:0:0:0:30:Kick.wav
320,192,99195,128,0,99345:0:0:0:30:Kick.wav
64,192,99345,1,0,0:0:0:40:Snare.wav
320,192,99495,1,0,0:0:0:30:Kick.wav
64,192,99645,1,0,0:0:0:40:Snare.wav
192,192,99645,1,0,0:0:0:60:splash.wav
448,192,99795,1,0,0:0:0:40:Kick.wav
192,192,99945,1,0,0:0:0:40:Snare.wav
448,192,100095,1,0,0:0:0:40:Kick.wav
192,192,100245,1,0,0:0:0:40:Snare.wav
448,192,100395,1,0,0:0:0:40:Kick.wav
192,192,100545,1,0,0:0:0:40:Snare.wav
448,192,100695,1,0,0:0:0:40:Kick.wav
192,192,100845,1,0,0:0:0:40:Snare.wav
320,192,100845,1,0,0:0:0:60:splash.wav
64,192,100995,1,0,0:0:0:40:Kick.wav
320,192,101145,1,0,0:0:0:40:Snare.wav
64,192,101295,1,0,0:0:0:40:Kick.wav
320,192,101445,1,0,0:0:0:40:Snare.wav
64,192,101595,1,0,0:0:0:40:Kick.wav
320,192,101745,1,0,0:0:0:40:Snare.wav
64,192,101895,1,0,0:0:0:40:Kick.wav
320,192,102045,1,0,0:0:0:40:Snare.wav
448,192,102045,1,0,0:0:0:60:splash.wav
64,192,102195,128,0,102345:0:0:0:40:Kick.wav
192,192,102345,1,0,0:0:0:40:Snare.wav
448,192,102495,128,0,102645:0:0:0:40:Kick.wav
320,192,102645,1,0,0:0:0:40:Snare.wav
64,192,102795,128,0,102945:0:0:0:40:Kick.wav
192,192,102945,1,0,0:0:0:40:Snare.wav
448,192,103095,128,0,103245:0:0:0:30:Kick.wav
64,192,103245,1,0,0:0:0:30:Kick.wav
320,192,103245,1,0,0:0:0:0:
320,192,103545,1,0,0:0:0:40:Kick.wav
448,192,103545,1,0,0:0:0:0:
64,192,103845,1,0,0:0:0:40:Kick.wav
192,192,103845,1,0,0:0:0:0:
320,192,104145,1,0,0:0:0:60:Tom1.wav
192,192,104295,1,0,0:0:0:60:Tom2.wav
448,192,104595,128,0,104745:0:0:0:30:Kick.wav
192,192,104745,1,0,0:0:0:40:Snare.wav
64,192,105045,1,0,0:0:0:60:splash.wav
320,192,105045,1,0,0:0:0:60:Praise.wav
320,192,105345,1,0,0:0:0:40:2.wav
320,192,105645,1,0,0:0:0:40:2.wav
192,192,105795,1,0,0:0:0:40:Kick.wav
64,192,105945,128,0,106245:0:0:0:40:Snare.wav
448,192,105945,1,0,0:0:0:40:2.wav
320,192,106245,1,0,0:0:0:40:Kick.wav
320,192,106545,1,0,0:0:0:40:Kick.wav
192,192,106695,1,0,0:0:0:40:1.wav
64,192,106845,1,0,0:0:0:60:splash.wav
448,192,106845,128,0,107145:0:0:0:40:Kick.wav
192,192,107145,128,0,107445:0:0:0:40:2.wav
448,192,107445,1,0,0:0:0:40:2.wav
64,192,107595,1,0,0:0:0:40:Kick.wav
192,192,107745,1,0,0:0:0:40:Snare.wav
320,192,107745,128,0,108045:0:0:0:40:2.wav
448,192,108045,1,0,0:0:0:40:Kick.wav
64,192,108345,128,0,108645:0:0:0:40:Kick.wav
192,192,108645,1,0,0:0:0:60:splash.wav
448,192,108645,1,0,0:0:0:40:Kick.wav
192,192,108945,1,0,0:0:0:40:2.wav
192,192,109245,1,0,0:0:0:40:2.wav
320,192,109395,1,0,0:0:0:40:Kick.wav
64,192,109545,1,0,0:0:0:40:Snare.wav
448,192,109545,128,0,109845:0:0:0:40:2.wav
192,192,109845,1,0,0:0:0:40:Kick.wav
192,192,110145,1,0,0:0:0:40:Kick.wav
320,192,110295,1,0,0:0:0:40:1.wav
64,192,110445,128,0,110745:0:0:0:60:splash.wav
448,192,110445,1,0,0:0:0:40:Kick.wav
320,192,110745,128,0,111045:0:0:0:40:Kick.wav
192,192,111045,128,0,111345:0:0:0:60:Tom3.wav
320,192,111345,1,0,0:0:0:40:Snare.wav
448,192,111345,128,0,111645:0:0:0:40:2.wav
64,192,111495,1,0,0:0:0:30:Snare.wav
192,192,111645,1,0,0:0:0:30:Snare.wav
320,192,111795,1,0,0:0:0:60:Tom1.wav
64,192,111945,1,0,0:0:0:60:Tom2.wav
320,192,112095,1,0,0:0:0:60:Tom3.wav
192,192,112245,1,0,0:0:0:60:splash.wav
448,192,112245,1,0,0:0:0:40:Kick.wav
192,192,112545,1,0,0:0:0:40:2.wav
192,192,112845,1,0,0:0:0:40:2.wav
320,192,112995,1,0,0:0:0:40:Kick.wav
64,192,113145,1,0,0:0:0:40:Snare.wav
448,192,113145,128,0,113445:0:0:0:40:2.wav
192,192,113445,1,0,0:0:0:40:Kick.wav
320,192,113745,1,0,0:0:0:40:Kick.wav
192,192,113895,1,0,0:0:0:40:1.wav
64,192,114045,128,0,114345:0:0:0:60:splash.wav
448,192,114045,1,0,0:0:0:40:Kick.wav
320,192,114345,128,0,114645:0:0:0:40:2.wav
192,192,114645,1,0,0:0:0:40:2.wav
448,192,114795,1,0,0:0:0:40:Kick.wav
64,192,114945,1,0,0:0:0:40:Snare.wav
192,192,114945,128,0,115245:0:0:0:40:2.wav
448,192,115245,1,0,0:0:0:40:Kick.wav
320,192,115545,1,0,0:0:0:40:Kick.wav
64,192,115845,1,0,0:0:0:60:splash.wav
192,192,115845,1,0,0:0:0:40:Kick.wav
64,192,116145,1,0,0:0:0:40:2.wav
64,192,116445,1,0,0:0:0:40:2.wav
320,192,116595,1,0,0:0:0:40:Kick.wav
192,192,116745,1,0,0:0:0:40:Snare.wav
448,192,116895,128,0,117045:0:0:0:60:Tom1.wav
64,192,117045,1,0,0:0:0:60:Tom1.wav
320,192,117195,128,0,117345:0:0:0:60:Tom2.wav
192,192,117345,1,0,0:0:0:60:Tom3.wav
448,192,117495,1,0,0:0:0:60:Tom3.wav
64,192,117645,1,0,0:0:0:30:Kick.wav
192,192,117645,1,0,0:0:0:40:2.wav
320,192,117795,1,0,0:0:0:30:Kick.wav
64,192,117945,1,0,0:0:0:30:Kick.wav
448,192,117945,1,0,0:0:0:40:2.wav
192,192,118095,1,0,0:0:0:30:Kick.wav
320,192,118245,1,0,0:0:0:30:Kick.wav
448,192,118245,1,0,0:0:0:40:2.wav
192,192,118395,1,0,0:0:0:30:Kick.wav
64,192,118545,1,0,0:0:0:40:Snare.wav
448,192,118545,1,0,0:0:0:0:
448,192,118845,1,0,0:0:0:0:
320,192,118995,1,0,0:0:0:0:
64,192,119145,1,0,0:0:0:0:
192,192,119295,1,0,0:0:0:0:
320,192,119445,1,0,0:0:0:60:splash.wav
448,192,119445,1,0,0:0:0:40:Kick.wav
192,192,119595,1,0,0:0:0:40:Kick.wav
448,192,119745,128,0,120345:0:0:0:0:
64,192,119895,1,0,0:0:0:40:Kick.wav
192,192,120195,1,0,0:0:0:40:Kick.wav
64,192,120345,1,0,0:0:0:40:Kick.wav
320,192,120495,1,0,0:0:0:40:Kick.wav
448,192,120795,1,0,0:0:0:40:Kick.wav
64,192,120945,1,0,0:0:0:40:Snare.wav
192,192,121245,1,0,0:0:0:40:Kick.wav
448,192,121395,1,0,0:0:0:40:Kick.wav
64,192,121545,128,0,122145:0:0:0:0:
320,192,121695,1,0,0:0:0:40:Kick.wav
448,192,121995,1,0,0:0:0:40:Kick.wav
320,192,122145,1,0,0:0:0:40:Kick.wav
192,192,122295,1,0,0:0:0:40:Snare.wav
64,192,122595,1,0,0:0:0:30:Kick.wav
320,192,122745,1,0,0:0:0:40:Snare.wav
64,192,123045,1,0,0:0:0:60:splash.wav
448,192,123045,1,0,0:0:0:40:Kick.wav
320,192,123195,1,0,0:0:0:40:Kick.wav
192,192,123345,128,0,123945:0:0:0:0:
448,192,123495,1,0,0:0:0:40:Kick.wav
320,192,123795,1,0,0:0:0:40:Kick.wav
64,192,123945,1,0,0:0:0:40:Kick.wav
448,192,124095,1,0,0:0:0:40:Kick.wav
320,192,124245,1,0,0:0:0:30:Kick.wav
64,192,124395,1,0,0:0:0:30:Kick.wav
192,192,124470,1,0,0:0:0:30:Kick.wav
448,192,124545,1,0,0:0:0:40:Snare.wav
320,192,124845,1,0,0:0:0:40:Kick.wav
448,192,124995,1,0,0:0:0:40:Kick.wav
192,192,125145,1,0,0:0:0:40:Kick.wav
320,192,125295,1,0,0:0:0:40:Kick.wav
64,192,125445,1,0,0:0:0:40:Kick.wav
192,192,125595,1,0,0:0:0:40:Kick.wav
64,192,125745,128,0,125895:0:0:0:40:Snare.wav
448,192,125745,1,0,0:0:0:0:
192,192,126045,128,0,126195:0:0:0:60:Tom1.wav
64,192,126345,1,0,0:0:0:30:Snare.wav
448,192,126345,1,0,0:0:0:0:
320,192,126495,1,0,0:0:0:30:Snare.wav
192,192,126570,1,0,0:0:0:30:Snare.wav
64,192,126645,128,0,126945:0:0:0:60:splash.wav
448,192,126645,1,0,0:0:0:40:Kick.wav
192,192,126945,1,0,0:0:0:40:Snare.wav
320,192,126945,128,0,127245:0:0:0:0:
448,192,127245,128,0,127545:0:0:0:40:Kick.wav
64,192,127545,128,0,127845:0:0:0:40:Kick.wav
320,192,127845,1,0,0:0:0:40:Snare.wav
192,192,128145,1,0,0:0:0:40:Snare.wav
320,192,128295,1,0,0:0:0:30:Snare.wav
64,192,128445,128,0,128745:0:0:0:40:Kick.wav
192,192,128745,1,0,0:0:0:40:Snare.wav
448,192,128745,128,0,129045:0:0:0:0:
320,192,129045,1,0,0:0:0:40:Kick.wav
64,192,129195,1,0,0:0:0:40:Snare.wav
192,192,129345,128,0,129645:0:0:0:40:Kick.wav
448,192,129645,1,0,0:0:0:40:Snare.wav
64,192,129945,128,0,130245:0:0:0:30:Snare.wav
320,192,129945,1,0,0:0:0:0:
448,192,130095,1,0,0:0:0:30:Snare.wav
192,192,130245,1,0,0:0:0:60:splash.wav
320,192,130245,1,0,0:0:0:40:Kick.wav
448,192,130545,1,0,0:0:0:40:Snare.wav
192,192,130845,1,0,0:0:0:40:Kick.wav
320,192,130995,1,0,0:0:0:40:Snare.wav
64,192,131145,1,0,0:0:0:60:splash.wav
448,192,131145,1,0,0:0:0:40:Kick.wav
192,192,131295,1,0,0:0:0:30:Snare.wav
320,192,131445,1,0,0:0:0:40:Kick.wav
448,192,131595,1,0,0:0:0:60:Tom1.wav
64,192,131745,128,0,132045:0:0:0:40:Kick.wav
192,192,131745,1,0,0:0:0:0:
448,192,131895,1,0,0:0:0:30:Tom2.wav
192,192,132045,1,0,0:0:0:60:splash.wav
320,192,132045,128,0,132795:0:0:0:40:Kick.wav
192,192,132795,1,0,0:0:0:30:Kick.wav
448,192,132945,1,0,0:0:0:40:Snare.wav
64,192,133145,1,0,0:0:0:40:Snare.wav
448,192,133445,1,0,0:0:0:60:Tom1.wav
64,192,133545,1,0,0:0:0:60:Tom2.wav
192,192,133845,1,0,0:0:0:60:splash.wav
320,192,133845,1,0,0:0:0:40:Kick.wav
192,192,134345,1,0,0:0:0:40:Snare.wav
448,192,134445,1,0,0:0:0:0:
320,192,134645,1,0,0:0:0:40:Kick.wav
64,192,134745,1,0,0:0:0:40:Snare.wav
320,192,135245,1,0,0:0:0:40:Snare.wav
192,192,135345,1,0,0:0:0:0:
64,192,135545,1,0,0:0:0:30:Kick.wav
320,192,135645,1,0,0:0:0:30:Kick.wav
192,192,136145,1,0,0:0:0:40:Kick.wav
320,192,136245,1,0,0:0:0:0:
448,192,136445,1,0,0:0:0:40:Kick.wav
64,192,136545,1,0,0:0:0:40:Snare.wav
192,192,136745,1,0,0:0:0:40:Snare.wav
320,192,136845,1,0,0:0:0:0:
64,192,137045,1,0,0:0:0:40:Snare.wav
448,192,137145,1,0,0:0:0:40:Snare.wav
448,192,137345,1,0,0:0:0:40:Snare.wav
64,192,137445,128,0,137745:0:0:0:60:splash.wav
192,192,137445,1,0,0:0:0:40:Kick.wav
448,192,137945,1,0,0:0:0:40:Snare.wav
192,192,138045,1,0,0:0:0:40:1.wav
320,192,138245,1,0,0:0:0:40:Kick.wav
64,192,138345,128,0,138645:0:0:0:40:Snare.wav
192,192,138645,1,0,0:0:0:0:
448,192,138845,1,0,0:0:0:40:Snare.wav
320,192,138945,1,0,0:0:0:40:1.wav
64,192,139145,1,0,0:0:0:30:Kick.wav
320,192,139245,128,0,139545:0:0:0:30:Kick.wav
448,192,139545,1,0,0:0:0:0:
192,192,139745,1,0,0:0:0:40:Kick.wav
64,192,139845,1,0,0:0:0:0:
448,192,140045,1,0,0:0:0:40:Kick.wav
192,192,140145,1,0,0:0:0:40:Snare.wav
320,192,140345,1,0,0:0:0:40:Kick.wav
64,192,140445,1,0,0:0:0:0:
192,192,140645,1,0,0:0:0:30:Kick.wav
448,192,140745,1,0,0:0:0:30:Kick.wav
64,192,140845,1,0,0:0:0:30:Kick.wav
320,192,140945,1,0,0:0:0:30:Kick.wav
192,192,141045,1,0,0:0:0:60:splash.wav
448,192,141045,1,0,0:0:0:30:Kick.wav
64,192,141345,1,0,0:0:0:0:
320,192,141545,1,0,0:0:0:40:Snare.wav
448,192,141645,1,0,0:0:0:0:
192,192,141845,1,0,0:0:0:40:Kick.wav
64,192,141945,1,0,0:0:0:40:Snare.wav
320,192,142245,1,0,0:0:0:0:
192,192,142445,1,0,0:0:0:40:Snare.wav
320,192,142545,1,0,0:0:0:0:
192,192,142745,1,0,0:0:0:30:Kick.wav
448,192,142845,1,0,0:0:0:30:Kick.wav
64,192,143045,1,0,0:0:0:60:Tom1.wav
192,192,143145,1,0,0:0:0:0:
448,192,143345,1,0,0:0:0:40:Kick.wav
320,192,143445,1,0,0:0:0:60:Tom2.wav
64,192,143645,1,0,0:0:0:40:Kick.wav
448,192,143745,1,0,0:0:0:40:Snare.wav
320,192,144045,1,0,0:0:0:0:
192,192,144145,1,0,0:0:0:0:
64,192,144245,1,0,0:0:0:0:
448,192,144345,128,0,144645:0:0:0:0:
192,192,144645,128,0,144945:0:0:0:40:Snare.wav
320,192,144645,1,0,0:0:0:60:splash.wav
448,192,144945,128,0,145245:0:0:0:0:
64,192,145245,128,0,145545:0:0:0:0:
320,192,145545,128,0,145845:0:0:0:40:Snare.wav
448,192,145545,1,0,0:0:0:60:splash.wav
192,192,145845,128,0,146145:0:0:0:60:Tom1.wav
64,192,146145,128,0,146445:0:0:0:60:Tom1.wav
320,192,146445,1,0,0:0:0:40:splash.wav
448,192,146445,1,0,0:0:0:40:Kick.wav
192,192,146645,1,0,0:0:0:30:Snare.wav
320,192,146745,1,0,0:0:0:40:splash.wav
64,192,146945,1,0,0:0:0:30:Snare.wav
448,192,147045,1,0,0:0:0:40:splash.wav
320,192,147145,1,0,0:0:0:30:Snare.wav
64,192,147245,1,0,0:0:0:40:Snare.wav
192,192,147245,1,0,0:0:0:0:
448,192,148845,128,0,149145:0:0:0:0:
64,192,149145,128,0,149445:0:0:0:40:Snare.wav
192,192,149145,1,0,0:0:0:60:splash.wav
320,192,149445,1,0,0:0:0:60:splash.wav
448,192,149445,1,0,0:0:0:60:Praise.wav
64,192,149745,1,0,0:0:0:40:Snare.wav
320,192,150045,1,0,0:0:0:40:Kick.wav
320,192,150195,1,0,0:0:0:40:Kick.wav
64,192,150345,1,0,0:0:0:40:Snare.wav
320,192,150495,1,0,0:0:0:60:splash.wav
448,192,150495,1,0,0:0:0:40:Kick.wav
192,192,150795,1,0,0:0:0:40:Kick.wav
320,192,150945,1,0,0:0:0:40:Snare.wav
448,192,151245,1,0,0:0:0:40:Kick.wav
448,192,151395,1,0,0:0:0:40:Kick.wav
64,192,151545,1,0,0:0:0:40:Snare.wav
192,192,151845,1,0,0:0:0:60:splash.wav
320,192,151845,1,0,0:0:0:40:Kick.wav
64,192,152145,1,0,0:0:0:40:Snare.wav
192,192,152445,1,0,0:0:0:40:Kick.wav
192,192,152595,1,0,0:0:0:40:Kick.wav
448,192,152745,1,0,0:0:0:40:Snare.wav
64,192,152895,1,0,0:0:0:60:splash.wav
192,192,152895,1,0,0:0:0:40:Kick.wav
320,192,153195,1,0,0:0:0:40:Kick.wav
64,192,153345,1,0,0:0:0:40:Snare.wav
64,192,153495,1,0,0:0:0:40:Snare.wav
448,192,153645,1,0,0:0:0:40:Kick.wav
448,192,153795,1,0,0:0:0:40:Kick.wav
192,192,153945,1,0,0:0:0:40:Snare.wav
320,192,154095,1,0,0:0:0:0:
64,192,154245,1,0,0:0:0:60:splash.wav
448,192,154245,1,0,0:0:0:40:Kick.wav
320,192,154545,1,0,0:0:0:40:Snare.wav
64,192,154845,1,0,0:0:0:40:Kick.wav
64,192,154995,1,0,0:0:0:40:Kick.wav
448,192,155145,1,0,0:0:0:40:Snare.wav
64,192,155295,1,0,0:0:0:60:splash.wav
192,192,155295,1,0,0:0:0:40:Kick.wav
320,192,155595,1,0,0:0:0:40:Kick.wav
64,192,155745,1,0,0:0:0:40:Snare.wav
448,192,156045,1,0,0:0:0:40:Kick.wav
448,192,156195,1,0,0:0:0:40:Kick.wav
192,192,156345,1,0,0:0:0:40:Snare.wav
320,192,156495,128,0,156645:0:0:0:30:Kick.wav
64,192,156645,1,0,0:0:0:40:Snare.wav
192,192,156645,1,0,0:0:0:60:splash.wav
448,192,156795,1,0,0:0:0:40:Kick.wav
192,192,156945,1,0,0:0:0:40:Snare.wav
448,192,157095,1,0,0:0:0:40:Kick.wav
192,192,157245,1,0,0:0:0:40:Snare.wav
320,192,157545,128,0,157695:0:0:0:60:Tom1.wav
64,192,157695,128,0,157845:0:0:0:60:Tom3.wav
448,192,157845,1,0,0:0:0:40:Snare.wav
448,192,158145,1,0,0:0:0:40:Snare.wav
320,192,158445,128,0,158595:0:0:0:40:Snare.wav
192,192,158595,128,0,158745:0:0:0:30:Snare.wav
448,192,158745,128,0,158895:0:0:0:30:Snare.wav
64,192,158895,128,0,159045:0:0:0:30:Snare.wav
192,192,159045,1,0,0:0:0:60:splash.wav
320,192,159045,1,0,0:0:0:60:Praise.wav
448,192,159345,1,0,0:0:0:40:Snare.wav
192,192,159645,1,0,0:0:0:40:Kick.wav
192,192,159795,1,0,0:0:0:40:Kick.wav
448,192,159945,1,0,0:0:0:40:Snare.wav
64,192,160095,1,0,0:0:0:60:splash.wav
192,192,160095,1,0,0:0:0:40:Kick.wav
320,192,160395,1,0,0:0:0:40:Kick.wav
64,192,160545,1,0,0:0:0:40:Snare.wav
448,192,160845,1,0,0:0:0:40:Kick.wav
448,192,160995,1,0,0:0:0:40:Kick.wav
192,192,161145,1,0,0:0:0:40:Snare.wav
64,192,161445,1,0,0:0:0:60:splash.wav
320,192,161445,1,0,0:0:0:40:Kick.wav
448,192,161745,1,0,0:0:0:40:Snare.wav
192,192,162045,1,0,0:0:0:40:Kick.wav
192,192,162195,1,0,0:0:0:40:Kick.wav
320,192,162345,1,0,0:0:0:40:Snare.wav
64,192,162495,1,0,0:0:0:60:splash.wav
192,192,162495,1,0,0:0:0:40:Kick.wav
448,192,162795,1,0,0:0:0:40:Kick.wav
64,192,162945,1,0,0:0:0:40:Snare.wav
64,192,163095,1,0,0:0:0:40:Snare.wav
320,192,163245,128,0,163395:0:0:0:30:Kick.wav
192,192,163395,128,0,163545:0:0:0:30:Kick.wav
448,192,163545,1,0,0:0:0:40:Snare.wav
192,192,163695,1,0,0:0:0:30:Kick.wav
320,192,163845,1,0,0:0:0:40:Snare.wav
448,192,163845,1,0,0:0:0:60:splash.wav
64,192,163995,1,0,0:0:0:40:Kick.wav
320,192,164145,1,0,0:0:0:40:Snare.wav
64,192,164295,1,0,0:0:0:40:Kick.wav
320,192,164445,1,0,0:0:0:40:Snare.wav
64,192,164595,1,0,0:0:0:40:Kick.wav
320,192,164745,1,0,0:0:0:40:Snare.wav
64,192,164895,1,0,0:0:0:40:Kick.wav
192,192,165045,1,0,0:0:0:40:Snare.wav
320,192,165045,1,0,0:0:0:60:splash.wav
448,192,165195,1,0,0:0:0:40:Kick.wav
192,192,165345,1,0,0:0:0:40:Snare.wav
448,192,165495,1,0,0:0:0:40:Kick.wav
192,192,165645,1,0,0:0:0:40:Snare.wav
448,192,165795,1,0,0:0:0:40:Kick.wav
192,192,165945,1,0,0:0:0:40:Snare.wav
448,192,166095,1,0,0:0:0:40:Kick.wav
64,192,166245,1,0,0:0:0:40:Snare.wav
192,192,166245,1,0,0:0:0:60:splash.wav
448,192,166395,128,0,166545:0:0:0:40:Kick.wav
320,192,166545,1,0,0:0:0:40:Snare.wav
64,192,166695,128,0,166845:0:0:0:40:Kick.wav
192,192,166845,1,0,0:0:0:40:Snare.wav
448,192,166995,128,0,167145:0:0:0:40:Kick.wav
320,192,167145,1,0,0:0:0:40:Snare.wav
64,192,167295,128,0,167445:0:0:0:30:Kick.wav
320,192,167445,1,0,0:0:0:30:Kick.wav
448,192,167445,1,0,0:0:0:0:
64,192,167745,1,0,0:0:0:40:Kick.wav
192,192,167745,1,0,0:0:0:0:
320,192,168045,1,0,0:0:0:40:Kick.wav
448,192,168045,1,0,0:0:0:0:
64,192,168345,1,0,0:0:0:40:Kick.wav
192,192,168345,1,0,0:0:0:0:
320,192,168645,1,0,0:0:0:40:Kick.wav
448,192,168645,1,0,0:0:0:0:
64,192,168945,1,0,0:0:0:40:Kick.wav
192,192,168945,1,0,0:0:0:0:
64,192,169245,128,0,169695:0:0:0:60:splash.wav
320,192,169245,1,0,0:0:0:40:Kick.wav
192,192,169695,128,0,170145:0:0:0:0:
448,192,170145,128,0,170595:0:0:0:0:
192,192,170595,128,0,171045:0:0:0:0:
64,192,171045,128,0,171495:0:0:0:0:
320,192,171495,128,0,171945:0:0:0:0:
192,192,171945,128,0,172395:0:0:0:0:
448,192,172395,128,0,172845:0:0:0:0:
64,192,172845,128,0,173745:0:0:0:60:splash.wav
192,192,172845,1,0,0:0:0:40:Kick.wav
320,192,173295,128,0,173745:0:0:0:40:1.wav
448,192,173745,128,0,174645:0:0:0:40:1.wav
192,192,174195,128,0,174645:0:0:0:40:1.wav
64,192,174645,128,0,175545:0:0:0:40:1.wav
320,192,175095,128,0,175545:0:0:0:40:1.wav
192,192,175545,1,0,0:0:0:40:Snare.wav
448,192,175695,1,0,0:0:0:30:Snare.wav
64,192,175845,1,0,0:0:0:30:Snare.wav
320,192,175995,1,0,0:0:0:40:Snare.wav
448,192,176145,1,0,0:0:0:40:Snare.wav
64,192,176295,1,0,0:0:0:40:Snare.wav
192,192,176445,1,0,0:0:0:60:splash.wav
448,192,176445,128,0,176745:0:0:0:40:Kick.wav
64,192,176745,1,0,0:0:0:40:Kick.wav
320,192,176895,1,0,0:0:0:40:Snare.wav
64,192,177045,1,0,0:0:0:40:Kick.wav
320,192,177195,1,0,0:0:0:40:Snare.wav
64,192,177345,1,0,0:0:0:60:splash.wav
448,192,177345,128,0,177645:0:0:0:40:Kick.wav
320,192,177645,1,0,0:0:0:40:Kick.wav
64,192,177795,1,0,0:0:0:40:Snare.wav
320,192,177945,1,0,0:0:0:40:Kick.wav
64,192,178095,1,0,0:0:0:40:Snare.wav
320,192,178245,1,0,0:0:0:60:splash.wav
448,192,178245,128,0,178545:0:0:0:40:Kick.wav
64,192,178545,1,0,0:0:0:40:Kick.wav
320,192,178695,1,0,0:0:0:40:Snare.wav
64,192,178845,1,0,0:0:0:40:Kick.wav
320,192,178995,1,0,0:0:0:40:Snare.wav
64,192,179145,1,0,0:0:0:60:splash.wav
448,192,179145,1,0,0:0:0:40:Kick.wav
192,192,179295,1,0,0:0:0:40:1.wav
320,192,179445,1,0,0:0:0:40:Kick.wav
448,192,179595,1,0,0:0:0:40:Snare.wav
320,192,179745,1,0,0:0:0:40:Kick.wav
192,192,179895,1,0,0:0:0:40:Snare.wav
64,192,180045,1,0,0:0:0:60:splash.wav
448,192,180045,128,0,180345:0:0:0:40:Kick.wav
192,192,180195,1,0,0:0:0:40:1.wav
320,192,180345,1,0,0:0:0:40:Kick.wav
64,192,180495,1,0,0:0:0:40:Snare.wav
320,192,180645,1,0,0:0:0:40:Kick.wav
64,192,180795,1,0,0:0:0:40:Snare.wav
192,192,180945,1,0,0:0:0:60:splash.wav
448,192,180945,128,0,181245:0:0:0:40:Kick.wav
64,192,181245,1,0,0:0:0:40:Kick.wav
320,192,181395,1,0,0:0:0:40:Snare.wav
64,192,181545,1,0,0:0:0:40:Kick.wav
320,192,181695,1,0,0:0:0:40:Snare.wav
64,192,181845,1,0,0:0:0:60:splash.wav
448,192,181845,128,0,182745:0:0:0:40:Kick.wav
192,192,182145,1,0,0:0:0:40:Kick.wav
320,192,182295,1,0,0:0:0:40:Snare.wav
192,192,182445,1,0,0:0:0:40:Kick.wav
320,192,182595,1,0,0:0:0:40:Snare.wav
64,192,182745,128,0,183045:0:0:0:60:splash.wav
192,192,183045,128,0,183345:0:0:0:40:Kick.wav
320,192,183195,1,0,0:0:0:40:Snare.wav
448,192,183345,128,0,183645:0:0:0:40:Kick.wav
320,192,183495,1,0,0:0:0:40:Snare.wav
64,192,183645,128,0,183945:0:0:0:60:splash.wav
192,192,183645,1,0,0:0:0:40:Kick.wav
448,192,183945,1,0,0:0:0:40:Kick.wav
192,192,184095,1,0,0:0:0:40:Snare.wav
448,192,184245,1,0,0:0:0:40:Kick.wav
192,192,184395,1,0,0:0:0:40:Snare.wav
64,192,184545,128,0,184845:0:0:0:60:splash.wav
448,192,184545,1,0,0:0:0:40:Kick.wav
320,192,184845,1,0,0:0:0:40:Kick.wav
192,192,184995,1,0,0:0:0:40:Snare.wav
320,192,185145,1,0,0:0:0:40:Kick.wav
192,192,185295,1,0,0:0:0:40:Snare.wav
64,192,185445,128,0,185745:0:0:0:60:splash.wav
320,192,185445,1,0,0:0:0:40:Kick.wav
448,192,185745,1,0,0:0:0:40:Kick.wav
192,192,185895,1,0,0:0:0:40:Snare.wav
448,192,186045,1,0,0:0:0:40:Kick.wav
192,192,186195,1,0,0:0:0:40:Snare.wav
64,192,186345,1,0,0:0:0:60:splash.wav
448,192,186345,1,0,0:0:0:40:Kick.wav
320,192,186495,1,0,0:0:0:40:1.wav
192,192,186645,1,0,0:0:0:40:Kick.wav
64,192,186795,1,0,0:0:0:40:Snare.wav
192,192,186945,1,0,0:0:0:40:Kick.wav
320,192,187095,1,0,0:0:0:40:Snare.wav
64,192,187245,128,0,187545:0:0:0:60:splash.wav
192,192,187245,1,0,0:0:0:40:Kick.wav
320,192,187545,1,0,0:0:0:40:Kick.wav
192,192,187695,1,0,0:0:0:40:Snare.wav
448,192,187845,1,0,0:0:0:40:Kick.wav
64,192,187995,1,0,0:0:0:40:Snare.wav
192,192,188145,1,0,0:0:0:60:splash.wav
320,192,188145,128,0,188445:0:0:0:40:Kick.wav
64,192,188445,1,0,0:0:0:40:Kick.wav
448,192,188595,1,0,0:0:0:40:Snare.wav
192,192,188745,1,0,0:0:0:40:Kick.wav
320,192,188895,1,0,0:0:0:40:Snare.wav
64,192,189045,128,0,189345:0:0:0:40:Kick.wav
320,192,189345,1,0,0:0:0:60:splash.wav
448,192,189345,1,0,0:0:0:40:Kick.wav
192,192,189495,1,0,0:0:0:40:Snare.wav
320,192,189645,1,0,0:0:0:40:Kick.wav
64,192,189795,1,0,0:0:0:40:Snare.wav
192,192,189945,1,0,0:0:0:40:Kick.wav
448,192,190095,1,0,0:0:0:40:Snare.wav
64,192,190245,1,0,0:0:0:40:Kick.wav
320,192,190395,1,0,0:0:0:40:Snare.wav
448,192,190545,1,0,0:0:0:40:Kick.wav
192,192,190695,1,0,0:0:0:40:Snare.wav
64,192,190845,128,0,191145:0:0:0:60:splash.wav
320,192,190845,1,0,0:0:0:40:Kick.wav
448,192,191145,1,0,0:0:0:40:Kick.wav
192,192,191295,1,0,0:0:0:40:Snare.wav
448,192,191445,1,0,0:0:0:40:Kick.wav
192,192,191595,1,0,0:0:0:40:Snare.wav
320,192,191745,1,0,0:0:0:60:splash.wav
448,192,191745,128,0,192045:0:0:0:40:Kick.wav
64,192,192045,1,0,0:0:0:40:Kick.wav
320,192,192195,1,0,0:0:0:40:Snare.wav
64,192,192345,1,0,0:0:0:40:Kick.wav
320,192,192495,1,0,0:0:0:40:Snare.wav
64,192,192645,128,0,192945:0:0:0:60:splash.wav
192,192,192645,1,0,0:0:0:40:Kick.wav
448,192,192945,1,0,0:0:0:40:Kick.wav
192,192,193095,1,0,0:0:0:40:Snare.wav
448,192,193245,1,0,0:0:0:40:Kick.wav
192,192,193395,1,0,0:0:0:40:Snare.wav
320,192,193545,1,0,0:0:0:60:splash.wav
448,192,193545,1,0,0:0:0:40:Kick.wav
64,192,193695,1,0,0:0:0:30:Kick.wav
192,192,193845,1,0,0:0:0:30:Kick.wav
448,192,193995,1,0,0:0:0:40:Snare.wav
192,192,194145,1,0,0:0:0:40:Kick.wav
448,192,194295,1,0,0:0:0:40:Snare.wav
64,192,194445,128,0,194595:0:0:0:60:splash.wav
192,192,194445,1,0,0:0:0:40:Kick.wav
448,192,194595,128,0,194745:0:0:0:0:
320,192,194745,128,0,194895:0:0:0:40:Kick.wav
192,192,194895,128,0,195045:0:0:0:40:Snare.wav
448,192,195045,128,0,195195:0:0:0:40:Kick.wav
320,192,195195,128,0,195345:0:0:0:40:Snare.wav
64,192,195345,128,0,195645:0:0:0:60:splash.wav
192,192,195345,1,0,0:0:0:40:Kick.wav
192,192,195645,128,0,195795:0:0:0:40:Kick.wav
448,192,195795,128,0,196245:0:0:0:40:Snare.wav
64,192,195945,1,0,0:0:0:40:Kick.wav
320,192,196095,1,0,0:0:0:40:Snare.wav
64,192,196245,1,0,0:0:0:60:splash.wav
192,192,196245,128,0,196395:0:0:0:40:Kick.wav
320,192,196395,128,0,196545:0:0:0:40:Kick.wav
64,192,196545,128,0,196695:0:0:0:40:Kick.wav
448,192,196695,128,0,196845:0:0:0:40:Snare.wav
192,192,196845,128,0,196995:0:0:0:40:Kick.wav
448,192,196995,128,0,197145:0:0:0:40:Snare.wav
64,192,197145,128,0,197295:0:0:0:40:Kick.wav
320,192,197295,128,0,197745:0:0:0:40:Snare.wav
192,192,197445,1,0,0:0:0:40:Kick.wav
64,192,197595,1,0,0:0:0:40:Snare.wav
448,192,197745,1,0,0:0:0:40:Kick.wav
192,192,197895,1,0,0:0:0:40:Kick.wav
64,192,198045,1,0,0:0:0:60:splash.wav
320,192,198045,1,0,0:0:0:40:Kick.wav
448,192,198345,1,0,0:0:0:40:Kick.wav
320,192,198495,1,0,0:0:0:40:Snare.wav
64,192,198645,1,0,0:0:0:40:Kick.wav
192,192,198795,1,0,0:0:0:40:Snare.wav
320,192,198945,1,0,0:0:0:60:splash.wav
448,192,198945,1,0,0:0:0:40:Kick.wav
64,192,199245,1,0,0:0:0:40:Kick.wav
192,192,199395,1,0,0:0:0:40:Snare.wav
448,192,199545,1,0,0:0:0:40:Kick.wav
320,192,199695,1,0,0:0:0:40:Snare.wav
64,192,199845,1,0,0:0:0:60:splash.wav
192,192,199845,1,0,0:0:0:40:Kick.wav
448,192,200145,1,0,0:0:0:40:Kick.wav
320,192,200295,1,0,0:0:0:40:Snare.wav
192,192,200445,1,0,0:0:0:40:Kick.wav
64,192,200595,1,0,0:0:0:40:Snare.wav
320,192,200745,1,0,0:0:0:60:splash.wav
448,192,200745,1,0,0:0:0:40:Kick.wav
64,192,200895,1,0,0:0:0:40:Snare.wav
192,192,201045,1,0,0:0:0:40:Kick.wav
448,192,201195,1,0,0:0:0:40:Snare.wav
320,192,201345,1,0,0:0:0:40:Kick.wav
192,192,201495,1,0,0:0:0:40:Snare.wav
64,192,201645,1,0,0:0:0:60:splash.wav
448,192,201645,128,0,202095:0:0:0:40:Kick.wav
320,192,201795,1,0,0:0:0:0:
192,192,201945,1,0,0:0:0:40:Kick.wav
64,192,202095,128,0,202545:0:0:0:40:Snare.wav
320,192,202245,1,0,0:0:0:40:Kick.wav
448,192,202395,1,0,0:0:0:40:Snare.wav
192,192,202545,1,0,0:0:0:60:splash.wav
320,192,202545,128,0,202845:0:0:0:40:Kick.wav
448,192,202695,1,0,0:0:0:0:
64,192,202845,1,0,0:0:0:40:Kick.wav
192,192,202995,1,0,0:0:0:40:Snare.wav
320,192,203145,1,0,0:0:0:40:Kick.wav
448,192,203295,1,0,0:0:0:40:Snare.wav
64,192,203445,1,0,0:0:0:40:Kick.wav
448,192,203595,1,0,0:0:0:40:Snare.wav
64,192,203745,1,0,0:0:0:40:Kick.wav
448,192,203895,1,0,0:0:0:40:Snare.wav
64,192,204045,1,0,0:0:0:40:Kick.wav
448,192,204195,1,0,0:0:0:40:Snare.wav
64,192,204345,1,0,0:0:0:40:Kick.wav
320,192,204495,1,0,0:0:0:40:Snare.wav
320,192,204645,1,0,0:0:0:40:Snare.wav
192,192,204795,1,0,0:0:0:40:Snare.wav
192,192,204945,1,0,0:0:0:40:Snare.wav
320,192,205095,1,0,0:0:0:40:Snare.wav
64,192,205245,128,0,205545:0:0:0:60:splash.wav
448,192,205245,1,0,0:0:0:40:Kick.wav
320,192,205545,128,0,205845:0:0:0:0:
64,192,205845,128,0,206145:0:0:0:0:
448,192,206145,128,0,206445:0:0:0:0:
192,192,206445,128,0,206745:0:0:0:0:
64,192,206745,128,0,207045:0:0:0:0:
448,192,207045,128,0,207345:0:0:0:0:
320,192,207345,128,0,207645:0:0:0:0:
64,192,207645,128,0,207945:0:0:0:0:
320,192,207945,128,0,208245:0:0:0:0:
192,192,208245,128,0,208545:0:0:0:0:
64,192,208545,1,0,0:0:0:0:
448,192,208845,1,0,0:0:0:0:
320,192,209145,128,0,209445:0:0:0:0:
448,192,209445,128,0,209745:0:0:0:0:
192,192,209745,128,0,210045:0:0:0:0:
64,192,210045,128,0,210345:0:0:0:0:
320,192,210345,128,0,210645:0:0:0:0:
192,192,210645,128,0,210945:0:0:0:0:
64,192,210945,128,0,211245:0:0:0:0:
448,192,211245,1,0,0:0:0:60:Tom3.wav
64,192,211545,1,0,0:0:0:60:Tom2.wav
192,192,211845,128,0,212145:0:0:0:0:
448,192,212145,1,0,0:0:0:0:
64,192,212295,1,0,0:0:0:0:
192,192,212445,1,0,0:0:0:40:Kick.wav
448,192,212445,128,0,212745:0:0:0:0:
320,192,212745,128,0,213045:0:0:0:0:
64,192,213045,128,0,213345:0:0:0:0:
192,192,213345,128,0,213645:0:0:0:0:
448,192,213645,128,0,213945:0:0:0:0:
64,192,213945,1,0,0:0:0:40:1.wav
320,192,214245,1,0,0:0:0:40:2.wav
192,192,214545,128,0,214845:0:0:0:0:
448,192,214845,128,0,215145:0:0:0:0:
64,192,215145,128,0,215445:0:0:0:0:
192,192,215445,128,0,215745:0:0:0:0:
448,192,215745,1,0,0:0:0:0:
192,192,216045,1,0,0:0:0:0:
320,192,216345,128,0,216645:0:0:0:0:
192,192,216645,1,0,0:0:0:40:1.wav
64,192,216945,1,0,0:0:0:40:2.wav
192,192,217245,128,0,217545:0:0:0:0:
320,192,217545,1,0,0:0:0:40:2.wav
448,192,217845,1,0,0:0:0:40:1.wav
64,192,218145,1,0,0:0:0:40:1.wav
320,192,218295,1,0,0:0:0:40:1.wav
448,192,218445,128,0,218745:0:0:0:40:1.wav
64,192,218745,1,0,0:0:0:40:1.wav
320,192,219045,128,0,219345:0:0:0:0:
448,192,219345,1,0,0:0:0:40:1.wav
64,192,219645,1,0,0:0:0:40:1.wav
192,192,219945,128,0,220245:0:0:0:0:
64,192,220245,128,0,220545:0:0:0:0:
448,192,220545,128,0,220845:0:0:0:0:
320,192,220845,128,0,221145:0:0:0:0:
64,192,221145,1,0,0:0:0:40:1.wav
448,192,221445,1,0,0:0:0:40:2.wav
64,192,221745,128,0,222045:0:0:0:0:
448,192,221895,1,0,0:0:0:40:2.wav
192,192,222045,128,0,222345:0:0:0:0:
448,192,222345,1,0,0:0:0:40:2.wav
320,192,222645,128,0,222945:0:0:0:0:
448,192,222795,1,0,0:0:0:40:2.wav
64,192,222945,1,0,0:0:0:40:1.wav
448,192,223245,1,0,0:0:0:40:2.wav
320,192,223545,128,0,223845:0:0:0:0:
64,192,223845,128,0,224145:0:0:0:0:
192,192,224145,128,0,224445:0:0:0:0:
448,192,224445,128,0,224745:0:0:0:0:
64,192,224745,1,0,0:0:0:40:1.wav
192,192,225045,1,0,0:0:0:40:2.wav
448,192,225345,1,0,0:0:0:40:2.wav
448,192,225645,1,0,0:0:0:40:1.wav
192,192,225795,1,0,0:0:0:40:2.wav
320,192,225945,128,0,229245:0:0:0:40:1.wav
192,192,229245,1,0,0:0:0:0:
448,192,230445,128,0,230895:0:0:0:0:
64,192,231045,128,0,231495:0:0:0:0:
320,192,231645,1,0,0:0:0:40:Snare.wav
320,192,231795,1,0,0:0:0:40:Snare.wav
320,192,232545,1,0,0:0:0:40:Snare.wav
64,192,232695,1,0,0:0:0:60:splash.wav
192,192,232695,1,0,0:0:0:40:Kick.wav
448,192,232995,128,0,233145:0:0:0:30:Snare.wav
192,192,233145,1,0,0:0:0:30:Snare.wav
320,192,233295,128,0,233445:0:0:0:30:Snare.wav
64,192,233445,1,0,0:0:0:60:Tom1.wav
192,192,233595,128,0,233745:0:0:0:30:Kick.wav
448,192,233745,1,0,0:0:0:40:Snare.wav
64,192,233895,128,0,234045:0:0:0:30:Kick.wav
320,192,234045,1,0,0:0:0:40:Snare.wav
320,192,234195,1,0,0:0:0:40:Snare.wav
192,192,234645,128,0,234795:0:0:0:60:Tom1.wav
320,192,234795,128,0,234945:0:0:0:30:Kick.wav
64,192,234945,1,0,0:0:0:40:Snare.wav
320,192,235095,1,0,0:0:0:60:splash.wav
448,192,235095,1,0,0:0:0:40:Kick.wav
64,192,235545,1,0,0:0:0:30:Snare.wav
448,192,235545,128,0,235845:0:0:0:40:1.wav
64,192,235845,1,0,0:0:0:30:Snare.wav
320,192,235845,128,0,236145:0:0:0:40:1.wav
64,192,236145,1,0,0:0:0:30:Snare.wav
192,192,236145,128,0,236445:0:0:0:40:1.wav
320,192,236445,1,0,0:0:0:60:splash.wav
448,192,236445,1,0,0:0:0:40:Kick.wav
448,192,236895,1,0,0:0:0:40:Kick.wav
64,192,237045,1,0,0:0:0:40:Snare.wav
192,192,237045,1,0,0:0:0:60:splash.wav
192,192,237495,1,0,0:0:0:40:Snare.wav
448,192,237645,1,0,0:0:0:40:Kick.wav
320,192,237795,1,0,0:0:0:40:Snare.wav
64,192,237945,1,0,0:0:0:40:1.wav
192,192,238095,1,0,0:0:0:40:Kick.wav
448,192,238245,1,0,0:0:0:40:Snare.wav
320,192,238395,1,0,0:0:0:40:Kick.wav
192,192,238545,1,0,0:0:0:40:1.wav
64,192,238695,128,0,238845:0:0:0:30:Kick.wav
320,192,238845,1,0,0:0:0:40:Snare.wav
448,192,238995,128,0,239145:0:0:0:30:Kick.wav
192,192,239145,1,0,0:0:0:40:Snare.wav
64,192,239295,128,0,239445:0:0:0:30:Kick.wav
320,192,239445,1,0,0:0:0:40:Snare.wav
192,192,239595,128,0,239745:0:0:0:30:Kick.wav
448,192,239745,1,0,0:0:0:40:Snare.wav
320,192,239895,128,0,240045:0:0:0:30:Kick.wav
64,192,240045,1,0,0:0:0:40:Snare.wav
448,192,240195,1,0,0:0:0:40:Snare.wav
64,192,240345,1,0,0:0:0:40:Snare.wav
320,192,240645,128,0,240945:0:0:0:0:
192,192,240945,128,0,241245:0:0:0:0:
64,192,241245,1,0,0:0:0:60:splash.wav
448,192,241245,1,0,0:0:0:60:Praise.wav
320,192,241545,1,0,0:0:0:40:Snare.wav
192,192,241845,1,0,0:0:0:40:Kick.wav
192,192,241995,1,0,0:0:0:40:Kick.wav
448,192,242145,1,0,0:0:0:40:Snare.wav
64,192,242295,1,0,0:0:0:60:splash.wav
192,192,242295,1,0,0:0:0:40:Kick.wav
320,192,242595,1,0,0:0:0:40:Kick.wav
192,192,242745,1,0,0:0:0:40:Snare.wav
64,192,243045,1,0,0:0:0:40:Kick.wav
64,192,243195,1,0,0:0:0:40:Kick.wav
448,192,243345,1,0,0:0:0:40:Snare.wav
192,192,243645,1,0,0:0:0:60:splash.wav
320,192,243645,1,0,0:0:0:40:Kick.wav
448,192,243945,1,0,0:0:0:40:Snare.wav
320,192,244245,1,0,0:0:0:40:Kick.wav
320,192,244395,1,0,0:0:0:40:Kick.wav
64,192,244545,1,0,0:0:0:40:Snare.wav
320,192,244695,1,0,0:0:0:60:splash.wav
448,192,244695,1,0,0:0:0:40:Kick.wav
192,192,244995,1,0,0:0:0:40:Kick.wav
448,192,245145,1,0,0:0:0:40:Snare.wav
448,192,245295,1,0,0:0:0:40:Snare.wav
64,192,245445,1,0,0:0:0:40:Kick.wav
64,192,245595,1,0,0:0:0:40:Kick.wav
320,192,245745,1,0,0:0:0:40:Snare.wav
192,192,245895,1,0,0:0:0:30:Kick.wav
64,192,246045,1,0,0:0:0:40:Snare.wav
448,192,246045,1,0,0:0:0:60:splash.wav
64,192,246345,1,0,0:0:0:40:Snare.wav
320,192,246345,1,0,0:0:0:40:2.wav
192,192,246645,1,0,0:0:0:40:Snare.wav
320,192,246645,1,0,0:0:0:40:2.wav
192,192,246945,1,0,0:0:0:40:Snare.wav
448,192,246945,1,0,0:0:0:40:2.wav
64,192,247245,1,0,0:0:0:40:Snare.wav
448,192,247245,1,0,0:0:0:60:splash.wav
64,192,247545,1,0,0:0:0:40:Snare.wav
192,192,247545,1,0,0:0:0:40:2.wav
192,192,247845,1,0,0:0:0:40:Snare.wav
448,192,247845,1,0,0:0:0:40:2.wav
64,192,248145,1,0,0:0:0:40:Snare.wav
320,192,248145,1,0,0:0:0:40:2.wav
320,192,248445,1,0,0:0:0:40:Snare.wav
448,192,248445,1,0,0:0:0:60:splash.wav
64,192,248745,1,0,0:0:0:40:Snare.wav
192,192,248745,1,0,0:0:0:40:2.wav
320,192,249045,1,0,0:0:0:40:Snare.wav
448,192,249045,1,0,0:0:0:60:splash.wav
64,192,249345,1,0,0:0:0:40:Snare.wav
192,192,249345,1,0,0:0:0:40:2.wav
64,192,249645,1,0,0:0:0:40:Snare.wav
320,192,249645,1,0,0:0:0:60:splash.wav
192,192,249945,1,0,0:0:0:40:Snare.wav
448,192,249945,1,0,0:0:0:40:2.wav
192,192,250245,128,0,250395:0:0:0:40:Snare.wav
320,192,250395,128,0,250545:0:0:0:30:Snare.wav
64,192,250545,128,0,250695:0:0:0:30:Snare.wav
448,192,250695,128,0,250845:0:0:0:30:Snare.wav
192,192,250845,1,0,0:0:0:60:splash.wav
320,192,250845,1,0,0:0:0:60:Praise.wav
64,192,251145,1,0,0:0:0:40:Snare.wav
320,192,251445,1,0,0:0:0:40:Kick.wav
320,192,251595,1,0,0:0:0:40:Kick.wav
64,192,251745,1,0,0:0:0:40:Snare.wav
320,192,251895,1,0,0:0:0:60:splash.wav
448,192,251895,1,0,0:0:0:40:Kick.wav
192,192,252195,1,0,0:0:0:40:Kick.wav
320,192,252345,1,0,0:0:0:40:Snare.wav
448,192,252645,1,0,0:0:0:40:Kick.wav
448,192,252795,1,0,0:0:0:40:Kick.wav
64,192,252945,1,0,0:0:0:40:Snare.wav
192,192,253245,1,0,0:0:0:60:splash.wav
320,192,253245,1,0,0:0:0:40:Kick.wav
64,192,253545,1,0,0:0:0:40:Snare.wav
192,192,253845,1,0,0:0:0:40:Kick.wav
192,192,253995,1,0,0:0:0:40:Kick.wav
448,192,254145,1,0,0:0:0:40:Snare.wav
64,192,254295,1,0,0:0:0:60:splash.wav
192,192,254295,1,0,0:0:0:40:Kick.wav
320,192,254595,1,0,0:0:0:40:Kick.wav
64,192,254745,1,0,0:0:0:40:Snare.wav
64,192,254895,1,0,0:0:0:40:Snare.wav
448,192,255045,1,0,0:0:0:40:Kick.wav
448,192,255195,1,0,0:0:0:40:Kick.wav
192,192,255345,1,0,0:0:0:40:Snare.wav
320,192,255495,1,0,0:0:0:0:
64,192,255645,1,0,0:0:0:60:splash.wav
448,192,255645,1,0,0:0:0:40:Kick.wav
320,192,255945,1,0,0:0:0:40:Snare.wav
64,192,256245,1,0,0:0:0:40:Kick.wav
64,192,256395,1,0,0:0:0:40:Kick.wav
448,192,256545,1,0,0:0:0:40:Snare.wav
64,192,256695,1,0,0:0:0:60:splash.wav
192,192,256695,1,0,0:0:0:40:Kick.wav
320,192,256995,1,0,0:0:0:40:Kick.wav
64,192,257145,1,0,0:0:0:40:Snare.wav
448,192,257445,1,0,0:0:0:40:Kick.wav
448,192,257595,1,0,0:0:0:40:Kick.wav
192,192,257745,1,0,0:0:0:40:Snare.wav
320,192,257895,128,0,258045:0:0:0:30:Kick.wav
64,192,258045,1,0,0:0:0:40:Snare.wav
192,192,258045,1,0,0:0:0:60:splash.wav
448,192,258195,1,0,0:0:0:40:Kick.wav
192,192,258345,1,0,0:0:0:40:Snare.wav
448,192,258495,1,0,0:0:0:40:Kick.wav
192,192,258645,1,0,0:0:0:40:Snare.wav
320,192,258945,128,0,259095:0:0:0:60:Tom1.wav
64,192,259095,128,0,259245:0:0:0:60:Tom3.wav
448,192,259245,1,0,0:0:0:40:Snare.wav
448,192,259545,1,0,0:0:0:40:Snare.wav
320,192,259845,128,0,259995:0:0:0:40:Snare.wav
192,192,259995,128,0,260145:0:0:0:30:Snare.wav
448,192,260145,128,0,260295:0:0:0:30:Snare.wav
64,192,260295,128,0,260445:0:0:0:30:Snare.wav
192,192,260445,1,0,0:0:0:60:splash.wav
320,192,260445,1,0,0:0:0:60:Praise.wav
448,192,260745,1,0,0:0:0:40:Snare.wav
192,192,261045,1,0,0:0:0:40:Kick.wav
192,192,261195,1,0,0:0:0:40:Kick.wav
448,192,261345,1,0,0:0:0:40:Snare.wav
64,192,261495,1,0,0:0:0:60:splash.wav
192,192,261495,1,0,0:0:0:40:Kick.wav
320,192,261795,1,0,0:0:0:40:Kick.wav
64,192,261945,1,0,0:0:0:40:Snare.wav
448,192,262245,1,0,0:0:0:40:Kick.wav
448,192,262395,1,0,0:0:0:40:Kick.wav
192,192,262545,1,0,0:0:0:40:Snare.wav
64,192,262845,1,0,0:0:0:60:splash.wav
320,192,262845,1,0,0:0:0:40:Kick.wav
448,192,263145,1,0,0:0:0:40:Snare.wav
192,192,263445,1,0,0:0:0:40:Kick.wav
192,192,263595,1,0,0:0:0:40:Kick.wav
320,192,263745,1,0,0:0:0:40:Snare.wav
64,192,263895,1,0,0:0:0:60:splash.wav
192,192,263895,1,0,0:0:0:40:Kick.wav
448,192,264195,1,0,0:0:0:40:Kick.wav
64,192,264345,128,0,264495:0:0:0:30:Snare.wav
320,192,264495,1,0,0:0:0:30:Snare.wav
192,192,264645,128,0,264795:0:0:0:30:Kick.wav
448,192,264795,1,0,0:0:0:30:Kick.wav
320,192,264945,128,0,265095:0:0:0:30:Snare.wav
64,192,265095,1,0,0:0:0:30:Snare.wav
192,192,265245,128,0,265395:0:0:0:30:Kick.wav
448,192,265395,128,0,265545:0:0:0:30:Kick.wav
64,192,265545,128,0,265695:0:0:0:30:Kick.wav
320,192,265695,128,0,265845:0:0:0:30:Kick.wav
64,192,265845,1,0,0:0:0:40:Snare.wav
192,192,265845,1,0,0:0:0:40:2.wav
448,192,266145,1,0,0:0:0:40:Kick.wav
192,192,266295,1,0,0:0:0:40:Kick.wav
320,192,266595,1,0,0:0:0:40:Kick.wav
64,192,266895,128,0,267045:0:0:0:30:Kick.wav
448,192,267045,1,0,0:0:0:40:Snare.wav
192,192,267195,1,0,0:0:0:40:Kick.wav
320,192,267495,1,0,0:0:0:40:Kick.wav
64,192,267645,1,0,0:0:0:60:splash.wav
192,192,267645,1,0,0:0:0:40:Kick.wav
448,192,267795,1,0,0:0:0:40:Kick.wav
64,192,267945,1,0,0:0:0:40:1.wav
192,192,268095,1,0,0:0:0:40:Kick.wav
320,192,268245,1,0,0:0:0:40:Snare.wav
448,192,268395,1,0,0:0:0:40:Kick.wav
192,192,268545,1,0,0:0:0:40:1.wav
320,192,268695,1,0,0:0:0:30:Kick.wav
64,192,268845,128,0,268995:0:0:0:40:Snare.wav
448,192,268995,128,0,269145:0:0:0:30:Snare.wav
192,192,269145,128,0,269295:0:0:0:30:Snare.wav
320,192,269295,128,0,269445:0:0:0:30:Snare.wav
448,192,269445,128,0,269595:0:0:0:30:Snare.wav
64,192,269595,128,0,269745:0:0:0:30:Snare.wav
320,192,269745,128,0,269895:0:0:0:30:Snare.wav
192,192,269895,128,0,270045:0:0:0:30:Kick.wav
64,192,270045,1,0,0:0:0:40:Snare.wav
448,192,270045,1,0,0:0:0:60:Praise.wav
64,192,270345,1,0,0:0:0:40:Snare.wav
320,192,270345,1,0,0:0:0:40:2.wav
64,192,270645,1,0,0:0:0:40:Snare.wav
192,192,270645,1,0,0:0:0:40:2.wav
192,192,270945,1,0,0:0:0:40:Snare.wav
320,192,270945,1,0,0:0:0:40:2.wav
320,192,271245,1,0,0:0:0:40:Snare.wav
448,192,271245,1,0,0:0:0:40:2.wav
192,192,271545,1,0,0:0:0:40:Snare.wav
448,192,271545,1,0,0:0:0:40:2.wav
64,192,271845,1,0,0:0:0:40:Snare.wav
448,192,271845,1,0,0:0:0:40:2.wav
192,192,272145,1,0,0:0:0:40:Snare.wav
320,192,272145,1,0,0:0:0:40:2.wav
64,192,272445,1,0,0:0:0:30:Snare.wav
192,192,272445,1,0,0:0:0:40:2.wav
448,192,272745,128,0,272895:0:0:0:60:Tom1.wav
192,192,272895,1,0,0:0:0:30:Kick.wav
64,192,273045,128,0,273195:0:0:0:60:Tom2.wav
320,192,273195,1,0,0:0:0:30:Kick.wav
192,192,273345,128,0,273495:0:0:0:60:Tom3.wav
448,192,273495,1,0,0:0:0:30:Kick.wav
192,192,273645,1,0,0:0:0:50:Snare.wav
320,192,273645,1,0,0:0:0:0:
448,192,276945,1,0,0:0:0:0:
320,192,277095,1,0,0:0:0:0:
64,192,277245,1,0,0:0:0:60:splash.wav
192,192,277245,1,0,0:0:0:60:Praise.wav
448,192,277545,1,0,0:0:0:40:Snare.wav
64,192,277845,1,0,0:0:0:40:Snare.wav
192,192,277995,1,0,0:0:0:40:Kick.wav
320,192,278145,1,0,0:0:0:40:Snare.wav
448,192,278445,1,0,0:0:0:40:Snare.wav
192,192,278745,1,0,0:0:0:40:Snare.wav
64,192,278895,128,0,279045:0:0:0:30:Kick.wav
320,192,279045,1,0,0:0:0:40:Snare.wav
64,192,279345,1,0,0:0:0:40:Snare.wav
320,192,279645,1,0,0:0:0:40:Snare.wav
192,192,279795,1,0,0:0:0:40:Kick.wav
448,192,279945,1,0,0:0:0:40:Snare.wav
320,192,280245,1,0,0:0:0:40:Snare.wav
64,192,280545,1,0,0:0:0:40:Snare.wav
448,192,280695,128,0,280845:0:0:0:30:Kick.wav
192,192,280845,1,0,0:0:0:40:Snare.wav
448,192,281145,1,0,0:0:0:40:Snare.wav
64,192,281445,1,0,0:0:0:40:Snare.wav
192,192,281595,1,0,0:0:0:40:Kick.wav
320,192,281745,1,0,0:0:0:40:Snare.wav
448,192,282045,1,0,0:0:0:40:Snare.wav
320,192,282345,1,0,0:0:0:40:Snare.wav
192,192,282495,1,0,0:0:0:30:Kick.wav
64,192,282645,1,0,0:0:0:30:Snare.wav
320,192,282645,128,0,282945:0:0:0:40:2.wav
64,192,282945,1,0,0:0:0:60:Tom1.wav
192,192,282945,128,0,283245:0:0:0:40:1.wav
64,192,283245,1,0,0:0:0:60:Tom1.wav
448,192,283245,128,0,283545:0:0:0:40:1.wav
320,192,283545,1,0,0:0:0:40:Snare.wav
192,192,283695,1,0,0:0:0:30:Kick.wav
448,192,283845,1,0,0:0:0:30:Kick.wav
64,192,283995,1,0,0:0:0:40:Kick.wav
448,192,284145,1,0,0:0:0:40:Kick.wav
64,192,284295,1,0,0:0:0:40:Kick.wav
192,192,284445,1,0,0:0:0:60:splash.wav
320,192,284445,1,0,0:0:0:40:Kick.wav
320,192,284745,1,0,0:0:0:40:2.wav
320,192,285045,1,0,0:0:0:40:2.wav
192,192,285195,1,0,0:0:0:40:Kick.wav
64,192,285345,128,0,285645:0:0:0:40:Snare.wav
448,192,285345,1,0,0:0:0:40:2.wav
320,192,285645,1,0,0:0:0:40:Kick.wav
320,192,285945,1,0,0:0:0:40:Kick.wav
192,192,286095,1,0,0:0:0:40:1.wav
64,192,286245,1,0,0:0:0:60:splash.wav
448,192,286245,128,0,286545:0:0:0:40:Kick.wav
192,192,286545,128,0,286845:0:0:0:40:2.wav
448,192,286845,1,0,0:0:0:40:2.wav
64,192,286995,1,0,0:0:0:30:Kick.wav
192,192,287145,1,0,0:0:0:40:Snare.wav
320,192,287145,128,0,287445:0:0:0:40:2.wav
64,192,287445,1,0,0:0:0:40:Snare.wav
448,192,287595,1,0,0:0:0:60:Tom1.wav
192,192,287745,1,0,0:0:0:60:Tom2.wav
320,192,287895,1,0,0:0:0:60:Tom3.wav
64,192,288045,1,0,0:0:0:60:splash.wav
192,192,288045,1,0,0:0:0:40:Kick.wav
64,192,288345,1,0,0:0:0:40:2.wav
64,192,288645,1,0,0:0:0:40:2.wav
192,192,288795,1,0,0:0:0:40:Kick.wav
320,192,288945,1,0,0:0:0:40:Snare.wav
448,192,288945,128,0,289245:0:0:0:60:Tom1.wav
64,192,289245,128,0,289545:0:0:0:60:Tom1.wav
192,192,289245,1,0,0:0:0:40:1.wav
320,192,289545,128,0,289845:0:0:0:60:Tom2.wav
448,192,289545,1,0,0:0:0:40:1.wav
192,192,289845,1,0,0:0:0:40:Snare.wav
192,192,289995,1,0,0:0:0:40:Snare.wav
448,192,290145,1,0,0:0:0:40:1.wav
320,192,290295,1,0,0:0:0:0:
64,192,290445,1,0,0:0:0:0:
192,192,290595,1,0,0:0:0:0:
320,192,290745,1,0,0:0:0:40:Snare.wav
320,192,290895,1,0,0:0:0:40:Snare.wav
64,192,291045,1,0,0:0:0:40:1.wav
192,192,291195,1,0,0:0:0:0:
448,192,291345,1,0,0:0:0:0:
320,192,291495,1,0,0:0:0:0:
64,192,291645,1,0,0:0:0:40:1.wav
192,192,291795,1,0,0:0:0:40:1.wav
320,192,291945,1,0,0:0:0:40:1.wav
448,192,292095,1,0,0:0:0:40:1.wav
192,192,292245,1,0,0:0:0:40:1.wav
320,192,292395,1,0,0:0:0:40:1.wav
448,192,292545,1,0,0:0:0:60:Tom1.wav
448,192,292695,1,0,0:0:0:60:Tom1.wav
64,192,293145,1,0,0:0:0:0:
320,192,293295,1,0,0:0:0:0:
64,192,293445,128,0,294045:0:0:0:60:splash.wav
192,192,293445,1,0,0:0:0:40:Kick.wav
320,192,294045,128,0,294345:0:0:0:40:1.wav
448,192,294045,128,0,294345:0:0:0:0:
64,192,294345,1,0,0:0:0:40:Snare.wav
192,192,294345,1,0,0:0:0:60:splash.wav
