osu file format v14

[General]
AudioFilename: audio.mp3
AudioLeadIn: 0
PreviewTime: 148845
Countdown: 0
SampleSet: Soft
StackLeniency: 0.7
Mode: 3
LetterboxInBreaks: 0
SpecialStyle: 0
WidescreenStoryboard: 1

[Editor]
Bookmarks: 52095,85245,144645,149145,230445,268845,282645,283845,294345
DistanceSpacing: 1
BeatDivisor: 2
GridSize: 8
TimelineZoom: 1.7

[Metadata]
Title:Gekka - Midare Botan
TitleUnicode:月華❁乱れ牡丹
Artist:Eve feat. Hatsune Miku
ArtistUnicode:Eve feat. 初音ミク
Creator:Mirsaaa
Version:Easy
Source:
Tags:Moon Flower Wild Peony Japanese vocaloid rock jrock pop J-pop いぶ mayurimu あひる Ahiru niconico ニコニコ Gekka*Midare
BeatmapID:2711123
BeatmapSetID:1307715

[Difficulty]
HPDrainRate:6.5
CircleSize:4
OverallDifficulty:7
ApproachRate:5
SliderMultiplier:1.4
SliderTickRate:1

[Events]
//Background and Video events
0,0,"Background.jpg",0,0
//Break Periods
//Storyboard Layer 0 (Background)
//Storyboard Layer 1 (Fail)
//Storyboard Layer 2 (Pass)
//Storyboard Layer 3 (Foreground)
//Storyboard Layer 4 (Overlay)
//Storyboard Sound Samples
Sample,28245,0,"1.wav",40
Sample,29145,0,"1.wav",40
Sample,29295,0,"1.wav",40
Sample,30045,0,"1.wav",40
Sample,31845,0,"1.wav",40
Sample,32745,0,"1.wav",40
Sample,34545,0,"splash.wav",60
Sample,34545,0,"Praise.wav",60
Sample,34545,0,"2.wav",40
Sample,34695,0,"2.wav",40
Sample,34995,0,"2.wav",40
Sample,35295,0,"1.wav",40
Sample,35445,0,"2.wav",40
Sample,35745,0,"2.wav",40
Sample,36045,0,"2.wav",40
Sample,36195,0,"2.wav",40
Sample,36495,0,"2.wav",40
Sample,36795,0,"1.wav",40
Sample,36945,0,"2.wav",40
Sample,37245,0,"Tom1.wav",60
Sample,37245,0,"1.wav",40
Sample,37545,0,"Tom1.wav",60
Sample,37545,0,"1.wav",40
Sample,37845,0,"1.wav",40
Sample,39045,0,"1.wav",40
Sample,39345,0,"1.wav",40
Sample,39645,0,"1.wav",40
Sample,39945,0,"splash.wav",60
Sample,39945,0,"2.wav",40
Sample,41745,0,"Praise.wav",60
Sample,41745,0,"Kick.wav",40
Sample,41745,0,"2.wav",40
Sample,42045,0,"2.wav",40
Sample,42345,0,"2.wav",40
Sample,42645,0,"2.wav",40
Sample,42945,0,"2.wav",40
Sample,43245,0,"2.wav",40
Sample,43545,0,"2.wav",40
Sample,43845,0,"2.wav",40
Sample,44145,0,"2.wav",40
Sample,44445,0,"2.wav",40
Sample,45045,0,"2.wav",40
Sample,45345,0,"2.wav",40
Sample,45645,0,"2.wav",40
Sample,45945,0,"2.wav",40
Sample,46245,0,"2.wav",40
Sample,46545,0,"2.wav",40
Sample,46845,0,"2.wav",40
Sample,47145,0,"2.wav",40
Sample,47445,0,"1.wav",40
Sample,47745,0,"1.wav",40
Sample,48045,0,"2.wav",40
Sample,48945,0,"Kick.wav",40
Sample,48945,0,"2.wav",40
Sample,49845,0,"2.wav",40
Sample,50145,0,"2.wav",40
Sample,50445,0,"2.wav",40
Sample,50745,0,"Kick.wav",40
Sample,50745,0,"2.wav",40
Sample,51645,0,"2.wav",40
Sample,52245,0,"1.wav",40
Sample,52545,0,"Kick.wav",40
Sample,52545,0,"2.wav",40
Sample,53295,0,"1.wav",40
Sample,53445,0,"2.wav",40
Sample,53745,0,"1.wav",40
Sample,54045,0,"1.wav",40
Sample,54345,0,"Kick.wav",40
Sample,54345,0,"2.wav",40
Sample,54945,0,"2.wav",40
Sample,55095,0,"1.wav",40
Sample,55245,0,"2.wav",40
Sample,56145,0,"Kick.wav",40
Sample,63045,0,"1.wav",40
Sample,63345,0,"splash.wav",60
Sample,64245,0,"1.wav",40
Sample,64545,0,"1.wav",40
Sample,64845,0,"1.wav",40
Sample,65145,0,"1.wav",40
Sample,66045,0,"1.wav",40
Sample,66345,0,"1.wav",40
Sample,66645,0,"1.wav",40
Sample,66945,0,"Kick.wav",40
Sample,66945,0,"1.wav",40
Sample,67245,0,"1.wav",40
Sample,67545,0,"1.wav",40
Sample,67845,0,"1.wav",40
Sample,70545,0,"Kick.wav",40
Sample,74145,0,"Kick.wav",40
Sample,75945,0,"1.wav",40
Sample,77745,0,"Kick.wav",40
Sample,81345,0,"splash.wav",60
Sample,82245,0,"splash.wav",60
Sample,82245,0,"1.wav",40
Sample,83145,0,"splash.wav",60
Sample,83145,0,"1.wav",40
Sample,84045,0,"1.wav",40
Sample,84345,0,"1.wav",40
Sample,85245,0,"Praise.wav",60
Sample,85245,0,"Kick.wav",40
Sample,85545,0,"2.wav",40
Sample,86295,0,"Kick.wav",40
Sample,86745,0,"2.wav",40
Sample,87345,0,"2.wav",40
Sample,87645,0,"Kick.wav",40
Sample,87945,0,"2.wav",40
Sample,88695,0,"Kick.wav",40
Sample,89145,0,"2.wav",40
Sample,89745,0,"2.wav",40
Sample,90045,0,"Kick.wav",40
Sample,90345,0,"2.wav",40
Sample,91095,0,"Kick.wav",40
Sample,91545,0,"2.wav",40
Sample,92145,0,"2.wav",40
Sample,92445,0,"splash.wav",60
Sample,92445,0,"Kick.wav",30
Sample,92445,0,"2.wav",40
Sample,92745,0,"2.wav",40
Sample,93045,0,"2.wav",40
Sample,94845,0,"Praise.wav",60
Sample,94845,0,"Kick.wav",40
Sample,95145,0,"2.wav",40
Sample,95895,0,"Kick.wav",40
Sample,96345,0,"2.wav",40
Sample,96945,0,"2.wav",40
Sample,97245,0,"Kick.wav",40
Sample,97545,0,"2.wav",40
Sample,98295,0,"Kick.wav",40
Sample,98745,0,"2.wav",40
Sample,99345,0,"2.wav",40
Sample,99645,0,"splash.wav",60
Sample,99945,0,"2.wav",40
Sample,100245,0,"2.wav",40
Sample,100545,0,"2.wav",40
Sample,100845,0,"splash.wav",60
Sample,101145,0,"2.wav",40
Sample,101445,0,"2.wav",40
Sample,101745,0,"2.wav",40
Sample,102045,0,"splash.wav",60
Sample,102045,0,"2.wav",40
Sample,102345,0,"2.wav",40
Sample,102645,0,"2.wav",40
Sample,102945,0,"2.wav",40
Sample,105045,0,"Praise.wav",60
Sample,105045,0,"Kick.wav",40
Sample,105045,0,"2.wav",40
Sample,105795,0,"1.wav",40
Sample,105945,0,"2.wav",40
Sample,106245,0,"2.wav",40
Sample,106545,0,"2.wav",40
Sample,106845,0,"Kick.wav",40
Sample,106845,0,"2.wav",40
Sample,107595,0,"1.wav",40
Sample,107745,0,"2.wav",40
Sample,108345,0,"2.wav",40
Sample,108645,0,"Kick.wav",40
Sample,108645,0,"2.wav",40
Sample,109395,0,"1.wav",40
Sample,109545,0,"2.wav",40
Sample,109845,0,"2.wav",40
Sample,110145,0,"2.wav",40
Sample,110445,0,"Kick.wav",40
Sample,110445,0,"2.wav",40
Sample,110745,0,"1.wav",40
Sample,111045,0,"1.wav",40
Sample,111345,0,"2.wav",40
Sample,112245,0,"Kick.wav",40
Sample,112245,0,"2.wav",40
Sample,112995,0,"1.wav",40
Sample,113145,0,"2.wav",40
Sample,113445,0,"2.wav",40
Sample,113745,0,"2.wav",40
Sample,114045,0,"Kick.wav",40
Sample,114045,0,"2.wav",40
Sample,114795,0,"1.wav",40
Sample,114945,0,"2.wav",40
Sample,115545,0,"1.wav",40
Sample,115845,0,"Kick.wav",40
Sample,115845,0,"2.wav",40
Sample,116595,0,"1.wav",40
Sample,116745,0,"2.wav",40
Sample,117045,0,"1.wav",40
Sample,117345,0,"1.wav",40
Sample,117645,0,"2.wav",40
Sample,117945,0,"2.wav",40
Sample,118245,0,"2.wav",40
Sample,119445,0,"Kick.wav",40
Sample,120345,0,"1.wav",40
Sample,122595,0,"1.wav",40
Sample,122745,0,"1.wav",40
Sample,123045,0,"Kick.wav",40
Sample,123945,0,"1.wav",40
Sample,126645,0,"Kick.wav",40
Sample,130245,0,"Kick.wav",40
Sample,131145,0,"Kick.wav",40
Sample,132045,0,"Kick.wav",40
Sample,133845,0,"Kick.wav",40
Sample,137445,0,"Kick.wav",40
Sample,137445,0,"1.wav",40
Sample,138345,0,"1.wav",40
Sample,139245,0,"1.wav",40
Sample,141045,0,"Kick.wav",30
Sample,144645,0,"splash.wav",60
Sample,145545,0,"splash.wav",60
Sample,146445,0,"Kick.wav",40
Sample,149145,0,"splash.wav",60
Sample,149445,0,"Praise.wav",60
Sample,149445,0,"Kick.wav",40
Sample,149745,0,"2.wav",40
Sample,150495,0,"Kick.wav",40
Sample,150945,0,"2.wav",40
Sample,151545,0,"2.wav",40
Sample,151845,0,"Kick.wav",40
Sample,152145,0,"2.wav",40
Sample,152895,0,"Kick.wav",40
Sample,153345,0,"2.wav",40
Sample,153945,0,"2.wav",40
Sample,154245,0,"Kick.wav",40
Sample,154545,0,"2.wav",40
Sample,155295,0,"Kick.wav",40
Sample,155745,0,"2.wav",40
Sample,156345,0,"2.wav",40
Sample,156645,0,"splash.wav",60
Sample,156645,0,"Kick.wav",30
Sample,156645,0,"2.wav",40
Sample,156945,0,"2.wav",40
Sample,157245,0,"2.wav",40
Sample,159045,0,"Praise.wav",60
Sample,159045,0,"Kick.wav",40
Sample,159345,0,"2.wav",40
Sample,160095,0,"Kick.wav",40
Sample,160545,0,"2.wav",40
Sample,161145,0,"2.wav",40
Sample,161445,0,"Kick.wav",40
Sample,161745,0,"2.wav",40
Sample,162495,0,"Kick.wav",40
Sample,162945,0,"2.wav",40
Sample,163545,0,"2.wav",40
Sample,163845,0,"splash.wav",60
Sample,164145,0,"2.wav",40
Sample,164445,0,"2.wav",40
Sample,164745,0,"2.wav",40
Sample,165045,0,"splash.wav",60
Sample,165345,0,"2.wav",40
Sample,165645,0,"2.wav",40
Sample,165945,0,"2.wav",40
Sample,166245,0,"splash.wav",60
Sample,166245,0,"2.wav",40
Sample,166545,0,"2.wav",40
Sample,166845,0,"2.wav",40
Sample,167145,0,"2.wav",40
Sample,169245,0,"Kick.wav",40
Sample,172845,0,"Kick.wav",40
Sample,176445,0,"Kick.wav",40
Sample,176895,0,"1.wav",40
Sample,177345,0,"Kick.wav",40
Sample,177795,0,"1.wav",40
Sample,178245,0,"Kick.wav",40
Sample,178695,0,"1.wav",40
Sample,179145,0,"Kick.wav",40
Sample,179145,0,"1.wav",40
Sample,179445,0,"1.wav",40
Sample,179745,0,"1.wav",40
Sample,180045,0,"Kick.wav",40
Sample,180045,0,"1.wav",40
Sample,180495,0,"1.wav",40
Sample,180945,0,"Kick.wav",40
Sample,180945,0,"1.wav",40
Sample,181845,0,"Kick.wav",40
Sample,181845,0,"1.wav",40
Sample,182745,0,"Kick.wav",40
Sample,182745,0,"2.wav",40
Sample,183045,0,"2.wav",40
Sample,183345,0,"2.wav",40
Sample,183645,0,"Kick.wav",40
Sample,184095,0,"1.wav",40
Sample,184545,0,"Kick.wav",40
Sample,184995,0,"1.wav",40
Sample,185445,0,"Kick.wav",40
Sample,185895,0,"1.wav",40
Sample,186345,0,"Kick.wav",40
Sample,186345,0,"1.wav",40
Sample,186645,0,"1.wav",40
Sample,186945,0,"1.wav",40
Sample,187245,0,"Kick.wav",40
Sample,187245,0,"2.wav",40
Sample,187695,0,"2.wav",40
Sample,188145,0,"Kick.wav",40
Sample,188145,0,"2.wav",40
Sample,188595,0,"2.wav",40
Sample,189045,0,"1.wav",40
Sample,189345,0,"Kick.wav",40
Sample,189345,0,"1.wav",40
Sample,189645,0,"1.wav",40
Sample,189945,0,"1.wav",40
Sample,190245,0,"1.wav",40
Sample,190545,0,"1.wav",40
Sample,190845,0,"Kick.wav",40
Sample,191745,0,"Kick.wav",40
Sample,192645,0,"Kick.wav",40
Sample,193545,0,"Kick.wav",40
Sample,194445,0,"Kick.wav",40
Sample,195345,0,"Kick.wav",40
Sample,196245,0,"Kick.wav",40
Sample,198045,0,"Kick.wav",40
Sample,198945,0,"Kick.wav",40
Sample,199845,0,"Kick.wav",40
Sample,200745,0,"Kick.wav",40
Sample,201645,0,"Kick.wav",40
Sample,202545,0,"Kick.wav",40
Sample,205245,0,"Kick.wav",40
Sample,232695,0,"Kick.wav",40
Sample,233745,0,"Tom1.wav",60
Sample,233745,0,"1.wav",40
Sample,234045,0,"1.wav",40
Sample,235095,0,"Kick.wav",40
Sample,235545,0,"1.wav",40
Sample,235845,0,"1.wav",40
Sample,236145,0,"1.wav",40
Sample,236445,0,"Kick.wav",40
Sample,237045,0,"splash.wav",60
Sample,238245,0,"1.wav",40
Sample,241245,0,"Praise.wav",60
Sample,241245,0,"Kick.wav",40
Sample,241545,0,"2.wav",40
Sample,242295,0,"Kick.wav",40
Sample,242745,0,"2.wav",40
Sample,243345,0,"2.wav",40
Sample,243645,0,"Kick.wav",40
Sample,243945,0,"2.wav",40
Sample,244695,0,"Kick.wav",40
Sample,245145,0,"2.wav",40
Sample,245745,0,"2.wav",40
Sample,246045,0,"splash.wav",60
Sample,246345,0,"2.wav",40
Sample,246645,0,"2.wav",40
Sample,246945,0,"2.wav",40
Sample,247245,0,"splash.wav",60
Sample,247545,0,"2.wav",40
Sample,247845,0,"2.wav",40
Sample,248145,0,"2.wav",40
Sample,248445,0,"splash.wav",60
Sample,248745,0,"2.wav",40
Sample,249045,0,"splash.wav",60
Sample,249045,0,"2.wav",40
Sample,249345,0,"2.wav",40
Sample,249645,0,"splash.wav",60
Sample,249645,0,"2.wav",40
Sample,249945,0,"2.wav",40
Sample,250845,0,"Praise.wav",60
Sample,250845,0,"Kick.wav",40
Sample,251145,0,"2.wav",40
Sample,251895,0,"Kick.wav",40
Sample,252345,0,"2.wav",40
Sample,252945,0,"2.wav",40
Sample,253245,0,"Kick.wav",40
Sample,253545,0,"2.wav",40
Sample,254295,0,"Kick.wav",40
Sample,254745,0,"2.wav",40
Sample,255345,0,"2.wav",40
Sample,255645,0,"Kick.wav",40
Sample,255945,0,"2.wav",40
Sample,256695,0,"Kick.wav",40
Sample,257145,0,"2.wav",40
Sample,257745,0,"2.wav",40
Sample,258045,0,"splash.wav",60
Sample,258045,0,"Kick.wav",30
Sample,258345,0,"2.wav",40
Sample,258645,0,"2.wav",40
Sample,258945,0,"2.wav",40
Sample,260445,0,"Praise.wav",60
Sample,260445,0,"Kick.wav",40
Sample,260745,0,"2.wav",40
Sample,261495,0,"Kick.wav",40
Sample,261945,0,"2.wav",40
Sample,262545,0,"2.wav",40
Sample,262845,0,"Kick.wav",40
Sample,263145,0,"2.wav",40
Sample,263745,0,"2.wav",40
Sample,265845,0,"2.wav",40
Sample,267045,0,"2.wav",40
Sample,267645,0,"Kick.wav",40
Sample,267645,0,"1.wav",40
Sample,268245,0,"1.wav",40
Sample,270045,0,"Praise.wav",60
Sample,270345,0,"2.wav",40
Sample,270645,0,"2.wav",40
Sample,270945,0,"2.wav",40
Sample,271245,0,"2.wav",40
Sample,271545,0,"2.wav",40
Sample,271845,0,"2.wav",40
Sample,272145,0,"2.wav",40
Sample,272445,0,"2.wav",40
Sample,277245,0,"Praise.wav",60
Sample,277245,0,"Kick.wav",40
Sample,277245,0,"2.wav",40
Sample,277545,0,"2.wav",40
Sample,277845,0,"2.wav",40
Sample,278145,0,"2.wav",40
Sample,278445,0,"2.wav",40
Sample,278745,0,"2.wav",40
Sample,279045,0,"splash.wav",60
Sample,279045,0,"2.wav",40
Sample,279345,0,"2.wav",40
Sample,279645,0,"2.wav",40
Sample,279945,0,"2.wav",40
Sample,280545,0,"2.wav",40
Sample,280845,0,"splash.wav",60
Sample,280845,0,"2.wav",40
Sample,281145,0,"2.wav",40
Sample,281445,0,"2.wav",40
Sample,281745,0,"2.wav",40
Sample,282045,0,"2.wav",40
Sample,282345,0,"2.wav",40
Sample,282645,0,"2.wav",40
Sample,282945,0,"1.wav",40
Sample,283245,0,"1.wav",40
Sample,283545,0,"2.wav",40
Sample,284445,0,"Kick.wav",40
Sample,284445,0,"2.wav",40
Sample,285345,0,"2.wav",40
Sample,285645,0,"2.wav",40
Sample,285945,0,"2.wav",40
Sample,286245,0,"Kick.wav",40
Sample,286245,0,"2.wav",40
Sample,287145,0,"2.wav",40
Sample,287745,0,"1.wav",40
Sample,288045,0,"Kick.wav",40
Sample,288045,0,"2.wav",40
Sample,288795,0,"1.wav",40
Sample,288945,0,"Tom1.wav",60
Sample,288945,0,"2.wav",40
Sample,289245,0,"1.wav",40
Sample,289545,0,"1.wav",40
Sample,289845,0,"2.wav",40
Sample,289995,0,"2.wav",40
Sample,290745,0,"2.wav",40
Sample,290895,0,"2.wav",40
Sample,292545,0,"1.wav",40
Sample,293445,0,"Kick.wav",40
Sample,294345,0,"splash.wav",60
Sample,294345,0,"1.wav",40

[TimingPoints]
11145,300,6,2,1,30,1,0
84045,300,4,2,1,30,1,0
85245,-100,4,2,1,30,0,1
103245,300,6,2,1,30,1,0
105045,-100,4,2,1,30,0,0
148245,300,4,2,1,30,1,0
149445,-100,4,2,1,30,0,1
167445,300,6,2,1,30,1,0
169245,-100,4,2,1,30,0,0
230445,300,4,2,1,30,1,0
241245,-100,4,2,1,30,0,1
273645,300,6,2,1,30,1,0
273645,-100,4,2,1,30,0,0

[HitObjects]
448,192,11145,5,0,0:0:0:40:1.wav
192,192,12045,1,0,0:0:0:40:2.wav
320,192,12945,1,0,0:0:0:40:1.wav
64,192,13845,1,0,0:0:0:40:2.wav
448,192,14745,1,0,0:0:0:40:1.wav
192,192,15645,1,0,0:0:0:40:2.wav
448,192,15945,1,0,0:0:0:40:1.wav
64,192,16245,1,0,0:0:0:40:2.wav
448,192,16545,128,0,16845:0:0:0:40:1.wav
320,192,16845,128,0,17145:0:0:0:40:1.wav
192,192,17145,128,0,17445:0:0:0:40:1.wav
448,192,17445,1,0,0:0:0:40:1.wav
64,192,17745,128,0,18345:0:0:0:40:1.wav
320,192,18345,1,0,0:0:0:40:1.wav
64,192,19245,1,0,0:0:0:40:2.wav
448,192,20145,1,0,0:0:0:40:1.wav
192,192,21045,1,0,0:0:0:40:2.wav
320,192,21945,1,0,0:0:0:40:1.wav
192,192,22845,1,0,0:0:0:40:2.wav
320,192,23145,1,0,0:0:0:40:2.wav
64,192,23445,1,0,0:0:0:40:1.wav
448,192,23745,1,0,0:0:0:40:2.wav
320,192,24045,1,0,0:0:0:0:
192,192,24345,1,0,0:0:0:0:
64,192,24645,128,0,27045:0:0:0:0:
448,192,27045,128,0,27345:0:0:0:40:1.wav
192,192,27345,1,0,0:0:0:40:Snare.wav
320,192,27495,1,0,0:0:0:40:Kick.wav
192,192,28245,1,0,0:0:0:40:Snare.wav
448,192,28545,1,0,0:0:0:40:1.wav
448,192,28845,1,0,0:0:0:40:1.wav
320,192,29145,1,0,0:0:0:40:Snare.wav
64,192,29295,1,0,0:0:0:40:Kick.wav
320,192,30045,128,0,30345:0:0:0:40:Snare.wav
192,192,30345,128,0,30645:0:0:0:40:1.wav
64,192,30645,128,0,30945:0:0:0:40:1.wav
448,192,30945,1,0,0:0:0:40:Snare.wav
192,192,31095,1,0,0:0:0:40:Kick.wav
448,192,31845,1,0,0:0:0:40:Snare.wav
64,192,32145,1,0,0:0:0:40:1.wav
64,192,32445,1,0,0:0:0:40:1.wav
192,192,32745,1,0,0:0:0:40:Snare.wav
448,192,33045,1,0,0:0:0:40:Snare.wav
192,192,33645,128,0,33945:0:0:0:40:Snare.wav
320,192,33945,128,0,34245:0:0:0:0:
64,192,34245,128,0,34545:0:0:0:0:
448,192,34545,1,0,0:0:0:40:Snare.wav
192,192,34695,1,0,0:0:0:40:Snare.wav
448,192,34995,1,0,0:0:0:40:Snare.wav
64,192,35295,1,0,0:0:0:40:Snare.wav
320,192,35445,1,0,0:0:0:40:Snare.wav
448,192,35745,1,0,0:0:0:40:Snare.wav
64,192,36045,1,0,0:0:0:40:Snare.wav
320,192,36195,1,0,0:0:0:40:Snare.wav
64,192,36495,1,0,0:0:0:40:Snare.wav
448,192,36795,1,0,0:0:0:40:Snare.wav
192,192,36945,1,0,0:0:0:40:Snare.wav
64,192,37245,128,0,37545:0:0:0:40:Snare.wav
192,192,37545,128,0,37845:0:0:0:40:Snare.wav
448,192,37845,128,0,38145:0:0:0:30:Snare.wav
64,192,38145,1,0,0:0:0:30:Snare.wav
192,192,38445,1,0,0:0:0:40:Snare.wav
320,192,38745,1,0,0:0:0:40:Snare.wav
448,192,39045,128,0,39345:0:0:0:40:Snare.wav
320,192,39345,128,0,39645:0:0:0:40:Snare.wav
192,192,39645,128,0,39945:0:0:0:30:Snare.wav
448,192,39945,1,0,0:0:0:40:Snare.wav
320,192,40245,1,0,0:0:0:60:Tom1.wav
64,192,40545,1,0,0:0:0:60:Tom1.wav
448,192,40845,1,0,0:0:0:40:Snare.wav
192,192,41145,1,0,0:0:0:40:1.wav
320,192,41445,1,0,0:0:0:40:1.wav
448,192,41745,128,0,42045:0:0:0:40:Snare.wav
64,192,42045,128,0,42345:0:0:0:40:Snare.wav
320,192,42345,128,0,42645:0:0:0:40:Snare.wav
192,192,42645,128,0,42945:0:0:0:40:Snare.wav
448,192,42945,1,0,0:0:0:40:Snare.wav
448,192,43245,1,0,0:0:0:40:Snare.wav
320,192,43545,128,0,43845:0:0:0:40:Snare.wav
64,192,43845,128,0,44145:0:0:0:40:Snare.wav
448,192,44145,128,0,44445:0:0:0:40:Snare.wav
192,192,44445,128,0,44745:0:0:0:40:Snare.wav
320,192,44745,1,0,0:0:0:40:Snare.wav
64,192,45045,1,0,0:0:0:40:Snare.wav
320,192,45345,128,0,45645:0:0:0:40:Snare.wav
192,192,45645,128,0,45945:0:0:0:40:Snare.wav
448,192,45945,128,0,46245:0:0:0:40:Snare.wav
64,192,46245,128,0,46545:0:0:0:40:Snare.wav
320,192,46545,1,0,0:0:0:40:Snare.wav
320,192,46845,1,0,0:0:0:40:Snare.wav
448,192,47145,128,0,47445:0:0:0:30:Snare.wav
64,192,47445,128,0,47745:0:0:0:60:Tom1.wav
320,192,47745,128,0,48045:0:0:0:60:Tom1.wav
192,192,48045,1,0,0:0:0:40:Snare.wav
448,192,48345,1,0,0:0:0:30:Kick.wav
64,192,48645,1,0,0:0:0:40:Kick.wav
320,192,48945,128,0,49395:0:0:0:60:splash.wav
192,192,49395,128,0,49845:0:0:0:40:Kick.wav
448,192,49845,128,0,50145:0:0:0:40:Snare.wav
64,192,50145,1,0,0:0:0:40:Kick.wav
64,192,50445,1,0,0:0:0:40:Kick.wav
192,192,50745,128,0,51195:0:0:0:60:splash.wav
320,192,51195,128,0,51645:0:0:0:40:Kick.wav
64,192,51645,128,0,51945:0:0:0:40:Snare.wav
448,192,51945,1,0,0:0:0:40:Snare.wav
192,192,52245,1,0,0:0:0:60:Tom2.wav
320,192,52545,1,0,0:0:0:60:splash.wav
64,192,52845,1,0,0:0:0:40:2.wav
448,192,53145,1,0,0:0:0:40:2.wav
320,192,53295,1,0,0:0:0:40:Kick.wav
64,192,53445,1,0,0:0:0:40:Snare.wav
448,192,53745,1,0,0:0:0:30:Snare.wav
64,192,54045,1,0,0:0:0:40:Snare.wav
192,192,54345,1,0,0:0:0:60:splash.wav
448,192,54645,1,0,0:0:0:40:1.wav
320,192,54945,1,0,0:0:0:60:Tom2.wav
64,192,55095,1,0,0:0:0:30:Kick.wav
192,192,55245,1,0,0:0:0:40:Snare.wav
448,192,55545,1,0,0:0:0:30:Snare.wav
320,192,55845,1,0,0:0:0:60:Tom2.wav
192,192,56145,128,0,57945:0:0:0:60:splash.wav
448,192,56445,1,0,0:0:0:40:Kick.wav
64,192,56745,1,0,0:0:0:40:Kick.wav
320,192,57045,1,0,0:0:0:40:Kick.wav
448,192,57345,1,0,0:0:0:40:Kick.wav
64,192,57645,1,0,0:0:0:40:Kick.wav
448,192,57945,1,0,0:0:0:40:Kick.wav
320,192,58245,1,0,0:0:0:40:Kick.wav
192,192,58545,1,0,0:0:0:40:Kick.wav
448,192,58845,128,0,59745:0:0:0:40:Kick.wav
320,192,59145,1,0,0:0:0:40:Kick.wav
192,192,59445,1,0,0:0:0:40:Kick.wav
64,192,59745,1,0,0:0:0:40:Kick.wav
192,192,60045,1,0,0:0:0:40:Kick.wav
320,192,60345,1,0,0:0:0:40:Kick.wav
64,192,60645,128,0,61545:0:0:0:40:Kick.wav
192,192,60945,1,0,0:0:0:40:Kick.wav
320,192,61245,1,0,0:0:0:40:Kick.wav
448,192,61545,1,0,0:0:0:40:Kick.wav
320,192,61845,1,0,0:0:0:40:Kick.wav
192,192,62145,1,0,0:0:0:40:Kick.wav
64,192,62445,128,0,62745:0:0:0:40:Kick.wav
320,192,62745,1,0,0:0:0:40:Kick.wav
448,192,63045,128,0,63345:0:0:0:30:Snare.wav
192,192,63345,1,0,0:0:0:30:Snare.wav
320,192,63645,1,0,0:0:0:40:Snare.wav
64,192,63945,1,0,0:0:0:40:Kick.wav
448,192,64095,1,0,0:0:0:40:Snare.wav
192,192,64245,1,0,0:0:0:40:Kick.wav
320,192,64545,1,0,0:0:0:40:Snare.wav
64,192,64845,1,0,0:0:0:40:Kick.wav
192,192,65145,1,0,0:0:0:40:Kick.wav
448,192,65445,1,0,0:0:0:40:Snare.wav
320,192,65745,1,0,0:0:0:40:Kick.wav
64,192,65895,1,0,0:0:0:40:Snare.wav
448,192,66045,1,0,0:0:0:30:Snare.wav
192,192,66345,1,0,0:0:0:40:Kick.wav
448,192,66645,1,0,0:0:0:40:Kick.wav
64,192,66945,1,0,0:0:0:60:splash.wav
320,192,67245,1,0,0:0:0:40:Snare.wav
192,192,67545,1,0,0:0:0:40:Kick.wav
448,192,67845,1,0,0:0:0:40:Kick.wav
64,192,68145,1,0,0:0:0:40:Snare.wav
448,192,68445,1,0,0:0:0:40:Kick.wav
320,192,68745,1,0,0:0:0:40:Kick.wav
64,192,69045,1,0,0:0:0:40:Snare.wav
320,192,69345,1,0,0:0:0:40:Kick.wav
448,192,69645,1,0,0:0:0:30:Snare.wav
192,192,69945,1,0,0:0:0:40:Kick.wav
64,192,70245,1,0,0:0:0:40:Kick.wav
320,192,70545,1,0,0:0:0:60:splash.wav
64,192,71445,1,0,0:0:0:40:Snare.wav
192,192,71745,1,0,0:0:0:0:
320,192,72045,1,0,0:0:0:40:Kick.wav
448,192,72345,1,0,0:0:0:40:Kick.wav
320,192,72645,1,0,0:0:0:0:
192,192,72945,1,0,0:0:0:0:
64,192,73245,128,0,74145:0:0:0:40:Snare.wav
448,192,74145,1,0,0:0:0:60:splash.wav
192,192,74745,1,0,0:0:0:0:
320,192,75045,1,0,0:0:0:40:Snare.wav
448,192,75645,1,0,0:0:0:40:Kick.wav
64,192,75945,1,0,0:0:0:40:Kick.wav
192,192,76845,1,0,0:0:0:40:Snare.wav
320,192,76995,1,0,0:0:0:40:Snare.wav
64,192,77145,128,0,77445:0:0:0:60:Tom1.wav
448,192,77445,128,0,77745:0:0:0:60:Tom2.wav
192,192,77745,1,0,0:0:0:60:splash.wav
448,192,78645,1,0,0:0:0:40:Snare.wav
320,192,78945,1,0,0:0:0:60:Tom1.wav
192,192,79245,1,0,0:0:0:60:Tom3.wav
64,192,79545,1,0,0:0:0:40:Kick.wav
192,192,79845,1,0,0:0:0:60:Tom2.wav
320,192,80145,1,0,0:0:0:60:Tom3.wav
448,192,80445,128,0,81345:0:0:0:40:Snare.wav
64,192,81345,1,0,0:0:0:40:Snare.wav
192,192,81645,1,0,0:0:0:40:1.wav
448,192,81945,1,0,0:0:0:40:1.wav
64,192,82245,1,0,0:0:0:40:Snare.wav
320,192,82545,1,0,0:0:0:40:1.wav
448,192,82845,1,0,0:0:0:40:1.wav
192,192,83145,1,0,0:0:0:40:Snare.wav
320,192,83445,1,0,0:0:0:40:1.wav
64,192,83745,1,0,0:0:0:40:1.wav
448,192,84045,1,0,0:0:0:50:Snare.wav
448,192,84345,1,0,0:0:0:50:Snare.wav
64,192,84645,128,0,84945:0:0:0:0:
320,192,84945,128,0,85245:0:0:0:0:
64,192,85245,1,0,0:0:0:60:splash.wav
320,192,85545,1,0,0:0:0:40:Snare.wav
448,192,85845,1,0,0:0:0:40:Kick.wav
192,192,85995,1,0,0:0:0:40:Kick.wav
320,192,86295,128,0,86745:0:0:0:60:splash.wav
64,192,86745,1,0,0:0:0:40:Snare.wav
448,192,87045,1,0,0:0:0:40:Kick.wav
192,192,87345,1,0,0:0:0:40:Snare.wav
64,192,87645,128,0,87945:0:0:0:60:splash.wav
320,192,87945,128,0,88245:0:0:0:40:Snare.wav
448,192,88245,1,0,0:0:0:40:Kick.wav
64,192,88395,1,0,0:0:0:40:Kick.wav
192,192,88695,128,0,89145:0:0:0:60:splash.wav
320,192,89145,1,0,0:0:0:40:Snare.wav
448,192,89445,128,0,89745:0:0:0:40:Kick.wav
192,192,89745,128,0,90045:0:0:0:40:Snare.wav
320,192,90045,128,0,90345:0:0:0:60:splash.wav
448,192,90345,1,0,0:0:0:40:Snare.wav
64,192,90645,128,0,91095:0:0:0:40:Kick.wav
320,192,91095,128,0,91545:0:0:0:60:splash.wav
64,192,91545,1,0,0:0:0:40:Snare.wav
192,192,91845,1,0,0:0:0:40:Kick.wav
448,192,92145,1,0,0:0:0:40:Snare.wav
64,192,92445,128,0,92745:0:0:0:40:Snare.wav
320,192,92745,128,0,93045:0:0:0:40:Snare.wav
64,192,93045,128,0,93345:0:0:0:40:Snare.wav
448,192,93345,128,0,93645:0:0:0:60:Tom1.wav
192,192,93645,128,0,93945:0:0:0:40:Snare.wav
320,192,93945,1,0,0:0:0:40:Snare.wav
448,192,94245,128,0,94545:0:0:0:40:Snare.wav
64,192,94545,128,0,94845:0:0:0:30:Snare.wav
320,192,94845,1,0,0:0:0:60:splash.wav
192,192,95145,1,0,0:0:0:40:Snare.wav
64,192,95445,1,0,0:0:0:40:Kick.wav
448,192,95595,1,0,0:0:0:40:Kick.wav
192,192,95895,128,0,96345:0:0:0:60:splash.wav
448,192,96345,1,0,0:0:0:40:Snare.wav
320,192,96645,1,0,0:0:0:40:Kick.wav
192,192,96945,1,0,0:0:0:40:Snare.wav
448,192,97245,128,0,97545:0:0:0:60:splash.wav
64,192,97545,128,0,97845:0:0:0:40:Snare.wav
448,192,97845,1,0,0:0:0:40:Kick.wav
192,192,97995,1,0,0:0:0:40:Kick.wav
320,192,98295,128,0,98745:0:0:0:60:splash.wav
192,192,98745,1,0,0:0:0:40:Snare.wav
64,192,99045,128,0,99345:0:0:0:30:Kick.wav
448,192,99345,128,0,99645:0:0:0:40:Snare.wav
320,192,99645,128,0,99945:0:0:0:40:Snare.wav
64,192,99945,1,0,0:0:0:40:Snare.wav
192,192,100245,128,0,100545:0:0:0:40:Snare.wav
448,192,100545,128,0,100845:0:0:0:40:Snare.wav
64,192,100845,128,0,101145:0:0:0:40:Snare.wav
320,192,101145,128,0,101445:0:0:0:40:Snare.wav
192,192,101445,128,0,101745:0:0:0:40:Snare.wav
448,192,101745,128,0,102045:0:0:0:40:Snare.wav
64,192,102045,128,0,102645:0:0:0:40:Snare.wav
448,192,102345,1,0,0:0:0:40:Snare.wav
320,192,102645,128,0,103245:0:0:0:40:Snare.wav
64,192,102945,1,0,0:0:0:40:Snare.wav
192,192,103245,1,0,0:0:0:30:Kick.wav
448,192,103545,1,0,0:0:0:40:Kick.wav
192,192,103845,1,0,0:0:0:40:Kick.wav
64,192,104145,128,0,104745:0:0:0:60:Tom1.wav
320,192,104745,1,0,0:0:0:40:Snare.wav
448,192,105045,1,0,0:0:0:60:splash.wav
64,192,105345,1,0,0:0:0:40:2.wav
448,192,105645,1,0,0:0:0:40:2.wav
320,192,105795,1,0,0:0:0:40:Kick.wav
192,192,105945,1,0,0:0:0:40:Snare.wav
448,192,106245,1,0,0:0:0:40:Kick.wav
64,192,106545,1,0,0:0:0:40:Kick.wav
320,192,106695,1,0,0:0:0:40:1.wav
192,192,106845,1,0,0:0:0:60:splash.wav
64,192,107145,1,0,0:0:0:40:2.wav
448,192,107445,1,0,0:0:0:40:2.wav
192,192,107595,1,0,0:0:0:40:Kick.wav
320,192,107745,1,0,0:0:0:40:Snare.wav
64,192,108345,1,0,0:0:0:40:Kick.wav
448,192,108645,1,0,0:0:0:60:splash.wav
192,192,108945,1,0,0:0:0:40:2.wav
448,192,109245,1,0,0:0:0:40:2.wav
320,192,109395,1,0,0:0:0:40:Kick.wav
64,192,109545,1,0,0:0:0:40:Snare.wav
448,192,109845,1,0,0:0:0:40:Kick.wav
320,192,110145,1,0,0:0:0:40:Kick.wav
192,192,110295,1,0,0:0:0:40:1.wav
448,192,110445,1,0,0:0:0:60:splash.wav
64,192,110745,1,0,0:0:0:40:Kick.wav
320,192,111045,1,0,0:0:0:60:Tom3.wav
192,192,111345,1,0,0:0:0:40:Snare.wav
320,192,112245,1,0,0:0:0:60:splash.wav
448,192,112545,1,0,0:0:0:40:2.wav
64,192,112845,1,0,0:0:0:40:2.wav
192,192,112995,1,0,0:0:0:40:Kick.wav
320,192,113145,1,0,0:0:0:40:Snare.wav
64,192,113445,1,0,0:0:0:40:Kick.wav
448,192,113745,1,0,0:0:0:40:Kick.wav
320,192,113895,1,0,0:0:0:40:1.wav
64,192,114045,1,0,0:0:0:60:splash.wav
448,192,114345,1,0,0:0:0:40:2.wav
64,192,114645,1,0,0:0:0:40:2.wav
320,192,114795,1,0,0:0:0:40:Kick.wav
192,192,114945,1,0,0:0:0:40:Snare.wav
448,192,115545,1,0,0:0:0:40:Kick.wav
192,192,115845,1,0,0:0:0:60:splash.wav
320,192,116145,1,0,0:0:0:40:2.wav
64,192,116445,1,0,0:0:0:40:2.wav
192,192,116595,1,0,0:0:0:40:Kick.wav
320,192,116745,1,0,0:0:0:40:Snare.wav
64,192,117045,1,0,0:0:0:60:Tom1.wav
192,192,117345,1,0,0:0:0:60:Tom3.wav
448,192,117495,1,0,0:0:0:60:Tom3.wav
64,192,117645,1,0,0:0:0:30:Kick.wav
320,192,117945,1,0,0:0:0:30:Kick.wav
64,192,118245,1,0,0:0:0:30:Kick.wav
448,192,118545,1,0,0:0:0:40:Snare.wav
192,192,119445,1,0,0:0:0:60:splash.wav
448,192,119745,1,0,0:0:0:0:
64,192,120045,1,0,0:0:0:0:
320,192,120195,1,0,0:0:0:40:Kick.wav
192,192,120345,1,0,0:0:0:40:Kick.wav
64,192,120795,1,0,0:0:0:40:Kick.wav
448,192,120945,1,0,0:0:0:40:Snare.wav
320,192,121245,1,0,0:0:0:40:Kick.wav
64,192,121545,1,0,0:0:0:0:
192,192,121845,1,0,0:0:0:0:
448,192,121995,1,0,0:0:0:40:Kick.wav
320,192,122145,1,0,0:0:0:40:Kick.wav
64,192,122595,1,0,0:0:0:30:Kick.wav
320,192,122745,128,0,123045:0:0:0:40:Snare.wav
192,192,123045,128,0,123345:0:0:0:60:splash.wav
448,192,123945,128,0,124245:0:0:0:40:Kick.wav
64,192,124245,1,0,0:0:0:30:Kick.wav
192,192,124395,1,0,0:0:0:30:Kick.wav
320,192,124545,1,0,0:0:0:40:Snare.wav
64,192,124845,128,0,125145:0:0:0:40:Kick.wav
320,192,125145,128,0,125445:0:0:0:40:Kick.wav
192,192,125445,128,0,125745:0:0:0:40:Kick.wav
448,192,125745,1,0,0:0:0:40:Snare.wav
320,192,126045,1,0,0:0:0:60:Tom1.wav
64,192,126345,128,0,126645:0:0:0:30:Snare.wav
320,192,126645,1,0,0:0:0:60:splash.wav
192,192,126945,1,0,0:0:0:40:Snare.wav
448,192,127245,1,0,0:0:0:40:Kick.wav
64,192,127395,1,0,0:0:0:40:Snare.wav
192,192,127545,1,0,0:0:0:40:Kick.wav
320,192,127845,1,0,0:0:0:40:Snare.wav
320,192,128145,1,0,0:0:0:40:Snare.wav
64,192,128445,1,0,0:0:0:40:Kick.wav
448,192,128745,1,0,0:0:0:40:Snare.wav
192,192,129045,1,0,0:0:0:40:Kick.wav
448,192,129195,1,0,0:0:0:40:Snare.wav
64,192,129345,1,0,0:0:0:40:Kick.wav
320,192,129645,1,0,0:0:0:40:Snare.wav
320,192,129945,1,0,0:0:0:30:Snare.wav
192,192,130245,1,0,0:0:0:60:splash.wav
448,192,130545,1,0,0:0:0:40:Snare.wav
64,192,130845,1,0,0:0:0:40:Kick.wav
448,192,131145,128,0,131745:0:0:0:60:splash.wav
64,192,131745,128,0,132045:0:0:0:40:Kick.wav
320,192,132045,128,0,132945:0:0:0:60:splash.wav
192,192,132945,128,0,133845:0:0:0:40:Snare.wav
320,192,133845,1,0,0:0:0:60:splash.wav
448,192,134745,1,0,0:0:0:40:Snare.wav
320,192,135045,1,0,0:0:0:0:
192,192,135345,1,0,0:0:0:0:
64,192,135645,1,0,0:0:0:30:Kick.wav
192,192,135945,1,0,0:0:0:0:
320,192,136245,1,0,0:0:0:0:
448,192,136545,1,0,0:0:0:40:Snare.wav
320,192,137445,128,0,138045:0:0:0:60:splash.wav
64,192,138045,1,0,0:0:0:40:1.wav
192,192,138345,128,0,138945:0:0:0:40:Snare.wav
448,192,138945,1,0,0:0:0:40:1.wav
320,192,139245,128,0,139845:0:0:0:30:Kick.wav
64,192,140145,128,0,140745:0:0:0:40:Snare.wav
448,192,141045,128,0,141495:0:0:0:60:splash.wav
64,192,141945,1,0,0:0:0:40:Snare.wav
192,192,142245,1,0,0:0:0:0:
320,192,142545,1,0,0:0:0:0:
448,192,142845,1,0,0:0:0:30:Kick.wav
320,192,143145,1,0,0:0:0:0:
192,192,143445,1,0,0:0:0:60:Tom2.wav
64,192,143745,1,0,0:0:0:40:Snare.wav
192,192,144345,128,0,144645:0:0:0:0:
320,192,144645,1,0,0:0:0:40:Snare.wav
64,192,144945,1,0,0:0:0:0:
448,192,145245,1,0,0:0:0:0:
192,192,145545,1,0,0:0:0:40:Snare.wav
320,192,145845,1,0,0:0:0:60:Tom1.wav
448,192,146145,1,0,0:0:0:60:Tom1.wav
64,192,146445,128,0,147245:0:0:0:40:splash.wav
320,192,147245,1,0,0:0:0:40:Snare.wav
448,192,148845,128,0,149145:0:0:0:0:
192,192,149145,128,0,149445:0:0:0:40:Snare.wav
448,192,149445,1,0,0:0:0:60:splash.wav
192,192,149745,1,0,0:0:0:40:Snare.wav
64,192,150045,1,0,0:0:0:40:Kick.wav
320,192,150195,1,0,0:0:0:40:Kick.wav
192,192,150495,128,0,150945:0:0:0:60:splash.wav
448,192,150945,1,0,0:0:0:40:Snare.wav
64,192,151245,1,0,0:0:0:40:Kick.wav
320,192,151545,1,0,0:0:0:40:Snare.wav
448,192,151845,128,0,152145:0:0:0:60:splash.wav
192,192,152145,128,0,152445:0:0:0:40:Snare.wav
448,192,152445,1,0,0:0:0:40:Kick.wav
64,192,152595,1,0,0:0:0:40:Kick.wav
320,192,152895,128,0,153345:0:0:0:60:splash.wav
192,192,153345,1,0,0:0:0:40:Snare.wav
448,192,153645,128,0,153945:0:0:0:40:Kick.wav
64,192,153945,128,0,154245:0:0:0:40:Snare.wav
320,192,154245,128,0,154545:0:0:0:60:splash.wav
192,192,154545,1,0,0:0:0:40:Snare.wav
64,192,154845,128,0,155295:0:0:0:40:Kick.wav
320,192,155295,128,0,155745:0:0:0:60:splash.wav
448,192,155745,1,0,0:0:0:40:Snare.wav
64,192,156045,1,0,0:0:0:40:Kick.wav
320,192,156345,1,0,0:0:0:40:Snare.wav
192,192,156645,128,0,156945:0:0:0:40:Snare.wav
448,192,156945,128,0,157245:0:0:0:40:Snare.wav
192,192,157245,128,0,157545:0:0:0:40:Snare.wav
320,192,157545,128,0,157845:0:0:0:60:Tom1.wav
64,192,157845,128,0,158145:0:0:0:40:Snare.wav
320,192,158145,1,0,0:0:0:40:Snare.wav
192,192,158445,128,0,158745:0:0:0:40:Snare.wav
448,192,158745,128,0,159045:0:0:0:30:Snare.wav
64,192,159045,1,0,0:0:0:60:splash.wav
320,192,159345,1,0,0:0:0:40:Snare.wav
448,192,159645,1,0,0:0:0:40:Kick.wav
192,192,159795,1,0,0:0:0:40:Kick.wav
320,192,160095,128,0,160545:0:0:0:60:splash.wav
64,192,160545,1,0,0:0:0:40:Snare.wav
192,192,160845,1,0,0:0:0:40:Kick.wav
320,192,161145,1,0,0:0:0:40:Snare.wav
448,192,161445,128,0,161745:0:0:0:60:splash.wav
192,192,161745,128,0,162045:0:0:0:40:Snare.wav
64,192,162045,1,0,0:0:0:40:Kick.wav
320,192,162195,1,0,0:0:0:40:Kick.wav
448,192,162495,128,0,162945:0:0:0:60:splash.wav
192,192,162945,1,0,0:0:0:40:Snare.wav
320,192,163245,128,0,163545:0:0:0:30:Kick.wav
64,192,163545,128,0,163845:0:0:0:40:Snare.wav
320,192,163845,128,0,164145:0:0:0:40:Snare.wav
192,192,164145,1,0,0:0:0:40:Snare.wav
448,192,164445,128,0,164745:0:0:0:40:Snare.wav
192,192,164745,128,0,165045:0:0:0:40:Snare.wav
320,192,165045,128,0,165345:0:0:0:40:Snare.wav
64,192,165345,128,0,165645:0:0:0:40:Snare.wav
192,192,165645,128,0,165945:0:0:0:40:Snare.wav
448,192,165945,128,0,166245:0:0:0:40:Snare.wav
64,192,166245,128,0,166845:0:0:0:40:Snare.wav
448,192,166545,1,0,0:0:0:40:Snare.wav
320,192,166845,128,0,167445:0:0:0:40:Snare.wav
64,192,167145,1,0,0:0:0:40:Snare.wav
192,192,167445,1,0,0:0:0:30:Kick.wav
448,192,167745,1,0,0:0:0:40:Kick.wav
192,192,168045,1,0,0:0:0:40:Kick.wav
64,192,168345,1,0,0:0:0:40:Kick.wav
448,192,168645,1,0,0:0:0:40:Kick.wav
320,192,168945,1,0,0:0:0:40:Kick.wav
192,192,169245,128,0,170145:0:0:0:60:splash.wav
320,192,170145,128,0,171045:0:0:0:0:
192,192,171045,128,0,171945:0:0:0:0:
64,192,171945,128,0,172845:0:0:0:0:
448,192,172845,128,0,173745:0:0:0:60:splash.wav
320,192,173745,128,0,174645:0:0:0:40:1.wav
192,192,174645,128,0,175545:0:0:0:40:1.wav
448,192,175545,1,0,0:0:0:40:Snare.wav
320,192,175845,1,0,0:0:0:30:Snare.wav
192,192,176145,1,0,0:0:0:40:Snare.wav
448,192,176445,128,0,176895:0:0:0:60:splash.wav
64,192,176895,1,0,0:0:0:40:Snare.wav
320,192,177345,128,0,177795:0:0:0:60:splash.wav
192,192,177795,1,0,0:0:0:40:Snare.wav
64,192,178245,128,0,178695:0:0:0:60:splash.wav
320,192,178695,1,0,0:0:0:40:Snare.wav
448,192,179145,1,0,0:0:0:60:splash.wav
320,192,179445,1,0,0:0:0:40:Kick.wav
64,192,179745,1,0,0:0:0:40:Kick.wav
448,192,180045,128,0,180495:0:0:0:60:splash.wav
192,192,180495,1,0,0:0:0:40:Snare.wav
64,192,180945,128,0,181395:0:0:0:60:splash.wav
320,192,181395,1,0,0:0:0:40:Snare.wav
448,192,181845,128,0,182745:0:0:0:60:splash.wav
64,192,182745,1,0,0:0:0:60:splash.wav
192,192,183045,1,0,0:0:0:40:Kick.wav
320,192,183345,1,0,0:0:0:40:Kick.wav
448,192,183645,128,0,184095:0:0:0:60:splash.wav
64,192,184095,1,0,0:0:0:40:Snare.wav
192,192,184545,128,0,184995:0:0:0:60:splash.wav
448,192,184995,1,0,0:0:0:40:Snare.wav
320,192,185445,128,0,185895:0:0:0:60:splash.wav
64,192,185895,1,0,0:0:0:40:Snare.wav
192,192,186345,1,0,0:0:0:60:splash.wav
320,192,186645,1,0,0:0:0:40:Kick.wav
448,192,186945,1,0,0:0:0:40:Kick.wav
64,192,187245,128,0,187695:0:0:0:60:splash.wav
320,192,187695,128,0,188145:0:0:0:40:Snare.wav
192,192,188145,128,0,188595:0:0:0:60:splash.wav
448,192,188595,128,0,189045:0:0:0:40:Snare.wav
64,192,189045,1,0,0:0:0:40:Kick.wav
448,192,189345,1,0,0:0:0:60:splash.wav
320,192,189645,1,0,0:0:0:40:Kick.wav
64,192,189945,1,0,0:0:0:40:Kick.wav
192,192,190245,1,0,0:0:0:40:Kick.wav
320,192,190545,1,0,0:0:0:40:Kick.wav
448,192,190845,128,0,191745:0:0:0:60:splash.wav
64,192,191745,128,0,192345:0:0:0:60:splash.wav
192,192,192645,128,0,193095:0:0:0:60:splash.wav
448,192,193095,128,0,193545:0:0:0:40:Snare.wav
320,192,193545,128,0,194445:0:0:0:60:splash.wav
64,192,194445,1,0,0:0:0:60:splash.wav
192,192,194745,1,0,0:0:0:40:Kick.wav
320,192,195045,1,0,0:0:0:40:Kick.wav
448,192,195345,128,0,195795:0:0:0:60:splash.wav
192,192,195795,128,0,196245:0:0:0:40:Snare.wav
320,192,196245,128,0,196695:0:0:0:60:splash.wav
64,192,196695,1,0,0:0:0:40:Snare.wav
192,192,196995,1,0,0:0:0:40:Snare.wav
448,192,197295,128,0,198045:0:0:0:40:Snare.wav
64,192,198045,1,0,0:0:0:60:splash.wav
320,192,198495,1,0,0:0:0:40:Snare.wav
448,192,198945,1,0,0:0:0:60:splash.wav
192,192,199395,1,0,0:0:0:40:Snare.wav
64,192,199845,1,0,0:0:0:60:splash.wav
320,192,200295,1,0,0:0:0:40:Snare.wav
448,192,200745,1,0,0:0:0:60:splash.wav
64,192,201195,128,0,201645:0:0:0:40:Snare.wav
448,192,201645,128,0,202095:0:0:0:60:splash.wav
320,192,202095,128,0,202545:0:0:0:40:Snare.wav
64,192,202545,128,0,202995:0:0:0:60:splash.wav
192,192,202995,128,0,203295:0:0:0:40:Snare.wav
448,192,203295,1,0,0:0:0:40:Snare.wav
64,192,203595,1,0,0:0:0:40:Snare.wav
320,192,203895,1,0,0:0:0:40:Snare.wav
192,192,204195,1,0,0:0:0:40:Snare.wav
448,192,204495,128,0,204795:0:0:0:40:Snare.wav
192,192,204795,128,0,205095:0:0:0:40:Snare.wav
320,192,205095,1,0,0:0:0:40:Snare.wav
64,192,205245,1,0,0:0:0:60:splash.wav
448,192,206145,1,0,0:0:0:0:
320,192,206445,1,0,0:0:0:0:
192,192,206745,1,0,0:0:0:0:
64,192,207045,128,0,207945:0:0:0:0:
192,192,208545,1,0,0:0:0:0:
448,192,208845,1,0,0:0:0:0:
64,192,209745,1,0,0:0:0:0:
192,192,210045,1,0,0:0:0:0:
320,192,210345,1,0,0:0:0:0:
448,192,210645,128,0,211245:0:0:0:0:
64,192,211245,1,0,0:0:0:60:Tom3.wav
320,192,211545,1,0,0:0:0:60:Tom2.wav
448,192,212145,1,0,0:0:0:0:
192,192,212445,1,0,0:0:0:40:Kick.wav
320,192,213345,1,0,0:0:0:0:
192,192,213645,1,0,0:0:0:0:
64,192,213945,1,0,0:0:0:40:1.wav
448,192,214245,128,0,214845:0:0:0:40:2.wav
64,192,215145,128,0,215745:0:0:0:0:
448,192,215745,1,0,0:0:0:0:
320,192,216045,128,0,216645:0:0:0:0:
192,192,216645,1,0,0:0:0:40:1.wav
448,192,216945,128,0,217545:0:0:0:40:2.wav
64,192,217545,1,0,0:0:0:40:2.wav
320,192,217845,128,0,218145:0:0:0:40:1.wav
192,192,218145,1,0,0:0:0:40:1.wav
448,192,218445,1,0,0:0:0:40:1.wav
64,192,218745,1,0,0:0:0:40:1.wav
448,192,219345,1,0,0:0:0:40:1.wav
64,192,219645,128,0,220245:0:0:0:40:1.wav
320,192,220245,1,0,0:0:0:0:
192,192,220545,128,0,221145:0:0:0:0:
320,192,221145,1,0,0:0:0:40:1.wav
448,192,221445,128,0,222045:0:0:0:40:2.wav
64,192,222345,128,0,222945:0:0:0:40:2.wav
320,192,222945,1,0,0:0:0:40:1.wav
192,192,223245,128,0,223545:0:0:0:40:2.wav
320,192,223845,1,0,0:0:0:0:
64,192,224145,128,0,224445:0:0:0:0:
192,192,224745,1,0,0:0:0:40:1.wav
320,192,225045,128,0,225645:0:0:0:40:2.wav
64,192,225645,1,0,0:0:0:40:1.wav
448,192,225795,1,0,0:0:0:40:2.wav
192,192,225945,128,0,229245:0:0:0:40:1.wav
320,192,229245,1,0,0:0:0:0:
448,192,230445,1,0,0:0:0:0:
64,192,231045,1,0,0:0:0:0:
192,192,231645,1,0,0:0:0:40:Snare.wav
320,192,231795,1,0,0:0:0:40:Snare.wav
448,192,232545,1,0,0:0:0:40:Snare.wav
192,192,232695,1,0,0:0:0:60:splash.wav
64,192,233145,128,0,233445:0:0:0:30:Snare.wav
320,192,233445,128,0,233745:0:0:0:60:Tom1.wav
448,192,233745,128,0,234045:0:0:0:40:Snare.wav
64,192,234045,1,0,0:0:0:40:Snare.wav
320,192,234195,1,0,0:0:0:40:Snare.wav
64,192,234645,1,0,0:0:0:60:Tom1.wav
448,192,234795,1,0,0:0:0:30:Kick.wav
192,192,234945,1,0,0:0:0:40:Snare.wav
320,192,235095,1,0,0:0:0:60:splash.wav
448,192,235545,128,0,235845:0:0:0:30:Snare.wav
320,192,235845,128,0,236145:0:0:0:30:Snare.wav
192,192,236145,128,0,236445:0:0:0:30:Snare.wav
64,192,236445,1,0,0:0:0:60:splash.wav
448,192,237045,1,0,0:0:0:40:Snare.wav
192,192,237495,1,0,0:0:0:40:Snare.wav
64,192,237945,1,0,0:0:0:40:1.wav
192,192,238095,1,0,0:0:0:40:Kick.wav
320,192,238245,1,0,0:0:0:40:Snare.wav
192,192,238545,1,0,0:0:0:40:1.wav
448,192,238845,1,0,0:0:0:40:Snare.wav
320,192,239145,1,0,0:0:0:40:Snare.wav
192,192,239445,1,0,0:0:0:40:Snare.wav
64,192,239745,1,0,0:0:0:40:Snare.wav
448,192,240045,1,0,0:0:0:40:Snare.wav
192,192,240195,1,0,0:0:0:40:Snare.wav
448,192,240345,1,0,0:0:0:40:Snare.wav
64,192,240645,128,0,240945:0:0:0:0:
320,192,240945,128,0,241245:0:0:0:0:
64,192,241245,1,0,0:0:0:60:splash.wav
320,192,241545,1,0,0:0:0:40:Snare.wav
448,192,241845,1,0,0:0:0:40:Kick.wav
192,192,241995,1,0,0:0:0:40:Kick.wav
320,192,242295,128,0,242745:0:0:0:60:splash.wav
64,192,242745,1,0,0:0:0:40:Snare.wav
448,192,243045,1,0,0:0:0:40:Kick.wav
192,192,243345,1,0,0:0:0:40:Snare.wav
448,192,243645,128,0,243945:0:0:0:60:splash.wav
64,192,243945,128,0,244245:0:0:0:40:Snare.wav
448,192,244245,1,0,0:0:0:40:Kick.wav
320,192,244395,1,0,0:0:0:40:Kick.wav
192,192,244695,128,0,245145:0:0:0:60:splash.wav
320,192,245145,1,0,0:0:0:40:Snare.wav
64,192,245445,128,0,245745:0:0:0:40:Kick.wav
448,192,245745,128,0,246045:0:0:0:40:Snare.wav
320,192,246045,128,0,246345:0:0:0:40:Snare.wav
192,192,246345,1,0,0:0:0:40:Snare.wav
64,192,246645,128,0,246945:0:0:0:40:Snare.wav
320,192,246945,128,0,247245:0:0:0:40:Snare.wav
192,192,247245,128,0,247545:0:0:0:40:Snare.wav
448,192,247545,128,0,247845:0:0:0:40:Snare.wav
320,192,247845,128,0,248145:0:0:0:40:Snare.wav
192,192,248145,128,0,248445:0:0:0:40:Snare.wav
64,192,248445,128,0,249645:0:0:0:40:Snare.wav
448,192,248745,1,0,0:0:0:40:Snare.wav
320,192,249045,1,0,0:0:0:40:Snare.wav
192,192,249345,1,0,0:0:0:40:Snare.wav
448,192,249645,128,0,250245:0:0:0:40:Snare.wav
192,192,249945,1,0,0:0:0:40:Snare.wav
320,192,250245,1,0,0:0:0:40:Snare.wav
192,192,250395,1,0,0:0:0:30:Snare.wav
64,192,250545,128,0,250845:0:0:0:30:Snare.wav
448,192,250845,1,0,0:0:0:60:splash.wav
320,192,251145,1,0,0:0:0:40:Snare.wav
64,192,251445,1,0,0:0:0:40:Kick.wav
448,192,251595,1,0,0:0:0:40:Kick.wav
192,192,251895,128,0,252345:0:0:0:60:splash.wav
320,192,252345,1,0,0:0:0:40:Snare.wav
64,192,252645,1,0,0:0:0:40:Kick.wav
448,192,252945,1,0,0:0:0:40:Snare.wav
320,192,253245,128,0,253545:0:0:0:60:splash.wav
64,192,253545,128,0,253845:0:0:0:40:Snare.wav
192,192,253845,1,0,0:0:0:40:Kick.wav
448,192,253995,1,0,0:0:0:40:Kick.wav
320,192,254295,128,0,254745:0:0:0:60:splash.wav
192,192,254745,1,0,0:0:0:40:Snare.wav
64,192,255045,128,0,255345:0:0:0:40:Kick.wav
448,192,255345,128,0,255645:0:0:0:40:Snare.wav
192,192,255645,128,0,255945:0:0:0:60:splash.wav
320,192,255945,1,0,0:0:0:40:Snare.wav
448,192,256245,128,0,256695:0:0:0:40:Kick.wav
64,192,256695,128,0,257145:0:0:0:60:splash.wav
320,192,257145,1,0,0:0:0:40:Snare.wav
448,192,257445,1,0,0:0:0:40:Kick.wav
64,192,257745,1,0,0:0:0:40:Snare.wav
320,192,258045,128,0,258345:0:0:0:40:Snare.wav
192,192,258345,128,0,258645:0:0:0:40:Snare.wav
320,192,258645,128,0,258945:0:0:0:40:Snare.wav
64,192,258945,128,0,259245:0:0:0:60:Tom1.wav
448,192,259245,128,0,259545:0:0:0:40:Snare.wav
192,192,259545,1,0,0:0:0:40:Snare.wav
320,192,259845,128,0,260145:0:0:0:40:Snare.wav
64,192,260145,128,0,260445:0:0:0:30:Snare.wav
320,192,260445,1,0,0:0:0:60:splash.wav
64,192,260745,1,0,0:0:0:40:Snare.wav
448,192,261045,1,0,0:0:0:40:Kick.wav
192,192,261195,1,0,0:0:0:40:Kick.wav
320,192,261495,128,0,261945:0:0:0:60:splash.wav
192,192,261945,1,0,0:0:0:40:Snare.wav
64,192,262245,128,0,262545:0:0:0:40:Kick.wav
448,192,262545,128,0,262845:0:0:0:40:Snare.wav
192,192,262845,128,0,263145:0:0:0:60:splash.wav
320,192,263145,128,0,263445:0:0:0:40:Snare.wav
64,192,263445,128,0,263745:0:0:0:40:Kick.wav
192,192,263745,128,0,264045:0:0:0:40:Snare.wav
448,192,264045,128,0,264345:0:0:0:0:
320,192,264345,1,0,0:0:0:30:Snare.wav
192,192,264495,1,0,0:0:0:30:Snare.wav
64,192,264645,128,0,264945:0:0:0:30:Kick.wav
320,192,264945,1,0,0:0:0:30:Snare.wav
448,192,265095,1,0,0:0:0:30:Snare.wav
192,192,265245,128,0,265845:0:0:0:30:Kick.wav
448,192,265845,1,0,0:0:0:40:Snare.wav
64,192,266145,1,0,0:0:0:40:Kick.wav
320,192,266445,1,0,0:0:0:0:
192,192,266745,1,0,0:0:0:40:1.wav
448,192,267045,1,0,0:0:0:40:Snare.wav
64,192,267345,1,0,0:0:0:40:1.wav
320,192,267645,128,0,268245:0:0:0:60:splash.wav
192,192,268245,1,0,0:0:0:40:Snare.wav
64,192,268845,1,0,0:0:0:40:Snare.wav
192,192,268995,1,0,0:0:0:30:Snare.wav
448,192,269145,1,0,0:0:0:30:Snare.wav
320,192,269295,1,0,0:0:0:30:Snare.wav
64,192,269445,128,0,269745:0:0:0:30:Snare.wav
192,192,269745,128,0,270045:0:0:0:30:Snare.wav
448,192,270045,1,0,0:0:0:40:Snare.wav
320,192,270345,1,0,0:0:0:40:Snare.wav
192,192,270645,1,0,0:0:0:40:Snare.wav
64,192,270945,1,0,0:0:0:40:Snare.wav
192,192,271245,1,0,0:0:0:40:Snare.wav
320,192,271545,1,0,0:0:0:40:Snare.wav
448,192,271845,1,0,0:0:0:40:Snare.wav
64,192,272145,1,0,0:0:0:40:Snare.wav
192,192,272445,1,0,0:0:0:30:Snare.wav
448,192,272745,1,0,0:0:0:60:Tom1.wav
320,192,272895,1,0,0:0:0:30:Kick.wav
192,192,273045,1,0,0:0:0:60:Tom2.wav
64,192,273345,1,0,0:0:0:60:Tom3.wav
192,192,273495,1,0,0:0:0:30:Kick.wav
320,192,273645,1,0,0:0:0:50:Snare.wav
64,192,277245,128,0,277545:0:0:0:60:splash.wav
448,192,277545,128,0,277845:0:0:0:40:Snare.wav
192,192,277845,128,0,278145:0:0:0:40:Snare.wav
320,192,278145,128,0,278445:0:0:0:40:Snare.wav
64,192,278445,1,0,0:0:0:40:Snare.wav
64,192,278745,1,0,0:0:0:40:Snare.wav
192,192,279045,128,0,279345:0:0:0:40:Snare.wav
448,192,279345,128,0,279645:0:0:0:40:Snare.wav
64,192,279645,128,0,279945:0:0:0:40:Snare.wav
320,192,279945,128,0,280245:0:0:0:40:Snare.wav
192,192,280245,1,0,0:0:0:40:Snare.wav
448,192,280545,1,0,0:0:0:40:Snare.wav
192,192,280845,128,0,281145:0:0:0:40:Snare.wav
320,192,281145,128,0,281445:0:0:0:40:Snare.wav
64,192,281445,128,0,281745:0:0:0:40:Snare.wav
448,192,281745,128,0,282045:0:0:0:40:Snare.wav
192,192,282045,1,0,0:0:0:40:Snare.wav
192,192,282345,1,0,0:0:0:40:Snare.wav
64,192,282645,128,0,282945:0:0:0:30:Snare.wav
448,192,282945,128,0,283245:0:0:0:60:Tom1.wav
192,192,283245,128,0,283545:0:0:0:60:Tom1.wav
320,192,283545,1,0,0:0:0:40:Snare.wav
64,192,283845,1,0,0:0:0:30:Kick.wav
448,192,284145,1,0,0:0:0:40:Kick.wav
192,192,284445,128,0,284895:0:0:0:60:splash.wav
320,192,284895,128,0,285345:0:0:0:40:Kick.wav
64,192,285345,128,0,285645:0:0:0:40:Snare.wav
448,192,285645,1,0,0:0:0:40:Kick.wav
448,192,285945,1,0,0:0:0:40:Kick.wav
320,192,286245,128,0,286695:0:0:0:60:splash.wav
192,192,286695,128,0,287145:0:0:0:40:Kick.wav
448,192,287145,128,0,287445:0:0:0:40:Snare.wav
320,192,287445,1,0,0:0:0:40:Snare.wav
192,192,287745,1,0,0:0:0:60:Tom2.wav
64,192,288045,128,0,288495:0:0:0:60:splash.wav
448,192,288495,128,0,288795:0:0:0:40:Kick.wav
192,192,288795,1,0,0:0:0:40:Kick.wav
320,192,288945,1,0,0:0:0:40:Snare.wav
64,192,289245,1,0,0:0:0:60:Tom1.wav
448,192,289545,1,0,0:0:0:60:Tom2.wav
320,192,289845,1,0,0:0:0:40:Snare.wav
192,192,289995,1,0,0:0:0:40:Snare.wav
448,192,290145,128,0,290745:0:0:0:40:1.wav
192,192,290745,1,0,0:0:0:40:Snare.wav
320,192,290895,1,0,0:0:0:40:Snare.wav
64,192,291045,128,0,291645:0:0:0:40:1.wav
448,192,291645,1,0,0:0:0:40:1.wav
320,192,291945,1,0,0:0:0:40:1.wav
64,192,292245,1,0,0:0:0:40:1.wav
192,192,292545,1,0,0:0:0:60:Tom1.wav
448,192,292695,1,0,0:0:0:60:Tom1.wav
320,192,293145,128,0,293445:0:0:0:0:
64,192,293445,128,0,294045:0:0:0:60:splash.wav
448,192,294045,128,0,294345:0:0:0:40:1.wav
192,192,294345,1,0,0:0:0:40:Snare.wav
