osu file format v14

[General]
AudioFilename: audio.mp3
AudioLeadIn: 0
PreviewTime: 90121
Countdown: 0
SampleSet: Soft
StackLeniency: 0.3
Mode: 0
LetterboxInBreaks: 0
WidescreenStoryboard: 1

[Editor]
DistanceSpacing: 1.1
BeatDivisor: 4
GridSize: 32
TimelineZoom: 1.8

[Metadata]
Title:Yume Tourou (Radwimps cover)
TitleUnicode:夢灯籠
Artist:Eve
ArtistUnicode:Eve
Creator:TheZedOffical
Version:Shiroatata's Hyper
Source:君の名は。
Tags:kimi no na wa opening OP your name shiroatata EijiKuinbii cover
BeatmapID:1210653
BeatmapSetID:569585

[Difficulty]
HPDrainRate:5
CircleSize:3.8
OverallDifficulty:7.2
ApproachRate:9
SliderMultiplier:1.3
SliderTickRate:1

[Events]
//Background and Video events
0,0,"bg.jpg",0,0
//Break Periods
//Storyboard Layer 0 (Background)
//Storyboard Layer 1 (Fail)
//Storyboard Layer 2 (Pass)
//Storyboard Layer 3 (Foreground)
//Storyboard Sound Samples

[TimingPoints]
24548.336146732,348.837209302326,4,2,0,35,1,0
52453,337.078651685393,4,2,0,50,1,0
52453,-80,4,1,0,50,0,0
54644,-80,4,2,0,75,0,0
54981,-80,4,1,0,50,0,0
60037,-80,4,2,0,75,0,0
60374,-80,4,1,0,50,0,0
63239,-100,4,2,0,50,0,0
74026,-100,4,2,0,50,0,0
90205,-80,4,1,0,50,0,1
111778,-100,4,2,0,50,0,0
114475,-80,4,1,0,50,0,0
116666,-80,4,2,0,75,0,0
117003,-80,4,1,0,50,0,0
122059,-80,4,2,0,75,0,0
122396,-80,4,1,0,50,0,0
124924,-80,4,2,0,75,0,0

[Colours]
Combo1 : 63,101,252
Combo2 : 170,251,199
Combo3 : 1,145,222
Combo4 : 10,207,79

[HitObjects]
209,280,24548,6,0,P|154:285|89:232,1,130
173,196,25071,1,0,0:0:0:0:
229,116,25246,2,0,P|268:166|265:229,1,130,0|0,0:0|0:0,0:0:0:0:
209,280,25769,1,0,0:0:0:0:
280,304,25943,5,0,0:0:0:0:
291,310,26292,2,0,P|314:250|371:221,1,130,0|0,0:0|0:0,0:0:0:0:
446,245,26815,1,0,0:0:0:0:
402,147,26990,2,0,P|361:145|328:120,1,65,0|0,0:0|0:0,0:0:0:0:
386,66,27339,38,0,B|448:52|508:103|514:181|460:238|389:230|389:230|444:258|433:323,1,390
355,300,28734,2,0,P|284:308|242:256,1,130
205,210,29432,2,0,P|275:201|317:253,1,130
246,269,29955,1,0,0:0:0:0:
371,301,30129,6,0,P|401:228|322:144,1,195
249,139,30827,2,0,P|201:157|182:186,1,65,0|0,0:0|0:0,0:0:0:0:
146,245,31176,2,0,P|140:276|150:307,1,65,0|0,0:0|0:0,0:0:0:0:
43,268,31525,38,0,L|28:133,1,130
110,162,32048,1,0,0:0:0:0:
187,171,32222,2,0,P|236:165|251:155,1,65,0|0,0:0|0:0,0:0:0:0:
267,81,32571,6,0,P|218:87|203:97,2,65
337,170,33618,2,0,P|295:148|248:157,2,97.5,0|0|0,0:0|0:0|0:0,0:0:0:0:
285,222,34315,2,0,P|346:274|466:260,1,195,0|0,0:0|0:0,0:0:0:0:
162,337,35536,37,0,0:0:0:0:
157,333,35711,2,0,P|113:286|131:215,1,130,0|0,0:0|0:0,0:0:0:0:
186,265,36234,1,0,0:0:0:0:
191,261,36409,2,0,P|235:214|217:143,1,130,0|0,0:0|0:0,0:0:0:0:
168,105,36932,1,0,0:0:0:0:
161,194,37106,6,0,P|98:186|36:228,1,130
118,281,37629,2,0,P|146:298|193:296,1,65,0|0,0:0|0:0,0:0:0:0:
267,192,37978,1,0,0:0:0:0:
318,249,38152,2,0,P|290:265|258:268,1,65,0|0,0:0|0:0,0:0:0:0:
174,216,38501,38,0,P|157:126|256:76,2,195
248,163,39897,1,0,0:0:0:0:
351,84,40246,21,8,3:0:0:0:
376,194,40420,1,8,3:0:0:0:
266,166,40594,22,0,P|253:130|261:97,1,65
170,42,40943,2,0,P|183:78|175:111,1,65
103,166,41292,6,0,P|61:206|87:286,1,130,8|0,3:0|0:0,0:0:0:0:
174,321,41815,1,2,3:0:0:0:
220,262,41990,2,0,P|222:210|193:158,2,97.5,0|0|0,0:0|0:0|0:0,0:0:0:0:
131,231,42687,38,0,P|86:274|24:262,1,130
9,100,43385,1,2,2:0:0:0:
78,64,43559,1,0,0:0:0:0:
76,142,43734,2,0,P|62:172|75:222,1,65,0|0,0:0|0:0,0:0:0:0:
189,240,44083,6,0,P|263:240|305:182,1,130,8|0,3:0|0:0,0:0:0:0:
226,171,44606,1,2,3:0:0:0:
131,140,44780,38,0,P|126:77|143:7,1,130
27,78,45304,2,0,P|41:141|36:205,1,130,0|0,0:0|0:0,0:0:0:0:
12,280,45827,2,0,P|20:332|32:354,1,65,2|0,2:0|0:0,0:0:0:0:
122,356,46176,5,2,2:0:0:0:
187,313,46350,1,0,0:0:0:0:
215,233,46525,1,0,0:0:0:0:
188,146,46699,1,0,0:0:0:0:
280,176,46873,38,0,B|330:203|371:190|395:151|395:151|436:166|466:133,1,195,8|2,3:0|3:0,0:0:0:0:
414,79,47571,2,0,P|344:93|321:141,2,97.5,0|0|2,0:0|0:0|2:0,0:0:0:0:
484,152,48269,5,2,2:0:0:0:
459,162,48792,2,0,P|425:160|392:148,1,65,0|2,0:0|2:0,0:0:0:0:
331,119,49141,1,0,0:0:0:0:
272,73,49315,2,0,P|239:74|208:84,1,65,0|0,0:0|0:0,0:0:0:0:
155,167,49664,38,0,P|204:184|221:267,1,130,8|0,3:0|0:0,0:0:0:0:
58,309,50187,1,2,3:0:0:0:
29,239,50362,2,0,B|92:217|90:267|154:239,1,130,0|2,0:0|2:0,0:0:0:0:
275,197,50885,1,0,0:0:0:0:
281,199,50972,1,0,0:0:0:0:
287,201,51059,1,2,3:0:0:0:
256,192,51147,12,0,52368,0:0:0:0:
158,117,52453,22,0,B|143:155|143:155|152:217,1,81.25,4|0,0:0|3:0,0:0:0:0:
246,269,52790,2,0,B|261:231|261:231|252:169,1,81.25,8|0,0:0|3:0,0:0:0:0:
243,90,53127,6,0,B|231:9,1,81.25,8|0,0:0|3:0,0:0:0:0:
127,73,53464,2,0,B|115:153,1,81.25,8|0,0:0|3:0,0:0:0:0:
92,273,53801,1,8,0:0:0:0:
94,276,53885,1,0,0:0:0:0:
96,280,53969,1,0,3:0:0:0:
38,172,54138,38,0,B|77:156|77:156|127:163,1,81.25,8|0,0:0|3:0,0:0:0:0:
224,181,54475,2,0,B|263:187|263:187|302:171,2,81.25,8|8|8,0:0|0:2|0:2,0:0:0:0:
255,106,54981,1,0,3:0:0:0:
373,148,55149,6,0,B|378:172|377:214|337:235|337:235|343:245|343:245|326:258|326:305,1,162.5,4|8,0:0|0:0,0:0:0:0:
359,382,55655,1,0,3:0:0:0:
243,345,55823,1,8,0:0:0:0:
242,340,55908,1,0,0:0:0:0:
241,335,55992,1,0,3:0:0:0:
237,213,56160,38,0,P|267:178|312:169,1,81.25,8|0,0:0|3:0,0:0:0:0:
318,164,56413,1,0,0:0:0:0:
336,155,56497,1,8,0:0:0:0:
351,140,56581,1,0,0:0:0:0:
361,123,56666,1,0,3:0:0:0:
317,46,56835,5,8,0:0:0:0:
166,105,57003,1,0,3:0:0:0:
251,110,57172,2,0,L|236:12,1,81.25,8|0,0:0|0:0,0:0:0:0:
152,6,57509,2,0,B|158:58,2,54.1666666666667,8|8|8,0:0|3:0|3:0,0:0:0:0:
92,97,57846,38,0,B|97:136|97:136|72:189,1,81.25,4|0,0:0|3:0,0:0:0:0:
176,248,58183,2,0,B|169:206|169:206|184:170,1,81.25,8|0,0:0|3:0,0:0:0:0:
282,97,58520,2,0,B|322:80|359:101|359:101|407:93|442:142,1,162.5,8|8,0:0|0:0,0:0:0:0:
411,250,59026,1,0,3:0:0:0:
317,173,59194,5,8,0:0:0:0:
317,169,59278,1,0,0:0:0:0:
317,165,59362,1,0,3:0:0:0:
365,53,59531,2,0,B|326:37|326:37|287:43,1,81.25,8|0,0:0|3:0,0:0:0:0:
214,125,59868,2,0,B|175:131|175:131|136:115,2,81.25,8|8|8,0:0|0:2|0:2,0:0:0:0:
135,32,60374,1,0,3:0:0:0:
34,120,60542,38,0,B|34:144|44:185|88:196|88:196|85:207|85:207|104:216|115:262,1,162.5,4|8,0:0|0:0,0:0:0:0:
65,334,61048,1,0,3:0:0:0:
198,294,61217,1,8,0:0:0:0:
201,292,61301,1,0,0:0:0:0:
204,290,61385,2,0,L|195:179,1,81.25,0|8,3:0|0:0,0:0:0:0:
293,120,61722,5,0,3:0:0:0:
294,140,61806,1,0,0:0:0:0:
296,160,61890,1,8,0:0:0:0:
297,180,61974,1,0,0:0:0:0:
299,200,62059,1,0,3:0:0:0:
371,271,62228,2,0,B|411:277|411:277|460:256,1,81.25,8|0,0:0|3:0,0:0:0:0:
496,162,62565,38,0,L|458:178,3,40.625,8|0|0|0,0:0|0:0|0:0|0:0,0:0:0:0:
446,101,62902,2,0,L|408:84,3,40.625,8|0|0|0,0:0|0:0|0:0|0:0,0:0:0:0:
373,156,63239,6,0,P|350:222|399:280,1,130,4|0,3:0|3:0,0:0:0:0:
433,209,63745,1,0,0:0:0:0:
452,287,63913,2,0,P|406:339|331:326,1,130,0|0,3:0|3:0,0:0:0:0:
264,292,64419,1,0,0:0:0:0:
180,241,64587,22,0,P|117:242|78:292,1,130,0|0,3:0|3:0,0:0:0:0:
11,221,65093,1,0,0:0:0:0:
5,217,65261,2,0,L|15:88,1,130,0|0,3:0|3:0,0:0:0:0:
25,6,65767,1,0,0:0:0:0:
180,101,65936,22,0,P|204:157|149:219,1,130,4|0,3:0|3:0,0:0:0:0:
95,242,66441,1,0,0:0:0:0:
172,302,66610,21,0,3:0:0:0:
175,307,66778,1,0,0:0:0:0:
261,261,66947,1,0,3:0:0:0:
267,264,67115,1,0,0:0:0:0:
307,175,67284,22,0,B|305:145|291:126|291:126|302:105|302:105|275:82|278:42,2,130,0|0|0,3:0|3:0|3:0,0:0:0:0:
236,175,68127,1,2,3:0:0:0:
349,50,68295,1,2,3:0:0:0:
396,212,68464,1,2,3:0:0:0:
399,217,68548,1,2,3:0:0:0:
402,222,68632,38,0,P|341:264|279:251,1,130,4|0,3:0|3:0,0:0:0:0:
215,202,69138,1,0,0:0:0:0:
243,336,69306,1,0,3:0:0:0:
253,343,69644,1,0,3:0:0:0:
172,290,69812,1,0,0:0:0:0:
215,202,69981,22,0,P|224:136|185:91,2,130,0|0|0,3:0|0:0|0:0,0:0:0:0:
153,159,70823,1,2,2:0:0:0:
316,205,70992,1,0,3:0:0:0:
185,311,71160,1,2,3:2:0:0:
184,318,71245,1,2,3:2:0:0:
183,325,71329,1,4,3:0:0:0:
85,324,71497,21,2,2:0:0:0:
73,312,71581,1,2,2:0:0:0:
66,297,71665,1,2,3:2:0:0:
62,282,71749,1,0,0:0:0:0:
62,265,71834,1,0,0:0:0:0:
130,195,72003,22,0,P|139:129|102:79,1,130,0|0,3:0|3:0,0:0:0:0:
218,106,72509,1,2,2:0:0:0:
220,111,72593,1,2,2:0:0:0:
221,117,72677,21,2,3:2:0:0:
237,118,72761,1,2,2:0:0:0:
254,115,72846,1,2,2:0:0:0:
268,109,72930,1,2,2:0:0:0:
282,100,73014,1,2,3:2:0:0:
349,184,73183,1,4,3:2:0:0:
448,129,73351,2,0,L|431:277,1,130,0|4,3:0|3:2,0:0:0:0:
253,181,74026,6,0,P|295:150|290:56,1,130,4|0,3:2|3:2,0:0:0:0:
255,11,74531,1,0,0:0:0:0:
230,106,74700,2,0,P|203:122|144:123,1,65,0|0,3:2|0:0,0:0:0:0:
86,204,75037,2,0,P|113:220|172:221,1,65,0|0,3:2|0:0,0:0:0:0:
243,218,75374,21,0,3:2:0:0:
334,151,75542,1,0,0:0:0:0:
230,106,75711,1,0,3:2:0:0:
309,62,75879,1,0,0:0:0:0:
404,125,76048,21,0,3:2:0:0:
495,192,76216,1,2,2:3:0:0:
391,237,76385,1,2,2:0:0:0:
470,281,76553,1,2,2:3:0:0:
471,287,76638,1,2,2:3:0:0:
472,293,76722,22,0,L|331:313,1,130,4|0,3:2|3:2,0:0:0:0:
227,280,77228,1,0,0:0:0:0:
287,226,77396,2,0,L|370:237,2,65,0|0|0,3:2|0:0|3:2,0:0:0:0:
342,157,77902,1,0,0:0:0:0:
217,177,78070,22,0,P|186:185|161:210,1,65,0|0,3:2|0:0,0:0:0:0:
59,227,78408,2,0,P|67:196|58:162,1,65,0|0,3:2|0:0,0:0:0:0:
95,66,78745,2,0,P|117:88|151:97,1,65,0|2,3:2|2:3,0:0:0:0:
269,100,79082,2,0,L|262:175,1,65,2|2,2:0|2:3,0:0:0:0:
260,212,79335,1,2,2:3:0:0:
260,220,79419,22,0,L|267:295,1,65,4|0,3:2|0:0,0:0:0:0:
352,344,79756,1,0,3:2:0:0:
410,283,79924,2,0,P|378:276|346:248,1,65,0|0,0:0|3:2,0:0:0:0:
410,204,80261,1,0,0:0:0:0:
478,166,80430,2,0,P|487:197|479:238,1,65,0|0,3:2|0:0,0:0:0:0:
335,180,80767,22,0,B|316:138|316:138|339:41,1,130,0|0,3:2|3:2,0:0:0:0:
456,97,81273,2,0,P|420:120|406:162,1,65,0|0,0:0|3:2,0:0:0:0:
436,233,81610,1,2,2:0:0:0:
347,288,81778,1,2,3:0:0:0:
294,187,81947,1,2,2:0:0:0:
284,182,82031,1,2,2:0:0:0:
275,178,82115,38,0,P|239:177|206:202,1,65,4|0,3:2|0:0,0:0:0:0:
156,289,82452,2,0,P|192:290|225:265,1,65,0|0,3:2|0:0,0:0:0:0:
95,226,82790,2,0,P|68:275|92:350,1,130,0|0,3:2|3:2,0:0:0:0:
174,219,83295,1,0,0:0:0:0:
185,212,83464,22,0,P|186:180|163:137,1,65,4|0,3:2|0:0,0:0:0:0:
80,55,83801,2,0,P|107:71|155:73,1,65,4|2,3:2|3:0,0:0:0:0:
163,69,84054,1,2,3:0:0:0:
170,62,84138,21,4,3:0:0:0:
260,130,84306,1,0,3:0:0:0:
109,191,84475,1,8,3:0:0:0:
355,193,84812,5,0,1:0:0:0:
260,130,84981,2,0,L|275:268,1,130,4|0,1:0|1:0,0:0:0:0:
190,210,85486,1,4,1:0:0:0:
351,233,85655,1,0,0:0:0:0:
355,248,85739,1,0,0:0:0:0:
359,263,85823,1,0,1:0:0:0:
421,148,85992,22,0,L|291:162,1,130,4|0,1:0|1:0,0:0:0:0:
155,88,86497,2,0,L|219:95,1,65,4|0,1:0|0:0,0:0:0:0:
176,168,86835,1,0,1:0:0:0:
296,85,87003,5,0,0:0:0:0:
293,78,87087,1,0,0:0:0:0:
290,71,87172,1,2,3:0:0:0:
176,168,87509,5,0,1:0:0:0:
81,230,87677,2,0,L|96:95,1,130,4|0,1:0|1:0,0:0:0:0:
198,20,88183,2,0,L|189:97,1,65,4|0,1:0|0:0,0:0:0:0:
108,21,88520,21,0,1:0:0:0:
187,155,88688,2,0,P|233:142|258:108,1,65,4|0,1:0|0:0,0:0:0:0:
355,203,89026,1,0,1:0:0:0:
370,214,89110,1,0,0:0:0:0:
385,225,89194,2,0,L|377:280,3,32.5,4|0|0|0,1:0|0:0|0:0|0:0,0:0:0:0:
365,290,89531,37,4,1:0:0:0:
326,302,89615,1,0,0:0:0:0:
287,290,89699,1,0,0:0:0:0:
262,258,89783,1,0,0:0:0:0:
261,217,89868,1,0,0:0:0:0:
77,282,90205,22,0,L|66:201,1,81.25,4|0,1:0|0:0,0:0:0:0:
177,150,90542,2,0,L|166:230,1,81.25,8|0,0:0|0:0,0:0:0:0:
285,310,90879,6,0,B|326:316|326:316|371:296,1,81.25,4|0,3:0|0:0,0:0:0:0:
430,197,91217,2,0,B|389:191|389:191|344:211,1,81.25,8|0,0:0|0:0,0:0:0:0:
227,140,91554,38,0,L|250:326,1,162.5,4|8,1:0|0:0,0:0:0:0:
202,383,92059,1,0,0:0:0:0:
81,333,92228,2,0,B|118:310|118:310|164:317,1,81.25,4|8,3:0|0:0,0:0:0:0:
276,334,92565,1,4,3:0:0:0:
162,237,92733,1,8,0:0:0:0:
271,159,92902,6,0,B|210:170|210:170|166:162|166:162|105:176,1,162.5,4|0,1:0|0:0,0:0:0:0:
203,93,93408,1,8,0:0:0:0:
165,242,93576,38,0,P|172:280|287:298,1,162.5,4|0,1:0|0:0,0:0:0:0:
354,211,94082,1,8,0:0:0:0:
265,101,94250,6,0,B|224:150|224:150|236:248,1,162.5,4|0,1:0|0:0,0:0:0:0:
122,291,94756,1,0,3:1:0:0:
110,286,94840,1,0,3:1:0:0:
98,282,94924,2,0,L|43:292,3,40.625,8|0|0|0,3:1|3:1|3:1|3:1,0:0:0:0:
29,266,95261,5,8,3:1:0:0:
18,227,95345,1,0,3:1:0:0:
34,191,95429,1,0,3:1:0:0:
69,172,95513,1,0,3:1:0:0:
108,180,95599,22,0,P|152:184|196:161,1,81.25,4|0,1:0|0:0,0:0:0:0:
234,57,95936,2,0,P|193:52|156:67,1,81.25,8|0,0:0|0:0,0:0:0:0:
281,138,96273,6,0,B|302:172|302:172|293:220,1,81.25,4|0,3:0|0:0,0:0:0:0:
228,315,96610,2,0,B|207:281|207:281|216:233,1,81.25,8|4,0:0|3:0,0:0:0:0:
347,293,96947,38,0,L|440:309,1,81.25,4|0,1:0|0:0,0:0:0:0:
373,193,97284,2,0,L|292:206,2,81.25,8|0|4,0:0|0:0|3:0,0:0:0:0:
492,165,97790,1,8,0:0:0:0:
356,102,97958,2,0,B|335:65|335:65|344:21,1,81.25,4|8,3:0|0:0,0:0:0:0:
185,127,98295,6,0,P|249:111|299:200,1,162.5,4|4,1:0|3:0,0:0:0:0:
156,255,98801,1,8,0:0:0:0:
251,337,98969,38,0,B|260:281|260:281|231:177,1,162.5,4|4,1:0|3:0,0:0:0:0:
321,218,99475,1,8,0:0:0:0:
129,182,99644,6,0,L|157:279,1,81.25,4|0,1:0|3:0,0:0:0:0:
164,294,99896,1,0,3:0:0:0:
195,318,99980,1,0,3:0:0:0:
235,321,100064,1,0,3:0:0:0:
270,300,100148,1,0,3:0:0:0:
287,264,100233,1,0,3:0:0:0:
304,227,100318,2,0,L|352:222,3,40.625,8|0|0|0,3:1|3:0|3:0|3:0,0:0:0:0:
323,193,100655,5,8,3:1:0:0:
298,162,100739,1,0,3:0:0:0:
295,122,100823,1,0,3:0:0:0:
316,87,100907,1,0,3:0:0:0:
352,70,100992,22,0,P|412:84|487:17,1,162.5,4|8,1:0|1:0,0:0:0:0:
352,70,101497,2,0,P|274:60|219:115,1,162.5,4|8,1:0|1:0,0:0:0:0:
250,203,102003,2,0,P|285:183|304:148,1,81.25,4|4,1:0|3:0,0:0:0:0:
167,186,102340,6,0,L|179:357,1,162.5,4|4,2:0|2:0,0:0:0:0:
327,293,102846,2,0,B|286:289|286:289|249:304,1,81.25,4|8,3:0|2:0,0:0:0:0:
103,368,103183,1,4,3:0:0:0:
43,286,103351,2,0,L|63:181,1,81.25,8|4,2:0|3:0,0:0:0:0:
220,213,103688,38,0,B|212:154|212:154|185:123|185:123|173:23,1,162.5,4|8,1:0|1:0,0:0:0:0:
133,197,104194,2,0,B|141:256|141:256|168:287|168:287|180:387,1,162.5,4|8,1:0|1:0,0:0:0:0:
97,326,104700,1,4,1:0:0:0:
218,225,104868,1,4,3:0:0:0:
266,147,105037,6,0,P|181:143|128:219,1,162.5,4|0,2:0|0:0,0:0:0:0:
223,306,105542,1,0,3:0:0:0:
228,294,105626,1,0,3:0:0:0:
232,282,105711,2,0,L|222:227,3,40.625,8|0|0|0,1:0|3:0|3:0|3:0,0:0:0:0:
220,201,106047,5,8,1:0:0:0:
239,166,106131,1,0,3:0:0:0:
275,150,106217,1,0,3:0:0:0:
314,161,106301,1,0,0:0:0:0:
348,183,106385,22,0,L|434:201,1,81.25,4|4,1:0|3:0,0:0:0:0:
367,48,106722,2,0,L|312:108,1,81.25,8|4,2:0|1:0,0:0:0:0:
473,132,107059,1,0,0:0:0:0:
473,132,107228,2,0,L|447:54,1,81.25,0|4,0:0|1:0,0:0:0:0:
362,195,107565,1,4,3:0:0:0:
362,195,107733,6,0,B|312:204|312:204|259:190|259:190|195:203,1,162.5,4|4,1:0|3:0,0:0:0:0:
100,200,108239,2,0,B|118:254|118:254|156:293|156:293|174:341,1,162.5,4|4,1:0|3:0,0:0:0:0:
268,269,108745,2,0,B|305:278|305:278|347:273,1,81.25,8|4,2:0|3:0,0:0:0:0:
480,178,109082,22,0,L|288:198,1,162.5,4|8,1:0|1:0,0:0:0:0:
226,153,109587,1,0,0:0:0:0:
307,36,109756,2,0,L|332:116,2,81.25,4|0|8,1:0|0:0|1:0,0:0:0:0:
404,66,110261,1,4,3:0:0:0:
318,194,110430,21,2,3:0:0:0:
294,227,110514,1,0,3:0:0:0:
259,248,110598,1,0,3:0:0:0:
219,253,110682,1,0,3:0:0:0:
180,244,110767,2,0,L|169:184,3,40.625,8|0|0|0,1:0|3:0|3:0|3:0,0:0:0:0:
166,168,111104,5,8,1:0:0:0:
142,136,111188,1,0,3:0:0:0:
108,115,111272,1,0,3:0:0:0:
68,109,111356,1,0,3:0:0:0:
29,119,111441,2,0,B|11:207,1,81.25,2|0,3:0|0:0,0:0:0:0:
172,204,111778,22,0,P|182:167|182:125,1,65,4|4,1:0|3:0,0:0:0:0:
333,141,112115,1,8,2:0:0:0:
262,181,112284,2,0,P|252:218|264:327,1,130,4|4,1:0|3:0,0:0:0:0:
349,276,112790,2,0,P|388:264|417:266,1,65,12|0,2:0|0:0,0:0:0:0:
338,182,113127,6,0,L|325:95,1,65,4|4,1:0|3:0,0:0:0:0:
405,122,113379,1,0,0:0:0:0:
405,122,113464,2,0,L|418:35,1,65,8|4,2:0|1:0,0:0:0:0:
351,258,114475,38,0,B|291:251|291:251|249:263|249:263|190:257,1,162.5,4|8,0:0|0:0,0:0:0:0:
222,350,114981,2,0,L|316:321,1,81.25,0|8,3:0|0:0,0:0:0:0:
323,165,115318,2,0,L|245:188,1,81.25,0|8,3:0|0:0,0:0:0:0:
123,180,115655,5,0,3:0:0:0:
107,169,115739,1,0,0:0:0:0:
95,152,115823,1,8,0:0:0:0:
91,132,115907,1,0,0:0:0:0:
94,112,115992,1,0,3:0:0:0:
196,46,116160,2,0,L|168:135,2,81.25,8|0|8,0:0|3:0|0:0,0:0:0:0:
34,65,116666,5,8,0:2:0:0:
57,206,116835,2,0,P|101:212|142:182,1,81.25,8|0,0:2|3:0,0:0:0:0:
253,120,117172,22,0,L|239:309,1,162.5,4|0,0:0|0:0,0:0:0:0:
307,329,117677,1,0,3:0:0:0:
186,349,117846,1,8,0:0:0:0:
174,352,117930,1,0,0:0:0:0:
162,355,118014,1,0,3:0:0:0:
48,270,118183,6,0,P|93:268|136:279,1,81.25,8|0,0:0|0:0,0:0:0:0:
145,287,118436,1,0,0:0:0:0:
164,294,118520,1,8,0:0:0:0:
184,295,118604,1,0,0:0:0:0:
203,289,118689,1,0,0:0:0:0:
289,203,118857,38,0,B|252:217|252:217|194:207,1,81.25,8|0,0:0|3:0,0:0:0:0:
199,77,119194,2,0,B|230:101|230:101|249:156,1,81.25,8|0,0:0|3:0,0:0:0:0:
132,188,119531,2,0,B|166:147,2,54.1666666666667,8|8|8,0:0|3:0|3:0,0:0:0:0:
84,122,119868,6,0,L|3:134,1,81.25,4|0,0:0|3:0,0:0:0:0:
76,258,120205,2,0,L|156:270,1,81.25,8|0,0:0|3:0,0:0:0:0:
278,196,120542,38,0,B|266:115,1,81.25,8|0,0:0|3:0,0:0:0:0:
389,72,120879,2,0,B|377:152,1,81.25,8|0,0:0|3:0,0:0:0:0:
330,265,121216,5,8,0:0:0:0:
326,266,121300,1,0,0:0:0:0:
322,268,121384,1,0,3:0:0:0:
401,333,121554,2,0,B|440:349|440:349|490:342,2,81.25,8|0|0,0:0|0:0|0:0,0:0:0:0:
414,171,122059,5,8,0:2:0:0:
316,273,122227,2,0,P|272:279|231:249,1,81.25,8|0,0:2|3:0,0:0:0:0:
158,171,122565,22,0,P|273:175|289:231,1,162.5,4|8,0:0|0:0,0:0:0:0:
205,343,123070,1,0,3:0:0:0:
124,251,123239,1,8,0:0:0:0:
126,248,123323,1,0,0:0:0:0:
128,245,123407,2,0,L|239:254,1,81.25,0|8,3:0|0:0,0:0:0:0:
311,183,123745,5,0,3:0:0:0:
295,169,123829,1,0,0:0:0:0:
284,152,123913,1,8,0:0:0:0:
279,133,123997,1,0,0:0:0:0:
279,112,124082,1,0,3:0:0:0:
420,126,124250,38,0,L|411:188,3,40.625,8|2|0|2,0:0|3:0|3:0|3:0,0:0:0:0:
416,186,124587,1,8,0:0:0:0:
419,206,124671,1,2,3:0:0:0:
422,226,124755,1,2,3:0:0:0:
425,246,124840,1,2,3:0:0:0:
428,266,124924,38,0,L|414:359,1,81.25,4|8,3:0|3:0,0:0:0:0:
