osu file format v14

[General]
AudioFilename: audio.mp3
AudioLeadIn: 0
PreviewTime: 90121
Countdown: 0
SampleSet: Soft
StackLeniency: 0.7
Mode: 0
LetterboxInBreaks: 0
WidescreenStoryboard: 1

[Editor]
Bookmarks: 24517,27311,29422,38473,48764,48938,49287,49462,49985,52514,60542,63239,68632,84812,89363,89868,125261
DistanceSpacing: 2
BeatDivisor: 4
GridSize: 4
TimelineZoom: 2.4

[Metadata]
Title:Yume Tourou (Radwimps cover)
TitleUnicode:夢灯籠
Artist:Eve
ArtistUnicode:Eve
Creator:TheZedOffical
Version:Eiji's Insane
Source:君の名は。
Tags:kimi no na wa opening OP your name shiroatata EijiKuinbii
BeatmapID:1211082
BeatmapSetID:569585

[Difficulty]
HPDrainRate:5
CircleSize:4.5
OverallDifficulty:6.5
ApproachRate:9.2
SliderMultiplier:0.999999999999999
SliderTickRate:1

[Events]
//Background and Video events
0,0,"bg.jpg",0,0
//Break Periods
//Storyboard Layer 0 (Background)
//Storyboard Layer 1 (Fail)
//Storyboard Layer 2 (Pass)
//Storyboard Layer 3 (Foreground)
//Storyboard Sound Samples

[TimingPoints]
24548.336146732,348.837209302326,4,2,0,25,1,0
27329,-133.333333333333,4,2,0,25,0,0
29770,-100,4,2,0,25,0,0
33259,-133.333333333333,4,2,0,25,0,0
33608,-100,4,2,0,25,0,0
36049,-83.3333333333333,4,2,0,25,0,0
52453,-58.8235294117647,4,2,0,75,0,0
52453.0058575954,337.078651685393,4,2,0,75,1,0
52621,-58.8235294117647,4,2,0,75,0,0
57172,-55.5555555555556,4,2,0,75,0,0
58183,-58.8235294117647,4,2,0,75,0,0
58520,-55.5555555555556,4,2,0,75,0,0
60037,-50,4,2,0,75,0,0
62565,-58.8235294117647,4,2,0,75,0,0
63239,-83.3333333333333,4,2,0,75,0,0
72003,-133.333333333333,4,2,0,75,0,0
73183,-66.6666666666667,4,2,0,75,0,0
74026,-76.9230769230769,4,2,0,75,0,0
82453,-71.4285714285714,4,2,0,75,0,0
82790,-66.6666666666667,4,2,0,75,0,0
83127,-62.5,4,2,0,75,0,0
83969,-62.5,4,2,0,75,0,0
84812,-50,4,2,0,75,0,0
87172,-100,4,2,0,75,0,0
87509,-50,4,2,0,75,0,0
90205,-58.8235294117647,4,2,0,75,0,0
95599,-50,4,2,0,75,0,0
98295,-76.9230769230769,4,2,0,75,0,0
100992,-55.5555555555556,4,2,0,75,0,0
102340,-50,4,2,0,75,0,0
107733,-58.8235294117647,4,2,0,75,0,0
108913,-66.6666666666667,4,2,0,75,0,0
111778,-58.8235294117647,4,2,0,75,0,0
114475,-58.8235294117647,4,2,0,75,0,0

[HitObjects]
117,140,24548,6,0,L|130:246,1,99.9999999999999
190,160,25071,1,0,0:0:0:0:
44,120,25246,2,0,L|52:51,1,50
129,40,25594,1,0,0:0:0:0:
117,140,25768,1,0,0:0:0:0:
243,106,25943,2,0,L|325:120,1,74.9999999999999
340,121,26292,2,0,L|238:139,1,99.9999999999999
301,225,26990,2,0,L|290:295,1,50
289,294,27339,2,0,B|274:308|274:308|181:318,1,112.500004291534
182,317,29780,6,0,P|146:286|81:291,1,99.9999999999999
121,363,30479,1,0,0:0:0:0:
121,363,30653,1,0,0:0:0:0:
168,245,30827,2,0,B|179:255|179:255|267:268,1,99.9999999999999
263,267,31350,1,0,0:0:0:0:
280,237,31525,2,0,P|300:297|238:289,1,150
215,226,32222,1,0,0:0:0:0:
382,271,32571,2,0,P|358:202|295:166,1,150
195,160,33269,6,0,P|190:138|190:118,1,37.5000014305115
249,77,33618,6,0,L|254:9,2,50
393,171,34141,1,0,0:0:0:0:
393,171,34315,2,0,L|453:159,1,50
461,88,34664,2,0,L|401:100,1,50
287,127,35013,2,0,L|337:118,1,50
340,226,35362,6,0,P|340:269|380:330,1,99.9999999999999
408,173,36059,2,0,P|354:143|313:144,1,89.999997253418
281,148,36408,2,0,L|205:160,1,59.9999981689453
287,239,36757,1,0,0:0:0:0:
260,59,36931,1,0,0:0:0:0:
162,166,37106,2,0,B|137:116|137:116|129:42,1,119.999996337891
73,162,37629,1,0,0:0:0:0:
251,170,37804,2,0,P|283:189|305:242,1,89.999997253418
303,280,38152,1,0,0:0:0:0:
336,111,38327,1,0,0:0:0:0:
226,250,38501,2,0,L|99:259,1,119.999996337891
97,138,39025,1,0,0:0:0:0:
286,134,39897,6,0,L|413:125,1,119.999996337891
245,136,40420,1,0,0:0:0:0:
445,122,40594,2,0,L|508:117,1,59.9999981689453
447,35,40943,2,0,L|419:92,2,59.9999981689453
452,225,41466,1,0,0:0:0:0:
285,135,41641,6,0,L|208:135,1,59.9999981689453
219,128,41902,1,0,0:0:0:0:
213,121,41990,1,0,0:0:0:0:
336,67,42164,2,0,P|365:115|357:180,1,119.999996337891
436,65,42687,2,0,B|388:53|388:53|296:53,1,119.999996337891
258,178,43385,6,0,B|354:195,1,89.999997253418
376,198,43734,2,0,P|417:244|397:320,1,119.999996337891
346,266,44432,1,0,0:0:0:0:
236,288,44606,1,0,0:0:0:0:
258,178,44780,2,0,P|259:117|177:29,1,179.999994506836
141,147,45478,2,0,L|259:178,1,119.999996337891
104,68,46176,6,0,P|126:120|110:182,1,119.999996337891
34,129,46699,1,0,0:0:0:0:
111,179,46873,2,0,P|96:236|118:290,1,119.999996337891
186,231,47397,2,0,L|230:221,2,29.9999990844727
111,179,47920,2,0,P|98:131|105:99,1,59.9999981689453
205,128,48269,1,0,0:0:0:0:
205,128,48792,5,0,0:0:0:0:
253,296,48966,1,0,0:0:0:0:
272,193,49140,1,0,0:0:0:0:
186,231,49315,1,0,0:0:0:0:
339,258,49490,2,0,P|398:262|470:217,1,119.999996337891
375,143,50013,5,0,0:0:0:0:
336,107,50187,2,0,P|324:128|347:98,1,299.999990844727
256,192,51147,12,0,52368,0:0:0:0:
317,53,52455,5,0,0:0:0:0:
282,218,52621,1,0,0:0:0:0:
214,74,52790,2,0,P|177:51|102:64,1,85.0000016212463
118,218,53127,2,0,L|151:139,1,85.0000016212463
169,285,53464,1,0,0:0:0:0:
33,228,53632,1,0,0:0:0:0:
203,208,53801,1,0,0:0:0:0:
223,204,53885,1,0,0:0:0:0:
244,200,53969,1,0,0:0:0:0:
74,65,54138,2,0,L|64:162,1,85.0000016212463
252,115,54475,2,0,L|243:37,1,42.5000008106231
243,30,54644,5,0,0:0:0:0:
183,164,54812,1,0,0:0:0:0:
329,149,54981,1,0,0:0:0:0:
190,248,55149,6,0,P|178:310|185:332,1,85.0000016212463
347,280,55486,2,0,L|243:293,1,85.0000016212463
245,139,55823,2,0,L|349:152,1,85.0000016212463
211,60,56160,1,0,0:0:0:0:
193,206,56329,1,0,0:0:0:0:
198,226,56413,1,0,0:0:0:0:
204,246,56497,1,0,0:0:0:0:
209,266,56582,1,0,0:0:0:0:
215,286,56666,1,0,0:0:0:0:
112,185,56835,1,0,0:0:0:0:
250,146,57003,1,0,0:0:0:0:
296,307,57172,6,0,B|288:329|288:329|343:305|423:306,1,134.999995880127
423,308,57509,1,0,0:0:0:0:
449,310,57593,1,0,0:0:0:0:
474,300,57677,1,0,0:0:0:0:
490,279,57761,1,0,0:0:0:0:
494,252,57846,1,0,0:0:0:0:
484,227,57930,1,0,0:0:0:0:
464,210,58014,1,0,0:0:0:0:
416,104,58183,2,0,P|410:53|426:6,1,85.0000016212463
493,133,58520,6,0,P|435:182|334:118,1,179.999994506836
261,27,59026,1,0,0:0:0:0:
199,161,59194,1,0,0:0:0:0:
337,62,59363,1,0,0:0:0:0:
191,75,59532,1,0,0:0:0:0:
276,196,59700,1,0,0:0:0:0:
422,182,59868,2,0,L|484:197,1,44.999998626709
382,271,60037,6,0,L|320:286,1,50
356,262,60205,2,0,L|294:277,1,50
408,280,60374,6,0,L|305:304,1,99.9999999999999
189,229,60711,1,0,0:0:0:0:
314,162,60879,2,0,L|416:186,1,99.9999999999999
285,66,61217,1,0,0:0:0:0:
285,258,61385,1,0,0:0:0:0:
383,90,61554,1,0,0:0:0:0:
192,90,61722,1,0,0:0:0:0:
167,93,61806,1,0,0:0:0:0:
142,97,61891,2,0,B|93:84|93:84|56:38,1,99.9999999999999
276,46,62228,1,0,0:0:0:0:
137,191,62396,1,0,0:0:0:0:
354,158,62565,1,0,0:0:0:0:
386,166,62649,1,0,0:0:0:0:
411,188,62733,1,0,0:0:0:0:
423,220,62817,1,0,0:0:0:0:
420,253,62902,1,0,0:0:0:0:
401,281,62986,1,0,0:0:0:0:
372,298,63070,1,0,0:0:0:0:
338,299,63154,1,0,0:0:0:0:
308,285,63239,6,0,P|277:272|244:275,1,59.9999981689453
229,384,63576,2,0,P|255:363|269:333,1,59.9999981689453
182,266,63913,2,0,P|186:299|205:326,1,59.9999981689453
223,210,64250,1,0,0:0:0:0:
114,259,64419,1,0,0:0:0:0:
182,266,64587,1,0,0:0:0:0:
133,157,64756,1,0,0:0:0:0:
114,259,64924,5,0,0:0:0:0:
291,217,65093,1,0,0:0:0:0:
133,157,65261,2,0,L|63:164,1,59.9999981689453
175,61,65599,1,0,0:0:0:0:
194,242,65767,1,0,0:0:0:0:
221,125,65936,2,0,L|356:111,1,119.999996337891
232,244,66610,5,0,0:0:0:0:
101,136,66778,1,0,0:0:0:0:
112,255,66947,1,0,0:0:0:0:
220,124,67115,1,0,0:0:0:0:
91,18,67284,1,0,0:0:0:0:
388,106,67621,6,0,P|421:105|460:76,1,59.9999981689453
312,65,67958,1,0,0:0:0:0:
273,194,68127,1,0,0:0:0:0:
388,106,68295,1,0,0:0:0:0:
271,208,68464,1,0,0:0:0:0:
269,223,68548,1,0,0:0:0:0:
267,238,68632,2,0,L|285:360,1,119.999996337891
356,260,69138,5,0,0:0:0:0:
204,305,69306,1,0,0:0:0:0:
284,356,69475,1,0,0:0:0:0:
239,204,69644,1,0,0:0:0:0:
65,146,69812,1,0,0:0:0:0:
135,225,69981,2,0,P|169:171|161:100,1,119.999996337891
266,48,70655,2,0,L|251:184,1,119.999996337891
319,216,71160,5,0,0:0:0:0:
334,227,71244,1,0,0:0:0:0:
349,238,71328,1,0,0:0:0:0:
240,287,71497,1,0,0:0:0:0:
226,267,71581,1,0,0:0:0:0:
218,244,71665,1,0,0:0:0:0:
214,221,71749,1,0,0:0:0:0:
216,197,71834,1,0,0:0:0:0:
223,174,71918,1,0,0:0:0:0:
235,153,72003,2,0,P|244:126|243:102,1,37.5000014305115
332,111,72340,1,0,0:0:0:0:
165,79,72509,5,0,0:0:0:0:
147,82,72593,1,0,0:0:0:0:
129,79,72677,1,0,0:0:0:0:
113,72,72761,1,0,0:0:0:0:
100,59,72846,1,0,0:0:0:0:
92,43,72930,1,0,0:0:0:0:
89,26,73014,1,0,0:0:0:0:
82,119,73183,2,0,P|87:147|58:210,1,75.000002861023
15,149,73520,1,0,0:0:0:0:
160,163,73688,1,0,0:0:0:0:
305,177,73857,6,0,B|321:187|321:187|354:193,1,37.5000014305115
373,203,74026,2,0,L|451:203,1,64.9999970245362
369,63,74363,1,0,0:0:0:0:
317,249,74531,1,0,0:0:0:0:
293,105,74700,2,0,P|255:88|220:90,1,64.9999970245362
209,223,75037,2,0,B|220:220|220:220|241:171,1,64.9999970245362
154,52,75374,5,0,0:0:0:0:
325,184,75542,1,0,0:0:0:0:
224,2,75711,5,0,0:0:0:0:
92,173,75879,1,0,0:0:0:0:
265,101,76048,5,0,0:0:0:0:
50,73,76216,1,0,0:0:0:0:
134,274,76385,6,0,P|134:314|111:358,1,64.9999970245362
118,351,76638,1,0,0:0:0:0:
112,366,76722,1,0,0:0:0:0:
65,209,76891,1,0,0:0:0:0:
226,247,77059,1,0,0:0:0:0:
86,116,77228,5,0,0:0:0:0:
134,274,77397,1,0,0:0:0:0:
247,153,77565,1,0,0:0:0:0:
226,247,77733,2,0,P|244:306|297:336,1,97.4999955368043
303,328,78070,6,0,P|357:306|419:322,1,97.4999955368043
427,311,78408,2,0,B|455:291|455:291|479:213,1,97.4999955368043
465,198,78745,2,0,P|446:140|452:96,1,97.4999955368043
457,72,79082,5,0,0:0:0:0:
343,15,79250,1,0,0:0:0:0:
237,86,79419,2,0,P|197:98|108:70,1,129.999994049072
166,186,79924,5,0,0:0:0:0:
288,197,80093,1,0,0:0:0:0:
237,86,80262,1,0,0:0:0:0:
217,297,80430,1,0,0:0:0:0:
410,208,80599,2,0,P|437:202|462:180,1,32.4999985122681
469,183,80767,2,0,P|487:163|469:54,1,129.999994049072
418,118,81441,5,0,0:0:0:0:
461,273,81610,1,0,0:0:0:0:
469,183,81778,1,0,0:0:0:0:
336,129,81947,1,0,0:0:0:0:
319,131,82031,1,0,0:0:0:0:
303,133,82115,2,0,P|263:133|206:103,1,97.4999955368043
185,84,82453,6,0,P|206:131|209:217,1,104.999996795654
207,221,82790,6,0,P|137:215|81:164,1,112.500004291534
73,165,83127,6,0,P|50:237|70:304,1,120
77,314,83464,1,0,0:0:0:0:
203,271,83632,1,0,0:0:0:0:
119,187,83800,1,0,0:0:0:0:
245,146,83969,5,0,0:0:0:0:
246,165,84053,1,0,0:0:0:0:
248,185,84137,1,0,0:0:0:0:
341,76,84306,1,0,0:0:0:0:
232,28,84475,1,0,0:0:0:0:
245,146,84644,1,0,0:0:0:0:
354,194,84812,5,0,0:0:0:0:
136,98,84981,2,0,B|105:105|105:105|34:166,1,99.9999999999999
221,143,85318,1,0,0:0:0:0:
56,246,85487,1,0,0:0:0:0:
50,52,85655,1,0,0:0:0:0:
46,27,85739,1,0,0:0:0:0:
42,2,85823,1,0,0:0:0:0:
303,92,85992,1,0,0:0:0:0:
139,194,86160,2,0,P|129:248|150:290,1,99.9999999999999
293,272,86497,2,0,P|251:236|204:233,1,99.9999999999999
148,366,86835,2,0,P|199:347|225:308,1,99.9999999999999
207,232,87172,2,0,P|206:173|220:137,1,74.9999999999999
213,84,87509,6,0,P|246:121|310:130,1,99.9999999999999
366,9,87846,2,0,P|317:19|277:70,1,99.9999999999999
354,179,88183,2,0,P|369:131|345:71,1,99.9999999999999
349,366,88520,1,0,0:0:0:0:
271,224,88688,1,0,0:0:0:0:
434,227,88857,1,0,0:0:0:0:
292,306,89026,5,0,0:0:0:0:
246,326,89110,1,0,0:0:0:0:
197,323,89194,1,0,0:0:0:0:
154,298,89278,1,0,0:0:0:0:
127,257,89363,1,0,0:0:0:0:
185,64,89531,5,0,0:0:0:0:
225,92,89615,1,0,0:0:0:0:
247,137,89699,1,0,0:0:0:0:
247,186,89783,1,0,0:0:0:0:
222,231,89868,2,0,P|185:250|121:256,1,99.9999999999999
185,64,90205,6,0,P|155:116|159:157,1,85.0000016212463
315,146,90542,2,0,L|232:125,1,85.0000016212463
72,118,90879,1,0,0:0:0:0:
146,261,91048,1,0,0:0:0:0:
232,125,91217,1,0,0:0:0:0:
89,199,91386,1,0,0:0:0:0:
224,285,91554,6,0,P|287:290|320:280,1,85.0000016212463
177,218,91891,2,0,P|145:280|155:325,1,85.0000016212463
264,166,92228,1,0,0:0:0:0:
95,127,92396,1,0,0:0:0:0:
177,218,92565,1,0,0:0:0:0:
216,49,92733,1,0,0:0:0:0:
90,213,92902,6,0,P|83:298|84:307,1,85.0000016212463
166,177,93239,1,0,0:0:0:0:
21,164,93408,1,0,0:0:0:0:
242,141,93576,2,0,P|249:56|248:47,1,85.0000016212463
166,177,93913,1,0,0:0:0:0:
312,189,94082,1,0,0:0:0:0:
172,93,94250,2,0,P|133:99|79:160,1,85.0000016212463
160,261,94587,2,0,P|199:255|253:194,1,85.0000016212463
321,106,94924,5,0,0:0:0:0:
328,86,95008,1,0,0:0:0:0:
331,65,95092,1,0,0:0:0:0:
330,44,95176,1,0,0:0:0:0:
323,23,95261,5,0,0:0:0:0:
335,49,95345,1,0,0:0:0:0:
357,70,95429,1,0,0:0:0:0:
383,82,95513,1,0,0:0:0:0:
413,85,95599,6,0,P|459:113|464:191,1,99.9999999999999
310,192,95936,2,0,L|403:155,1,99.9999999999999
296,291,96273,1,0,0:0:0:0:
231,131,96441,1,0,0:0:0:0:
389,253,96610,1,0,0:0:0:0:
204,328,96778,1,0,0:0:0:0:
325,170,96947,6,0,B|337:147|337:147|346:66,1,99.9999999999999
157,65,97284,2,0,B|170:86|170:86|236:135,1,99.9999999999999
62,25,97621,2,0,B|50:48|50:48|41:129,1,99.9999999999999
133,296,97958,1,0,0:0:0:0:
174,162,98127,1,0,0:0:0:0:
0,254,98295,6,0,P|-3:320|22:348,1,97.4999955368043
58,289,98632,2,0,L|86:168,1,97.4999955368043
95,126,98969,2,0,P|97:74|60:35,1,97.4999955368043
33,99,99306,2,0,B|96:127|96:127|188:133,1,129.999994049072
280,99,99812,5,0,0:0:0:0:
316,87,99896,1,0,0:0:0:0:
351,101,99980,1,0,0:0:0:0:
369,135,100064,1,0,0:0:0:0:
361,172,100149,1,0,0:0:0:0:
330,195,100233,1,0,0:0:0:0:
294,206,100317,1,0,0:0:0:0:
271,237,100401,1,0,0:0:0:0:
272,276,100485,1,0,0:0:0:0:
295,306,100570,1,0,0:0:0:0:
331,317,100654,1,0,0:0:0:0:
367,304,100738,1,0,0:0:0:0:
388,272,100822,1,0,0:0:0:0:
184,280,100992,6,0,P|150:226|160:170,1,89.999997253418
276,127,101329,2,0,L|239:209,1,89.999997253418
223,53,101666,1,0,0:0:0:0:
365,118,101835,1,0,0:0:0:0:
186,135,102003,1,0,0:0:0:0:
403,37,102172,1,0,0:0:0:0:
379,273,102340,6,0,P|393:351|461:296,1,200
358,189,102846,5,0,0:0:0:0:
212,224,103014,1,0,0:0:0:0:
379,273,103183,1,0,0:0:0:0:
337,105,103351,1,0,0:0:0:0:
317,334,103520,2,0,P|273:361|233:365,1,50
180,327,103688,2,0,P|98:298|39:306,1,99.9999999999999
244,296,104026,6,0,P|273:214|265:155,1,99.9999999999999
98,88,104363,1,0,0:0:0:0:
302,44,104531,1,0,0:0:0:0:
189,220,104700,2,0,P|230:271|319:262,1,150
415,77,105037,2,0,B|396:74|367:91|353:128|353:128|320:138|320:138|313:159|294:177|294:177|268:196,1,200
92,128,105542,5,0,0:0:0:0:
73,83,105626,1,0,0:0:0:0:
96,41,105710,1,0,0:0:0:0:
144,34,105794,1,0,0:0:0:0:
179,67,105879,1,0,0:0:0:0:
174,115,105964,1,0,0:0:0:0:
164,163,106048,1,0,0:0:0:0:
183,209,106132,1,0,0:0:0:0:
223,236,106216,1,0,0:0:0:0:
273,236,106301,1,0,0:0:0:0:
313,208,106385,6,0,P|336:156|324:102,1,99.9999999999999
205,329,106722,1,0,0:0:0:0:
364,361,106891,2,0,P|455:300|418:222,1,200
239,193,107396,1,0,0:0:0:0:
381,287,107564,1,0,0:0:0:0:
391,118,107733,2,0,B|415:96|415:96|496:75,1,85.0000016212463
381,192,108070,2,0,P|325:155|341:61,1,170.000003242493
466,82,108576,1,0,0:0:0:0:
217,110,108745,1,0,0:0:0:0:
415,196,108913,6,0,P|402:267|267:245,1,225.000008583069
263,99,109756,2,0,B|303:119|303:119|340:218,1,150.000005722046
199,225,110261,1,0,0:0:0:0:
275,343,110430,1,0,0:0:0:0:
136,350,110599,5,0,0:0:0:0:
105,327,110683,1,0,0:0:0:0:
82,298,110767,1,0,0:0:0:0:
68,264,110851,1,0,0:0:0:0:
63,227,110936,1,0,0:0:0:0:
68,190,111020,1,0,0:0:0:0:
83,155,111104,1,0,0:0:0:0:
107,126,111188,1,0,0:0:0:0:
137,104,111273,1,0,0:0:0:0:
172,92,111357,1,0,0:0:0:0:
209,89,111441,1,0,0:0:0:0:
246,96,111525,1,0,0:0:0:0:
280,112,111610,1,0,0:0:0:0:
411,184,111778,6,0,P|479:198|526:186,1,85.0000016212463
380,106,112115,1,0,0:0:0:0:
359,249,112284,1,0,0:0:0:0:
462,118,112453,1,0,0:0:0:0:
298,94,112621,1,0,0:0:0:0:
429,198,112790,2,0,P|445:260|428:302,1,85.0000016212463
283,218,113127,5,0,0:0:0:0:
177,89,113295,1,0,0:0:0:0:
127,83,113379,1,0,0:0:0:0:
86,111,113463,1,0,0:0:0:0:
73,160,113547,1,0,0:0:0:0:
94,204,113632,2,0,P|113:242|109:284,1,85.0000016212463
109,284,114475,6,0,P|113:242|94:204,1,85.0000016212463
64,44,114812,2,0,P|60:85|78:123,1,85.0000016212463
231,177,115149,1,0,0:0:0:0:
15,177,115318,1,0,0:0:0:0:
168,25,115486,1,0,0:0:0:0:
168,241,115655,1,0,0:0:0:0:
204,262,115739,1,0,0:0:0:0:
246,266,115823,1,0,0:0:0:0:
285,250,115907,1,0,0:0:0:0:
313,219,115992,1,0,0:0:0:0:
427,127,116160,2,0,P|466:116|521:142,1,85.0000016212463
384,195,116497,1,0,0:0:0:0:
388,56,116666,5,0,0:0:0:0:
304,193,116835,1,0,0:0:0:0:
184,120,117004,1,0,0:0:0:0:
307,53,117172,2,0,B|347:43|347:43|396:58,1,85.0000016212463
384,195,117509,2,0,P|375:156|334:118,1,85.0000016212463
228,51,117846,1,0,0:0:0:0:
194,52,117930,1,0,0:0:0:0:
160,53,118014,1,0,0:0:0:0:
126,55,118098,1,0,0:0:0:0:
92,56,118183,1,0,0:0:0:0:
165,172,118351,5,0,0:0:0:0:
176,212,118435,1,0,0:0:0:0:
170,254,118520,1,0,0:0:0:0:
147,289,118603,1,0,0:0:0:0:
111,312,118688,1,0,0:0:0:0:
62,164,118857,5,0,0:0:0:0:
279,145,119026,1,0,0:0:0:0:
170,254,119194,1,0,0:0:0:0:
170,100,119363,1,0,0:0:0:0:
388,190,119531,5,0,0:0:0:0:
391,200,119643,1,0,0:0:0:0:
395,211,119755,1,0,0:0:0:0:
398,222,119868,2,0,L|384:323,1,85.0000016212463
303,178,120205,1,0,0:0:0:0:
303,178,120374,2,0,L|317:77,1,85.0000016212463
224,209,120711,1,0,0:0:0:0:
279,344,120879,1,0,0:0:0:0:
134,324,121048,1,0,0:0:0:0:
104,326,121132,1,0,0:0:0:0:
74,328,121216,1,0,0:0:0:0:
45,330,121300,1,0,0:0:0:0:
15,333,121385,1,0,0:0:0:0:
124,205,121554,2,0,P|188:216|225:254,1,85.0000016212463
65,262,121891,1,0,0:0:0:0:
103,125,122059,6,0,L|112:66,1,42.5000008106231
122,0,122228,2,0,L|116:41,1,42.5000008106231
36,71,122396,1,0,0:0:0:0:
183,95,122565,2,0,L|287:85,1,85.0000016212463
386,0,122902,2,0,L|342:95,1,85.0000016212463
366,223,123239,1,0,0:0:0:0:
353,205,123323,1,0,0:0:0:0:
341,188,123407,1,0,0:0:0:0:
328,171,123491,1,0,0:0:0:0:
316,153,123576,1,0,0:0:0:0:
330,300,123745,5,0,0:0:0:0:
358,308,123829,1,0,0:0:0:0:
388,305,123913,1,0,0:0:0:0:
415,294,123997,1,0,0:0:0:0:
436,273,124082,1,0,0:0:0:0:
441,231,124166,5,0,0:0:0:0:
445,189,124250,1,0,0:0:0:0:
417,148,124334,1,0,0:0:0:0:
420,98,124419,1,0,0:0:0:0:
393,56,124503,1,0,0:0:0:0:
344,46,124587,1,0,0:0:0:0:
302,72,124671,1,0,0:0:0:0:
290,120,124756,1,0,0:0:0:0:
316,163,124840,1,0,0:0:0:0:
292,207,124924,6,0,L|286:289,1,63.7500012159347
285,291,125093,5,0,0:0:0:0:
