osu file format v14

[General]
AudioFilename: audio.mp3
AudioLeadIn: 0
PreviewTime: 61705
Countdown: 0
SampleSet: Normal
StackLeniency: 0.7
Mode: 1
LetterboxInBreaks: 0
WidescreenStoryboard: 1

[Editor]
Bookmarks: 330,12330,25830,31830,49830,55830,61830,73830,82705,85830
DistanceSpacing: 1
BeatDivisor: 4
GridSize: 32
TimelineZoom: 1.4

[Metadata]
Title:Yamiyo (TV Size)
TitleUnicode:闇夜 (TV Size)
Artist:Eve
ArtistUnicode:Eve
Creator:Zhuosh
Version:Kantan
Source:どろろ
Tags:dororo 2019 ed ending 2 anime theme japanese jpop j-pop いぶ utaite hyakkimaru jaltzu
BeatmapID:2365334
BeatmapSetID:996029

[Difficulty]
HPDrainRate:8
CircleSize:2
OverallDifficulty:2
ApproachRate:10
SliderMultiplier:1.4
SliderTickRate:1

[Events]
//Background and Video events
0,0,"bg.jpg",0,0
//Break Periods
//Storyboard Layer 0 (Background)
//Storyboard Layer 1 (Fail)
//Storyboard Layer 2 (Pass)
//Storyboard Layer 3 (Foreground)
//Storyboard Layer 4 (Overlay)
//Storyboard Sound Samples

[TimingPoints]
330,750,4,1,0,50,1,0
330,-62.5,4,1,0,50,0,0
12330,-50,4,1,0,70,0,0
24330,-50,4,1,0,65,0,0
25830,750,4,1,0,60,1,0
25830,-62.5,4,1,0,60,0,0
31830,-50,4,1,0,65,0,0
49830,-50,4,1,0,60,0,0
55830,-50,4,1,0,65,0,0
58830,-50,4,1,0,70,0,0
61830,-50,4,1,0,75,0,1
71955,-50,4,1,0,75,0,0
73830,-50,4,1,0,75,0,1
82705,-50,4,1,0,70,0,0
83580,-52.6315789473684,4,1,0,70,0,0
84330,-55.5555555555556,4,1,0,70,0,0
85080,-58.8235294117647,4,1,0,70,0,0
85830,-62.5,4,1,0,60,0,0

[HitObjects]
256,192,330,5,8,0:0:0:0:
256,192,1830,1,0,0:0:0:0:
256,192,3330,1,0,0:0:0:0:
256,192,3705,1,8,0:0:0:0:
256,192,4455,1,0,0:0:0:0:
256,192,6330,1,8,0:0:0:0:
256,192,7830,1,0,0:0:0:0:
256,192,9330,1,8,0:0:0:0:
256,192,9705,1,0,0:0:0:0:
256,192,10080,1,8,0:0:0:0:
256,192,10455,1,0,0:0:0:0:
256,192,12330,5,4,0:0:0:0:
256,192,13080,1,8,0:0:0:0:
256,192,14205,1,0,0:0:0:0:
256,192,14580,1,8,0:0:0:0:
256,192,14955,1,8,0:0:0:0:
256,192,15330,1,0,0:0:0:0:
256,192,16080,1,8,0:0:0:0:
256,192,17205,1,0,0:0:0:0:
256,192,17580,1,8,0:0:0:0:
256,192,17955,1,0,0:0:0:0:
256,192,18330,1,0,0:0:0:0:
256,192,19080,1,8,0:0:0:0:
256,192,20205,1,0,0:0:0:0:
256,192,20580,1,8,0:0:0:0:
256,192,21330,1,0,0:0:0:0:
256,192,21705,1,0,0:0:0:0:
256,192,22080,1,8,0:0:0:0:
256,192,22455,1,8,0:0:0:0:
256,192,23205,1,0,0:0:0:0:
256,192,23580,1,8,0:0:0:0:
256,192,24330,12,0,25642,0:0:0:0:
256,192,25830,5,8,0:0:0:0:
256,192,28830,1,8,0:0:0:0:
256,192,31830,5,0,0:0:0:0:
256,192,32580,1,8,0:0:0:0:
256,192,33330,1,0,0:0:0:0:
256,192,33705,1,0,0:0:0:0:
256,192,34080,1,8,0:0:0:0:
256,192,34830,1,0,0:0:0:0:
256,192,35580,1,8,0:0:0:0:
256,192,36330,1,8,0:0:0:0:
256,192,36705,1,0,0:0:0:0:
256,192,37080,1,8,0:0:0:0:
256,192,37830,1,0,0:0:0:0:
256,192,38205,1,8,0:0:0:0:
256,192,38580,1,8,0:0:0:0:
256,192,39705,1,0,0:0:0:0:
256,192,40080,1,8,0:0:0:0:
256,192,40830,1,8,0:0:0:0:
256,192,41205,1,8,0:0:0:0:
256,192,41580,1,8,0:0:0:0:
256,192,42705,1,8,0:0:0:0:
256,192,43080,1,0,0:0:0:0:
256,192,43455,1,8,0:0:0:0:
256,192,43830,1,0,0:0:0:0:
256,192,44580,1,8,0:0:0:0:
256,192,45330,1,0,0:0:0:0:
256,192,45705,1,8,0:0:0:0:
256,192,46455,1,8,0:0:0:0:
256,192,46830,1,12,0:0:0:0:
256,192,47580,1,8,0:0:0:0:
256,192,48330,1,8,0:0:0:0:
256,192,49830,5,4,0:0:0:0:
256,192,50580,1,0,0:0:0:0:
256,192,51330,1,8,0:0:0:0:
256,192,52080,1,0,0:0:0:0:
256,192,52830,1,0,0:0:0:0:
256,192,53205,1,8,0:0:0:0:
256,192,53580,1,0,0:0:0:0:
256,192,53955,1,8,0:0:0:0:
256,192,54330,1,0,0:0:0:0:
256,192,55080,1,0,0:0:0:0:
256,192,55455,1,8,0:0:0:0:
256,192,55830,5,4,0:0:0:0:
256,192,56580,1,0,0:0:0:0:
256,192,57330,1,8,0:0:0:0:
256,192,57705,1,8,0:0:0:0:
256,192,58080,1,0,0:0:0:0:
256,192,58455,1,0,0:0:0:0:
256,192,58830,1,12,0:0:0:0:
256,192,60330,1,12,0:0:0:0:
256,192,61830,5,4,0:0:0:0:
256,192,62580,1,8,0:0:0:0:
256,192,62955,1,0,0:0:0:0:
256,192,63330,1,8,0:0:0:0:
256,192,64080,1,0,0:0:0:0:
256,192,64455,1,8,0:0:0:0:
256,192,64830,1,0,0:0:0:0:
256,192,65205,1,0,0:0:0:0:
256,192,65580,1,8,0:0:0:0:
256,192,66330,1,8,0:0:0:0:
256,192,66705,1,0,0:0:0:0:
256,192,67080,1,8,0:0:0:0:
256,192,67455,1,8,0:0:0:0:
256,192,67830,1,0,0:0:0:0:
256,192,68580,1,8,0:0:0:0:
256,192,68955,1,0,0:0:0:0:
256,192,69330,1,8,0:0:0:0:
256,192,70080,1,8,0:0:0:0:
256,192,70455,1,8,0:0:0:0:
256,192,70830,1,0,0:0:0:0:
256,192,71205,1,8,0:0:0:0:
256,192,71955,1,12,0:0:0:0:
256,192,73080,1,8,0:0:0:0:
256,192,73455,1,8,0:0:0:0:
256,192,73830,5,4,0:0:0:0:
256,192,74205,1,0,0:0:0:0:
256,192,74580,1,8,0:0:0:0:
256,192,75330,1,0,0:0:0:0:
256,192,75705,1,8,0:0:0:0:
256,192,76455,1,0,0:0:0:0:
256,192,76830,1,8,0:0:0:0:
256,192,77580,1,8,0:0:0:0:
256,192,78330,1,8,0:0:0:0:
256,192,79080,1,8,0:0:0:0:
256,192,79830,1,12,0:0:0:0:
256,192,81330,1,0,0:0:0:0:
256,192,81705,1,8,0:0:0:0:
256,192,82080,1,8,0:0:0:0:
256,192,82705,5,4,0:0:0:0:
256,192,83580,1,0,0:0:0:0:
256,192,84330,1,0,0:0:0:0:
256,192,85080,1,0,0:0:0:0:
256,192,85830,5,12,0:0:0:0:
