osu file format v14

[General]
AudioFilename: audio.mp3
AudioLeadIn: 0
PreviewTime: 61705
Countdown: 0
SampleSet: Soft
StackLeniency: 0.7
Mode: 0
LetterboxInBreaks: 0
WidescreenStoryboard: 1

[Editor]
Bookmarks: 23734
DistanceSpacing: 1.3
BeatDivisor: 4
GridSize: 8
TimelineZoom: 3.099999

[Metadata]
Title:Yamiyo (TV Size)
TitleUnicode:闇夜 (TV Size)
Artist:Eve
ArtistUnicode:Eve
Creator:Cacturne
Version:tomadoi's Hard
Source:どろろ
Tags:dororo 2019 ending 2 anime japanese theme pop jpop j-pop sirmirai mirai tricolor tomadoi hakashii
BeatmapID:2782010
BeatmapSetID:1343074

[Difficulty]
HPDrainRate:4.5
CircleSize:4
OverallDifficulty:7
ApproachRate:8
SliderMultiplier:1.8
SliderTickRate:1

[Events]
//Background and Video events
0,0,"thumb-1920-1000872.png",0,0
//Break Periods
//Storyboard Layer 0 (Background)
//Storyboard Layer 1 (Fail)
//Storyboard Layer 2 (Pass)
//Storyboard Layer 3 (Foreground)
//Storyboard Layer 4 (Overlay)
//Storyboard Sound Samples

[TimingPoints]
330,750,4,2,3,40,1,0
330,-250,4,2,3,40,0,0
1830,-250,4,2,2,40,0,0
3330,-250,4,2,2,40,0,0
3705,-250,4,2,2,40,0,0
5580,-250,4,2,2,25,0,0
6330,-250,4,2,2,60,0,0
7830,-250,4,2,2,40,0,0
9330,-250,4,2,2,40,0,0
9705,-250,4,2,2,32,0,0
11580,-250,4,2,2,25,0,0
12330,-71.4285714285714,4,2,2,60,0,0
18142,-71.4285714285714,4,2,68,60,0,0
18376,-71.4285714285714,4,2,2,60,0,0
23580,-71.4285714285714,4,2,2,60,0,0
23642,-71.4285714285714,4,2,2,60,0,0
25830,750,4,2,2,60,1,0
25830,-100,4,2,2,60,0,0
30705,-100,4,2,2,5,0,0
30955,-100,4,2,2,60,0,0
37642,-100,4,2,68,60,0,0
37876,-100,4,2,2,60,0,0
41111,-100,4,2,2,5,0,0
41205,-100,4,2,2,60,0,0
41486,-100,4,2,2,5,0,0
41580,-100,4,2,2,60,0,0
46455,-100,4,2,2,60,0,0
46548,-100,4,2,68,60,0,0
46830,-100,4,2,69,60,0,0
49830,-100,4,2,68,60,0,0
49876,-100,4,2,2,60,0,0
55830,-100,4,2,68,60,0,0
55876,-100,4,2,2,60,0,0
60330,-100,4,2,69,60,0,0
61080,-100,4,2,2,38,0,0
61830,-71.4285714285714,4,2,68,80,0,1
61876,-71.4285714285714,4,2,3,80,0,1
67830,-71.4285714285714,4,2,69,80,0,1
67876,-71.4285714285714,4,2,3,80,0,1
71955,-71.4285714285714,4,2,68,80,0,1
72001,-71.4285714285714,4,2,3,80,0,1
73830,-71.4285714285714,4,2,69,80,0,1
73876,-71.4285714285714,4,2,3,80,0,1
77017,-71.4285714285714,4,2,3,5,0,1
77111,-71.4285714285714,4,2,3,80,0,1
77298,-71.4285714285714,4,2,3,5,0,1
77392,-71.4285714285714,4,2,3,80,0,1
77767,-71.4285714285714,4,2,3,5,0,1
77861,-71.4285714285714,4,2,3,80,0,1
78048,-71.4285714285714,4,2,3,5,0,1
78142,-71.4285714285714,4,2,3,80,0,1
78330,-71.4285714285714,4,2,3,80,0,1
78517,-71.4285714285714,4,2,3,5,0,1
78611,-71.4285714285714,4,2,3,80,0,1
78798,-71.4285714285714,4,2,3,5,0,1
78892,-71.4285714285714,4,2,3,80,0,1
79267,-71.4285714285714,4,2,3,5,0,1
79361,-71.4285714285714,4,2,3,80,0,1
79548,-71.4285714285714,4,2,3,5,0,1
79642,-71.4285714285714,4,2,3,80,0,1
79830,-71.4285714285714,4,2,68,80,0,1
79876,-71.4285714285714,4,2,3,80,0,1
81330,-71.4285714285714,4,2,3,80,0,1
82705,-71.4285714285714,4,2,3,60,0,0
84330,-71.4285714285714,4,2,2,60,0,0
86580,-166.666666666667,4,2,2,60,0,0
86955,-166.666666666667,4,2,2,32,0,0
88830,-166.666666666667,4,2,2,18,0,0

[Colours]
Combo1 : 176,176,176
Combo2 : 156,136,181
Combo3 : 180,88,90
Combo4 : 91,52,97

[HitObjects]
65,123,330,6,0,P|74:197|79:268,1,144,2|2,0:2|0:2,0:0:0:0:
78,266,3330,1,2,0:2:0:0:
36,337,3705,2,0,P|78:357|191:300,1,180,2|0,0:2|0:0,0:0:0:0:
189,303,6330,6,0,L|339:325,1,144,2|2,0:2|0:2,0:0:0:0:
331,323,9330,1,2,0:2:0:0:
401,365,9705,2,0,B|437:321|437:321|416:195,1,180,2|0,0:2|0:0,0:0:0:0:
251,46,12330,6,0,P|257:78|259:117,1,62.9999980773926,4|0,3:1|0:0,0:0:0:0:
311,171,12705,2,0,P|305:203|303:242,1,62.9999980773926
357,342,13080,2,0,P|300:335|246:374,1,125.999996154785,10|0,0:2|0:0,0:0:0:0:
182,319,13642,1,0,0:0:0:0:
182,319,13736,1,0,0:0:0:0:
182,319,13830,2,0,P|189:284|191:252,1,62.9999980773926,0|4,0:0|3:0,0:0:0:0:
118,218,14205,2,0,P|101:280|98:342,1,125.999996154785,4|8,3:0|0:2,0:0:0:0:
246,189,14955,2,0,L|279:182,2,31.4999990386963
191,127,15330,5,4,2:2:0:0:
191,127,15423,1,0,0:0:0:0:
191,127,15517,1,0,0:0:0:0:
243,64,15705,2,0,P|272:76|316:79,1,62.9999980773926
384,31,16080,2,0,P|408:80|399:155,1,125.999996154785,10|2,0:2|0:2,0:0:0:0:
321,215,16642,6,0,B|312:244|312:244|320:278,1,62.9999980773926,4|0,3:0|0:0,0:0:0:0:
432,327,17017,2,0,B|441:298|441:298|433:264,1,62.9999980773926,4|4,3:0|3:0,0:0:0:0:
213,341,17580,2,0,L|76:367,1,125.999996154785,8|0,0:2|0:0,0:0:0:0:
37,300,18142,1,2,2:0:0:0:
37,300,18236,1,2,2:0:0:0:
37,300,18330,6,0,B|31:227|62:249|51:170,1,125.999996154785,4|0,3:1|0:0,0:0:0:0:
116,125,18892,1,0,0:0:0:0:
190,187,19080,2,0,P|221:179|258:177,1,62.9999980773926,10|0,0:2|0:0,0:0:0:0:
303,113,19455,2,0,P|333:120|364:123,2,62.9999980773926
254,46,20017,1,4,3:0:0:0:
254,46,20205,1,4,3:0:0:0:
340,202,20580,2,0,P|326:263|318:333,1,125.999996154785,8|0,0:2|0:0,0:0:0:0:
392,377,21142,1,0,0:0:0:0:
392,377,21236,1,0,0:0:0:0:
392,377,21330,6,0,P|420:368|458:362,1,62.9999980773926,6|0,0:2|0:0,0:0:0:0:
487,287,21705,2,0,P|456:281|425:272,1,62.9999980773926,2|0,0:2|0:0,0:0:0:0:
359,223,22080,1,10,0:2:0:0:
216,142,22455,1,2,0:2:0:0:
147,186,22642,2,0,L|162:246,1,62.9999980773926,4|0,3:0|0:0,0:0:0:0:
234,286,23017,2,0,L|218:346,1,62.9999980773926,4|4,3:0|3:0,0:0:0:0:
20,355,23580,6,0,L|151:373,2,125.999996154785,10|0|0,0:2|0:0|0:0,0:0:0:0:
394,366,25830,6,0,P|402:338|401:312,1,45,2|2,3:2|0:2,0:0:0:0:
334,276,26205,2,0,P|332:298|325:319,1,45,2|2,0:2|0:2,0:0:0:0:
253,344,26580,1,2,0:2:0:0:
106,90,28330,5,2,0:2:0:0:
106,90,28455,2,0,P|135:98|171:95,1,60,2|2,0:2|0:2,0:0:0:0:
186,86,28830,1,2,3:2:0:0:
314,168,29205,2,0,P|344:164|375:169,1,60,2|2,0:2|0:2,0:0:0:0:
387,182,29580,1,2,0:2:0:0:
101,359,30955,5,2,0:2:0:0:
101,359,31080,2,0,L|95:289,1,60,2|2,0:2|0:2,0:0:0:0:
108,277,31455,2,0,L|102:207,1,60,2|2,0:2|0:2,0:0:0:0:
53,153,31830,6,0,P|88:129|145:132,1,90,4|0,3:1|0:0,0:0:0:0:
193,177,32392,1,2,0:0:0:0:
249,263,32580,2,0,P|284:287|341:284,1,90,10|0,0:0|0:0,0:0:0:0:
392,243,33142,1,2,0:0:0:0:
392,243,33330,2,0,P|386:218|383:193,1,45,2|4,0:0|3:0,0:0:0:0:
425,134,33705,1,4,3:0:0:0:
486,355,34080,2,0,P|462:354|434:360,1,45,8|2,0:0|0:0,0:0:0:0:
371,325,34455,1,2,0:0:0:0:
371,325,34642,1,2,0:0:0:0:
276,369,34830,6,0,P|236:379|182:365,1,90,4|0,3:0|0:0,0:0:0:0:
139,311,35392,1,2,0:0:0:0:
44,365,35580,2,0,P|42:290|38:224,1,135,10|2,0:0|0:0,0:0:0:0:
27,192,36330,5,2,0:0:0:0:
80,114,36517,1,4,3:0:0:0:
80,114,36705,2,0,P|103:121|132:125,1,45,4|0,3:0|0:0,0:0:0:0:
189,186,37080,1,8,0:0:0:0:
189,186,37268,2,0,P|212:179|241:175,1,45,4|0,3:0|0:0,0:0:0:0:
301,231,37642,1,2,0:2:0:0:
301,231,37736,1,2,0:2:0:0:
301,231,37830,6,0,B|354:222|338:253|396:249,1,90,4|2,3:2|0:0,0:0:0:0:
453,285,38392,1,2,0:0:0:0:
382,365,38580,2,0,P|343:344|291:350,1,90,10|0,0:0|0:0,0:0:0:0:
226,372,39142,6,0,P|221:349|219:317,1,45,4|0,3:0|0:0,0:0:0:0:
169,269,39517,1,4,3:0:0:0:
169,269,39705,2,0,P|174:246|176:218,1,45,4|2,3:0|0:0,0:0:0:0:
231,174,40080,1,10,0:0:0:0:
158,104,40267,2,0,P|187:75|283:76,1,135,2|4,0:0|3:0,0:0:0:0:
357,186,41205,6,0,L|405:197,1,45,2|0,0:0|0:0,0:0:0:0:
475,176,41580,2,0,P|493:214|486:272,1,90,10|0,0:0|0:0,0:0:0:0:
436,315,42142,2,0,P|413:306|386:302,1,45,4|0,3:0|0:0,0:0:0:0:
316,356,42517,1,4,0:3:0:0:
316,356,42705,2,0,P|293:364|266:369,1,45,4|2,0:3|0:0,0:0:0:0:
201,310,43080,2,0,B|192:223|224:255|212:168,1,135,10|0,0:0|0:0,0:0:0:0:
163,118,43830,6,0,L|170:88,2,22.5,6|0|0,3:2|0:0|0:0,0:0:0:0:
88,169,44205,2,0,P|64:175|43:185,1,45,0|2,0:0|0:0,0:0:0:0:
0,261,44580,2,0,P|33:268|88:299,1,90,10|0,0:0|0:0,0:0:0:0:
125,357,45142,1,2,0:0:0:0:
232,321,45330,6,0,P|229:299|229:270,1,45,2|4,0:0|3:0,0:0:0:0:
310,250,45705,2,0,P|318:292|316:348,1,90,4|8,3:0|0:0,0:0:0:0:
392,368,46267,1,2,0:0:0:0:
453,321,46455,1,2,0:0:0:0:
453,321,46548,1,2,0:2:0:0:
453,321,46642,1,2,0:2:0:0:
411,247,46830,5,6,3:2:0:0:
256,192,47017,12,4,49830,3:1:0:0:
156,68,50455,5,2,0:0:0:0:
156,68,50580,2,0,L|148:142,1,60,2|2,3:2|0:0,0:0:0:0:
163,154,50955,2,0,L|155:228,1,60,2|2,0:0|0:0,0:0:0:0:
168,241,51330,1,2,3:2:0:0:
235,299,51580,1,2,0:0:0:0:
235,299,51705,2,0,P|264:283|321:295,1,90,2|2,0:0|3:2,0:0:0:0:
354,319,52267,1,0,0:0:0:0:
398,325,52455,2,0,B|420:305|430:268,1,45,2|0,0:0|0:0,0:0:0:0:
398,244,52830,6,0,L|389:143,1,90,2|2,3:2|0:0,0:0:0:0:
231,92,53580,2,0,L|223:181,1,90,2|2,3:2|0:0,0:0:0:0:
154,232,54205,1,2,0:0:0:0:
154,232,54330,2,0,P|127:217|91:216,1,60,2|2,3:2|0:0,0:0:0:0:
66,224,54705,2,0,P|39:239|20:270,1,60,2|2,0:0|0:0,0:0:0:0:
16,296,55080,1,2,3:2:0:0:
89,361,55455,2,0,P|116:353|155:350,1,60,2|2,0:0|3:2,0:0:0:0:
178,364,55830,5,4,0:2:0:0:
345,319,56205,1,0,0:0:0:0:
447,376,56580,2,0,P|462:340|455:284,1,90,0|2,3:2|0:0,0:0:0:0:
402,226,57205,1,2,0:0:0:0:
378,203,57330,2,0,P|363:167|370:111,1,90,2|0,1:2|1:0,0:0:0:0:
504,53,58080,5,2,1:2:0:0:
450,114,58267,1,8,3:0:0:0:
424,36,58455,1,0,3:2:0:0:
481,214,58830,5,4,3:1:0:0:
89,276,60330,1,6,3:2:0:0:
89,276,61830,6,0,P|186:279|234:376,1,209.999993591309,4|0,3:1|0:0,0:0:0:0:
310,371,62580,2,0,P|313:330|332:291,1,83.9999974365235,8|2,0:0|0:2,0:0:0:0:
371,255,62955,1,2,0:2:0:0:
439,169,63205,1,2,0:0:0:0:
471,124,63330,2,0,P|468:83|449:44,1,83.9999974365235,4|0,3:0|0:0,0:0:0:0:
403,14,63705,1,0,0:0:0:0:
321,87,63955,1,2,0:0:0:0:
321,87,64080,2,0,P|277:92|233:100,1,83.9999974365235,10|2,0:0|0:0,0:0:0:0:
204,169,64455,2,0,P|247:174|292:182,1,83.9999974365235,2|2,0:0|0:0,0:0:0:0:
341,238,64830,6,0,B|321:311|366:291|342:371,1,125.999996154785,4|2,3:0|0:0,0:0:0:0:
242,323,65455,1,2,0:0:0:0:
242,323,65580,2,0,P|198:327|164:349,1,83.9999974365235,10|2,0:0|0:0,0:0:0:0:
122,362,65955,2,0,P|86:340|44:336,1,83.9999974365235,2|2,0:0|0:0,0:0:0:0:
6,358,66330,1,4,3:0:0:0:
50,262,66580,2,0,P|46:203|42:129,1,125.999996154785,2|0,0:0|0:0,0:0:0:0:
102,85,67080,2,0,P|128:94|152:96,1,41.9999987182618,8|0,0:0|0:0,0:0:0:0:
211,60,67330,1,0,0:0:0:0:
240,14,67455,1,2,0:0:0:0:
326,129,67830,6,0,B|400:114|376:161|461:152,1,125.999996154785,4|0,3:2|0:0,0:0:0:0:
492,251,68455,1,2,0:0:0:0:
492,251,68580,2,0,P|448:258|414:287,1,83.9999974365235,10|2,0:0|0:0,0:0:0:0:
385,325,68955,2,0,P|341:318|307:289,1,83.9999974365235,2|2,0:0|0:0,0:0:0:0:
296,241,69330,1,4,3:0:0:0:
203,315,69580,1,8,0:0:0:0:
162,351,69705,2,0,P|117:360|76:375,1,83.9999974365235,0|2,3:0|3:2,0:0:0:0:
46,303,70080,6,0,P|62:269|55:221,1,83.9999974365235,8|2,0:0|0:0,0:0:0:0:
127,190,70455,2,0,P|110:152|116:111,1,83.9999974365235,2|2,0:0|0:0,0:0:0:0:
198,59,70830,2,0,L|336:81,1,125.999996154785,4|8,3:0|0:0,0:0:0:0:
322,78,71580,1,4,3:0:0:0:
497,229,71955,6,0,P|454:207|326:330,1,251.999992309571,4|2,3:1|0:0,0:0:0:0:
184,237,73080,1,10,0:0:0:0:
66,351,73455,1,10,0:2:0:0:
143,324,73642,1,10,0:2:0:0:
214,364,73830,6,0,P|262:349|282:275,1,125.999996154785,6|2,3:2|0:0,0:0:0:0:
236,215,74392,1,2,0:0:0:0:
236,215,74580,2,0,L|227:86,1,125.999996154785,10|0,0:0|0:0,0:0:0:0:
274,23,75142,1,2,0:0:0:0:
274,23,75330,2,0,P|309:22|351:49,1,62.9999980773926,4|0,3:0|0:0,0:0:0:0:
397,85,75705,2,0,P|356:87|324:115,1,62.9999980773926,0|0,3:0|0:0,0:0:0:0:
344,179,76080,1,8,0:0:0:0:
270,259,76330,1,0,0:0:0:0:
307,298,76455,2,0,P|312:340|316:389,1,83.9999974365235,2|2,0:0|0:0,0:0:0:0:
391,360,76830,6,0,P|434:335|494:339,2,94.499997116089,4|0|0,3:0|0:0|0:0,0:0:0:0:
307,298,77580,2,0,P|264:273|204:277,2,94.499997116089,10|2|2,0:0|0:0|0:0,0:0:0:0:
358,217,78330,6,0,P|362:170|374:105,1,94.499997116089,4|2,3:0|0:0,0:0:0:0:
282,36,78892,1,2,0:0:0:0:
217,86,79080,2,0,P|175:63|113:70,1,94.499997116089,10|2,0:0|0:0,0:0:0:0:
28,177,79642,1,2,0:0:0:0:
90,230,79830,6,0,P|139:201|213:213,1,125.999996154785,4|2,3:1|0:0,0:0:0:0:
336,307,80580,2,0,P|330:334|327:365,2,41.9999987182618,8|0|0,0:0|0:0|0:0,0:0:0:0:
372,266,80955,1,0,0:0:0:0:
439,110,81330,6,0,P|407:93|348:100,1,83.9999974365235,4|2,3:0|0:0,0:0:0:0:
284,193,81705,2,0,P|252:210|193:203,1,83.9999974365235,2|2,3:2|0:0,0:0:0:0:
119,145,82080,1,10,0:0:0:0:
119,145,82330,1,2,3:2:0:0:
44,291,82705,5,4,3:1:0:0:
256,192,82830,12,6,85830,3:2:0:0:
270,344,86455,5,2,0:0:0:0:
270,344,86580,2,0,L|329:355,1,53.9999983520508,2|2,0:0|0:0,0:0:0:0:
256,192,87142,12,0,88830,0:0:0:0:
