osu file format v14

[General]
AudioFilename: audio.mp3
AudioLeadIn: 0
PreviewTime: 61705
Countdown: 0
SampleSet: Soft
StackLeniency: 0.7
Mode: 0
LetterboxInBreaks: 0
WidescreenStoryboard: 0

[Editor]
Bookmarks: 55642,56641,89266
DistanceSpacing: 1.3
BeatDivisor: 8
GridSize: 8
TimelineZoom: 3.999998

[Metadata]
Title:Yamiyo (TV Size)
TitleUnicode:闇夜 (TV Size)
Artist:Eve
ArtistUnicode:Eve
Creator:Cacturne
Version:Trust
Source:どろろ
Tags:dororo 2019 ending 2 anime japanese theme pop jpop j-pop sirmirai mirai tricolor tomadoi hakashii
BeatmapID:2863197
BeatmapSetID:1343074

[Difficulty]
HPDrainRate:5
CircleSize:4
OverallDifficulty:8
ApproachRate:9
SliderMultiplier:2.6
SliderTickRate:1

[Events]
//Background and Video events
0,0,"thumb-1920-1000872.png",0,0
//Break Periods
//Storyboard Layer 0 (Background)
//Storyboard Layer 1 (Fail)
//Storyboard Layer 2 (Pass)
//Storyboard Layer 3 (Foreground)
//Storyboard Layer 4 (Overlay)
//Storyboard Sound Samples

[TimingPoints]
330,750,4,2,3,40,1,0
330,-333.333333333333,4,2,3,40,0,0
1642,-333.333333333333,4,2,2,5,0,0
1830,-500,4,2,2,40,0,0
2580,-1000,4,2,2,25,0,0
3330,-250,4,2,2,40,0,0
3517,-1000,4,2,2,5,0,0
3705,-500,4,2,2,40,0,0
4267,-500,4,2,2,5,0,0
4455,-500,4,2,2,40,0,0
5580,-1000,4,2,2,25,0,0
6330,-333.333333333333,4,2,2,60,0,0
7642,-333.333333333333,4,2,2,5,0,0
7830,-500,4,2,2,40,0,0
8580,-1000,4,2,2,25,0,0
9330,-500,4,2,2,40,0,0
9705,-500,4,2,2,32,0,0
10455,-500,4,2,2,48,0,0
11580,-1000,4,2,2,25,0,0
12236,-100,4,2,2,25,0,0
12330,-100,4,2,2,60,0,0
18142,-100,4,2,68,60,0,0
18376,-100,4,2,2,60,0,0
23580,-125,4,2,2,60,0,0
25830,750,4,2,2,60,1,0
25830,-200,4,2,2,60,0,0
26205,-250,4,2,2,60,0,0
26580,-333.333333333336,4,2,2,60,0,0
28080,-333.333333333336,4,2,2,60,0,0
28330,-166.666666666667,4,2,2,60,0,0
28830,-100,4,2,2,60,0,0
29205,-142.857142857143,4,2,2,60,0,0
29580,-200,4,2,2,60,0,0
30705,-200,4,2,2,5,0,0
30955,-166.666666666667,4,2,2,60,0,0
31830,-100,4,2,2,60,0,0
33330,-125,4,2,2,60,0,0
36330,-90.9090909090909,4,2,2,60,0,0
36705,-100,4,2,2,60,0,0
37642,-100,4,2,68,60,0,0
37876,-100,4,2,2,60,0,0
40830,-83.3333333333333,4,2,2,60,0,0
41111,-83.3333333333333,4,2,2,5,0,0
41205,-125,4,2,2,60,0,0
41486,-125,4,2,2,5,0,0
41580,-100,4,2,2,60,0,0
46455,-100,4,2,2,60,0,0
46548,-100,4,2,68,60,0,0
46830,-250,4,2,69,60,0,0
49830,-142.857142857143,4,2,68,60,0,0
49876,-142.857142857143,4,2,2,60,0,0
52830,-111.111111111111,4,2,2,60,0,0
55830,-111.111111111111,4,2,68,60,0,0
55876,-111.111111111111,4,2,2,60,0,0
57517,-111.111111111111,4,2,2,5,0,0
57580,-111.111111111111,4,2,2,60,0,0
57830,-111.111111111111,4,2,2,5,0,0
57892,-111.111111111111,4,2,2,60,0,0
59580,-90.9090909090908,4,2,2,60,0,0
60330,-90.9090909090908,4,2,69,60,0,0
61080,-111.111111111111,4,2,2,38,0,0
61830,-83.3333333333333,4,2,68,80,0,1
61876,-83.3333333333333,4,2,3,80,0,1
64080,-62.5,4,2,3,80,0,1
64830,-83.3333333333333,4,2,3,80,0,1
67830,-83.3333333333333,4,2,69,80,0,1
67876,-83.3333333333333,4,2,3,80,0,1
70830,-58.8235294117647,4,2,3,80,0,1
71205,-90.9090909090909,4,2,3,80,0,1
71955,-90.9090909090909,4,2,68,80,0,1
72001,-90.9090909090909,4,2,3,80,0,1
73830,-90.9090909090909,4,2,69,80,0,1
73876,-90.9090909090909,4,2,3,80,0,1
75330,-66.6666666666667,4,2,3,80,0,1
75705,-83.3333333333333,4,2,3,80,0,1
77017,-83.3333333333333,4,2,3,5,0,1
77111,-83.3333333333333,4,2,3,80,0,1
77298,-83.3333333333333,4,2,3,5,0,1
77392,-83.3333333333333,4,2,3,80,0,1
77767,-83.3333333333333,4,2,3,5,0,1
77861,-83.3333333333333,4,2,3,80,0,1
78048,-83.3333333333333,4,2,3,5,0,1
78142,-83.3333333333333,4,2,3,80,0,1
78330,-50,4,2,3,80,0,1
78517,-83.3333333333333,4,2,3,5,0,1
78611,-66.6666666666667,4,2,3,80,0,1
78798,-83.3333333333333,4,2,3,5,0,1
78892,-83.3333333333333,4,2,3,80,0,1
79267,-83.3333333333333,4,2,3,5,0,1
79361,-83.3333333333333,4,2,3,80,0,1
79548,-83.3333333333333,4,2,3,5,0,1
79642,-66.6666666666667,4,2,3,80,0,1
79830,-66.6666666666667,4,2,68,80,0,1
79876,-66.6666666666667,4,2,3,80,0,1
81330,-83.3333333333333,4,2,3,80,0,1
81705,-71.4285714285714,4,2,3,80,0,1
82705,-250,4,2,3,60,0,0
84330,-166.666666666667,4,2,2,60,0,0
85080,-166.666666666667,4,2,2,60,0,0
86580,-100,4,2,2,60,0,0
86955,-303.030303030303,4,2,2,32,0,0
89267,-100,4,2,2,18,0,0

[Colours]
Combo1 : 176,176,176
Combo2 : 156,136,181
Combo3 : 180,88,90
Combo4 : 91,52,97

[HitObjects]
465,54,330,6,0,B|407:44|394:97|329:92,1,136.499995834351,2|0,0:2|0:0,0:0:0:0:
337,92,1830,2,0,P|349:98|371:139,1,52,2|0,0:2|0:0,0:0:0:0:
81,351,3330,6,0,L|84:310,1,26,2|0,0:2|0:0,0:0:0:0:
133,271,3705,2,0,L|129:223,1,39,2|0,0:2|0:0,0:0:0:0:
129,232,4455,2,0,B|93:213|93:213|54:226,1,78,2|0,0:2|0:0,0:0:0:0:
68,32,6330,6,0,B|67:91|123:92|118:165,1,136.499995834351,2|0,0:2|0:0,0:0:0:0:
118,155,7830,2,0,B|143:144|143:144|177:146,1,52,2|0,0:2|0:0,0:0:0:0:
448,193,9330,6,0,L|418:184,2,26,2|2|2,0:2|0:2|0:2,0:0:0:0:
467,268,10455,2,0,L|445:185,1,78,2|0,0:2|0:0,0:0:0:0:
475,134,12330,6,0,P|453:173|440:213,1,65,4|0,3:1|0:0,0:0:0:0:
467,264,12611,1,0,0:0:0:0:
451,302,12705,2,0,P|422:318|390:319,1,65
330,251,13080,5,10,0:2:0:0:
248,296,13267,1,0,0:0:0:0:
213,285,13360,1,0,0:0:0:0:
182,329,13455,1,0,0:0:0:0:
146,340,13548,1,0,0:0:0:0:
108,311,13642,2,0,B|102:306|102:306|101:297,4,16.25
11,174,14017,5,4,3:0:0:0:
74,96,14205,2,0,P|66:56|58:24,1,65,4|0,3:0|0:0,0:0:0:0:
152,110,14580,2,0,P|157:78|166:46,1,65,8|0,0:2|0:0,0:0:0:0:
212,197,14955,1,0,0:0:0:0:
214,186,15048,1,0,0:0:0:0:
218,174,15142,1,0,0:0:0:0:
299,93,15330,6,0,L|296:125,1,32.5,4|0,2:2|0:0,0:0:0:0:
303,54,15517,1,0,0:0:0:0:
384,16,15705,1,0,0:0:0:0:
448,80,15892,1,0,0:0:0:0:
393,222,16080,6,0,P|384:193|371:159,1,65,10|0,0:2|0:0,0:0:0:0:
480,252,16455,1,2,0:2:0:0:
472,283,16548,1,0,0:0:0:0:
432,304,16642,1,4,3:0:0:0:
439,335,16735,1,0,0:0:0:0:
423,371,16830,1,0,0:0:0:0:
333,338,17017,1,4,3:0:0:0:
260,380,17205,2,0,L|187:370,1,65,4|0,3:0|0:0,0:0:0:0:
28,336,17580,5,8,0:2:0:0:
96,280,17767,1,0,0:0:0:0:
28,228,17955,2,0,P|14:207|8:184,1,32.5
23,120,18142,2,0,P|24:111|28:104,3,16.25,2|2|2|2,2:0|2:0|2:0|2:0,0:0:0:0:
42,85,18330,6,0,P|74:73|122:73,1,65,4|0,3:1|0:0,0:0:0:0:
193,226,18705,2,0,P|179:195|174:163,1,65
242,30,19080,1,10,0:2:0:0:
290,113,19267,1,0,0:0:0:0:
387,89,19455,2,0,L|384:56,1,32.5
394,127,19642,2,0,L|394:147,4,16.25
488,229,20017,5,4,3:0:0:0:
456,317,20205,2,0,L|452:403,1,65,4|0,3:0|0:0,0:0:0:0:
361,289,20580,2,0,P|356:318|368:356,1,65,8|0,0:2|0:0,0:0:0:0:
288,197,20955,1,0,0:0:0:0:
297,198,21048,1,0,0:0:0:0:
307,200,21142,2,0,L|352:206,1,32.5
406,146,21330,6,0,P|411:102|404:68,1,65,6|0,0:2|0:0,0:0:0:0:
324,36,21705,2,0,B|290:27|290:27|261:36,1,65,2|0,0:2|0:0,0:0:0:0:
166,125,22080,1,10,0:2:0:0:
239,195,22267,1,0,0:0:0:0:
160,243,22455,1,2,0:2:0:0:
154,275,22548,1,0,0:0:0:0:
121,303,22642,1,4,3:0:0:0:
126,335,22735,1,0,0:0:0:0:
115,368,22830,1,0,0:0:0:0:
41,259,23017,5,4,3:0:0:0:
68,178,23205,2,0,L|50:93,1,65,4|0,3:0|0:0,0:0:0:0:
54,114,23580,2,0,B|77:104|96:85|96:85|181:148|181:148|238:148,1,208,10|0,0:2|0:0,0:0:0:0:
256,192,24517,12,0,25455,0:0:0:0:
70,54,25830,6,0,L|114:46,1,32.5,2|2,3:2|0:2,0:0:0:0:
151,123,26205,2,0,L|118:119,1,26,2|2,0:2|0:2,0:0:0:0:
46,126,26580,2,0,B|39:193|105:196|92:282,1,156,2|0,0:2|0:0,0:0:0:0:
93,270,28330,5,2,0:2:0:0:
176,243,28455,2,0,L|239:225,1,51.999998413086,2|2,0:2|0:2,0:0:0:0:
311,240,28830,2,0,L|219:227,1,86.6666666666667,2|2,3:2|0:2,0:0:0:0:
130,156,29205,6,0,B|129:122|129:122|141:97,1,60.666664815267,2|2,0:2|0:2,0:0:0:0:
141,98,29580,2,0,B|188:73|229:108|233:113|278:152|337:132,1,195,2|0,0:2|0:0,0:0:0:0:
324,135,30955,5,2,0:2:0:0:
399,192,31080,2,0,L|406:258,1,51.999998413086,2|2,0:2|0:2,0:0:0:0:
447,271,31455,2,0,B|426:252|426:252|396:240,1,51.999998413086,2|2,0:2|0:2,0:0:0:0:
293,252,31830,6,0,L|262:261,1,32.5,4|0,3:1|0:0,0:0:0:0:
323,236,32017,1,0,0:0:0:0:
368,176,32205,1,0,0:0:0:0:
384,125,32392,1,2,0:0:0:0:
211,126,32580,5,10,0:0:0:0:
288,139,32767,1,0,0:0:0:0:
384,125,32955,1,0,0:0:0:0:
431,53,33142,1,2,0:0:0:0:
272,6,33330,2,0,P|242:17|212:21,1,52,2|2,0:0|0:2,0:0:0:0:
105,12,33705,5,4,3:0:0:0:
153,107,33892,1,0,0:0:0:0:
131,245,34080,1,8,0:0:0:0:
44,283,34267,1,2,0:0:0:0:
40,135,34455,2,0,P|64:141|95:157,1,52,2|2,0:0|0:0,0:0:0:0:
226,256,34830,6,0,L|233:294,1,26,4|0,3:0|0:0,0:0:0:0:
214,229,35017,1,0,0:0:0:0:
215,142,35205,1,0,0:0:0:0:
267,68,35392,1,2,0:0:0:0:
394,107,35580,6,0,L|329:121,1,52,10|0,0:0|0:0,0:0:0:0:
445,199,35955,2,0,L|395:189,1,52,0|2,0:0|0:0,0:0:0:0:
478,114,36236,2,0,L|478:94,1,13
462,119,36330,2,0,B|424:104|424:104|381:108,1,71.5000021820069,2|2,0:0|0:0,0:0:0:0:
332,52,36705,6,0,B|251:43|281:100|189:88,1,130,4|8,3:0|0:0,0:0:0:0:
44,59,37267,5,4,3:0:0:0:
127,107,37455,1,0,0:0:0:0:
46,146,37642,6,0,L|22:158,2,16.25,2|2|2,0:2|0:2|0:2,0:0:0:0:
125,187,37830,2,0,P|143:185|156:180,2,32.5,4|0|2,3:2|0:0|0:0,0:0:0:0:
48,304,38205,2,0,L|61:240,1,65,2|2,0:0|0:0,0:0:0:0:
114,362,38580,6,0,P|146:357|176:344,1,65,10|2,0:0|0:0,0:0:0:0:
254,259,38955,2,0,L|262:210,1,32.5
210,164,39142,6,0,L|206:148,4,16.25,4|0|0|0|0,3:0|0:0|0:0|0:0|0:0,0:0:0:0:
296,96,39517,1,4,3:0:0:0:
380,152,39705,2,0,P|381:189|351:228,1,65,4|2,3:0|0:0,0:0:0:0:
479,111,40080,6,0,P|488:139|485:176,1,65,10|2,0:0|0:0,0:0:0:0:
402,63,40455,1,0,0:0:0:0:
388,37,40548,1,0,0:0:0:0:
355,43,40642,1,2,0:0:0:0:
324,22,40736,1,0,0:0:0:0:
295,30,40830,6,0,B|271:33|249:23|249:23|212:36|212:36|164:31,1,116.999996429443,4|0,3:0|0:0,0:0:0:0:
146,50,41205,2,0,L|161:139,1,78,2|0,0:0|0:0,0:0:0:0:
158,126,41580,6,0,B|122:119|122:119|78:130,1,65,10|2,0:0|0:0,0:0:0:0:
28,194,41955,1,0,0:0:0:0:
60,356,42142,1,4,3:0:0:0:
133,377,42330,1,0,0:0:0:0:
269,276,42517,1,4,0:3:0:0:
162,183,42705,6,0,P|197:198|232:198,1,65,4|2,0:3|0:0,0:0:0:0:
319,203,43080,1,10,0:0:0:0:
357,173,43267,1,4,0:3:0:0:
446,46,43455,5,2,0:0:0:0:
434,116,43642,1,0,0:0:0:0:
476,225,43830,6,0,P|490:234|516:242,1,32.5,6|0,3:2|0:0,0:0:0:0:
453,206,44017,1,0,0:0:0:0:
368,255,44205,2,0,P|360:288|360:332,1,65,0|2,0:0|0:0,0:0:0:0:
319,384,44580,1,10,0:0:0:0:
276,310,44767,1,0,0:0:0:0:
201,360,44955,1,0,0:0:0:0:
209,362,45048,1,0,0:0:0:0:
216,361,45142,1,2,0:0:0:0:
276,310,45330,5,2,0:0:0:0:
282,189,45517,1,4,3:0:0:0:
180,36,45705,1,4,3:0:0:0:
186,52,46080,5,8,0:0:0:0:
263,110,46267,2,0,B|295:120|295:120|332:106,1,65,2|2,0:0|0:0,0:0:0:0:
359,75,46548,6,0,L|358:58,3,16.25,2|2|2|2,0:2|0:2|0:2|0:2,0:0:0:0:
426,121,46830,1,6,3:2:0:0:
256,192,46876,12,0,49455,0:0:0:0:
277,236,49830,6,0,P|320:222|364:212,1,90.9999972229005,4|0,3:1|0:0,0:0:0:0:
241,379,50455,1,2,0:0:0:0:
143,328,50580,2,0,P|95:320|73:318,1,60.666664815267,2|2,3:2|0:0,0:0:0:0:
45,248,50955,2,0,P|79:246|114:249,1,60.666664815267,2|2,0:0|0:0,0:0:0:0:
188,270,51330,1,2,3:2:0:0:
284,152,51580,5,2,0:0:0:0:
332,213,51705,2,0,P|357:228|395:232,1,60.666664815267,2|0,0:0|0:0,0:0:0:0:
460,215,52080,1,2,3:2:0:0:
472,68,52330,5,0,0:0:0:0:
402,152,52455,2,0,B|385:136|385:136|377:107,1,45.4999986114502,2|0,0:0|0:0,0:0:0:0:
299,21,52830,6,0,P|257:35|221:60,1,77.999997619629,2|2,3:2|0:0,0:0:0:0:
95,50,53205,2,0,P|104:92|133:129,1,77.999997619629,2|2,0:0|0:0,0:0:0:0:
63,206,53580,5,2,3:2:0:0:
240,231,53830,1,2,0:0:0:0:
221,153,53955,1,2,0:0:0:0:
98,282,54205,1,2,0:0:0:0:
172,296,54330,6,0,P|167:253|132:211,1,77.999997619629,2|2,3:2|0:0,0:0:0:0:
63,206,54705,1,2,0:0:0:0:
240,231,54955,1,2,0:0:0:0:
258,147,55080,2,0,P|227:123|189:115,1,77.999997619629,2|2,3:2|0:0,0:0:0:0:
115,143,55455,5,2,0:0:0:0:
320,207,55705,1,2,3:2:0:0:
426,198,55830,6,0,P|405:166|422:201,1,116.999996429443,4|0,0:2|0:0,0:0:0:0:
426,198,56580,5,0,3:2:0:0:
290,317,56830,1,2,0:0:0:0:
201,280,56955,2,0,P|179:245|175:204,1,77.999997619629,2|2,0:0|0:0,0:0:0:0:
75,155,57330,2,0,P|89:123|117:102,1,58.4999982147217,2|2,1:2|0:0,0:0:0:0:
146,91,57580,2,0,P|185:110|232:106,1,77.999997619629,2|2,0:0|0:0,0:0:0:0:
282,72,57892,5,2,3:2:0:0:
404,68,58080,1,2,1:2:0:0:
422,235,58267,2,0,L|399:264,1,29.2499991073609
412,267,58455,6,0,P|440:293|477:304,1,77.999997619629,0|2,3:2|0:0,0:0:0:0:
483,321,58830,2,0,B|444:321|433:314|421:311|413:302|405:294|404:284|397:277|388:275|376:266|366:262|377:254|340:245|301:250,1,194.999994049072,4|0,3:1|0:0,0:0:0:0:
484,232,59580,6,0,B|436:221|377:266|431:287|370:295|413:258|403:312|377:266|403:311|351:353|306:335,1,214.500006546021,2|2,0:0|0:0,0:0:0:0:
215,284,60330,1,6,3:2:0:0:
151,83,61830,6,0,B|103:101|103:101|81:146|81:146|29:165,2,155.999995239258,4|0|8,3:1|0:0|0:0,0:0:0:0:
365,151,62830,1,2,0:2:0:0:
433,101,62955,2,0,P|372:76|325:78,1,103.999996826172,2|2,0:2|0:0,0:0:0:0:
302,245,63330,2,0,P|359:227|463:220,1,155.999995239258,4|0,3:0|0:0,0:0:0:0:
505,131,63955,5,2,0:0:0:0:
406,45,64080,2,0,B|325:40|356:102|260:97,1,138.666666666667,10|2,0:0|0:0,0:0:0:0:
187,227,64455,2,0,P|187:197|267:134,1,138.666666666667,2|2,0:0|0:0,0:0:0:0:
428,274,64830,2,0,B|361:261|351:312|258:330,1,155.999995239258,4|2,3:0|0:0,0:0:0:0:
93,323,65455,5,2,0:0:0:0:
179,253,65580,2,0,P|213:239|283:242,1,103.999996826172,10|2,0:0|0:0,0:0:0:0:
8,197,65955,2,0,P|56:214|108:220,1,103.999996826172,2|2,0:0|0:0,0:0:0:0:
224,158,66330,1,4,3:0:0:0:
311,4,66580,5,2,0:0:0:0:
365,78,66705,2,0,P|412:72|452:26,1,103.999996826172
379,0,67080,5,8,0:0:0:0:
332,72,67205,5,0,0:0:0:0:
347,150,67330,5,0,0:0:0:0:
408,197,67455,6,0,P|441:169|514:187,1,103.999996826172,2|2,0:0|0:0,0:0:0:0:
490,200,67830,2,0,B|422:188|412:137|345:150,1,155.999995239258,4|0,3:2|0:0,0:0:0:0:
165,294,68455,5,2,0:0:0:0:
82,247,68580,2,0,P|125:214|174:201,1,103.999996826172,10|2,0:0|0:0,0:0:0:0:
346,149,68955,2,0,P|295:160|244:150,1,103.999996826172,2|2,0:0|0:0,0:0:0:0:
113,28,69330,2,0,P|159:80|164:131,1,103.999996826172,4|8,3:0|0:0,0:0:0:0:
137,257,69705,1,0,3:0:0:0:
18,377,69955,5,2,3:2:0:0:
53,276,70080,1,8,0:0:0:0:
32,156,70330,5,2,0:0:0:0:
109,111,70455,2,0,P|81:70|27:80,1,103.999996826172,2|2,0:0|0:0,0:0:0:0:
101,184,70830,2,0,B|173:189|168:122|230:129,1,147.333336143494,4|0,3:0|0:0,0:0:0:0:
331,70,71205,2,0,B|332:83|325:115|325:115|347:127|362:147,1,95.3333362426759,8|0,0:0|0:0,0:0:0:0:
452,260,71580,5,4,3:0:0:0:
452,260,71955,6,0,B|404:230|333:256|386:343|304:363|259:328,1,214.500006546021,4|2,3:1|0:0,0:0:0:0:
165,263,72705,1,2,0:0:0:0:
165,263,73080,5,10,0:0:0:0:
388,358,73455,1,10,0:2:0:0:
448,228,73642,1,10,0:2:0:0:
320,142,73830,6,0,P|332:221|342:302,1,143.000004364014,6|2,3:2|0:0,0:0:0:0:
499,132,74455,1,2,0:0:0:0:
448,228,74580,1,10,0:0:0:0:
248,112,74830,1,0,0:0:0:0:
182,46,74955,6,0,P|233:24|283:27,1,95.3333362426759,0|2,0:0|0:0,0:0:0:0:
170,159,75330,2,0,P|122:149|52:165,1,97.50000371933,4|10,3:0|0:0,0:0:0:0:
8,300,75705,2,0,P|73:239|145:238,1,155.999995239258,0|8,3:0|0:0,0:0:0:0:
413,237,76330,5,0,0:0:0:0:
413,237,76455,2,0,P|385:301|374:343,1,103.999996826172,2|2,0:0|0:0,0:0:0:0:
293,264,76830,6,0,P|280:228|266:192,1,77.999997619629,4|2,3:0|0:0,0:0:0:0:
381,104,77111,2,0,P|366:140|353:176,1,77.999997619629,0|2,0:0|0:0,0:0:0:0:
293,264,77392,1,0,0:0:0:0:
180,258,77580,6,0,P|142:242|100:236,1,77.999997619629,10|0,0:0|0:0,0:0:0:0:
13,167,77861,2,0,P|48:151|87:145,1,77.999997619629,2|0,0:0|0:0,0:0:0:0:
193,154,78142,1,2,0:0:0:0:
332,57,78330,6,0,P|307:116|322:186,1,130,4|0,3:0|0:0,0:0:0:0:
492,218,78611,2,0,P|446:191|381:203,1,97.50000371933,2|0,0:0|0:0,0:0:0:0:
372,299,78892,1,2,0:0:0:0:
212,229,79080,6,0,P|201:185|188:138,1,77.999997619629,10|0,0:0|0:0,0:0:0:0:
318,179,79361,2,0,P|307:218|295:270,1,77.999997619629,2|0,0:0|0:0,0:0:0:0:
229,376,79642,1,2,0:0:0:0:
126,239,79830,5,4,3:1:0:0:
438,19,80205,1,2,0:0:0:0:
438,19,80580,2,0,P|408:4|377:0,1,65.0000024795533,8|0,0:0|0:0,0:0:0:0:
258,69,80830,2,0,P|288:58|320:54,1,65.0000024795533
440,264,81205,5,0,0:0:0:0:
434,174,81330,2,0,P|378:199|346:244,1,103.999996826172,4|2,3:0|0:0,0:0:0:0:
305,124,81705,2,0,P|275:166|282:256,1,121.333329630534,2|2,3:2|0:0,0:0:0:0:
285,349,82080,5,10,0:0:0:0:
193,300,82330,1,2,3:2:0:0:
427,229,82705,6,0,P|406:286|392:345,1,121.333333333333,4|0,3:1|3:0,0:0:0:0:
277,201,84330,2,0,B|349:182|366:243|445:226,1,155.999995239258,0|0,3:0|3:0,0:0:0:0:
73,227,85705,5,2,0:0:0:0:
85,228,85830,5,6,3:2:0:0:
120,226,86455,5,2,0:0:0:0:
208,164,86580,2,0,P|152:135|99:124,1,97.5,2|0,0:0|0:0,0:0:0:0:
45,159,86955,2,0,B|139:170|138:-10|239:0,1,264.549999192657,2|0,0:0|0:0,0:0:0:0:
