osu file format v14

[General]
AudioFilename: audio.mp3
AudioLeadIn: 0
PreviewTime: 187401
Countdown: 0
SampleSet: Soft
StackLeniency: 0.7
Mode: 0
LetterboxInBreaks: 0
WidescreenStoryboard: 0

[Editor]
Bookmarks: 32901,187187
DistanceSpacing: 1.9
BeatDivisor: 4
GridSize: 4
TimelineZoom: 1.5

[Metadata]
Title:Tokyo Ghetto
TitleUnicode:トーキョーゲットー
Artist:Eve
ArtistUnicode:Eve
Creator:toadnica
Version:Juliet
Source:
Tags:utaite male synth alternative rock japanese numa waboku frenz396 background video
BeatmapID:2040678
BeatmapSetID:974949

[Difficulty]
HPDrainRate:9.8
CircleSize:4.2
OverallDifficulty:9.2
ApproachRate:9
SliderMultiplier:1.4
SliderTickRate:1

[Events]
//Background and Video events
0,0,"download (4)_waifu2x_art_noise3_scale_tta_1_waifu2x_art_noise3_scale_tta_1.jpg",0,0
Video,0,"final_5cec25b8263b980014cb6512_550801 (1).mp4"
//Break Periods
//Storyboard Layer 0 (Background)
//Storyboard Layer 1 (Fail)
//Storyboard Layer 2 (Pass)
//Storyboard Layer 3 (Foreground)
//Storyboard Layer 4 (Overlay)
//Storyboard Sound Samples

[TimingPoints]
3035,428.571428571429,4,2,0,75,1,0
15999,-100,4,2,1,69,0,0
45892,-100,4,2,2,75,0,0
52535,-100,4,2,1,75,0,0
52749,-100,4,2,2,75,0,0
58106,-100,4,2,1,75,0,0
66463,-66.6666666666667,4,2,1,100,0,1
79749,-66.6666666666667,4,2,1,100,0,0
80177,-40,4,2,1,100,0,1
81035,-50,4,2,1,100,0,1
81677,-40,4,2,1,100,0,1
82106,-33.3333333333333,4,2,1,100,0,1
82535,-50,4,2,1,100,0,1
83606,-66.6666666666667,4,2,1,100,0,0
87463,-40,4,2,1,100,0,1
87893,-50,4,2,1,100,0,1
88535,-40,4,2,1,100,0,1
88964,-33.3333333333333,4,2,1,100,0,1
89393,-50,4,2,1,100,0,1
90463,-66.6666666666667,4,2,1,100,0,0
100749,-76.9230769230769,4,2,1,100,0,0
100963,-76.9230769230769,4,2,1,50,0,0
101177,-76.9230769230769,4,2,1,100,0,0
101392,-76.9230769230769,4,2,1,50,0,0
101606,-76.9230769230769,4,2,1,100,0,0
101820,-76.9230769230769,4,2,1,50,0,0
101927,-76.9230769230769,4,2,1,100,0,0
102035,-76.9230769230769,4,2,1,50,0,0
102249,-76.9230769230769,4,2,1,100,0,0
102463,-76.9230769230769,4,2,1,100,0,0
102570,-76.9230769230769,4,2,1,50,0,0
102892,-76.9230769230769,4,2,1,100,0,0
102999,-76.9230769230769,4,2,1,50,0,0
103320,-76.9230769230769,4,2,1,100,0,0
103427,-76.9230769230769,4,2,1,50,0,0
103749,-76.9230769230769,4,2,1,100,0,0
103856,-76.9230769230769,4,2,1,50,0,0
103963,-76.9230769230769,4,2,1,65,0,0
104070,-76.9230769230769,4,2,1,80,0,0
104177,-76.9230769230769,4,2,1,100,0,0
104392,-76.9230769230769,4,2,1,65,0,0
104499,-76.9230769230769,4,2,1,80,0,0
104606,-76.9230769230769,4,2,1,100,0,0
104713,-76.9230769230769,4,2,1,50,0,0
105035,-76.9230769230769,4,2,1,100,0,0
105142,-76.9230769230769,4,2,1,50,0,0
105356,-76.9230769230769,4,2,1,100,0,0
105463,-76.9230769230769,4,2,1,50,0,0
105677,-76.9230769230769,4,2,1,100,0,0
105784,-76.9230769230769,4,2,1,50,0,0
105892,-76.9230769230769,4,2,1,100,0,0
106106,-76.9230769230769,4,2,1,50,0,0
106320,-76.9230769230769,4,2,1,100,0,0
106534,-76.9230769230769,4,2,1,50,0,0
106749,-76.9230769230769,4,2,1,100,0,0
106963,-76.9230769230769,4,2,1,50,0,0
107070,-76.9230769230769,4,2,1,100,0,0
107284,-76.9230769230769,4,2,1,50,0,0
107606,-76.9230769230769,4,2,1,100,0,0
107820,-76.9230769230769,4,2,1,50,0,0
108035,-76.9230769230769,4,2,1,100,0,0
108249,-76.9230769230769,4,2,1,50,0,0
108464,-76.9230769230769,4,2,1,100,0,0
108677,-76.9230769230769,4,2,1,50,0,0
108785,-76.9230769230769,4,2,1,100,0,0
109427,-76.9230769230769,4,2,1,50,0,0
109749,-76.9230769230769,4,2,1,100,0,0
109856,-76.9230769230769,4,2,1,50,0,0
110177,-76.9230769230769,4,2,1,100,0,0
110285,-76.9230769230769,4,2,1,50,0,0
110499,-76.9230769230769,4,2,1,100,0,0
110607,-76.9230769230769,4,2,1,50,0,0
110820,-76.9230769230769,4,2,1,65,0,0
110927,-76.9230769230769,4,2,1,80,0,0
111035,-76.9230769230769,4,2,1,100,0,0
111249,-76.9230769230769,4,2,1,50,0,0
111463,-76.9230769230769,4,2,1,100,0,0
111677,-76.9230769230769,4,2,1,50,0,0
111892,-76.9230769230769,4,2,1,100,0,0
112213,-76.9230769230769,4,2,1,50,0,0
112320,-76.9230769230769,4,2,1,100,0,0
128177,-133.333333333333,4,2,1,100,0,0
135035,-33.3333333333333,4,2,1,100,0,1
136749,-36.3636363636364,4,2,1,100,0,1
137392,-39.2156862745098,4,2,1,100,0,1
137820,-44.6428571428571,4,2,1,100,0,1
138463,-66.6666666666667,4,2,1,100,0,0
141892,-66.6666666666667,4,2,1,100,0,1
145320,-66.6666666666667,4,2,1,100,0,0
148749,-40,4,2,1,100,0,1
149607,-50,4,2,1,100,0,1
150249,-40,4,2,1,100,0,1
150678,-33.3333333333333,4,2,1,100,0,1
151107,-50,4,2,1,100,0,1
152177,-66.6666666666667,4,2,1,100,0,0
155606,-40,4,2,1,100,0,1
156464,-50,4,2,1,100,0,1
157106,-40,4,2,1,100,0,1
157535,-33.3333333333333,4,2,1,100,0,1
157964,-50,4,2,1,100,0,1
159035,-66.6666666666667,4,2,1,100,0,0
164177,-66.6666666666667,4,2,1,75,0,0
169320,-133.333333333333,4,2,1,100,0,0
189892,-133.333333333333,4,2,1,50,0,0
191606,-66.6666666666667,4,2,1,100,0,1
204892,-66.6666666666667,4,2,1,100,0,0
205320,-40,4,2,1,100,0,1
206178,-50,4,2,1,100,0,1
206820,-40,4,2,1,100,0,1
207249,-33.3333333333333,4,2,1,100,0,1
207678,-50,4,2,1,100,0,1
208749,-66.6666666666667,4,2,1,100,0,0
212177,-40,4,2,1,100,0,1
213035,-50,4,2,1,100,0,1
213677,-40,4,2,1,100,0,1
214106,-33.3333333333333,4,2,1,100,0,1
214535,-50,4,2,1,100,0,1
215606,-66.6666666666667,4,2,1,100,0,0
219463,-40,4,2,1,100,0,1
220321,-50,4,2,1,100,0,1
220963,-40,4,2,1,100,0,1
221392,-33.3333333333333,4,2,1,100,0,1
221821,-50,4,2,1,100,0,1
222463,-66.6666666666667,4,2,1,100,0,0
225892,-40,4,2,1,100,0,1
226750,-50,4,2,1,100,0,1
227392,-40,4,2,1,100,0,1
227821,-33.3333333333333,4,2,1,100,0,1
228250,-50,4,2,1,100,0,1
229320,-66.6666666666667,4,2,1,100,0,0
232749,-66.6666666666667,4,2,1,100,0,1
232856,-133.333333333333,4,2,1,78,0,0

[Colours]
Combo1 : 65,118,133
Combo2 : 180,107,107
Combo3 : 85,91,166
Combo4 : 143,92,130
Combo5 : 75,126,84

[HitObjects]
115,179,3035,6,0,P|144:171|196:166,1,70,2|0,0:0|0:0,0:0:0:0:
254,223,3356,1,2,0:0:0:0:
254,223,3463,2,0,L|269:308,1,70,2|0,0:0|0:0,0:0:0:0:
313,351,3785,1,2,0:0:0:0:
322,357,3892,1,2,0:0:0:0:
204,159,4213,5,2,0:0:0:0:
195,165,4320,1,2,0:0:0:0:
214,27,4535,2,0,L|297:159,1,140,2|0,0:0|0:0,0:0:0:0:
381,202,5177,5,2,0:0:0:0:
181,279,5606,1,2,0:0:0:0:
93,141,5820,1,0,0:0:0:0:
79,130,5927,1,2,0:0:0:0:
77,112,6035,1,2,0:0:0:0:
88,252,6462,6,0,L|74:338,1,70,2|0,0:0|0:0,0:0:0:0:
192,268,6892,2,0,L|181:199,1,70,2|0,0:0|0:0,0:0:0:0:
64,273,7213,1,2,0:0:0:0:
64,273,7320,2,0,L|50:359,1,70,2|0,0:0|0:0,0:0:0:0:
212,248,7642,2,0,L|200:178,1,70,2|0,0:0|0:0,0:0:0:0:
200,179,7963,1,2,0:0:0:0:
204,182,8392,5,2,0:0:0:0:
128,223,8606,2,0,P|86:221|44:207,1,70,2|0,0:0|0:0,0:0:0:0:
218,163,9035,2,0,P|251:154|286:153,1,70,2|0,0:0|0:0,0:0:0:0:
357,192,9356,1,2,0:0:0:0:
357,192,9463,1,2,0:0:0:0:
419,332,9892,6,0,L|423:252,1,70,2|0,0:0|0:0,0:0:0:0:
357,192,10213,1,2,0:0:0:0:
369,175,10320,2,0,L|373:95,1,70,2|0,0:0|0:0,0:0:0:0:
325,34,10642,1,2,0:0:0:0:
331,20,10749,1,2,0:0:0:0:
217,148,11070,5,2,0:0:0:0:
211,134,11177,1,2,0:0:0:0:
218,231,11392,2,0,P|253:224|286:191,1,70,2|0,0:0|0:0,0:0:0:0:
295,102,11820,1,0,0:0:0:0:
206,55,12034,6,0,P|171:61|145:83,1,70,2|0,0:0|0:0,0:0:0:0:
358,34,12463,2,0,P|323:27|297:5,1,70,2|0,0:0|0:0,0:0:0:0:
455,104,12784,1,2,0:0:0:0:
455,104,12892,2,0,P|420:110|394:132,1,70,2|0,0:0|0:0,0:0:0:0:
468,296,13320,6,0,L|482:210,1,70,2|0,0:0|0:0,0:0:0:0:
377,156,13749,2,0,L|391:242,1,70,2|0,0:0|0:0,0:0:0:0:
271,330,14177,2,0,P|282:287|286:242,1,70,2|0,0:0|0:0,0:0:0:0:
287,230,14499,2,0,P|282:195|272:161,1,70,2|0,0:0|0:0,0:0:0:0:
237,97,14820,1,2,0:0:0:0:
237,97,15249,5,0,0:0:0:0:
160,91,15463,2,0,P|125:86|91:76,1,70,2|0,0:0|0:0,0:0:0:0:
91,76,15892,1,2,0:0:0:0:
63,149,15999,5,4,0:3:0:0:
67,161,16106,1,4,0:3:0:0:
37,249,16320,1,0,0:0:0:0:
100,64,16534,1,4,3:3:0:0:
120,237,16749,6,0,B|190:236|181:271|276:268,1,140,4|0,3:2|3:0,0:0:0:0:
262,157,17392,1,0,0:0:0:0:
242,154,17499,1,0,0:0:0:0:
226,160,17606,2,0,P|211:113|203:49,1,105,0|0,3:0|0:0,0:0:0:0:
208,39,18034,2,0,L|169:32,1,35,0|0,3:0|0:0,0:0:0:0:
38,102,18249,2,0,L|124:89,1,70,0|0,0:0|3:0,0:0:0:0:
28,111,18677,5,0,0:0:0:0:
164,173,18892,1,0,3:0:0:0:
146,252,19106,1,0,0:0:0:0:
166,84,19320,1,0,3:0:0:0:
184,163,19535,1,0,0:0:0:0:
140,265,19749,1,0,3:0:0:0:
196,160,19963,6,0,P|243:148|279:199,1,105
311,183,20392,2,0,P|298:199|285:235,1,35
403,146,20606,2,0,P|354:132|278:187,1,140,0|0,3:0|3:0,2:0:0:0:
95,278,21463,5,0,3:0:0:0:
104,245,21570,1,0,0:0:0:0:
108,295,21677,2,0,L|102:219,1,70,0|0,0:0|3:0,0:0:0:0:
150,142,22106,2,0,L|144:72,1,70,0|0,0:0|3:0,0:0:0:0:
144,72,22535,1,0,0:0:0:0:
98,206,22749,2,0,P|154:226|224:178,1,140,0|0,3:0|3:0,0:0:0:0:
103,222,23392,2,0,P|136:235|183:231,1,70,0|0,0:0|3:0,0:0:0:0:
266,255,23820,5,0,0:0:0:0:
263,271,23927,1,0,0:0:0:0:
259,284,24034,1,0,3:0:0:0:
323,174,24249,1,0,0:0:0:0:
326,190,24356,1,0,0:0:0:0:
330,203,24463,1,0,3:0:0:0:
355,52,24892,5,0,3:0:0:0:
330,203,25106,2,0,L|238:197,1,70,0|0,0:0|3:0,0:0:0:0:
168,155,25535,1,0,0:0:0:0:
198,265,25749,1,0,3:0:0:0:
164,139,25963,1,0,0:0:0:0:
41,304,26177,5,0,3:0:0:0:
48,286,26285,1,0,0:0:0:0:
39,257,26392,1,0,0:0:0:0:
18,239,26499,2,0,P|43:210|51:168,1,70
31,109,26820,1,0,0:0:0:0:
151,210,27249,5,0,0:0:0:0:
225,164,27463,1,0,3:0:0:0:
294,232,27677,1,0,0:0:0:0:
215,149,27892,2,0,L|211:77,1,70,0|0,3:0|0:0,0:0:0:0:
207,51,28213,2,0,B|198:29|206:15|206:15|215:33|207:53,1,70
193,167,28535,1,0,0:0:0:0:
126,326,28963,5,0,0:0:0:0:
217,275,29177,1,0,3:0:0:0:
217,275,29392,1,0,0:0:0:0:
126,326,29606,5,0,3:0:0:0:
102,291,29713,1,0,0:0:0:0:
106,241,29820,1,0,0:0:0:0:
135,188,29927,2,0,P|133:144|85:115,1,105
16,157,30356,1,0,0:0:0:0:
72,96,30463,5,0,3:0:0:0:
167,74,30892,1,0,3:0:0:0:
230,156,31106,1,0,0:0:0:0:
230,156,31213,1,0,0:0:0:0:
230,156,31320,5,4,0:3:0:0:
239,197,31427,1,4,0:3:0:0:
238,246,31535,1,4,0:3:0:0:
238,246,31749,2,0,P|231:266|227:290,1,35,4|0,3:3|0:0,0:0:0:0:
324,235,31963,2,0,P|320:217|314:201,1,35,4|0,3:3|0:0,0:0:0:0:
394,247,35606,6,0,P|422:238|468:238,1,70,0|0,3:0|0:0,0:0:0:0:
369,219,36035,2,0,P|397:228|443:228,1,70,0|0,3:0|0:0,0:0:0:0:
352,250,36463,2,0,P|380:241|426:241,1,70,0|0,3:0|0:0,0:0:0:0:
327,222,36892,2,0,P|355:231|401:231,1,70,0|0,3:0|0:0,0:0:0:0:
309,250,37320,2,0,P|337:241|383:241,1,70,0|0,3:0|0:0,0:0:0:0:
284,222,37749,2,0,P|312:231|358:231,1,70,0|0,3:0|0:0,0:0:0:0:
267,253,38177,2,0,P|295:244|341:244,1,70,0|0,3:0|0:0,0:0:0:0:
242,225,38606,2,0,P|270:234|316:234,1,70,0|0,3:0|0:0,0:0:0:0:
160,189,39035,6,0,L|158:269,1,70,0|0,3:0|0:0,0:0:0:0:
179,154,39463,2,0,L|181:234,1,70,0|0,3:0|0:0,0:0:0:0:
157,144,39892,2,0,L|155:224,1,70,0|0,3:0|0:0,0:0:0:0:
176,109,40320,2,0,L|178:189,1,70,0|0,3:0|0:0,0:0:0:0:
161,97,40749,2,0,L|159:177,1,70,0|0,3:0|0:0,0:0:0:0:
180,62,41177,2,0,L|182:142,1,70,0|0,3:0|0:0,0:0:0:0:
166,50,41606,2,0,L|164:130,1,70,0|0,3:0|0:0,0:0:0:0:
185,15,42035,2,0,L|187:95,1,70,0|0,3:0|0:0,0:0:0:0:
269,225,42463,6,0,P|234:214|206:194,1,70,0|0,3:0|0:0,0:0:0:0:
299,192,42892,2,0,P|264:203|236:223,1,70,0|0,3:0|0:0,0:0:0:0:
301,281,43320,2,0,P|264:276|233:261,1,70,0|0,3:0|0:0,0:0:0:0:
387,163,43749,2,0,P|354:179|330:204,1,70,0|0,3:0|0:0,0:0:0:0:
449,339,44177,2,0,P|412:340|379:331,1,70,0|0,3:0|0:0,0:0:0:0:
117,345,44606,6,0,L|101:221,1,105,0|0,3:0|0:0,0:0:0:0:
99,216,45035,1,0,0:0:0:0:
63,155,45142,5,4,0:3:0:0:
65,139,45249,1,4,0:3:0:0:
29,57,45463,1,4,0:3:0:0:
107,229,45677,1,4,3:3:0:0:
29,57,45892,6,0,L|112:59,1,70,4|2,3:2|0:0,0:0:0:0:
180,269,46320,2,0,P|187:224|180:189,1,70,0|2,3:0|0:0,0:0:0:0:
29,57,46642,1,0,0:0:0:0:
43,28,46749,6,0,L|126:30,1,70,0|0,3:0|0:0,0:0:0:0:
176,84,47070,2,0,P|182:118|178:152,1,70
178,152,47392,1,2,0:0:0:0:
386,81,47820,5,2,0:0:0:0:
331,185,48035,1,0,3:0:0:0:
382,320,48249,1,0,0:0:0:0:
382,320,48463,2,0,L|304:314,1,70,0|2,3:0|0:0,0:0:0:0:
209,206,48892,1,0,3:0:0:0:
235,182,48999,1,0,0:0:0:0:
268,183,49106,1,0,0:0:0:0:
42,320,49320,6,0,L|36:240,1,70,0|2,3:0|0:0,0:0:0:0:
256,35,49749,2,0,L|250:104,1,70,0|2,3:0|0:0,0:0:0:0:
20,341,50177,2,0,L|14:261,1,70,0|0,3:0|0:0,0:0:0:0:
234,56,50499,2,0,L|228:125,1,70
228,125,50820,1,2,0:0:0:0:
294,325,51035,6,0,P|317:283|329:247,1,70,0|2,3:0|0:0,0:0:0:0:
335,245,51356,1,0,0:0:0:0:
335,245,51463,1,0,3:0:0:0:
286,339,51677,1,0,0:0:0:0:
192,205,51892,5,0,3:0:0:0:
111,243,52106,1,2,0:0:0:0:
194,140,52320,1,0,0:0:0:0:
204,165,52427,1,0,0:0:0:0:
192,205,52535,1,2,0:0:0:0:
67,354,52749,6,0,L|154:354,1,70,0|2,3:0|0:0,0:0:0:0:
345,187,53177,2,0,B|312:188|304:203|273:203,1,70,0|2,3:0|0:0,0:0:0:0:
80,337,53499,1,0,0:0:0:0:
58,365,53606,6,0,L|145:365,1,70,0|0,3:0|0:0,0:0:0:0:
0,227,53927,2,0,B|1:260|16:268|16:299,1,70
68,160,54249,2,0,P|84:171|102:187,1,35,2|0,0:0|0:0,0:0:0:0:
251,272,54677,5,2,0:0:0:0:
238,174,54892,1,0,3:0:0:0:
284,66,55106,1,0,0:0:0:0:
216,182,55320,1,0,3:0:0:0:
262,27,55535,1,2,0:0:0:0:
216,31,55642,2,0,L|216:65,1,35
195,259,55963,1,0,0:0:0:0:
120,192,56177,6,0,P|81:187|32:195,1,70,0|2,3:0|0:0,0:0:0:0:
241,94,56606,2,0,P|202:99|153:91,1,70,0|2,3:0|0:0,0:0:0:0:
357,158,57035,2,0,P|332:189|292:218,1,70,0|0,3:0|0:0,0:0:0:0:
420,32,57463,6,0,L|433:109,1,70,0|2,3:0|0:0,0:0:0:0:
241,94,57892,2,0,L|195:157,1,70,0|2,3:0|0:0,0:0:0:0:
204,154,58320,1,0,3:0:0:0:
204,154,58749,5,4,3:3:0:0:
187,246,58963,1,4,0:3:0:0:
207,141,59177,1,4,3:3:0:0:
291,279,59392,1,4,3:3:0:0:
117,178,59606,5,4,3:2:0:0:
395,206,63035,1,4,3:2:0:0:
395,206,66035,6,0,L|311:200,1,70,8|2,3:2|0:0,0:0:0:0:
226,285,66463,6,0,P|204:236|200:164,1,105.000004005432,4|2,3:2|0:0,0:0:0:0:
133,318,66785,1,0,0:0:0:0:
133,318,66892,2,0,P|155:269|159:197,1,105.000004005432,8|2,0:2|0:0,0:0:0:0:
215,150,67213,1,0,0:0:0:0:
144,65,67320,6,0,L|257:44,1,105.000004005432,0|2,3:0|0:0,0:0:0:0:
62,64,67642,1,0,0:0:0:0:
62,64,67749,2,0,L|175:85,1,105.000004005432,8|2,0:0|0:0,0:0:0:0:
26,27,68070,1,0,0:0:0:0:
26,27,68177,6,0,L|82:37,1,52.5000020027161,0|0,3:0|0:0,0:0:0:0:
187,103,68392,2,0,P|187:134|179:168,1,52.5000020027161,2|0,0:0|0:0,0:0:0:0:
64,195,68606,2,0,P|59:169|60:142,1,52.5000020027161,8|0,0:0|0:0,0:0:0:0:
151,245,68820,1,2,0:0:0:0:
180,87,69034,5,0,3:0:0:0:
270,273,69249,1,2,0:0:0:0:
180,87,69463,1,8,0:0:0:0:
233,119,69570,1,0,0:0:0:0:
270,187,69677,1,2,0:0:0:0:
349,326,69892,6,0,P|296:307|234:299,1,105.000004005432,0|2,3:0|0:0,0:0:0:0:
85,210,70320,2,0,P|136:201|185:183,1,105.000004005432,8|2,0:0|0:0,0:0:0:0:
343,61,70749,2,0,P|290:42|228:34,1,105.000004005432,0|2,3:0|0:0,0:0:0:0:
89,228,71177,2,0,P|140:219|189:201,1,105.000004005432,8|2,0:0|0:0,0:0:0:0:
217,89,71499,1,0,0:0:0:0:
217,89,71606,6,0,L|203:210,1,105.000004005432,0|2,3:0|0:0,0:0:0:0:
262,250,71927,1,0,0:0:0:0:
262,250,72034,2,0,L|276:371,1,105.000004005432,8|2,0:0|0:0,0:0:0:0:
180,174,72356,5,0,0:0:0:0:
180,174,72463,2,0,L|186:114,1,52.5000020027161,0|0,3:0|0:0,0:0:0:0:
347,225,72677,2,0,L|352:277,1,52.5000020027161,2|0,0:0|0:0,0:0:0:0:
194,42,72892,1,8,0:0:0:0:
202,184,73106,1,2,0:0:0:0:
282,25,73320,6,0,P|338:19|397:51,1,105.000004005432,0|2,3:0|0:0,0:0:0:0:
506,117,73642,1,0,0:0:0:0:
506,117,73749,2,0,P|457:136|406:129,1,105.000004005432,8|2,0:0|0:0,0:0:0:0:
273,17,74070,1,0,0:0:0:0:
273,17,74177,6,0,L|164:37,1,105.000004005432,0|2,3:0|0:0,0:0:0:0:
82,60,74499,1,0,0:0:0:0:
82,60,74606,2,0,L|191:80,1,105.000004005432,8|2,0:0|0:0,0:0:0:0:
205,82,74927,1,0,0:0:0:0:
173,104,75034,6,0,P|220:122|282:125,1,105.000004005432,0|2,3:0|0:0,0:0:0:0:
343,208,75356,1,0,0:0:0:0:
343,208,75463,2,0,P|296:226|234:229,1,105.000004005432,8|2,0:0|0:0,0:0:0:0:
73,177,75892,1,0,3:0:0:0:
226,343,76106,1,2,0:0:0:0:
267,81,76320,1,8,0:0:0:0:
49,190,76534,1,2,0:0:0:0:
325,224,76749,6,0,L|450:210,1,105.000004005432,0|2,3:0|0:0,0:0:0:0:
234,182,77070,1,0,0:0:0:0:
234,182,77177,2,0,L|359:196,1,105.000004005432,8|2,0:0|0:0,0:0:0:0:
176,107,77499,1,0,0:0:0:0:
176,107,77606,6,0,L|146:63,1,52.5000020027161,0|0,3:0|0:0,0:0:0:0:
135,291,77820,2,0,L|165:248,1,52.5000020027161,2|0,0:0|0:0,0:0:0:0:
179,86,78034,2,0,L|149:42,1,52.5000020027161,8|0,0:0|0:0,0:0:0:0:
108,299,78249,2,0,L|137:255,1,52.5000020027161,2|0,0:0|0:0,0:0:0:0:
14,124,78463,6,0,P|42:117|82:116,1,52.5000020027161,0|0,3:0|0:0,0:0:0:0:
97,321,78677,1,8,0:0:0:0:
346,134,78892,1,8,0:0:0:0:
273,289,79106,1,8,0:0:0:0:
273,289,79213,1,8,0:0:0:0:
273,289,79320,1,8,0:0:0:0:
267,235,79427,1,8,0:0:0:0:
263,184,79534,1,8,0:0:0:0:
218,39,79749,5,4,0:3:0:0:
283,236,79963,1,4,0:3:0:0:
40,98,80177,5,4,3:2:0:0:
61,184,80392,1,2,0:0:0:0:
26,290,80606,2,0,P|81:292|25:287,1,175,8|2,0:0|0:0,0:0:0:0:
103,327,81034,2,0,P|148:329|99:332,1,175,0|2,3:0|0:0,0:0:0:0:
168,281,81463,1,8,0:0:0:0:
273,328,81677,6,0,P|223:335|274:330,1,175,2|0,0:0|3:0,0:0:0:0:
415,270,82106,2,0,P|355:261|417:266,1,210.000008010865,2|8,0:0|0:0,0:0:0:0:
231,142,82534,6,0,P|273:157|340:151,1,105.000004005432,2|0,0:0|0:0,0:0:0:0:
275,37,82749,2,0,P|299:44|281:31,1,70,0|0,3:0|0:0,0:0:0:0:
155,227,82963,6,0,P|124:238|76:234,1,70,2|0,0:0|0:0,0:0:0:0:
126,118,83177,2,0,P|102:125|120:112,1,70,8|0,0:0|0:0,0:0:0:0:
274,24,83392,1,2,0:0:0:0:
266,143,83606,6,0,L|275:199,1,52.5000020027161,0|0,3:0|0:0,0:0:0:0:
308,220,83820,2,0,L|317:276,1,52.5000020027161,2|0,0:0|0:0,0:0:0:0:
402,139,84034,2,0,L|341:149,1,52.5000020027161,8|0,0:0|0:0,0:0:0:0:
466,104,84249,2,0,L|405:114,1,52.5000020027161,2|0,0:0|0:0,0:0:0:0:
301,209,84463,2,0,L|249:200,1,52.5000020027161,0|0,3:0|0:0,0:0:0:0:
237,174,84677,2,0,L|185:165,1,52.5000020027161,2|0,0:0|0:0,0:0:0:0:
81,224,84892,1,8,0:0:0:0:
133,232,84999,1,0,0:0:0:0:
168,272,85106,2,0,L|154:339,1,52.5000020027161,2|0,0:0|0:0,0:0:0:0:
30,216,85320,6,0,L|44:149,1,52.5000020027161,0|0,3:0|0:0,0:0:0:0:
155,338,85534,1,2,0:0:0:0:
273,217,85749,2,0,L|287:284,1,52.5000020027161,8|0,0:0|0:0,0:0:0:0:
411,161,85963,2,0,L|397:94,1,52.5000020027161,2|0,0:0|0:0,0:0:0:0:
286,283,86177,1,0,3:0:0:0:
286,101,86392,1,2,0:0:0:0:
251,88,86499,1,0,0:0:0:0:
211,75,86606,1,8,0:0:0:0:
214,96,86713,1,0,0:0:0:0:
217,112,86820,1,2,0:0:0:0:
140,241,87034,6,0,L|124:134,1,105.000004005432,0|2,3:0|0:0,0:0:0:0:
34,68,87463,2,0,P|87:60|32:65,1,175,8|2,0:0|0:0,0:0:0:0:
104,4,87892,2,0,P|154:13|101:8,1,175,0|2,3:0|0:0,0:0:0:0:
173,70,88320,1,8,0:0:0:0:
277,28,88534,6,0,P|228:22|278:26,1,140,2|0,0:0|3:0,0:0:0:0:
420,81,88963,2,0,P|367:88|421:84,1,175,2|8,0:0|0:0,0:0:0:0:
236,209,89392,6,0,P|278:194|343:199,1,105.000004005432,2|0,0:0|0:0,0:0:0:0:
296,314,89606,2,0,P|320:307|302:320,1,70,0|0,3:0|0:0,0:0:0:0:
160,124,89820,6,0,P|129:113|81:117,1,70,2|0,0:0|0:0,0:0:0:0:
131,233,90034,2,0,P|107:226|125:239,1,70,8|0,0:0|0:0,0:0:0:0:
279,327,90249,1,2,0:0:0:0:
190,125,90463,6,0,L|328:150,1,105.000004005432,0|2,3:0|0:0,0:0:0:0:
303,144,90749,1,0,0:0:0:0:
384,200,90892,6,0,P|379:252|361:301,1,105.000004005432,8|2,0:0|0:0,0:0:0:0:
359,308,91177,1,0,0:0:0:0:
265,261,91320,6,0,L|202:266,1,52.5000020027161,0|0,3:0|0:0,0:0:0:0:
334,111,91534,2,0,L|397:116,1,52.5000020027161,2|0,0:0|0:0,0:0:0:0:
142,198,91749,1,8,0:0:0:0:
142,198,91963,1,2,0:0:0:0:
79,48,92177,6,0,L|58:176,1,105.000004005432,0|2,3:0|0:0,0:0:0:0:
56,158,92463,1,0,0:0:0:0:
142,198,92606,6,0,L|163:326,1,105.000004005432,8|2,0:0|0:0,0:0:0:0:
165,308,92892,1,0,0:0:0:0:
281,153,93034,2,0,P|242:145|207:143,1,52.5000020027161,0|8,3:0|0:0,0:0:0:0:
345,97,93249,1,0,0:0:0:0:
345,97,93356,1,0,0:0:0:0:
345,97,93463,6,0,L|374:155,1,52.5000020027161,4|0,0:3|0:0,0:0:0:0:
199,33,93677,2,0,L|170:91,1,52.5000020027161,4|0,0:3|0:0,0:0:0:0:
23,110,93892,5,4,3:2:0:0:
27,125,94106,1,2,0:0:0:0:
31,138,94320,1,0,3:2:0:0:
35,153,94534,1,2,0:0:0:0:
39,167,94749,1,0,3:2:0:0:
43,182,94963,1,2,0:0:0:0:
47,195,95177,1,0,3:2:0:0:
51,210,95392,1,2,0:0:0:0:
56,225,95606,1,0,3:2:0:0:
60,240,95820,1,2,0:0:0:0:
64,253,96034,1,0,3:2:0:0:
122,318,96249,1,2,0:0:0:0:
219,284,96463,1,0,3:2:0:0:
310,329,96677,1,2,0:0:0:0:
205,279,96892,1,0,3:2:0:0:
318,191,97106,1,2,0:0:0:0:
321,340,97320,5,0,3:0:0:0:
338,332,97534,1,2,0:0:0:0:
355,325,97749,1,0,3:0:0:0:
370,315,97963,1,2,0:0:0:0:
379,301,98177,1,0,3:0:0:0:
381,285,98392,1,2,0:0:0:0:
379,268,98606,1,0,3:0:0:0:
372,253,98820,1,2,0:0:0:0:
366,235,99034,1,0,3:0:0:0:
366,220,99249,1,2,0:0:0:0:
371,204,99463,1,0,3:0:0:0:
376,190,99677,5,8,0:0:0:0:
323,190,99784,1,8,0:0:0:0:
271,190,99892,1,8,0:0:0:0:
218,190,99999,1,8,0:0:0:0:
166,191,100106,1,8,0:0:0:0:
113,191,100213,1,8,0:0:0:0:
61,191,100320,1,8,3:2:0:0:
49,204,100749,6,0,L|65:305,1,90.9999958343508,12|8,3:2|0:0,0:0:0:0:
110,131,101070,1,8,0:0:0:0:
110,131,101177,2,0,L|211:115,1,90.9999958343508,8|8,3:2|0:0,0:0:0:0:
283,143,101499,1,8,0:0:0:0:
283,143,101606,2,0,L|384:127,1,90.9999958343508,8|8,3:2|0:0,0:0:0:0:
439,81,101927,1,8,0:0:0:0:
439,81,102034,1,8,3:2:0:0:
317,344,102249,1,8,3:2:0:0:
299,336,102463,2,0,L|246:359,1,45.4999979171754,8|8,3:2|0:0,0:0:0:0:
147,313,102677,2,0,L|124:260,1,45.4999979171754,8|8,0:0|0:0,0:0:0:0:
12,107,102892,2,0,L|65:84,1,45.4999979171754,8|0,3:2|0:0,0:0:0:0:
164,130,103106,2,0,L|187:183,1,45.4999979171754,8|8,0:0|0:0,0:0:0:0:
300,116,103320,2,0,L|281:74,1,45.4999979171754,8|8,3:2|0:0,0:0:0:0:
267,203,103535,1,8,0:0:0:0:
267,203,103642,1,8,0:0:0:0:
352,225,103749,2,0,L|370:266,1,45.4999979171754,8|8,3:2|0:0,0:0:0:0:
238,218,103963,1,8,0:0:0:0:
211,234,104070,1,8,0:0:0:0:
166,260,104177,5,8,3:2:0:0:
88,161,104392,2,8,L|88:213,1,45.4999979171754
320,247,104606,2,0,L|320:195,1,45.4999979171754,8|8,3:2|0:0,0:0:0:0:
152,88,104820,1,8,0:0:0:0:
152,88,104927,1,8,0:0:0:0:
79,173,105035,2,8,L|79:225,1,45.4999979171754,8|8,3:2|0:0,0:0:0:0:
139,298,105249,1,8,0:0:0:0:
139,298,105356,2,8,L|139:350,1,45.4999979171754,8|8,3:2|0:0,0:0:0:0:
203,173,105570,1,8,0:0:0:0:
203,219,105677,2,8,L|203:167,1,45.4999979171754,8|8,3:2|0:0,0:0:0:0:
351,279,105892,2,0,L|250:279,1,90.9999958343508,8|8,3:2|0:0,0:0:0:0:
122,195,106213,1,8,0:0:0:0:
122,195,106320,2,0,L|122:93,1,90.9999958343508,8|8,3:2|0:0,0:0:0:0:
204,273,106749,2,0,L|204:368,1,90.9999958343508,8|8,3:2|0:0,0:0:0:0:
144,216,107070,2,0,L|144:121,1,90.9999958343508,8|8,3:2|0:0,0:0:0:0:
144,125,107392,1,8,0:0:0:0:
194,147,107499,1,8,0:0:0:0:
262,180,107606,5,8,3:2:0:0:
262,180,107820,1,8,0:0:0:0:
304,164,107927,1,8,0:0:0:0:
347,149,108034,1,8,3:2:0:0:
347,149,108249,1,8,0:0:0:0:
415,173,108356,1,8,0:0:0:0:
484,198,108463,1,8,3:2:0:0:
359,310,108677,1,8,0:0:0:0:
359,310,108785,1,8,3:2:0:0:
261,64,109106,1,8,3:2:0:0:
128,198,109320,1,8,3:2:0:0:
130,220,109427,1,8,0:0:0:0:
132,243,109534,1,0,0:2:0:0:
134,265,109641,1,8,0:0:0:0:
163,307,109749,1,8,3:2:0:0:
165,281,109856,1,8,0:0:0:0:
167,258,109963,1,0,0:2:0:0:
169,236,110070,1,8,0:0:0:0:
190,251,110177,1,8,3:2:0:0:
209,249,110284,1,8,0:0:0:0:
232,247,110391,1,0,0:2:0:0:
304,223,110499,1,8,3:2:0:0:
323,225,110606,1,8,0:0:0:0:
346,227,110713,1,8,0:2:0:0:
368,229,110820,1,8,0:0:0:0:
377,140,110927,1,8,0:0:0:0:
384,57,111035,6,0,L|281:47,1,90.9999958343508,8|8,3:2|0:0,0:0:0:0:
203,57,111356,1,8,0:0:0:0:
216,77,111463,2,0,L|113:67,1,90.9999958343508,8|8,3:2|0:0,0:0:0:0:
51,37,111785,1,8,0:0:0:0:
34,49,111892,1,8,3:2:0:0:
162,151,112106,1,8,3:2:0:0:
179,163,112213,1,8,3:2:0:0:
196,175,112320,5,8,0:0:0:0:
245,157,112427,1,8,0:0:0:0:
318,167,112534,1,8,0:0:0:0:
381,221,112642,1,8,0:0:0:0:
141,125,113713,5,4,0:3:0:0:
132,153,113820,1,4,0:3:0:0:
102,39,114035,1,4,0:3:0:0:
175,238,114249,1,4,3:3:0:0:
187,59,114463,6,0,B|235:60|232:83|287:83,1,90.9999958343508,4|2,3:2|0:0,0:0:0:0:
261,214,114892,2,0,B|218:213|221:236|173:237,1,90.9999958343508,8|2,0:2|0:0,0:0:0:0:
331,151,115320,2,0,L|428:160,1,90.9999958343508,0|2,3:0|0:0,0:0:0:0:
261,214,115642,1,0,0:0:0:0:
261,214,115749,2,0,L|164:223,1,90.9999958343508,8|2,0:0|0:0,0:0:0:0:
72,250,116177,1,0,3:0:0:0:
72,250,116392,6,0,P|61:278|53:308,1,45.4999979171754,2|0,0:0|0:0,0:0:0:0:
261,214,116606,2,0,P|254:192|245:171,1,45.4999979171754,8|0,0:0|0:0,0:0:0:0:
183,95,116820,1,2,0:0:0:0:
183,95,116927,1,0,0:0:0:0:
183,95,117035,2,0,P|211:81|241:73,1,45.4999979171754,0|0,3:0|0:0,0:0:0:0:
315,243,117249,2,0,P|293:235|273:224,1,45.4999979171754,2|0,0:0|0:0,0:0:0:0:
335,157,117463,1,8,0:0:0:0:
302,233,117570,1,0,0:0:0:0:
314,319,117677,1,2,0:0:0:0:
320,141,117892,6,0,L|220:134,1,90.9999958343508,0|2,3:0|0:0,0:0:0:0:
477,191,118320,2,0,L|377:198,1,90.9999958343508,8|2,0:0|0:0,0:0:0:0:
311,130,118642,1,0,0:0:0:0:
311,130,118749,2,0,L|211:123,1,90.9999958343508,0|2,3:0|0:0,0:0:0:0:
144,145,119070,1,0,0:0:0:0:
144,145,119177,1,8,0:0:0:0:
55,96,119392,1,2,0:0:0:0:
150,160,119606,6,0,L|136:258,1,90.9999958343508,0|2,3:0|0:0,0:0:0:0:
168,317,119927,1,0,0:0:0:0:
168,317,120035,2,0,L|154:219,1,90.9999958343508,8|2,0:0|0:0,0:0:0:0:
153,78,120463,2,0,P|176:84|208:97,1,45.4999979171754,0|0,3:0|0:0,0:0:0:0:
269,175,120677,1,2,0:0:0:0:
333,37,120892,2,0,P|316:52|301:70,1,45.4999979171754,8|0,0:0|0:0,0:0:0:0:
288,256,121106,1,2,0:0:0:0:
196,137,121320,6,0,P|149:141|99:173,1,90.9999958343508,0|2,3:0|0:0,0:0:0:0:
352,99,121749,2,0,P|305:95|255:63,1,90.9999958343508,8|2,0:0|0:0,0:0:0:0:
421,173,122177,2,0,L|426:285,1,90.9999958343508,0|2,3:0|0:0,0:0:0:0:
328,207,122499,1,0,0:0:0:0:
328,207,122606,2,0,L|332:116,1,90.9999958343508,8|2,0:0|0:0,0:0:0:0:
306,37,122927,1,0,0:0:0:0:
306,37,123035,1,0,3:0:0:0:
196,73,123249,5,2,0:0:0:0:
122,37,123463,2,0,P|110:83|104:136,1,90.9999958343508,8|2,0:0|0:0,0:0:0:0:
162,209,123892,2,0,P|173:255|180:308,1,90.9999958343508,0|2,3:0|0:0,0:0:0:0:
167,194,124320,2,0,L|228:196,1,45.4999979171754,8|0,0:0|0:0,0:0:0:0:
307,245,124535,1,2,0:0:0:0:
92,127,124749,5,0,3:0:0:0:
54,228,124963,1,2,0:0:0:0:
94,33,125177,2,0,P|111:76|118:134,1,90.9999958343508,8|2,0:0|0:0,0:0:0:0:
214,195,125606,1,0,3:0:0:0:
252,296,125820,1,2,0:0:0:0:
212,101,126034,2,0,P|195:144|188:202,1,90.9999958343508,8|2,0:0|0:0,0:0:0:0:
466,340,126463,2,0,P|458:295|442:252,1,90.9999958343508,0|2,3:0|0:0,0:0:0:0:
405,73,126892,5,8,0:0:0:0:
436,242,127106,1,2,0:0:0:0:
296,70,127320,1,0,0:0:0:0:
296,70,127427,6,0,L|316:122,1,45.4999979171754,4|4,0:3|0:3,0:0:0:0:
300,232,127749,1,4,0:3:0:0:
195,187,127963,1,4,3:0:0:0:
59,352,128177,6,0,L|42:249,1,105.000004005432,4|2,3:2|0:0,0:0:0:0:
77,173,128820,1,0,3:0:0:0:
47,76,129035,1,10,0:0:0:0:
47,76,129249,2,0,P|81:72|123:77,1,52.5000020027161,0|2,0:0|0:0,0:0:0:0:
171,140,129677,2,0,P|205:144|247:139,1,52.5000020027161,0|2,3:0|0:0,0:0:0:0:
197,65,130106,1,0,3:0:0:0:
96,166,130320,1,2,3:2:0:0:
96,166,130749,2,0,B|96:222|70:216|67:271,1,105.000004005432,10|2,0:0|0:0,0:0:0:0:
10,172,131392,1,0,0:0:0:0:
208,277,131606,6,0,P|250:296|309:250,1,105.000004005432,4|2,3:2|0:0,0:0:0:0:
338,202,132249,1,0,3:0:0:0:
191,196,132463,2,0,P|173:239|207:299,1,105.000004005432,10|2,0:2|0:0,0:0:0:0:
265,138,133106,1,0,3:0:0:0:
124,68,133320,2,0,L|117:135,1,52.5000020027161,2|0,0:0|3:0,0:0:0:0:
383,282,133749,2,0,L|376:215,1,52.5000020027161,2|0,3:2|0:0,0:0:0:0:
102,50,134177,2,0,L|95:117,1,52.5000020027161,10|0,0:0|3:0,0:0:0:0:
400,299,134606,2,0,L|393:232,1,52.5000020027161,10|8,3:2|0:0,0:0:0:0:
386,310,134927,1,8,0:0:0:0:
322,348,135035,6,0,B|308:322|292:312|259:319|231:318|208:302|201:284|210:258|209:240|194:222|161:207,1,210.000008010865,4|2,3:2|0:0,0:0:0:0:
96,183,135356,1,0,0:0:0:0:
96,183,135463,2,0,B|226:179|185:264|304:273,1,210.000008010865,8|2,0:0|0:0,0:0:0:0:
300,144,135785,1,0,0:0:0:0:
300,144,135892,2,0,P|273:157|303:146,1,105.000004005432,0|0,3:0|0:0,0:0:0:0:
371,230,136106,2,0,P|398:243|368:232,1,105.000004005432,2|0,0:0|0:0,0:0:0:0:
413,113,136320,2,0,B|376:102|352:138|313:137,1,105.000004005432,8|0,0:0|0:0,0:0:0:0:
285,286,136535,2,0,B|242:283|233:271|233:268|228:263|218:247|181:250,1,105.000004005432,2|0,0:0|0:0,0:0:0:0:
130,330,136749,6,0,P|89:251|138:166,1,192.500001835823,0|2,3:0|0:0,0:0:0:0:
157,81,137070,1,0,0:0:0:0:
157,81,137177,2,0,P|203:89|263:116,1,96.2500009179115,8|0,0:0|0:0,0:0:0:0:
36,209,137392,2,0,P|82:201|142:174,1,89.249998808384,2|0,0:0|0:0,0:0:0:0:
279,261,137606,1,0,3:0:0:0:
335,135,137820,2,0,P|350:175|361:221,1,78.4000009570313,2|0,0:0|0:0,0:0:0:0:
248,107,138035,1,8,0:0:0:0:
223,133,138142,1,0,0:0:0:0:
176,143,138249,1,2,0:0:0:0:
158,169,138356,1,0,0:0:0:0:
116,192,138463,6,0,L|97:309,1,105.000004005432,0|2,3:0|0:0,0:0:0:0:
359,261,138785,1,0,0:0:0:0:
369,250,138892,2,0,L|350:133,1,105.000004005432,8|2,3:2|0:0,0:0:0:0:
334,51,139213,1,0,0:0:0:0:
324,76,139320,2,0,L|305:193,1,105.000004005432,0|2,3:2|0:0,0:0:0:0:
252,244,139642,1,0,0:0:0:0:
240,272,139749,2,0,L|249:343,1,52.5000020027161,8|0,0:0|0:0,0:0:0:0:
123,216,139963,2,0,L|132:145,1,52.5000020027161,2|0,0:0|0:0,0:0:0:0:
62,50,140177,6,0,P|129:16|268:124,1,262.500010013581,0|0,3:0|0:0,0:0:0:0:
288,159,140820,2,0,P|286:132|282:106,1,52.5000020027161,2|0,0:0|0:0,0:0:0:0:
368,221,141035,2,0,P|369:194|373:168,1,52.5000020027161,0|0,3:0|0:0,0:0:0:0:
283,295,141249,2,0,P|281:268|277:242,1,52.5000020027161,2|0,0:0|0:0,0:0:0:0:
363,357,141464,2,0,P|378:294|460:245,1,157.500006008148,8|0,0:0|0:0,0:0:0:0:
475,240,141892,6,0,B|452:187|499:161|484:106,1,105.000004005432,0|2,3:0|0:0,0:0:0:0:
274,193,142213,1,0,0:0:0:0:
274,193,142320,2,0,B|326:214|312:266|362:293,1,105.000004005432,8|2,0:0|0:0,0:0:0:0:
268,101,142642,1,0,0:0:0:0:
268,101,142749,2,0,B|241:106|241:106|265:78,1,52.5000020027161,0|0,3:0|0:0,0:0:0:0:
151,20,142963,2,0,B|178:15|178:15|154:43,1,52.5000020027161,2|0,0:0|0:0,0:0:0:0:
4,107,143177,2,0,P|50:57|82:64,1,105.000004005432,8|2,0:0|0:0,0:0:0:0:
118,139,143499,1,0,0:0:0:0:
118,139,143606,6,0,P|71:188|39:181,1,105.000004005432,0|2,3:0|0:0,0:0:0:0:
218,146,143927,1,0,0:0:0:0:
218,146,144035,2,0,P|150:148|132:120,1,105.000004005432,8|2,0:0|0:0,0:0:0:0:
282,226,144356,1,0,0:0:0:0:
282,226,144463,2,0,P|232:179|239:147,1,105.000004005432,0|2,3:0|0:0,3:0:0:0:
291,83,144785,1,0,0:0:0:0:
376,71,144892,2,0,L|391:131,1,52.5000020027161,8|0,0:0|0:0,0:0:0:0:
263,299,145106,2,0,L|275:248,1,52.5000020027161,2|0,0:0|0:0,0:0:0:0:
121,165,145320,6,0,P|111:207|114:241,1,52.5000020027161,0|0,3:0|0:0,0:0:0:0:
136,89,145535,2,0,P|145:131|143:165,1,52.5000020027161,2|0,0:0|0:0,0:0:0:0:
168,283,145749,2,0,P|220:273|273:314,1,105.000004005432,8|2,0:0|0:0,0:0:0:0:
156,296,146070,1,0,0:0:0:0:
200,196,146177,2,0,P|233:197|266:204,1,52.5000020027161,0|0,3:0|0:0,0:0:0:0:
378,117,146392,1,2,0:0:0:0:
378,117,146499,1,0,0:0:0:0:
378,117,146606,2,0,P|352:120|325:121,1,52.5000020027161,8|0,0:0|0:0,0:0:0:0:
188,210,146820,2,0,P|162:206|135:205,1,52.5000020027161,2|0,0:0|0:0,0:0:0:0:
345,270,147035,6,0,P|396:201|371:92,1,157.500006008148,0|0,3:0|0:0,0:0:0:0:
296,187,147463,2,0,P|347:178|399:184,1,105.000004005432,8|2,0:0|0:0,0:0:0:0:
205,256,147892,1,0,3:0:0:0:
186,232,147999,1,8,0:0:0:0:
166,207,148106,5,4,0:3:0:0:
166,207,148320,2,0,P|147:228|126:264,1,52.5000020027161,4|0,0:3|0:0,0:0:0:0:
275,155,148535,2,0,P|260:133|243:113,1,52.5000020027161,4|0,3:3|0:0,0:0:0:0:
40,98,148749,5,4,3:2:0:0:
62,180,148964,1,2,0:0:0:0:
26,290,149178,2,0,P|81:292|25:287,1,175,8|2,0:0|0:0,0:0:0:0:
103,327,149606,2,0,P|148:329|99:332,1,175,0|2,3:0|0:0,0:0:0:0:
168,281,150035,1,8,0:0:0:0:
283,332,150249,6,0,P|228:339|284:334,1,175,2|0,0:0|3:0,0:0:0:0:
415,270,150678,2,0,P|349:260|417:265,1,210.000008010865,2|8,0:0|0:0,0:0:0:0:
316,65,151106,6,0,P|301:107|307:174,1,105.000004005432,2|0,0:0|0:0,0:0:0:0:
423,114,151321,2,0,P|416:138|429:120,1,70,0|0,3:0|0:0,0:0:0:0:
254,234,151535,6,0,P|265:265|261:313,1,70,2|0,0:0|0:0,0:0:0:0:
145,263,151749,2,0,P|152:287|139:269,1,70,8|0,0:0|0:0,0:0:0:0:
77,203,151964,1,2,0:0:0:0:
77,203,152070,1,0,0:0:0:0:
136,275,152177,6,0,L|121:336,1,52.5000020027161,0|0,3:0|0:0,0:0:0:0:
262,224,152392,2,0,L|249:173,1,52.5000020027161,2|0,0:0|0:0,0:0:0:0:
219,91,152606,1,8,0:0:0:0:
219,91,152713,1,0,0:0:0:0:
301,104,152820,2,0,L|313:53,1,52.5000020027161,2|0,0:0|0:0,0:0:0:0:
140,68,153035,2,0,L|127:118,1,52.5000020027161,0|0,3:0|0:0,0:0:0:0:
249,173,153249,2,0,L|261:223,1,52.5000020027161,2|0,0:0|0:0,0:0:0:0:
105,144,153463,2,0,L|92:194,1,52.5000020027161,8|0,0:0|0:0,0:0:0:0:
293,243,153677,2,0,L|305:293,1,52.5000020027161,2|0,0:0|0:0,0:0:0:0:
35,279,153892,6,0,L|89:296,1,52.5000020027161,0|0,3:0|0:0,0:0:0:0:
259,235,154106,2,0,L|205:252,1,52.5000020027161,2|0,0:0|0:0,0:0:0:0:
99,84,154320,2,0,L|125:134,1,52.5000020027161,8|0,0:0|0:0,0:0:0:0:
288,211,154534,2,0,L|237:184,1,52.5000020027161,2|0,0:0|0:0,0:0:0:0:
276,0,154749,2,0,L|259:54,1,52.5000020027161,0|0,3:0|0:0,0:0:0:0:
319,223,154963,2,0,L|302:169,1,52.5000020027161,2|0,0:0|0:0,0:0:0:0:
338,93,155177,1,8,0:0:0:0:
338,93,155285,1,0,0:0:0:0:
412,131,155392,1,2,0:0:0:0:
472,286,155606,5,0,3:2:0:0:
450,204,155821,1,2,0:0:0:0:
486,94,156035,2,0,P|431:92|487:97,1,175,8|2,0:0|0:0,0:0:0:0:
409,57,156463,2,0,P|364:55|413:52,1,175,0|2,3:0|0:0,0:0:0:0:
344,103,156892,1,8,0:0:0:0:
229,52,157106,6,0,P|284:45|228:50,1,175,2|0,0:0|3:0,0:0:0:0:
97,114,157535,2,0,P|163:124|95:119,1,210.000008010865,2|8,0:0|0:0,0:0:0:0:
196,319,157963,6,0,P|211:277|205:210,1,105.000004005432,2|0,0:0|0:0,0:0:0:0:
89,270,158178,2,0,P|96:246|83:264,1,70,0|0,3:0|0:0,0:0:0:0:
258,150,158392,6,0,P|247:119|251:71,1,70,2|0,0:0|0:0,0:0:0:0:
367,121,158606,2,0,P|360:97|373:115,1,70,8|0,0:0|0:0,0:0:0:0:
322,18,158820,1,2,0:0:0:0:
190,226,159035,6,0,P|229:245|293:250,1,105.000004005432,0|2,3:0|0:0,0:0:0:0:
134,154,159392,1,0,0:0:0:0:
134,154,159463,2,0,P|148:195|189:243,1,105.000004005432,8|2,0:0|0:0,0:0:0:0:
140,60,159820,1,0,0:0:0:0:
140,60,159891,2,0,P|121:99|116:163,1,105.000004005432,0|2,3:0|0:0,0:0:0:0:
365,287,160320,2,0,P|361:234|340:187,1,105.000004005432,8|2,0:0|0:0,0:0:0:0:
58,337,160749,6,0,P|39:269|52:111,1,210.000008010865,4|8,3:2|3:2,0:0:0:0:
112,88,161285,1,8,0:0:0:0:
138,87,161392,1,10,0:0:0:0:
164,87,161499,1,8,0:0:0:0:
226,130,161606,5,8,3:2:0:0:
240,135,161713,1,8,0:0:0:0:
292,77,161820,1,10,3:2:0:0:
306,72,161927,1,8,0:0:0:0:
368,148,162035,1,8,3:2:0:0:
382,153,162142,1,8,0:0:0:0:
401,18,162249,1,10,3:2:0:0:
415,13,162356,1,8,0:0:0:0:
512,89,162463,5,4,3:2:0:0:
256,192,162570,12,0,164177,3:0:0:0:
256,192,164606,5,0,3:0:0:0:
256,192,165035,1,0,3:0:0:0:
256,192,165463,1,0,3:0:0:0:
256,192,165892,1,0,3:0:0:0:
256,192,166320,1,0,3:0:0:0:
256,192,166749,1,0,3:0:0:0:
256,192,167177,1,0,3:0:0:0:
256,192,167606,1,0,3:0:0:0:
256,192,168035,1,0,3:0:0:0:
256,192,168463,1,0,3:0:0:0:
256,192,168892,1,0,3:0:0:0:
167,234,169320,6,0,L|109:240,1,52.5000020027161,0|2,3:0|0:0,0:0:0:0:
204,214,169749,2,0,L|146:208,1,52.5000020027161,0|2,3:0|0:0,0:0:0:0:
219,239,170177,2,0,L|161:245,1,52.5000020027161,0|2,3:0|0:0,0:0:0:0:
256,219,170606,2,0,L|198:213,1,52.5000020027161,0|2,3:0|0:0,0:0:0:0:
271,244,171035,2,0,L|213:250,1,52.5000020027161,0|2,3:0|0:0,0:0:0:0:
308,224,171464,2,0,L|250:218,1,52.5000020027161,0|2,3:0|0:0,0:0:0:0:
323,249,171892,2,0,L|265:255,1,52.5000020027161,0|2,3:0|0:0,0:0:0:0:
360,229,172321,2,0,L|302:223,1,52.5000020027161,0|2,3:0|0:0,0:0:0:0:
443,260,172749,2,0,P|446:231|442:197,1,52.5000020027161,0|2,3:0|0:0,0:0:0:0:
382,299,173177,2,0,P|404:280|425:253,1,52.5000020027161,0|2,3:0|0:0,0:0:0:0:
302,296,173606,2,0,P|331:299|365:295,1,52.5000020027161,0|2,3:0|0:0,0:0:0:0:
263,235,174034,2,0,P|281:257|308:278,1,52.5000020027161,0|2,3:0|0:0,0:0:0:0:
267,164,174463,2,0,P|264:193|268:227,1,52.5000020027161,0|2,3:0|0:0,0:0:0:0:
328,125,174891,2,0,P|305:143|284:170,1,52.5000020027161,0|2,3:0|0:0,0:0:0:0:
400,130,175320,5,4,0:3:0:0:
400,130,175427,1,4,0:3:0:0:
400,130,175535,2,0,P|371:127|337:131,1,52.5000020027161,2|12,3:2|0:3,0:0:0:0:
265,157,175963,1,4,3:0:0:0:
156,268,176177,5,0,3:0:0:0:
136,345,176392,1,2,0:0:0:0:
155,188,176606,1,8,0:0:0:0:
175,265,176821,1,2,0:0:0:0:
156,105,177035,1,0,3:0:0:0:
136,182,177250,1,2,0:0:0:0:
155,25,177463,1,8,0:0:0:0:
175,102,177677,1,2,0:0:0:0:
85,257,177892,2,0,L|19:251,1,52.5000020027161,0|2,3:0|0:0,0:0:0:0:
222,170,178320,1,8,0:0:0:0:
303,161,178534,1,2,0:0:0:0:
199,158,178749,2,0,L|146:162,1,52.5000020027161,0|2,3:0|0:0,0:0:0:0:
120,156,179070,1,0,0:0:0:0:
120,156,179177,1,8,0:0:0:0:
272,89,179392,6,0,P|291:123|304:168,1,78.7500030040742,2|0,0:0|0:0,0:0:0:0:
305,176,179820,2,0,P|301:197|294:219,1,26.2500010013581,2|0,0:0|0:0,0:0:0:0:
412,177,180035,2,0,P|397:218|393:259,1,78.7500030040742,8|0,0:0|0:0,0:0:0:0:
392,252,180463,1,0,3:0:0:0:
215,206,180677,1,2,0:0:0:0:
68,257,180892,5,8,0:0:0:0:
61,222,180999,1,0,0:0:0:0:
57,275,181106,2,0,P|62:243|60:212,1,52.5000020027161,2|0,0:0|3:0,0:0:0:0:
25,140,181535,2,0,P|20:108|22:77,1,52.5000020027161,2|8,0:0|0:0,0:0:0:0:
88,29,181963,1,2,0:0:0:0:
192,199,182177,2,0,P|197:167|195:136,1,52.5000020027161,0|2,3:0|0:0,0:0:0:0:
96,216,182606,1,8,0:0:0:0:
189,49,182820,1,2,0:0:0:0:
96,216,183035,5,0,3:0:0:0:
19,196,183249,1,2,0:0:0:0:
176,215,183463,1,8,0:0:0:0:
99,235,183677,1,2,0:0:0:0:
259,216,183892,1,0,3:0:0:0:
182,196,184106,1,2,0:0:0:0:
339,215,184320,1,8,0:0:0:0:
262,235,184535,1,2,0:0:0:0:
396,139,184749,2,0,L|406:78,1,52.5000020027161,0|2,3:0|0:0,3:0:0:0:
235,77,185177,1,8,0:0:0:0:
248,154,185391,1,2,0:0:0:0:
164,39,185606,2,0,L|122:82,1,52.5000020027161,0|2,3:0|0:0,0:0:0:0:
53,106,185927,1,0,0:0:0:0:
53,106,186035,2,0,L|39:164,1,52.5000020027161,8|2,0:0|0:0,0:0:0:0:
167,273,186463,5,0,3:0:0:0:
147,350,186678,1,2,0:0:0:0:
166,193,186892,1,8,0:0:0:0:
186,270,187107,1,2,0:0:0:0:
167,110,187321,1,0,3:0:0:0:
147,187,187536,1,2,0:0:0:0:
166,30,187749,1,8,0:0:0:0:
186,107,187963,1,2,0:0:0:0:
353,81,188177,1,0,3:0:0:0:
333,158,188393,1,2,0:0:0:0:
143,23,188606,1,8,0:0:0:0:
163,100,188820,1,2,0:0:0:0:
383,87,189035,1,0,3:0:0:0:
367,103,189142,1,8,0:0:0:0:
353,153,189249,5,4,3:0:0:0:
135,217,189463,1,4,3:0:0:0:
135,217,189677,2,0,L|118:286,1,52.5000020027161,2|0,0:0|0:0,0:0:0:0:
202,74,191177,6,0,L|149:79,1,52.5000020027161,8|2,0:0|0:0,0:0:0:0:
286,99,191606,6,0,P|308:148|312:220,1,105.000004005432,4|2,3:2|0:0,0:0:0:0:
379,66,191928,1,0,0:0:0:0:
379,66,192035,2,0,P|357:115|353:187,1,105.000004005432,8|2,0:2|0:0,0:0:0:0:
297,234,192356,1,0,0:0:0:0:
368,319,192463,6,0,L|255:340,1,105.000004005432,0|2,3:0|0:0,0:0:0:0:
450,320,192785,1,0,0:0:0:0:
450,320,192892,2,0,L|337:299,1,105.000004005432,8|2,0:0|0:0,0:0:0:0:
486,357,193213,1,0,0:0:0:0:
486,357,193320,6,0,L|430:347,1,52.5000020027161,0|0,3:0|0:0,0:0:0:0:
325,281,193535,2,0,P|325:250|333:216,1,52.5000020027161,2|0,0:0|0:0,0:0:0:0:
448,189,193749,2,0,P|453:215|452:242,1,52.5000020027161,8|0,0:0|0:0,0:0:0:0:
361,139,193963,1,2,0:0:0:0:
332,297,194177,5,0,3:0:0:0:
242,111,194392,1,2,0:0:0:0:
332,297,194606,1,8,0:0:0:0:
279,265,194713,1,0,0:0:0:0:
242,197,194820,1,2,0:0:0:0:
163,58,195035,6,0,P|216:77|278:85,1,105.000004005432,0|2,3:0|0:0,0:0:0:0:
427,174,195463,2,0,P|376:183|327:201,1,105.000004005432,8|2,0:0|0:0,0:0:0:0:
169,323,195892,2,0,P|222:342|284:350,1,105.000004005432,0|2,3:0|0:0,0:0:0:0:
423,156,196320,2,0,P|372:165|323:183,1,105.000004005432,8|2,0:0|0:0,0:0:0:0:
295,295,196642,1,0,0:0:0:0:
295,295,196749,6,0,L|309:174,1,105.000004005432,0|2,3:0|0:0,0:0:0:0:
250,134,197070,1,0,0:0:0:0:
250,134,197177,2,0,L|236:13,1,105.000004005432,8|2,0:0|0:0,0:0:0:0:
332,210,197499,5,0,0:0:0:0:
332,210,197606,2,0,L|326:270,1,52.5000020027161,0|0,3:0|0:0,0:0:0:0:
165,159,197820,2,0,L|160:107,1,52.5000020027161,2|0,0:0|0:0,0:0:0:0:
318,342,198035,1,8,0:0:0:0:
310,200,198249,1,2,0:0:0:0:
230,359,198463,6,0,P|174:365|115:333,1,105.000004005432,0|2,3:0|0:0,0:0:0:0:
6,267,198785,1,0,0:0:0:0:
6,267,198892,2,0,P|55:248|106:255,1,105.000004005432,8|2,0:0|0:0,0:0:0:0:
239,367,199213,1,0,0:0:0:0:
239,367,199320,6,0,L|348:347,1,105.000004005432,0|2,3:0|0:0,0:0:0:0:
430,324,199642,1,0,0:0:0:0:
430,324,199749,2,0,P|390:305|321:304,1,105.000004005432,8|2,0:0|0:0,0:0:0:0:
307,302,200070,1,0,0:0:0:0:
339,280,200177,6,0,L|230:259,1,105.000004005432,0|2,3:0|0:0,0:0:0:0:
169,176,200499,1,0,0:0:0:0:
169,176,200606,2,0,L|278:155,1,105.000004005432,8|2,0:0|0:0,0:0:0:0:
439,207,201035,1,0,3:0:0:0:
286,41,201249,1,2,0:0:0:0:
245,303,201463,1,8,0:0:0:0:
463,194,201677,1,2,0:0:0:0:
187,160,201892,6,0,P|124:160|62:174,1,105.000004005432,0|2,3:0|0:0,0:0:0:0:
278,202,202213,1,0,0:0:0:0:
278,202,202320,2,0,P|222:199|153:188,1,105.000004005432,8|2,0:0|0:0,0:0:0:0:
336,277,202642,1,0,0:0:0:0:
336,277,202749,6,0,P|355:301|366:321,1,52.5000020027161,0|0,3:0|0:0,0:0:0:0:
377,93,202963,2,0,P|359:122|347:136,1,52.5000020027161,2|0,0:0|0:0,0:0:0:0:
333,298,203177,2,0,P|351:320|363:342,1,52.5000020027161,8|0,0:0|0:0,0:0:0:0:
404,85,203392,2,0,P|391:106|375:129,1,52.5000020027161,2|0,0:0|0:0,0:0:0:0:
498,260,203606,6,0,L|430:268,1,52.5000020027161,0|0,3:0|0:0,0:0:0:0:
415,63,203820,1,8,0:0:0:0:
166,250,204035,1,8,0:0:0:0:
239,95,204249,1,8,0:0:0:0:
239,95,204356,1,8,0:0:0:0:
239,95,204463,1,8,0:0:0:0:
245,149,204570,1,8,0:0:0:0:
249,200,204677,1,8,0:0:0:0:
294,345,204892,5,4,0:3:0:0:
229,148,205106,1,4,0:3:0:0:
58,297,205320,2,0,P|94:339|60:294,1,175,0|2,3:0|0:0,0:0:0:0:
229,148,205749,2,0,P|190:176|228:141,1,175,8|2,0:0|0:0,0:0:0:0:
296,225,206177,2,0,P|335:253|297:218,1,175,0|2,3:0|0:0,0:0:0:0:
189,41,206606,6,0,P|151:53|111:83,1,70,8|0,0:0|0:0,0:0:0:0:
78,217,206820,2,0,P|77:247|81:218,1,87.5,2|0,0:0|0:0,0:0:0:0:
77,140,207035,2,0,P|115:152|155:182,1,87.5,0|0,3:0|0:0,0:0:0:0:
188,316,207249,2,0,P|189:351|184:317,1,105.000004005432,2|0,0:0|0:0,0:0:0:0:
160,167,207463,2,0,P|113:138|61:123,1,105.000004005432,8|0,0:0|0:0,0:0:0:0:
243,228,207677,6,0,P|296:234|354:195,1,105.000004005432,2|0,0:0|0:0,0:0:0:0:
163,170,207892,2,0,P|140:171|162:168,1,70,0|0,3:0|0:0,0:0:0:0:
281,301,208106,6,0,P|228:307|170:268,1,70,2|0,0:0|0:0,0:0:0:0:
361,243,208321,2,0,P|384:244|362:241,1,70,8|0,0:0|0:0,0:0:0:0:
308,79,208535,1,2,0:0:0:0:
308,79,208749,6,0,L|323:18,1,52.5000020027161,0|0,3:0|0:0,0:0:0:0:
182,130,208964,2,0,L|195:181,1,52.5000020027161,2|0,0:0|0:0,0:0:0:0:
225,263,209178,1,8,0:0:0:0:
225,263,209285,1,0,0:0:0:0:
143,250,209392,2,0,L|131:301,1,52.5000020027161,2|0,0:0|0:0,0:0:0:0:
304,286,209607,2,0,L|317:236,1,52.5000020027161,0|0,3:0|0:0,0:0:0:0:
195,181,209821,2,0,L|183:131,1,52.5000020027161,2|0,0:0|0:0,0:0:0:0:
339,210,210035,2,0,L|352:160,1,52.5000020027161,8|0,0:0|0:0,0:0:0:0:
151,111,210249,2,0,L|139:61,1,52.5000020027161,2|0,0:0|0:0,0:0:0:0:
409,75,210464,6,0,L|355:58,1,52.5000020027161,0|0,3:0|0:0,0:0:0:0:
185,119,210678,2,0,L|239:102,1,52.5000020027161,2|0,0:0|0:0,0:0:0:0:
345,270,210892,2,0,L|319:220,1,52.5000020027161,8|0,0:0|0:0,0:0:0:0:
156,143,211106,2,0,L|207:170,1,52.5000020027161,2|0,0:0|0:0,0:0:0:0:
168,354,211321,2,0,L|185:300,1,52.5000020027161,0|0,3:0|0:0,0:0:0:0:
125,131,211535,2,0,L|142:185,1,52.5000020027161,2|0,0:0|0:0,0:0:0:0:
106,261,211749,1,8,0:0:0:0:
106,261,211857,1,0,0:0:0:0:
32,223,211964,1,2,0:0:0:0:
448,290,212177,5,0,3:0:0:0:
489,161,212392,1,2,0:0:0:0:
283,148,212606,2,0,P|322:176|284:141,1,175,8|2,0:0|0:0,0:0:0:0:
216,225,213034,2,0,P|177:253|215:218,1,175,0|2,3:0|0:0,0:0:0:0:
189,41,213463,6,0,P|151:53|111:83,1,70,8|0,0:0|0:0,0:0:0:0:
78,217,213677,2,0,P|77:247|81:218,1,87.5,2|0,0:0|0:0,0:0:0:0:
77,140,213892,2,0,P|115:152|155:182,1,87.5,0|0,3:0|0:0,0:0:0:0:
188,316,214106,2,0,P|189:351|184:317,1,105.000004005432,2|0,0:0|0:0,0:0:0:0:
160,167,214320,2,0,P|113:138|61:123,1,105.000004005432,8|0,0:0|0:0,0:0:0:0:
243,228,214534,6,0,P|296:234|354:195,1,105.000004005432,2|0,0:0|0:0,0:0:0:0:
163,170,214749,2,0,P|140:171|162:168,1,70,0|0,3:0|0:0,0:0:0:0:
281,301,214963,6,0,P|228:307|170:268,1,70,2|0,0:0|0:0,0:0:0:0:
361,243,215178,2,0,P|384:244|362:241,1,70,8|0,0:0|0:0,0:0:0:0:
308,79,215392,1,2,0:0:0:0:
68,216,215606,6,0,L|78:99,1,105.000004005432,0|2,3:0|0:0,0:0:0:0:
122,291,215963,1,0,0:0:0:0:
122,291,216035,2,0,L|112:174,1,105.000004005432,8|2,0:0|0:0,0:0:0:0:
87,364,216391,1,0,0:0:0:0:
87,364,216463,2,0,L|94:312,1,52.5000020027161,0|0,3:0|0:0,0:0:0:0:
190,202,216677,2,0,L|195:264,1,52.5000020027161,2|0,0:0|0:0,0:0:0:0:
124,104,216892,1,8,0:0:0:0:
124,104,217106,1,2,0:0:0:0:
211,210,217320,6,0,L|329:204,1,105.000004005432,0|2,3:0|0:0,0:0:0:0:
322,206,217606,1,0,0:0:0:0:
367,280,217749,2,0,L|485:286,1,105.000004005432,8|2,0:0|0:0,0:0:0:0:
478,284,218035,1,0,0:0:0:0:
300,349,218177,5,8,0:0:0:0:
247,353,218284,1,8,0:0:0:0:
195,358,218391,1,8,0:0:0:0:
356,259,218606,5,4,0:3:0:0:
161,138,218820,1,4,3:3:0:0:
414,96,219035,5,4,3:2:0:0:
385,179,219249,1,2,0:0:0:0:
454,297,219463,2,0,P|418:339|452:294,1,175,8|2,0:0|0:0,0:0:0:0:
283,148,219892,2,0,P|322:176|284:141,1,175,0|2,3:0|0:0,0:0:0:0:
216,225,220320,2,0,P|177:253|215:218,1,175,8|2,0:0|0:0,0:0:0:0:
189,41,220749,6,0,P|151:53|111:83,1,70,0|0,3:0|0:0,0:0:0:0:
78,217,220963,2,0,P|77:247|81:218,1,87.5,2|0,0:0|0:0,0:0:0:0:
77,140,221178,2,0,P|115:152|155:182,1,87.5,8|0,0:0|0:0,0:0:0:0:
243,228,221392,6,0,P|296:234|354:195,1,105.000004005432,2|0,0:0|0:0,0:0:0:0:
163,170,221607,2,0,P|127:171|161:166,1,105.000004005432,0|0,3:0|0:0,0:0:0:0:
281,301,221821,6,0,P|228:307|170:268,1,70,2|0,0:0|0:0,0:0:0:0:
361,243,222036,2,0,P|384:244|362:241,1,70,8|0,0:0|0:0,0:0:0:0:
308,79,222250,1,2,0:0:0:0:
243,228,222463,6,0,L|234:172,1,52.5000020027161,0|0,3:0|0:0,0:0:0:0:
201,151,222677,2,0,L|192:95,1,52.5000020027161,2|0,0:0|0:0,0:0:0:0:
107,232,222891,2,0,L|168:222,1,52.5000020027161,8|0,0:0|0:0,0:0:0:0:
43,267,223106,2,0,L|104:257,1,52.5000020027161,2|0,0:0|0:0,0:0:0:0:
208,162,223320,2,0,L|260:171,1,52.5000020027161,0|0,3:0|0:0,0:0:0:0:
272,197,223534,2,0,L|324:206,1,52.5000020027161,2|0,0:0|0:0,0:0:0:0:
428,147,223749,1,8,0:0:0:0:
376,139,223856,1,0,0:0:0:0:
341,99,223963,2,0,L|355:32,1,52.5000020027161,2|0,0:0|0:0,0:0:0:0:
479,155,224177,6,0,L|465:222,1,52.5000020027161,0|0,3:0|0:0,0:0:0:0:
354,33,224391,1,2,0:0:0:0:
236,154,224606,2,0,L|222:87,1,52.5000020027161,8|0,0:0|0:0,0:0:0:0:
98,210,224820,2,0,L|112:277,1,52.5000020027161,2|0,0:0|0:0,0:0:0:0:
223,88,225034,1,0,3:0:0:0:
223,270,225249,1,2,0:0:0:0:
258,283,225356,1,0,0:0:0:0:
298,296,225463,1,8,0:0:0:0:
295,275,225570,1,0,0:0:0:0:
292,259,225677,1,2,0:0:0:0:
40,98,225892,5,0,3:2:0:0:
62,180,226107,1,2,0:0:0:0:
26,290,226321,2,0,P|81:292|25:287,1,175,8|2,0:0|0:0,0:0:0:0:
103,327,226749,2,0,P|148:329|99:332,1,175,0|2,3:0|0:0,0:0:0:0:
168,281,227178,1,8,0:0:0:0:
283,332,227392,6,0,P|228:339|284:334,1,175,2|0,0:0|3:0,0:0:0:0:
415,270,227821,2,0,P|349:260|417:265,1,210.000008010865,2|8,0:0|0:0,0:0:0:0:
316,65,228249,6,0,P|301:107|307:174,1,105.000004005432,2|0,0:0|0:0,0:0:0:0:
423,114,228464,2,0,P|416:138|429:120,1,70,0|0,3:0|0:0,0:0:0:0:
254,234,228678,6,0,P|265:265|261:313,1,70,2|0,0:0|0:0,0:0:0:0:
145,263,228892,2,0,P|152:287|139:269,1,70,8|0,0:0|0:0,0:0:0:0:
316,65,229106,1,2,0:0:0:0:
444,216,229320,6,0,L|431:63,1,105.000004005432,0|2,3:0|0:0,0:0:0:0:
390,291,229677,1,0,0:0:0:0:
390,291,229749,2,0,L|400:174,1,105.000004005432,8|2,0:0|0:0,0:0:0:0:
425,364,230105,1,0,0:0:0:0:
425,364,230177,2,0,L|418:312,1,52.5000020027161,0|0,3:0|0:0,0:0:0:0:
322,202,230391,2,0,L|317:264,1,52.5000020027161,2|0,0:0|0:0,0:0:0:0:
388,104,230606,1,8,0:0:0:0:
388,104,230820,1,2,0:0:0:0:
301,210,231034,6,0,L|183:204,1,105.000004005432,0|2,3:0|0:0,0:0:0:0:
190,206,231320,1,0,0:0:0:0:
145,280,231463,2,0,L|27:286,1,105.000004005432,8|2,0:0|0:0,0:0:0:0:
34,284,231749,1,0,0:0:0:0:
212,349,231891,5,8,0:0:0:0:
279,325,231998,1,8,0:0:0:0:
355,356,232105,1,8,0:0:0:0:
85,176,232320,5,4,0:3:0:0:
161,121,232535,1,4,3:3:0:0:
366,368,232749,5,4,3:2:0:0:
355,303,232963,1,2,0:0:0:0:
355,356,233177,2,0,L|356:274,1,52.5000020027161,0|2,3:0|0:0,0:0:0:0:
355,303,233606,2,0,L|356:221,1,52.5000020027161,0|2,3:0|0:0,0:0:0:0:
355,250,234035,2,0,L|356:168,1,52.5000020027161,0|2,3:0|0:0,0:0:0:0:
311,119,234463,1,0,3:0:0:0:
259,109,234677,1,2,0:0:0:0:
311,119,234892,2,0,P|278:112|252:109,1,52.5000020027161,0|2,3:0|0:0,0:0:0:0:
78,315,235320,2,0,P|103:311|129:305,1,52.5000020027161,0|2,3:0|0:0,0:0:0:0:
57,38,235749,2,0,L|44:93,1,52.5000020027161,0|2,3:0|0:0,0:0:0:0:
351,311,236177,2,0,L|338:256,1,52.5000020027161,0|2,3:0|0:0,0:0:0:0:
334,154,236606,2,0,P|308:159|271:176,1,52.5000020027161,0|2,3:0|0:0,0:0:0:0:
336,58,237035,1,0,3:0:0:0:
334,154,237249,1,2,0:0:0:0:
387,73,237463,2,0,P|361:68|324:51,1,52.5000020027161,0|2,3:0|0:0,0:0:0:0:
330,181,237892,2,0,P|308:195|269:209,1,52.5000020027161,0|2,3:0|0:0,0:0:0:0:
192,208,238320,1,0,3:0:0:0:
261,110,238535,1,2,0:0:0:0:
241,304,238749,1,0,3:0:0:0:
241,304,238963,1,2,0:0:0:0:
286,91,239177,1,0,3:0:0:0:
173,120,239392,1,2,0:0:0:0:
437,225,239606,5,2,0:0:0:0:
