osu file format v14

[General]
AudioFilename: audio.mp3
AudioLeadIn: 0
PreviewTime: 66447
Countdown: 0
SampleSet: Soft
StackLeniency: 0.5
Mode: 0
LetterboxInBreaks: 0
WidescreenStoryboard: 1

[Editor]
Bookmarks: 16739,89376,112733,162447,176161,189876,214090,223519
DistanceSpacing: 0.6
BeatDivisor: 4
GridSize: 16
TimelineZoom: 1.2

[Metadata]
Title:Tokyo Ghetto
TitleUnicode:トーキョーゲットー
Artist:Eve
ArtistUnicode:Eve
Creator:X Light
Version:Collab Hard
Source:
Tags:kanor numa waboku hatsune miku VOCALOID ボーカロイド ボカロ 初音ミク japanese rock
BeatmapID:2448036
BeatmapSetID:1167132

[Difficulty]
HPDrainRate:5
CircleSize:3.8
OverallDifficulty:6.5
ApproachRate:7.5
SliderMultiplier:2
SliderTickRate:1

[Events]
//Background and Video events
0,0,"bg.jpg",0,0
//Break Periods
2,32166,34765
2,59810,62194
2,63239,65194
2,162667,175336
//Storyboard Layer 0 (Background)
//Storyboard Layer 1 (Fail)
//Storyboard Layer 2 (Pass)
//Storyboard Layer 3 (Foreground)
//Storyboard Layer 4 (Overlay)
//Storyboard Sound Samples

[TimingPoints]
3019,428.571428571429,4,2,1,50,1,0
15876,-100,4,2,1,60,0,0
15983,-133.333333333333,4,2,1,60,0,0
44376,-200,4,2,1,60,0,0
45876,-133.333333333333,4,2,1,60,0,0
57447,-133.333333333333,4,2,1,60,0,0
59590,-133.333333333333,4,2,1,50,0,0
66447,-133.333333333333,4,2,1,80,0,1
80161,-133.333333333333,4,2,1,60,0,1
93876,-133.333333333333,4,2,1,60,0,0
100733,-133.333333333333,4,2,1,60,0,0
112733,-200,4,2,1,60,0,0
113697,-133.333333333333,4,2,1,60,0,0
128590,-181.818181818181,4,2,1,60,0,0
134161,-181.818181818181,4,2,1,70,0,0
135019,-133.333333333333,4,2,1,70,0,0
148733,-133.333333333333,4,2,1,60,0,0
175733,-133.333333333333,4,2,2,70,0,0
175947,-133.333333333333,4,2,1,70,0,0
191590,-133.333333333333,4,2,1,80,0,1
205197,-133.333333333333,4,2,1,80,0,1
219019,-133.333333333333,4,2,1,60,0,1
232733,-133.333333333333,4,2,1,60,0,0

[Colours]
Combo1 : 242,164,57
Combo2 : 192,192,192
Combo3 : 146,125,54
Combo4 : 255,27,15
Combo5 : 198,89,89
Combo6 : 235,117,255
Combo7 : 119,49,142

[HitObjects]
116,172,15983,21,2,2:3:0:0:
116,172,16090,2,0,L|104:252,2,75.000002861023,2|4|8,2:3|2:3|0:3,0:0:0:0:
72,324,16733,85,6,1:1:0:0:
72,324,16947,2,0,P|39:305|2:301,2,75.000002861023,0|0|2,2:2|1:0|2:2,0:0:0:0:
136,368,17590,2,0,L|248:360,1,112.500004291535,2|0,1:0|0:0,0:0:0:0:
272,356,18019,2,0,L|280:272,1,75.000002861023,2|2,1:0|2:2,0:0:0:0:
284,191,18447,53,2,0:0:0:0:
284,191,18661,2,0,P|251:209|214:213,2,75.000002861023,2|0|2,2:2|1:0|2:2,0:0:0:0:
360,224,19304,2,0,P|363:274|364:368,2,112.500004291535,2|2|2,1:0|2:0|2:2,0:0:0:0:
436,192,20161,5,2,0:0:0:0:
436,192,20376,1,2,2:0:0:0:
508,144,20590,2,0,P|503:103|508:56,1,75.000002861023,2|0,1:0|2:2,0:0:0:0:
464,4,21019,2,0,L|352:12,1,112.500004291535,2|0,1:0|0:0,0:0:0:0:
332,16,21447,2,0,P|336:56|332:104,1,75.000002861023,2|2,1:0|2:2,0:0:0:0:
268,144,21876,69,0,1:0:0:0:
268,144,22090,1,2,2:2:0:0:
184,96,22304,2,0,P|179:55|184:8,1,75.000002861023,0|2,1:0|2:2,0:0:0:0:
96,40,22733,2,0,L|101:115,1,75.0000028610231,2|2,1:0|2:2,0:0:0:0:
108,152,23054,1,0,0:0:0:0:
108,152,23161,1,2,1:0:0:0:
17,105,23376,1,2,2:2:0:0:
12,204,23590,69,2,1:0:0:0:
12,204,23804,2,0,L|8:296,2,75.000002861023,2|2|2,2:2|1:0|2:2,0:0:0:0:
92,276,24447,2,0,P|148:292|196:264,1,112.500004291535,2|0,1:0|0:0,0:0:0:0:
216,256,24876,2,0,L|212:348,1,75.000002861023,2|2,1:0|2:2,0:0:0:0:
288,368,25304,85,0,0:0:0:0:
368,336,25519,2,0,P|398:324|452:332,2,75.000002861023,2|0|2,2:2|1:0|2:2,0:0:0:0:
288,368,26161,2,0,L|296:248,2,112.500004291535,2|2|2,1:0|2:0|2:2,0:0:0:0:
256,192,27019,12,0,30447,2:0:0:0:
396,172,31411,53,2,0:3:0:0:
396,172,31519,2,0,L|408:252,2,75.000002861023,2|4|8,0:3|2:3|0:3,0:0:0:0:
396,172,35590,5,0,1:0:0:0:
396,172,36019,1,0,1:0:0:0:
396,172,36447,2,0,P|356:128|364:72,1,112.500004291535,2|0,1:0|2:0,0:0:0:0:
372,64,36876,2,0,L|464:60,1,75.000002861023,2|2,1:0|2:2,0:0:0:0:
292,20,37304,69,2,1:0:0:0:
237,88,37519,1,2,2:2:0:0:
177,30,37733,2,0,L|85:26,1,75.000002861023,2|2,1:0|2:2,0:0:0:0:
117,107,38161,2,0,L|191:110,1,75.000002861023,2|2,1:0|2:2,0:0:0:0:
161,187,38590,2,0,L|69:183,1,75.000002861023,2|2,1:0|2:2,0:0:0:0:
52,32,39019,69,0,1:0:0:0:
52,32,39448,1,2,1:0:0:0:
52,32,39876,2,0,P|12:76|20:132,1,112.500004291535,2|0,1:0|0:0,0:0:0:0:
28,140,40305,2,0,P|44:184|28:228,1,75.000002861023,2|0,1:0|0:0,0:0:0:0:
88,292,40733,85,2,1:0:0:0:
12,356,40948,1,2,2:2:0:0:
12,356,41162,2,0,L|8:264,1,75.000002861023,2|2,1:0|2:2,0:0:0:0:
88,292,41590,2,0,L|91:366,1,75.000002861023,2|2,1:0|2:2,0:0:0:0:
172,376,42019,2,0,L|168:301,1,75.000002861023,2|2,1:0|2:2,0:0:0:0:
264,192,42447,53,2,1:0:0:0:
264,192,42876,1,2,1:0:0:0:
264,192,43304,2,0,B|328:188|296:236|392:216,1,112.500004291535,2|2,1:0|2:0,0:0:0:0:
392,216,43733,2,0,L|404:128,2,75.000002861023,2|2|0,1:0|2:0|1:0,0:0:0:0:
484,200,44376,5,0,2:0:0:0:
484,200,44590,2,0,B|480:248|480:248|500:308,1,100,2|0,2:0|2:0,0:0:0:0:
496,316,45126,1,2,2:3:0:0:
496,336,45233,1,2,2:3:0:0:
413,373,45447,1,4,2:3:0:0:
413,373,45661,1,8,2:3:0:0:
312,268,45876,70,0,P|280:248|240:248,1,75.000002861023,6|0,1:1|2:0,0:0:0:0:
192,312,46304,2,0,P|160:332|120:332,1,75.000002861023,2|0,1:0|2:2,0:0:0:0:
52,376,46733,2,0,B|40:336|40:336|56:264,2,112.500004291535,2|2|2,1:0|2:0|2:2,0:0:0:0:
136,236,47804,69,2,2:2:0:0:
136,236,48019,2,0,P|142:188|124:152,1,75.000002861023,2|0,1:0|2:0,0:0:0:0:
123,75,48447,2,0,P|78:92|57:121,1,75.000002861023,2|2,1:0|2:2,0:0:0:0:
16,206,48876,2,0,L|54:206,2,37.5000014305115,2|2|2,1:0|2:0|2:0,0:0:0:0:
133,164,49304,86,0,L|224:160,1,75.000002861023,2|0,1:0|2:2,0:0:0:0:
272,112,49733,2,0,L|363:116,1,75.000002861023,2|0,1:0|2:2,0:0:0:0:
408,52,50161,2,0,P|433:96|512:92,2,112.500004291535,2|2|2,1:0|2:0|2:2,0:0:0:0:
340,16,51019,54,0,L|265:12,1,75.000002861023,2|0,1:0|2:2,0:0:0:0:
248,32,51340,2,0,P|184:60|144:40,1,112.500004291535,2|2,2:0|2:2,0:0:0:0:
12,48,51876,1,2,1:0:0:0:
80,8,52090,1,2,2:2:0:0:
84,84,52304,2,0,L|87:134,2,37.5000014305115,2|2|4,1:0|2:0|2:2,0:0:0:0:
68,208,52733,6,0,P|36:188|-4:188,1,75.000002861023,2|0,1:0|2:2,0:0:0:0:
16,268,53161,2,0,P|48:288|88:288,1,75.000002861023,2|0,1:0|2:2,0:0:0:0:
164,284,53590,2,0,B|152:244|152:244|168:172,2,112.500004291535,2|2|2,1:0|2:0|2:2,0:0:0:0:
362,252,54661,69,2,2:2:0:0:
362,252,54876,2,0,P|314:246|278:264,1,75.000002861023,2|2,1:0|2:2,0:0:0:0:
260,348,55304,2,0,P|308:354|344:336,1,75.000002861023,0|2,1:0|2:2,0:0:0:0:
416,340,55626,1,0,2:0:0:0:
416,340,55733,2,0,L|412:380,2,37.5000014305115,0|2|2,1:0|2:0|2:2,0:0:0:0:
496,240,56161,69,0,1:0:0:0:
496,240,56590,2,0,B|487:202|487:202|496:156,1,75.0000028610231,2|0,1:0|2:2,0:0:0:0:
512,84,57018,2,0,P|460:92|404:52,1,112.500004291535,2|0,1:0|0:0,0:0:0:0:
396,48,57447,2,0,B|358:39|358:39|312:48,1,75.0000028610231,0|2,1:0|2:2,0:0:0:0:
248,12,57876,2,0,L|240:120,1,75.0000028610231,2|6,1:0|2:2,0:0:0:0:
288,152,58304,86,0,B|300:213|300:213|292:240|292:240|304:308,1,150.000005722046,2|0,1:0|1:0,0:0:0:0:
379,286,58947,1,2,2:3:0:0:
320,380,59161,1,4,2:3:0:0:
220,319,59376,1,8,2:3:0:0:
284,220,59590,5,6,2:1:0:0:
0,232,63019,53,4,2:1:0:0:
256,192,66019,69,8,2:1:0:0:
358,48,66447,38,0,P|402:23|438:28,1,75.0000028610231,4|0,1:1|0:0,0:0:0:0:
489,85,66876,2,0,P|445:110|409:105,1,75.0000028610231,8|0,2:1|0:0,0:0:0:0:
346,132,67304,2,0,L|362:228,1,75.0000028610231,2|0,1:0|2:2,0:0:0:0:
366,224,67626,1,2,2:0:0:0:
370,240,67733,1,0,0:0:0:0:
446,168,67947,1,2,2:2:0:0:
506,252,68161,38,0,P|526:308|506:356,1,112.500004291535,2|2,1:0|2:0,0:0:0:0:
490,364,68590,2,0,L|406:360,1,75.0000028610231,0|0,0:0|2:2,0:0:0:0:
268,291,69019,5,2,1:0:0:0:
384,232,69233,1,2,2:2:0:0:
341,384,69447,1,10,2:1:0:0:
333,358,69554,1,2,2:0:0:0:
337,332,69661,1,2,2:2:0:0:
241,299,69876,6,0,B|252:335|252:335|247:373,1,75.0000028610231,0|2,1:0|2:2,0:0:0:0:
160,341,70304,2,0,P|116:323|99:235,1,112.500004291535,10|0,2:1|2:0,0:0:0:0:
107,245,70733,54,0,L|100:158,1,75.0000028610231,2|2,1:0|2:2,0:0:0:0:
21,82,71161,2,0,L|27:166,1,75.0000028610231,10|0,2:1|2:2,0:0:0:0:
27,174,71483,1,2,2:0:0:0:
27,190,71590,1,2,1:0:0:0:
165,62,71911,69,2,2:0:0:0:
174,65,72019,2,0,P|189:104|198:189,1,112.500004291535,8|2,2:1|2:0,0:0:0:0:
188,198,72447,2,0,L|262:190,1,75.0000028610231,2|2,1:0|2:2,0:0:0:0:
373,203,72876,1,10,2:1:0:0:
474,252,73090,1,2,2:2:0:0:
506,98,73304,38,0,L|498:6,1,75.0000028610231,0|0,1:0|0:0,0:0:0:0:
412,53,73733,2,0,L|418:127,1,75.0000028610231,8|0,2:1|0:0,0:0:0:0:
486,172,74161,2,0,P|498:208|494:248,1,75.0000028610231,2|0,1:0|2:2,0:0:0:0:
474,252,74483,1,2,2:0:0:0:
454,256,74590,1,0,0:0:0:0:
364,301,74804,1,2,2:2:0:0:
364,301,75019,6,0,L|228:317,1,112.500004291535,2|2,1:0|2:0,0:0:0:0:
228,311,75447,2,0,P|240:347|235:386,1,75.0000028610231,0|2,0:0|2:2,0:0:0:0:
146,354,75876,1,2,1:0:0:0:
45,325,76090,1,2,2:2:0:0:
123,237,76304,1,8,2:1:0:0:
50,332,76519,1,2,2:2:0:0:
2,224,76733,6,0,P|-15:176|6:112,1,112.500004291535,2|2,1:0|2:0,0:0:0:0:
14,104,77161,2,0,P|46:88|94:100,1,75.0000028610231,10|2,2:1|2:2,0:0:0:0:
106,100,77483,1,2,2:0:0:0:
126,112,77590,2,0,L|122:200,1,75.0000028610231,2|2,1:0|2:2,0:0:0:0:
216,231,78019,2,0,L|219:156,1,75.0000028610231,8|2,2:1|2:2,0:0:0:0:
292,40,78447,53,2,1:0:0:0:
338,183,78661,1,8,2:1:0:0:
223,151,78876,1,10,2:1:0:0:
368,86,79090,1,8,2:1:0:0:
380,94,79197,1,8,2:1:0:0:
392,102,79304,2,0,L|392:154,2,37.5000014305115,0|8|2,1:0|2:1|2:3,0:0:0:0:
468,84,79733,2,0,L|464:164,1,75.0000028610231,4|8,2:3|2:3,0:0:0:0:
437,272,80161,70,0,P|463:256|513:272,1,75.0000028610231,4|0,1:1|0:0,0:0:0:0:
512,352,80590,2,0,P|485:367|436:352,1,75.0000028610231,10|0,2:1|2:2,0:0:0:0:
368,328,81019,2,0,L|228:336,1,112.500004291535,2|0,1:0|0:0,0:0:0:0:
230,351,81447,1,8,2:1:0:0:
143,378,81662,6,0,L|151:293,1,75.0000028610231,2|0,2:2|1:0,0:0:0:0:
64,300,82090,2,0,L|48:204,1,75.0000028610231,2|8,2:2|2:1,0:0:0:0:
124,128,82519,1,2,2:2:0:0:
124,128,82733,2,0,L|120:48,1,75.0000028610231,2|0,1:0|2:2,0:0:0:0:
20,116,83161,2,0,L|28:24,1,75.0000028610231,10|0,2:1|2:2,0:0:0:0:
210,28,83590,6,0,L|221:119,1,75.0000028610231,2|2,1:0|2:2,0:0:0:0:
206,185,84019,2,0,P|166:185|132:207,1,75.0000028610231,10|2,2:1|2:2,0:0:0:0:
152,286,84447,2,0,P|199:316|269:292,1,112.500004291535,2|0,1:0|2:0,0:0:0:0:
285,313,84876,2,0,L|361:307,1,75.0000028610231,10|2,2:1|2:2,0:0:0:0:
421,370,85304,21,2,1:0:0:0:
421,370,85519,1,2,2:2:0:0:
461,292,85733,1,10,2:1:0:0:
369,253,85947,1,2,2:2:0:0:
427,190,86161,22,0,P|420:139|416:111,1,75.0000028610231,2|2,1:0|2:2,0:0:0:0:
315,102,86590,2,0,P|322:153|326:181,1,75.0000028610231,10|2,2:1|2:2,0:0:0:0:
237,151,87019,86,0,P|188:149|142:130,1,75.0000028610231,0|0,1:0|0:0,0:0:0:0:
181,30,87447,2,0,P|229:31|275:50,1,75.0000028610231,10|0,2:1|2:2,0:0:0:0:
315,102,87876,2,0,L|439:90,1,112.500004291535,2|0,1:0|0:0,0:0:0:0:
458,102,88304,1,8,2:1:0:0:
427,181,88519,38,0,L|514:188,1,75.0000028610231,2|0,2:2|1:0,0:0:0:0:
487,265,88947,2,0,L|403:268,1,75.0000028610231,2|8,2:2|2:1,0:0:0:0:
428,353,89376,1,2,2:2:0:0:
428,353,89590,2,0,L|505:360,1,75.0000028610231,2|0,1:0|2:2,0:0:0:0:
412,267,90018,2,0,L|486:264,1,75.0000028610231,10|0,2:1|2:2,0:0:0:0:
343,300,90447,6,0,P|279:303|230:330,1,112.500004291535,2|2,1:0|2:0,0:0:0:0:
209,356,90876,2,0,P|187:316|155:299,1,75.0000028610231,10|0,2:1|2:2,0:0:0:0:
137,295,91197,1,2,2:0:0:0:
110,295,91304,1,2,1:0:0:0:
150,214,91519,2,0,L|228:198,1,75.0000028610231,2|8,2:2|2:1,0:0:0:0:
27,257,91947,21,2,2:2:0:0:
69,171,92161,2,0,P|60:108|47:45,1,112.500004291535,2|0,1:0|2:0,0:0:0:0:
37,38,92590,2,0,P|96:56|133:44,1,75.0000028610231,8|0,2:1|2:2,0:0:0:0:
132,46,92911,1,2,2:0:0:0:
154,31,93019,22,0,L|213:22,2,37.5000014305115,2|2|2,1:0|2:3|2:3,0:0:0:0:
262,58,93447,1,8,2:3:0:0:
337,1,93661,1,4,2:3:0:0:
345,104,93876,85,6,1:1:0:0:
171,104,94304,1,2,1:0:0:0:
345,104,94733,37,2,1:0:0:0:
171,104,95161,1,2,1:0:0:0:
345,104,95590,5,2,1:0:0:0:
171,104,96018,1,2,1:0:0:0:
227,164,96233,1,0,2:2:0:0:
166,218,96447,22,0,P|172:263|174:302,1,75.0000028610231,2|0,1:0|2:2,0:0:0:0:
259,254,96876,2,0,P|325:246|353:244,1,75.0000028610231,2|2,1:0|2:2,0:0:0:0:
351,250,97197,1,0,2:0:0:0:
367,241,97304,21,2,1:0:0:0:
145,241,97733,1,2,1:0:0:0:
367,241,98161,85,2,1:0:0:0:
145,241,98590,1,2,1:0:0:0:
367,241,99019,37,2,1:0:0:0:
145,241,99448,1,2,1:0:0:0:
232,190,99661,1,8,2:1:0:0:
232,190,99769,1,8,2:1:0:0:
181,125,99983,5,8,2:1:0:0:
179,102,100090,1,8,2:1:0:0:
177,79,100197,1,8,2:1:0:0:
175,56,100304,1,8,2:1:0:0:
353,37,100733,22,0,P|420:34|452:28,1,75.0000028610231,6|0,1:1|0:0,0:0:0:0:
493,129,101161,2,0,P|426:132|394:138,1,75.0000028610231,2|0,1:0|2:0,0:0:0:0:
325,227,101590,22,0,P|383:219|445:242,1,112.500004291535,2|8,1:0|2:1,0:0:0:0:
459,232,102019,2,0,P|457:270|455:326,1,75.0000028610231,2|8,1:0|2:1,0:0:0:0:
388,384,102447,85,2,1:0:0:0:
373,299,102661,1,10,2:1:0:0:
301,357,102876,1,10,1:1:0:0:
301,357,103090,1,2,2:0:0:0:
193,322,103304,38,0,P|133:330|91:337,1,75.0000028610231,10|8,1:1|2:2,0:0:0:0:
99,332,103626,1,8,2:1:0:0:
80,328,103733,2,0,P|72:273|63:241,1,75.0000028610231,2|8,1:0|2:1,0:0:0:0:
62,236,104054,1,8,2:1:0:0:
47,218,104161,6,0,P|107:210|149:203,1,75.0000028610231,2|8,1:0|2:2,0:0:0:0:
35,128,104590,1,2,1:0:0:0:
134,109,104804,1,10,2:2:0:0:
134,109,104911,1,2,0:0:0:0:
134,109,105019,2,0,P|194:101|246:77,1,112.500004291535,2|8,1:0|2:1,0:0:0:0:
254,98,105447,2,0,P|258:43|241:5,1,75.0000028610231,2|8,1:0|2:1,0:0:0:0:
186,179,105876,21,2,1:0:0:0:
277,212,106090,1,10,2:1:0:0:
346,143,106304,1,10,1:1:0:0:
346,143,106519,1,10,2:2:0:0:
260,176,106733,22,0,P|273:230|279:307,1,112.500004291535,10|8,1:1|2:1,0:0:0:0:
263,320,107161,1,2,1:0:0:0:
343,362,107376,1,10,2:1:0:0:
343,362,107483,1,10,2:1:0:0:
343,362,107590,86,0,L|437:354,1,75.0000028610231,2|8,1:0|2:2,0:0:0:0:
485,258,108019,2,0,L|391:266,1,75.0000028610231,2|8,1:0|2:2,0:0:0:0:
322,177,108447,38,0,P|380:179|440:151,1,112.500004291535,2|8,1:0|2:1,0:0:0:0:
455,160,108876,2,0,P|449:122|442:66,1,75.0000028610231,2|8,1:0|2:1,0:0:0:0:
385,35,109304,5,2,1:0:0:0:
485,20,109519,1,10,2:1:0:0:
445,104,109733,1,10,1:1:0:0:
385,35,109947,1,2,2:0:0:0:
344,122,110161,22,0,P|339:174|340:202,1,75.0000028610231,10|8,1:1|2:2,0:0:0:0:
345,218,110483,1,8,2:1:0:0:
355,237,110590,2,0,P|297:254|277:243,1,75.0000028610231,2|8,1:0|2:1,0:0:0:0:
263,239,110911,1,10,2:1:0:0:
240,234,111019,22,0,L|142:250,1,75.0000028610231,2|8,1:0|2:2,0:0:0:0:
39,275,111447,2,0,P|69:222|72:190,1,75.0000028610231,10|8,1:1|2:2,0:0:0:0:
106,93,111876,2,0,P|136:145|163:164,1,75.0000028610231,10|8,1:1|2:2,0:0:0:0:
158,176,112197,2,0,L|249:163,1,75.0000028610231,10|8,2:1|2:1,0:0:0:0:
290,111,112519,85,10,2:1:0:0:
302,119,112626,1,10,2:1:0:0:
131,305,113697,37,2,2:3:0:0:
131,305,113804,1,2,2:3:0:0:
74,240,114019,6,0,P|134:225|163:223,1,75.0000028610231,4|8,2:3|2:3,2:3:0:0:
134,312,114447,22,0,P|169:338|215:333,1,75.0000028610231,6|0,1:1|2:2,0:0:0:0:
256,266,114876,2,0,P|285:248|327:243,1,75.0000028610231,10|0,2:1|2:2,0:0:0:0:
420,265,115304,2,0,B|405:306|405:306|414:389,2,112.500004291535,2|2|2,1:0|2:0|2:2,0:0:0:0:
497,221,116161,22,0,B|506:259|506:259|500:302,1,75.0000028610231,0|2,1:0|2:2,0:0:0:0:
421,176,116590,2,0,B|383:185|383:185|340:179,1,75.0000028610231,10|2,2:1|2:2,0:0:0:0:
335,170,116911,1,0,2:0:0:0:
324,158,117019,86,0,L|311:80,1,75.0000028610231,2|2,1:0|2:2,0:0:0:0:
386,16,117447,2,0,L|391:54,1,37.5000014305115,10|2,2:1|2:0,0:0:0:0:
388,83,117661,1,2,2:2:0:0:
245,31,117876,38,0,P|210:59|161:63,1,75.0000028610231,2|0,1:0|2:2,0:0:0:0:
54,108,118304,2,0,P|90:129|116:160,1,75.0000028610231,10|0,2:1|2:2,0:0:0:0:
199,198,118733,6,0,P|179:237|172:284,1,75.0000028610231,2|0,1:0|2:2,0:0:0:0:
168,300,119054,2,0,P|112:330|67:321,1,112.500004291535,2|0,2:0|2:2,0:0:0:0:
105,245,119590,22,0,P|186:230|247:267,1,150.000005722046,2|10,1:0|2:1,0:0:0:0:
285,362,120233,1,2,2:2:0:0:
355,295,120447,22,0,P|412:285|439:280,1,75.0000028610231,2|2,1:0|2:2,0:0:0:0:
473,190,120876,2,0,L|433:184,1,37.5000014305115,10|2,2:1|2:0,0:0:0:0:
412,167,121090,1,2,2:2:0:0:
348,98,121304,86,0,P|336:55|341:16,1,75.0000028610231,2|0,1:0|2:2,0:0:0:0:
442,12,121733,2,0,P|454:55|449:94,1,75.0000028610231,10|0,2:1|2:2,0:0:0:0:
408,174,122161,38,0,B|326:206,1,75.0000028610231,2|0,1:0|2:2,0:0:0:0:
321,229,122483,2,0,P|269:207|205:205,1,112.500004291535,2|2,2:0|2:2,0:0:0:0:
131,274,123019,5,0,1:0:0:0:
131,274,123233,1,2,2:2:0:0:
58,220,123447,2,0,L|61:134,1,75.0000028610231,10|0,2:1|2:2,0:0:0:0:
39,58,123876,22,0,P|86:57|123:79,1,75.0000028610231,2|2,1:0|2:2,0:0:0:0:
198,117,124304,2,0,L|192:78,1,37.5000014305115,10|2,2:1|2:0,0:0:0:0:
203,53,124519,1,2,2:2:0:0:
285,101,124733,22,0,L|282:187,1,75.0000028610231,0|0,1:0|2:2,0:0:0:0:
282,175,125161,2,0,P|319:168|368:160,1,75.0000028610231,10|0,2:1|2:2,0:0:0:0:
348,250,125590,2,0,P|401:265|442:329,1,112.500004291535,2|0,1:0|0:0,0:0:0:0:
447,335,126019,86,0,P|449:277|454:248,1,75.0000028610231,10|0,2:1|2:2,0:0:0:0:
493,182,126447,2,0,L|483:102,1,75.0000028610231,2|0,1:0|2:2,0:0:0:0:
382,68,126876,38,0,B|321:80|321:80|294:72|294:72|226:84,1,150.000005722046,8|0,2:1|1:0,0:0:0:0:
210,72,127411,1,2,2:3:0:0:
187,58,127519,1,2,2:3:0:0:
116,194,127733,5,4,2:3:0:0:
194,154,127948,1,8,2:3:0:0:
78,74,128162,21,6,1:1:0:0:
12,239,128590,2,0,P|49:250|64:261,1,55.0000016784668,2|2,2:2|1:0,0:0:0:0:
157,375,129019,22,0,P|151:308|148:241,1,110.000003356934,10|2,2:1|2:2,0:0:0:0:
152,187,129661,1,0,1:0:0:0:
306,326,130090,85,0,1:0:0:0:
306,326,130304,1,0,1:0:0:0:
400,168,130733,2,0,P|440:139|512:138,1,110.000003356934,8|2,2:1|2:2,0:0:0:0:
512,151,131376,1,2,2:0:0:0:
477,229,131590,38,0,L|487:339,1,110.000003356934,6|2,1:1|2:2,0:0:0:0:
408,365,132233,1,2,1:0:0:0:
326,379,132447,2,0,P|291:336|228:318,1,110.000003356934,8|2,2:1|2:2,0:0:0:0:
164,256,133090,1,0,1:0:0:0:
235,183,133304,6,0,L|306:168,1,55.0000016784668,2|0,2:2|1:0,0:0:0:0:
288,171,133733,1,2,1:0:0:0:
170,260,134161,22,0,L|98:249,1,55.0000016784668,10|2,2:1|1:0,0:0:0:0:
115,251,134590,1,10,2:1:0:0:
31,181,134804,37,8,2:1:0:0:
31,181,134911,1,8,2:1:0:0:
31,181,135019,2,0,P|26:99|12:58,1,112.500004291535,0|2,1:0|2:2,0:0:0:0:
0,53,135447,2,0,P|56:39|87:31,1,75.0000028610231,10|2,2:1|2:2,0:0:0:0:
170,93,135876,2,0,L|291:110,2,112.500004291535,2|2|2,1:0|2:0|2:2,0:0:0:0:
251,28,136733,70,0,L|330:19,1,75.0000028610231,2|0,1:0|2:2,0:0:0:0:
366,108,137161,2,0,L|291:116,1,75.0000028610231,10|2,2:1|2:2,0:0:0:0:
418,35,137590,2,0,P|448:62|463:143,1,112.500004291535,2|2,1:0|2:0,0:0:0:0:
449,153,138019,2,0,L|459:238,1,75.0000028610231,0|2,0:0|2:2,0:0:0:0:
421,313,138447,53,2,1:0:0:0:
356,365,138661,1,2,2:2:0:0:
356,365,138769,1,2,0:0:0:0:
356,365,138876,2,0,P|336:327|340:288,1,75.0000028610231,10|0,2:1|2:2,0:0:0:0:
259,234,139304,22,0,P|170:258|144:282,1,112.500004291535,2|0,1:0|0:0,0:0:0:0:
137,302,139733,1,10,2:1:0:0:
67,359,139947,1,2,2:2:0:0:
45,263,140161,38,0,P|49:172|46:106,1,150.000005722046,2|8,1:0|2:1,0:0:0:0:
122,128,140804,1,2,2:2:0:0:
119,44,141019,2,0,P|164:52|193:80,1,75.0000028610231,2|0,1:0|2:2,0:0:0:0:
188,154,141447,2,0,P|143:146|114:118,1,75.0000028610231,10|0,2:1|2:2,0:0:0:0:
263,110,141876,70,0,P|319:79|394:83,1,112.500004291535,2|0,1:0|2:2,0:0:0:0:
385,96,142304,2,0,L|393:178,1,75.0000028610231,10|2,2:1|2:2,0:0:0:0:
456,265,142733,2,0,P|371:257|347:229,2,112.500004291535,2|2|2,1:0|2:0|2:2,0:0:0:0:
412,352,143590,54,0,P|367:358|338:364,1,75.0000028610231,2|0,1:0|2:2,0:0:0:0:
250,382,144019,2,0,L|254:296,1,75.0000028610231,10|0,2:1|2:2,0:0:0:0:
184,202,144447,2,0,P|139:227|68:224,1,112.500004291535,2|2,1:0|2:0,0:0:0:0:
50,235,144876,2,0,P|44:187|36:157,1,75.0000028610231,0|2,0:0|2:2,0:0:0:0:
109,59,145304,21,2,1:0:0:0:
109,59,145519,1,2,2:2:0:0:
162,118,145733,2,0,L|244:108,1,75.0000028610231,10|2,2:1|2:2,0:0:0:0:
256,119,146054,1,2,2:0:0:0:
267,138,146161,2,0,L|258:300,1,150.000005722046,0|8,1:0|2:1,0:0:0:0:
358,369,146804,38,0,L|352:290,1,75.0000028610231,2|2,2:2|1:0,0:0:0:0:
448,243,147233,2,0,L|453:317,1,75.0000028610231,2|8,2:2|2:1,0:0:0:0:
453,317,147661,1,2,2:2:0:0:
379,214,147876,70,0,L|337:212,2,37.5000014305115,2|8|2,1:0|2:1|2:3,0:0:0:0:
470,169,148304,1,4,2:3:0:0:
408,92,148519,1,8,2:3:0:0:
489,29,148733,53,4,1:1:0:0:
271,69,149161,2,0,P|324:64|360:57,1,75.0000028610231,10|0,2:1|2:2,0:0:0:0:
326,154,149590,2,0,P|292:203|200:190,1,150.000005722046,2|10,1:0|2:1,0:0:0:0:
119,142,150233,22,0,L|125:222,1,75.0000028610231,2|0,2:2|1:0,0:0:0:0:
20,209,150661,2,0,L|14:134,1,75.0000028610231,2|8,2:2|2:1,0:0:0:0:
71,66,151090,1,2,2:2:0:0:
71,66,151304,2,0,P|116:57|149:42,1,75.0000028610231,2|0,1:0|2:2,0:0:0:0:
214,81,151733,2,0,P|257:89|286:108,1,75.0000028610231,10|0,2:1|0:0,0:0:0:0:
351,42,152161,38,0,L|482:29,1,112.500004291535,2|0,1:0|2:0,0:0:0:0:
484,45,152589,2,0,P|485:82|475:118,1,75.0000028610231,10|2,2:1|2:2,0:0:0:0:
394,185,153018,2,0,L|410:302,1,112.500004291535,2|0,1:0|2:0,0:0:0:0:
418,322,153447,2,0,P|466:317|496:288,1,75.0000028610231,10|2,2:1|2:2,0:0:0:0:
337,286,153876,69,2,1:0:0:0:
337,286,154090,1,0,0:0:0:0:
300,368,154304,1,10,2:1:0:0:
215,336,154519,1,2,2:2:0:0:
132,301,154733,54,0,L|38:314,1,75.0000028610231,2|2,1:0|2:2,0:0:0:0:
20,228,155161,2,0,L|97:217,1,75.0000028610231,10|2,2:1|2:2,0:0:0:0:
185,179,155590,22,0,P|231:188|254:210,1,75.0000028610231,0|0,1:0|0:0,0:0:0:0:
347,234,156019,2,0,P|331:189|339:158,1,75.0000028610231,10|0,2:1|2:2,0:0:0:0:
253,104,156447,2,0,P|323:81|367:22,1,150.000005722046,2|10,1:0|2:1,0:0:0:0:
436,90,157090,38,0,L|515:82,1,75.0000028610231,2|0,2:2|1:0,0:0:0:0:
467,182,157519,2,0,L|393:176,1,75.0000028610231,2|8,2:2|2:1,0:0:0:0:
321,253,157947,1,2,2:2:0:0:
321,253,158161,2,0,L|325:334,1,75.0000028610231,2|2,1:0|2:2,0:0:0:0:
229,284,158590,2,0,L|227:361,1,75.0000028610231,10|2,2:1|2:2,0:0:0:0:
130,322,159019,70,0,P|98:289|96:217,1,112.500004291535,2|2,1:0|2:0,0:0:0:0:
117,208,159447,2,0,P|111:160|46:143,1,112.500004291535,10|2,2:1|2:0,0:0:0:0:
30,154,159876,1,2,1:0:0:0:
4,66,160090,2,0,P|42:62|82:51,1,75.0000028610231,2|8,2:2|2:1,0:0:0:0:
175,8,160519,1,2,2:0:0:0:
152,101,160733,54,0,P|158:170|158:239,1,112.500004291535,4|2,1:1|2:0,0:0:0:0:
174,238,161161,2,0,P|195:284|242:292,1,75.0000028610231,2|0,1:0|2:0,0:0:0:0:
236,301,161483,1,2,2:0:0:0:
257,308,161590,2,0,L|315:299,3,37.5000014305115,0|8|8|8,1:0|2:1|2:1|2:1,0:0:0:0:
321,311,162019,2,0,L|376:321,3,37.5000014305115,8|8|8|8,1:1|2:1|2:1|2:1,0:0:0:0:
385,347,162447,21,0,1:0:0:0:
256,352,176161,53,4,1:0:0:0:
171,318,176376,2,0,L|94:329,2,75.0000028610231,2|10|2,2:2|2:1|2:2,0:0:0:0:
253,248,177019,2,0,P|315:258|360:313,1,112.500004291535,0|0,1:0|2:0,0:0:0:0:
362,313,177447,1,10,2:1:0:0:
452,366,177661,6,0,P|452:267|465:187,1,150.000005722046,2|2,2:2|2:2,0:0:0:0:
423,134,178304,2,0,L|506:122,1,75.0000028610231,10|2,2:1|2:2,0:0:0:0:
457,42,178733,22,0,L|325:60,1,112.500004291535,0|2,1:0|2:0,0:0:0:0:
321,47,179161,1,8,2:1:0:0:
250,110,179376,1,2,2:2:0:0:
250,110,179590,6,0,L|236:32,1,75.0000028610231,0|2,1:0|2:2,0:0:0:0:
141,22,180019,2,0,L|154:95,1,75.0000028610231,10|0,2:1|2:2,0:0:0:0:
107,173,180447,2,0,P|129:219|202:224,1,112.500004291535,0|0,1:0|0:0,0:0:0:0:
225,213,180876,5,10,2:1:0:0:
225,213,180983,1,2,2:0:0:0:
225,213,181090,2,0,L|311:202,1,75.0000028610231,2|0,2:2|1:0,0:0:0:0:
404,260,181519,2,0,P|357:267|336:291,1,75.0000028610231,2|8,2:2|2:1,0:0:0:0:
313,378,181947,1,2,2:2:0:0:
235,340,182161,2,0,L|160:349,1,75.0000028610231,0|2,1:0|2:2,0:0:0:0:
113,284,182590,1,10,2:1:0:0:
21,369,182804,22,0,P|43:300|113:284,1,150.000005722046,2|2,2:2|2:2,0:0:0:0:
60,192,183447,2,0,P|55:140|47:93,1,75.0000028610231,10|2,2:1|2:2,0:0:0:0:
145,35,183876,2,0,L|142:165,1,112.500004291535,2|0,1:0|2:0,0:0:0:0:
153,171,184304,1,10,2:1:0:0:
228,125,184519,6,0,B|316:115|272:166|383:154,1,150.000005722046,2|2,2:2|2:2,0:0:0:0:
348,67,185161,2,0,P|390:61|433:49,1,75.0000028610231,10|2,2:1|2:2,0:0:0:0:
481,131,185590,22,0,P|451:185|444:248,1,112.500004291535,0|0,1:0|2:0,0:0:0:0:
439,260,186019,2,0,L|514:276,1,75.0000028610231,10|2,2:1|2:2,0:0:0:0:
379,334,186447,5,0,1:0:0:0:
464,357,186661,1,2,2:2:0:0:
379,334,186876,2,0,L|302:343,1,75.0000028610231,8|2,2:1|2:2,0:0:0:0:
227,273,187304,2,0,P|279:244|342:257,1,112.500004291535,0|0,1:0|2:0,0:0:0:0:
341,262,187733,2,0,L|345:175,1,75.0000028610231,10|2,2:1|2:2,0:0:0:0:
351,83,188161,5,0,1:0:0:0:
420,144,188376,1,2,2:2:0:0:
440,59,188590,2,0,P|476:44|515:43,1,75.0000028610231,10|2,2:1|2:2,0:0:0:0:
351,83,189019,21,0,1:0:0:0:
337,76,189126,1,8,2:1:0:0:
323,69,189233,1,2,2:3:0:0:
451,137,189447,1,4,2:3:0:0:
321,220,189661,1,8,2:3:0:0:
256,272,191161,21,8,2:1:0:0:
134,331,191590,54,0,P|90:356|54:351,1,75.0000028610231,4|2,1:1|2:2,0:0:0:0:
22,260,192019,2,0,P|66:235|102:240,1,75.0000028610231,8|2,2:1|2:2,0:0:0:0:
186,256,192447,2,0,L|279:229,1,75.0000028610231,2|0,1:0|2:2,0:0:0:0:
277,234,192769,1,2,2:0:0:0:
293,231,192876,1,0,0:0:0:0:
261,341,193090,1,2,2:2:0:0:
386,383,193304,70,0,P|392:318|359:268,1,112.500004291535,2|2,1:0|2:0,0:0:0:0:
382,255,193733,2,0,L|467:244,1,75.0000028610231,0|2,0:0|2:2,0:0:0:0:
389,126,194162,85,2,1:0:0:0:
506,172,194376,1,2,2:2:0:0:
456,76,194590,1,10,2:1:0:0:
448,50,194697,1,2,2:0:0:0:
452,24,194804,1,2,2:2:0:0:
359,52,195019,54,0,L|279:62,1,75.0000028610231,0|0,1:0|2:2,0:0:0:0:
166,105,195447,2,0,P|210:123|227:211,1,112.500004291535,10|0,2:1|2:0,0:0:0:0:
224,208,195876,22,0,L|231:295,1,75.0000028610231,2|0,1:0|2:2,0:0:0:0:
328,354,196304,2,0,L|322:270,1,75.0000028610231,10|0,2:1|2:2,0:0:0:0:
322,262,196626,1,2,2:0:0:0:
322,246,196733,1,2,1:0:0:0:
369,120,197054,53,2,2:0:0:0:
372,111,197162,2,0,P|427:104|488:140,1,112.500004291535,10|2,2:1|2:0,0:0:0:0:
498,149,197590,2,0,L|495:74,1,75.0000028610231,2|2,1:0|2:2,0:0:0:0:
433,201,198019,2,0,P|466:229|511:234,1,75.0000028610231,10|2,2:1|2:2,0:0:0:0:
427,367,198447,70,0,B|436:330|436:330|422:295,1,75.0000028610231,0|0,1:0|2:2,0:0:0:0:
334,247,198876,2,0,L|331:322,1,75.0000028610231,8|0,2:1|2:2,0:0:0:0:
229,374,199304,2,0,P|196:330|121:313,1,112.500004291535,2|2,1:0|2:0,0:0:0:0:
113,307,199733,1,0,0:0:0:0:
15,250,199947,1,2,2:2:0:0:
131,170,200162,86,0,L|267:154,1,112.500004291535,2|2,1:0|2:0,0:0:0:0:
268,153,200590,2,0,P|269:115|249:71,1,75.0000028610231,0|2,0:0|2:2,0:0:0:0:
166,57,201019,1,2,1:0:0:0:
238,0,201233,1,2,2:2:0:0:
327,47,201447,2,0,L|403:38,1,75.0000028610231,8|2,2:1|2:2,0:0:0:0:
474,96,201876,54,0,P|491:144|470:208,1,112.500004291535,2|2,1:0|2:0,0:0:0:0:
474,227,202304,2,0,P|442:243|394:231,1,75.0000028610231,10|0,2:1|2:2,0:0:0:0:
382,231,202626,1,2,2:0:0:0:
362,220,202733,1,2,1:0:0:0:
305,143,202947,2,0,P|369:132|392:128,1,75.0000028610231,2|8,2:2|2:1,0:0:0:0:
288,248,203376,21,2,2:2:0:0:
218,189,203590,2,0,P|198:232|223:311,1,112.500004291535,0|0,1:0|2:2,0:0:0:0:
231,319,204019,1,10,2:1:0:0:
327,335,204233,1,0,2:2:0:0:
339,327,204340,1,2,2:0:0:0:
351,319,204447,2,0,L|356:268,2,37.5000014305115,2|8|2,1:0|2:1|2:3,0:0:0:0:
436,357,204876,2,0,L|525:360,1,75.0000028610231,4|8,2:3|2:3,0:0:0:0:
460,275,205304,54,0,L|449:191,1,75.0000028610231,4|0,1:1|0:0,0:0:0:0:
412,123,205733,2,0,L|490:106,1,75.0000028610231,10|0,2:1|2:2,0:0:0:0:
412,22,206161,2,0,B|321:39|370:76|278:92,1,150.000005722046,2|10,1:0|2:1,0:0:0:0:
197,115,206804,70,0,P|194:73|209:40,1,75.0000028610231,2|0,2:2|1:0,0:0:0:0:
283,90,207233,2,0,P|286:132|271:165,1,75.0000028610231,2|8,2:2|2:1,0:0:0:0:
240,264,207661,1,2,2:2:0:0:
240,264,207876,2,0,L|234:344,1,75.0000028610231,0|2,1:0|2:2,0:0:0:0:
337,298,208304,2,0,L|344:374,1,75.0000028610231,8|2,2:1|2:2,0:0:0:0:
402,238,208733,86,0,P|455:237|500:273,1,112.500004291535,2|0,1:0|2:0,0:0:0:0:
508,297,209161,2,0,L|513:210,1,75.0000028610231,10|2,2:1|2:2,0:0:0:0:
453,148,209590,2,0,L|437:31,1,112.500004291535,2|0,1:0|2:0,0:0:0:0:
429,11,210019,2,0,P|381:16|351:45,1,75.0000028610231,10|2,2:1|2:2,0:0:0:0:
268,112,210447,53,2,1:0:0:0:
268,112,210661,1,2,2:2:0:0:
199,28,210876,1,10,2:1:0:0:
118,90,211090,1,2,2:2:0:0:
29,69,211304,22,0,P|37:130|39:166,1,75.0000028610231,2|2,1:0|2:2,0:0:0:0:
102,223,211733,2,0,P|126:213|154:173,1,75.0000028610231,10|2,2:1|2:2,0:0:0:0:
256,187,212161,53,0,1:0:0:0:
36,281,212590,2,0,P|51:325|56:359,1,75.0000028610231,10|0,2:1|2:2,0:0:0:0:
137,306,213019,2,0,P|205:304|266:373,1,150.000005722046,2|10,1:0|2:1,0:0:0:0:
326,289,213661,70,0,L|405:278,1,75.0000028610231,2|0,2:2|1:0,0:0:0:0:
440,358,214090,2,0,L|365:368,1,75.0000028610231,2|8,2:2|2:1,0:0:0:0:
261,357,214519,1,2,2:2:0:0:
208,282,214733,2,0,P|204:240|196:206,1,75.0000028610231,0|2,1:0|2:2,0:0:0:0:
315,208,215161,2,0,B|307:244|304:282,1,75.0000028610231,8|2,2:1|2:2,0:0:0:0:
403,244,215590,86,0,P|452:225|475:156,1,112.500004291535,2|2,1:0|2:0,0:0:0:0:
460,152,216019,2,0,L|451:62,1,75.0000028610231,10|0,2:1|2:2,0:0:0:0:
453,54,216340,1,0,0:0:0:0:
453,31,216447,1,2,1:0:0:0:
357,111,216661,2,0,L|359:18,1,75.0000028610231,2|8,2:2|2:1,0:0:0:0:
261,32,217090,1,2,2:2:0:0:
164,27,217304,54,0,L|174:146,1,112.500004291535,2|2,1:0|2:0,0:0:0:0:
169,165,217733,2,0,P|125:199|92:198,1,75.0000028610231,10|0,2:1|2:2,0:0:0:0:
83,210,218054,1,2,2:0:0:0:
57,205,218161,22,0,L|14:215,2,37.5000014305115,2|8|2,1:0|2:1|2:3,0:0:0:0:
131,276,218590,1,4,2:3:0:0:
103,125,218804,1,8,2:3:0:0:
42,287,219019,54,0,P|58:328|63:358,1,75.0000028610231,4|0,1:1|0:0,0:0:0:0:
155,352,219447,2,0,L|234:344,1,75.0000028610231,10|0,2:1|2:2,0:0:0:0:
355,311,219876,2,0,B|270:304|311:261|221:253,1,150.000005722046,2|10,1:0|2:1,0:0:0:0:
136,207,220519,6,0,P|129:150|122:119,1,75.0000028610231,2|0,2:2|1:0,0:0:0:0:
114,50,220947,2,0,P|171:60|189:84,1,75.0000028610231,2|8,2:2|2:1,0:0:0:0:
236,149,221376,1,2,2:2:0:0:
282,77,221590,2,0,L|373:66,1,75.0000028610231,0|2,1:0|2:2,0:0:0:0:
324,155,222019,2,0,L|398:158,1,75.0000028610231,8|0,2:1|0:0,0:0:0:0:
443,20,222447,6,0,L|454:111,1,75.0000028610231,2|2,1:0|2:2,0:0:0:0:
461,192,222876,2,0,P|421:192|387:214,1,75.0000028610231,10|2,2:1|2:2,0:0:0:0:
370,302,223304,2,0,P|320:276|306:203,1,112.500004291535,2|0,1:0|2:0,0:0:0:0:
309,199,223733,2,0,P|280:177|236:170,1,75.0000028610231,10|2,2:1|2:2,0:0:0:0:
169,222,224161,21,2,1:0:0:0:
169,222,224376,1,0,0:0:0:0:
117,147,224591,1,10,2:1:0:0:
191,95,224805,1,2,2:2:0:0:
242,169,225019,2,0,P|277:172|315:158,1,75.0000028610231,2|2,1:0|2:2,0:0:0:0:
394,108,225447,2,0,P|427:114|460:137,1,75.0000028610231,10|2,2:1|2:2,0:0:0:0:
489,236,225876,5,0,1:0:0:0:
368,379,226304,2,0,B|361:337|361:337|374:298,1,75.0000028610231,10|0,2:1|2:2,0:0:0:0:
357,217,226733,2,0,P|282:212|230:270,1,150.000005722046,2|10,1:0|2:1,0:0:0:0:
155,328,227376,6,0,P|96:339|73:343,1,75.0000028610231,2|0,2:2|1:0,0:0:0:0:
15,264,227804,2,0,P|74:253|97:249,1,75.0000028610231,2|8,2:2|2:1,0:0:0:0:
177,232,228233,1,2,2:2:0:0:
148,150,228447,6,0,P|89:161|66:165,1,75.0000028610231,0|2,1:0|2:2,0:0:0:0:
8,86,228875,2,0,P|67:75|90:71,1,75.0000028610231,8|2,2:1|2:2,0:0:0:0:
174,38,229304,6,0,P|222:51|277:94,1,112.500004291535,0|2,1:0|2:0,0:0:0:0:
287,109,229733,2,0,P|355:99|368:47,1,112.500004291535,10|2,2:1|2:0,0:0:0:0:
359,40,230161,1,2,1:0:0:0:
453,81,230376,2,0,L|458:4,1,75.0000028610231,2|8,2:2|2:1,0:0:0:0:
457,6,230804,1,2,2:2:0:0:
375,132,231019,6,0,P|422:171|485:164,1,112.500004291535,0|2,1:0|2:0,0:0:0:0:
488,189,231447,2,0,L|480:308,1,112.500004291535,10|2,2:1|2:0,0:0:0:0:
467,325,231876,21,2,1:0:0:0:
467,325,231983,1,8,2:1:0:0:
467,325,232090,1,2,2:3:0:0:
309,286,232304,1,4,2:3:0:0:
345,372,232519,1,8,2:3:0:0:
381,222,232733,53,6,1:1:0:0:
131,222,233161,1,2,1:0:0:0:
381,222,233590,5,2,1:0:0:0:
131,222,234018,1,2,1:0:0:0:
381,222,234447,21,2,1:0:0:0:
131,222,234875,1,2,1:0:0:0:
241,197,235090,5,2,2:2:0:0:
164,153,235304,2,0,P|144:111|151:80,1,75.0000028610231,2|2,1:0|2:2,0:0:0:0:
236,104,235733,2,0,P|264:74|297:66,1,75.0000028610231,2|2,1:0|2:2,0:0:0:0:
386,118,236161,37,2,1:0:0:0:
126,118,236590,1,2,1:0:0:0:
386,118,237019,5,2,1:0:0:0:
126,118,237448,1,2,1:0:0:0:
386,118,237876,21,2,1:0:0:0:
126,118,238305,1,2,1:0:0:0:
198,70,238519,1,2,2:2:0:0:
202,153,238733,6,0,P|209:202|213:243,1,75.0000028610231,2|0,1:2|2:2,2:2:0:0:
121,323,239161,2,0,L|200:307,1,75.0000028610231,2|0,1:2|0:0,0:0:0:0:
227,316,239483,1,0,2:0:0:0:
255,298,239590,1,0,2:0:0:0:
