osu file format v14

[General]
AudioFilename: audio.mp3
AudioLeadIn: 0
PreviewTime: 66461
Countdown: 1
SampleSet: Normal
StackLeniency: 0.7
Mode: 1
LetterboxInBreaks: 0
WidescreenStoryboard: 0

[Editor]
DistanceSpacing: 1
BeatDivisor: 8
GridSize: 32
TimelineZoom: 2.5

[Metadata]
Title:Tokyo Ghetto
TitleUnicode:トーキョーゲットー
Artist:Eve
ArtistUnicode:Eve
Creator:Raphalge
Version:Inner Oni
Source:
Tags:
BeatmapID:1702170
BeatmapSetID:811439

[Difficulty]
HPDrainRate:6
CircleSize:5
OverallDifficulty:6
ApproachRate:10
SliderMultiplier:1.4
SliderTickRate:1

[Events]
//Background and Video events
0,0,"beeg.png",0,0
//Break Periods
2,59804,65368
2,162661,174975
//Storyboard Layer 0 (Background)
//Storyboard Layer 1 (Fail)
//Storyboard Layer 2 (Pass)
//Storyboard Layer 3 (Foreground)
//Storyboard Layer 4 (Overlay)
//Storyboard Sound Samples

[TimingPoints]
3047,428.571428571429,4,1,0,70,1,0
16747,428.571428571429,4,1,0,70,1,0
66461,-100,4,1,0,70,0,1
80175,-100,4,1,0,70,0,0
191604,-100,4,1,0,70,0,1
205318,-100,4,1,0,70,0,0

[HitObjects]
352,192,3047,5,0,0:0:0:0:
296,217,3261,1,8,0:0:0:0:
296,217,3368,1,0,0:0:0:0:
296,217,3475,1,0,0:0:0:0:
283,219,3582,1,0,0:0:0:0:
283,219,3797,1,0,0:0:0:0:
283,219,3904,1,8,0:0:0:0:
280,208,4118,1,0,0:0:0:0:
280,208,4225,1,0,0:0:0:0:
280,208,4332,1,8,0:0:0:0:
311,227,4547,1,0,0:0:0:0:
320,224,4975,1,0,0:0:0:0:
320,224,5189,1,8,0:0:0:0:
320,224,5404,1,8,0:0:0:0:
320,224,5618,1,0,0:0:0:0:
288,224,5832,1,8,0:0:0:0:
288,224,5939,1,8,0:0:0:0:
288,224,6047,1,0,0:0:0:0:
352,224,6261,1,8,0:0:0:0:
352,224,6475,1,0,0:0:0:0:
320,224,6904,1,0,0:0:0:0:
320,224,7118,1,8,0:0:0:0:
320,224,7225,1,8,0:0:0:0:
320,224,7332,1,0,0:0:0:0:
320,224,7654,1,8,0:0:0:0:
320,224,7975,1,0,0:0:0:0:
320,224,8404,1,0,0:0:0:0:
320,224,8618,1,8,0:0:0:0:
320,224,8832,1,8,0:0:0:0:
320,224,9047,1,0,0:0:0:0:
320,224,9261,1,8,0:0:0:0:
320,224,9368,1,8,0:0:0:0:
320,224,9475,1,0,0:0:0:0:
320,224,9689,1,8,0:0:0:0:
256,192,9904,1,0,0:0:0:0:
256,192,10118,1,8,0:0:0:0:
256,192,10225,1,0,0:0:0:0:
256,192,10332,1,0,0:0:0:0:
256,192,10439,1,0,0:0:0:0:
256,192,10654,1,0,0:0:0:0:
256,192,10761,1,8,0:0:0:0:
256,192,10975,1,0,0:0:0:0:
256,160,11082,1,0,0:0:0:0:
256,160,11189,1,8,0:0:0:0:
256,192,11404,1,0,0:0:0:0:
288,224,11832,1,0,0:0:0:0:
288,224,12047,1,8,0:0:0:0:
288,224,12261,1,8,0:0:0:0:
288,224,12475,1,0,0:0:0:0:
256,192,12689,1,8,0:0:0:0:
256,192,12797,1,8,0:0:0:0:
256,192,12904,1,0,0:0:0:0:
256,192,13118,1,8,0:0:0:0:
256,192,13332,1,0,0:0:0:0:
256,192,13761,1,0,0:0:0:0:
288,192,13975,1,8,0:0:0:0:
288,192,14082,1,8,0:0:0:0:
288,192,14189,1,0,0:0:0:0:
256,192,14511,1,8,0:0:0:0:
256,192,14832,1,0,0:0:0:0:
256,192,15261,1,0,0:0:0:0:
224,192,15475,5,8,0:0:0:0:
256,192,15689,5,0,0:0:0:0:
256,192,15797,1,8,0:0:0:0:
256,192,15904,1,8,0:0:0:0:
256,192,15997,1,0,0:0:0:0:
256,192,16104,1,0,0:0:0:0:
256,200,16332,5,8,0:0:0:0:
256,200,16547,1,8,0:0:0:0:
288,192,16747,1,0,0:0:0:0:
256,192,16961,5,8,0:0:0:0:
256,192,17068,1,0,0:0:0:0:
256,192,17175,1,0,0:0:0:0:
256,192,17283,1,0,0:0:0:0:
256,192,17497,1,0,0:0:0:0:
256,192,17604,1,8,0:0:0:0:
256,192,17818,1,0,0:0:0:0:
256,192,17925,1,0,0:0:0:0:
256,192,18033,1,8,0:0:0:0:
256,192,18247,1,0,0:0:0:0:
256,192,18675,1,0,0:0:0:0:
256,224,18890,1,8,0:0:0:0:
256,224,19104,1,8,0:0:0:0:
243,188,19318,1,0,0:0:0:0:
241,188,19533,1,8,0:0:0:0:
241,188,19640,1,0,0:0:0:0:
243,188,19854,1,0,0:0:0:0:
243,188,19961,1,8,0:0:0:0:
235,187,20175,1,0,0:0:0:0:
240,163,20390,1,8,0:0:0:0:
240,163,20497,1,8,0:0:0:0:
224,178,20604,1,0,0:0:0:0:
225,188,20818,1,8,0:0:0:0:
221,164,21033,1,0,0:0:0:0:
224,192,21247,1,8,0:0:0:0:
224,192,21354,1,0,0:0:0:0:
224,192,21461,1,8,0:0:0:0:
224,192,21568,1,8,0:0:0:0:
256,256,21675,1,0,0:0:0:0:
256,224,21890,1,8,0:0:0:0:
256,224,22104,1,0,0:0:0:0:
256,224,22211,1,8,0:0:0:0:
256,224,22318,1,8,0:0:0:0:
256,192,22533,1,0,0:0:0:0:
265,208,22747,1,8,0:0:0:0:
265,208,22854,1,0,0:0:0:0:
265,208,22961,1,8,0:0:0:0:
265,208,23068,1,8,0:0:0:0:
256,192,23175,1,0,0:0:0:0:
265,208,23390,1,8,0:0:0:0:
256,192,23604,1,0,0:0:0:0:
256,192,23818,1,8,0:0:0:0:
288,224,23925,1,0,0:0:0:0:
288,224,24033,1,0,0:0:0:0:
288,224,24140,1,0,0:0:0:0:
288,224,24354,1,0,0:0:0:0:
288,224,24461,1,8,0:0:0:0:
288,224,24675,1,0,0:0:0:0:
288,224,24783,1,0,0:0:0:0:
288,224,24890,1,8,0:0:0:0:
288,256,25104,1,0,0:0:0:0:
273,202,25533,1,0,0:0:0:0:
402,258,25747,1,8,0:0:0:0:
402,258,25961,1,8,0:0:0:0:
402,258,26175,1,0,0:0:0:0:
402,258,26390,1,8,0:0:0:0:
401,242,26497,1,0,0:0:0:0:
402,258,26711,1,0,0:0:0:0:
466,266,26818,1,8,0:0:0:0:
426,244,27033,1,0,0:0:0:0:
320,192,27247,1,8,0:0:0:0:
320,192,27354,1,8,0:0:0:0:
320,192,27461,1,0,0:0:0:0:
320,192,27675,1,8,0:0:0:0:
288,192,27890,1,0,0:0:0:0:
288,192,28104,1,8,0:0:0:0:
288,192,28211,1,0,0:0:0:0:
288,192,28425,1,0,0:0:0:0:
288,192,28533,1,8,0:0:0:0:
288,192,28747,1,0,0:0:0:0:
288,192,28961,1,8,0:0:0:0:
288,192,29068,1,0,0:0:0:0:
288,192,29175,1,8,0:0:0:0:
288,192,29390,1,8,0:0:0:0:
288,192,29604,1,0,0:0:0:0:
288,192,29711,1,8,0:0:0:0:
288,192,29818,1,8,0:0:0:0:
288,192,29925,1,0,0:0:0:0:
288,192,30140,1,8,0:0:0:0:
288,192,30247,1,0,0:0:0:0:
288,192,30354,1,8,0:0:0:0:
288,192,30461,1,8,0:0:0:0:
288,192,30675,1,0,0:0:0:0:
288,192,30890,1,8,0:0:0:0:
288,192,31104,1,0,0:0:0:0:
288,192,31211,1,8,0:0:0:0:
288,192,31318,1,8,0:0:0:0:
256,192,31425,1,0,0:0:0:0:
256,192,31533,1,0,0:0:0:0:
256,192,31747,1,8,0:0:0:0:
294,186,31961,5,0,0:0:0:0:
294,186,32390,1,0,0:0:0:0:
294,186,32604,1,8,0:0:0:0:
294,186,32711,1,0,0:0:0:0:
294,186,32818,1,8,0:0:0:0:
294,186,32925,1,8,0:0:0:0:
294,186,33033,1,0,0:0:0:0:
277,181,33247,1,8,0:0:0:0:
278,180,33354,1,0,0:0:0:0:
276,180,33568,1,0,0:0:0:0:
276,180,33675,1,8,0:0:0:0:
271,174,33890,1,0,0:0:0:0:
271,174,33997,1,8,0:0:0:0:
271,174,34104,1,0,0:0:0:0:
271,174,34211,1,0,0:0:0:0:
271,174,34318,1,8,0:0:0:0:
260,177,34533,1,0,0:0:0:0:
253,177,34640,1,8,0:0:0:0:
253,177,34747,1,0,0:0:0:0:
253,177,34854,1,0,0:0:0:0:
253,177,34961,1,8,0:0:0:0:
252,178,35068,1,8,0:0:0:0:
252,178,35175,1,0,0:0:0:0:
251,180,35390,1,8,0:0:0:0:
256,192,35604,5,0,0:0:0:0:
256,192,35818,1,8,0:0:0:0:
256,192,36033,1,0,0:0:0:0:
256,192,36140,1,8,0:0:0:0:
256,192,36247,1,0,0:0:0:0:
256,192,36354,1,0,0:0:0:0:
256,192,36461,1,8,0:0:0:0:
256,192,36675,1,8,0:0:0:0:
256,192,36890,1,0,0:0:0:0:
256,192,36997,1,0,0:0:0:0:
256,192,37104,1,8,0:0:0:0:
256,192,37318,1,0,0:0:0:0:
256,192,37533,1,8,0:0:0:0:
256,192,37747,1,0,0:0:0:0:
256,192,37854,1,8,0:0:0:0:
256,192,37961,1,0,0:0:0:0:
256,192,38068,1,0,0:0:0:0:
256,192,38175,1,8,0:0:0:0:
256,192,38283,1,0,0:0:0:0:
256,192,38390,1,8,0:0:0:0:
256,192,38497,1,8,0:0:0:0:
352,224,38604,1,0,0:0:0:0:
320,224,38818,1,8,0:0:0:0:
320,224,39033,1,0,0:0:0:0:
288,192,39247,1,8,0:0:0:0:
288,192,39461,1,8,0:0:0:0:
320,192,39568,1,0,0:0:0:0:
288,224,39675,1,8,0:0:0:0:
288,224,39783,1,8,0:0:0:0:
288,224,39890,1,0,0:0:0:0:
288,224,39997,1,0,0:0:0:0:
288,224,40104,1,8,0:0:0:0:
352,224,40211,1,0,0:0:0:0:
320,256,40425,1,8,0:0:0:0:
288,192,40640,1,0,0:0:0:0:
288,192,40747,1,8,0:0:0:0:
288,192,40961,1,0,0:0:0:0:
288,192,41068,1,8,0:0:0:0:
288,192,41175,1,0,0:0:0:0:
288,192,41283,1,0,0:0:0:0:
288,192,41390,1,8,0:0:0:0:
256,192,41604,1,0,0:0:0:0:
256,192,41711,1,8,0:0:0:0:
256,192,41818,1,0,0:0:0:0:
256,192,41925,1,0,0:0:0:0:
256,192,42033,1,8,0:0:0:0:
256,192,42140,1,8,0:0:0:0:
256,192,42247,1,0,0:0:0:0:
256,192,42461,1,8,0:0:0:0:
288,224,42675,1,0,0:0:0:0:
288,224,42783,1,8,0:0:0:0:
256,192,42997,1,0,0:0:0:0:
305,244,43211,1,8,0:0:0:0:
305,244,43318,1,0,0:0:0:0:
305,244,43425,1,8,0:0:0:0:
303,243,43533,1,8,0:0:0:0:
300,246,43640,1,0,0:0:0:0:
288,192,43854,1,8,0:0:0:0:
288,192,44068,1,0,0:0:0:0:
288,192,44390,1,0,0:0:0:0:
288,192,44604,1,8,0:0:0:0:
256,192,44818,1,8,0:0:0:0:
256,192,45033,1,0,0:0:0:0:
256,192,45140,1,0,0:0:0:0:
256,192,45247,1,8,0:0:0:0:
256,192,45461,1,0,0:0:0:0:
256,192,45675,1,8,0:0:0:0:
256,192,45890,1,0,0:0:0:0:
224,192,46104,1,8,0:0:0:0:
224,192,46211,1,0,0:0:0:0:
224,192,46318,1,0,0:0:0:0:
256,192,46425,1,0,0:0:0:0:
256,192,46640,1,0,0:0:0:0:
256,192,46747,1,8,0:0:0:0:
256,192,46961,1,0,0:0:0:0:
256,192,47068,1,0,0:0:0:0:
256,192,47175,1,8,0:0:0:0:
224,192,47390,1,8,0:0:0:0:
224,192,47604,1,0,0:0:0:0:
320,224,47818,1,8,0:0:0:0:
320,224,47925,1,8,0:0:0:0:
320,224,48033,1,0,0:0:0:0:
352,224,48247,1,8,0:0:0:0:
352,224,48461,1,0,0:0:0:0:
352,224,48675,1,8,0:0:0:0:
352,224,48783,1,0,0:0:0:0:
352,224,48890,1,8,0:0:0:0:
352,224,48997,1,8,0:0:0:0:
352,224,49104,1,0,0:0:0:0:
352,224,49318,1,8,0:0:0:0:
352,224,49533,1,0,0:0:0:0:
352,224,49640,1,0,0:0:0:0:
352,224,49747,1,8,0:0:0:0:
352,224,49961,1,8,0:0:0:0:
352,256,50175,1,0,0:0:0:0:
352,256,50390,1,8,0:0:0:0:
352,256,50497,1,0,0:0:0:0:
352,256,50711,1,0,0:0:0:0:
352,256,50818,1,8,0:0:0:0:
256,192,51033,1,0,0:0:0:0:
352,256,51247,1,8,0:0:0:0:
352,256,51354,1,8,0:0:0:0:
352,224,51461,1,0,0:0:0:0:
352,224,51675,1,8,0:0:0:0:
352,224,51890,1,0,0:0:0:0:
352,224,52104,1,8,0:0:0:0:
352,224,52211,1,8,0:0:0:0:
352,224,52318,1,0,0:0:0:0:
352,224,52425,1,0,0:0:0:0:
352,224,52533,1,8,0:0:0:0:
352,224,52747,1,0,0:0:0:0:
384,224,52961,1,8,0:0:0:0:
384,224,53068,1,0,0:0:0:0:
384,224,53175,1,0,0:0:0:0:
384,224,53283,1,0,0:0:0:0:
384,224,53497,1,0,0:0:0:0:
384,224,53604,1,8,0:0:0:0:
384,224,53818,1,0,0:0:0:0:
384,224,53925,1,0,0:0:0:0:
384,224,54033,1,8,0:0:0:0:
384,224,54247,1,8,0:0:0:0:
384,224,54461,1,0,0:0:0:0:
352,224,54675,1,8,0:0:0:0:
352,224,54783,1,8,0:0:0:0:
352,224,54890,1,0,0:0:0:0:
352,224,55104,1,8,0:0:0:0:
352,224,55318,1,0,0:0:0:0:
352,224,55425,1,8,0:0:0:0:
352,224,55533,1,8,0:0:0:0:
352,224,55640,1,0,0:0:0:0:
352,256,55747,1,8,0:0:0:0:
352,224,55854,1,0,0:0:0:0:
352,224,55961,1,8,0:0:0:0:
352,224,56068,1,8,0:0:0:0:
352,192,56175,1,0,0:0:0:0:
352,224,56390,1,8,0:0:0:0:
352,224,56604,1,0,0:0:0:0:
352,224,56818,1,8,0:0:0:0:
352,224,56925,1,0,0:0:0:0:
320,224,57033,1,8,0:0:0:0:
352,224,57140,1,8,0:0:0:0:
352,224,57247,1,0,0:0:0:0:
352,224,57354,1,8,0:0:0:0:
352,224,57568,1,0,0:0:0:0:
352,224,57675,1,8,0:0:0:0:
352,224,57890,1,0,0:0:0:0:
352,224,58104,1,8,0:0:0:0:
352,224,58211,1,0,0:0:0:0:
352,224,58318,1,8,0:0:0:0:
352,224,58533,1,8,0:0:0:0:
256,160,58747,5,0,0:0:0:0:
256,160,58961,1,8,0:0:0:0:
256,192,59175,1,8,0:0:0:0:
224,192,59390,1,8,0:0:0:0:
224,192,59604,1,4,0:0:0:0:
352,192,65818,5,0,0:0:0:0:
258,193,66033,5,8,0:0:0:0:
256,224,66461,1,4,0:0:0:0:
256,192,66675,1,8,0:0:0:0:
256,192,66783,1,0,0:0:0:0:
256,192,66890,1,0,0:0:0:0:
256,192,66997,1,0,0:0:0:0:
256,224,67211,1,0,0:0:0:0:
256,256,67318,1,8,0:0:0:0:
288,256,67533,1,0,0:0:0:0:
288,256,67640,1,0,0:0:0:0:
288,256,67747,1,8,0:0:0:0:
288,256,67961,1,8,0:0:0:0:
288,256,68175,1,0,0:0:0:0:
288,224,68390,1,8,0:0:0:0:
288,256,68497,1,8,0:0:0:0:
320,224,68604,1,0,0:0:0:0:
320,288,68818,1,8,0:0:0:0:
320,256,69033,1,0,0:0:0:0:
320,256,69247,1,8,0:0:0:0:
320,256,69354,1,0,0:0:0:0:
320,256,69461,1,8,0:0:0:0:
320,256,69568,1,8,0:0:0:0:
320,256,69675,1,0,0:0:0:0:
352,256,69890,1,8,0:0:0:0:
384,288,70104,1,0,0:0:0:0:
384,288,70211,1,0,0:0:0:0:
384,288,70318,1,8,0:0:0:0:
384,288,70533,1,0,0:0:0:0:
416,256,70747,1,8,0:0:0:0:
335,282,70961,1,8,0:0:0:0:
335,282,71068,1,0,0:0:0:0:
316,297,71283,1,0,0:0:0:0:
316,297,71390,1,8,0:0:0:0:
326,268,71497,1,8,0:0:0:0:
337,289,71604,1,0,0:0:0:0:
326,268,71818,1,8,0:0:0:0:
322,273,72033,1,0,0:0:0:0:
322,273,72140,1,8,0:0:0:0:
288,192,72354,1,0,0:0:0:0:
192,160,72461,1,8,0:0:0:0:
288,192,72568,1,8,0:0:0:0:
243,176,72675,1,0,0:0:0:0:
192,160,72890,1,8,0:0:0:0:
160,160,73104,1,0,0:0:0:0:
256,192,73211,1,8,0:0:0:0:
256,192,73318,5,0,0:0:0:0:
320,224,73532,1,8,0:0:0:0:
320,224,73639,1,0,0:0:0:0:
320,224,73747,1,0,0:0:0:0:
320,224,73854,1,0,0:0:0:0:
256,224,74068,1,0,0:0:0:0:
256,192,74175,1,8,0:0:0:0:
320,256,74390,1,0,0:0:0:0:
320,224,74497,1,0,0:0:0:0:
320,224,74604,1,8,0:0:0:0:
320,224,74818,1,8,0:0:0:0:
256,192,75032,1,0,0:0:0:0:
320,224,75247,1,8,0:0:0:0:
320,224,75354,1,8,0:0:0:0:
320,224,75461,1,0,0:0:0:0:
320,224,75675,1,8,0:0:0:0:
320,224,75782,1,0,0:0:0:0:
352,224,75890,1,8,0:0:0:0:
352,224,75997,1,8,0:0:0:0:
352,224,76104,1,0,0:0:0:0:
352,224,76211,1,0,0:0:0:0:
352,224,76318,1,8,0:0:0:0:
352,224,76532,1,8,0:0:0:0:
320,224,76747,1,0,0:0:0:0:
352,224,77068,1,0,0:0:0:0:
352,224,77175,1,8,0:0:0:0:
352,224,77497,1,0,0:0:0:0:
352,224,77604,1,8,0:0:0:0:
352,224,77711,1,8,0:0:0:0:
352,224,77818,1,0,0:0:0:0:
352,256,78032,1,8,0:0:0:0:
352,224,78247,1,0,0:0:0:0:
352,224,78354,1,8,0:0:0:0:
352,224,78461,1,0,0:0:0:0:
256,224,78675,1,8,0:0:0:0:
256,224,78890,1,0,0:0:0:0:
256,224,79104,1,8,0:0:0:0:
256,224,79211,1,0,0:0:0:0:
256,224,79318,1,8,0:0:0:0:
256,224,79425,1,8,0:0:0:0:
256,224,79533,1,0,0:0:0:0:
288,224,79747,1,8,0:0:0:0:
288,224,79961,1,8,0:0:0:0:
256,192,80175,1,4,0:0:0:0:
256,224,80604,1,12,0:0:0:0:
256,224,81033,1,12,0:0:0:0:
256,224,81247,1,4,0:0:0:0:
256,224,81461,1,4,0:0:0:0:
256,224,81675,1,12,0:0:0:0:
256,224,82104,1,12,0:0:0:0:
270,228,82533,1,4,0:0:0:0:
261,225,82747,1,12,0:0:0:0:
261,225,82961,1,4,0:0:0:0:
261,225,83175,1,12,0:0:0:0:
288,192,83390,1,0,0:0:0:0:
288,192,83497,1,8,0:0:0:0:
352,256,83604,1,0,0:0:0:0:
320,224,83818,1,8,0:0:0:0:
352,256,83926,1,0,0:0:0:0:
352,256,84033,1,8,0:0:0:0:
352,256,84140,1,8,0:0:0:0:
352,256,84247,1,0,0:0:0:0:
352,256,84461,1,0,0:0:0:0:
288,224,84568,1,8,0:0:0:0:
288,224,84676,1,0,0:0:0:0:
288,224,84783,1,0,0:0:0:0:
288,224,84890,1,8,0:0:0:0:
288,224,85104,1,8,0:0:0:0:
288,224,85211,1,0,0:0:0:0:
288,224,85318,1,8,0:0:0:0:
288,224,85425,1,8,0:0:0:0:
320,224,85533,1,0,0:0:0:0:
320,224,85640,1,0,0:0:0:0:
320,224,85747,1,8,0:0:0:0:
256,224,85961,1,8,0:0:0:0:
256,224,86175,1,0,0:0:0:0:
352,224,86283,1,0,0:0:0:0:
352,224,86390,1,8,0:0:0:0:
352,224,86497,1,8,0:0:0:0:
352,224,86604,1,0,0:0:0:0:
352,224,86818,1,8,0:0:0:0:
300,230,87033,1,0,0:0:0:0:
288,224,87461,1,12,0:0:0:0:
288,224,87890,1,12,0:0:0:0:
288,224,88104,1,4,0:0:0:0:
288,224,88318,1,4,0:0:0:0:
288,224,88533,1,12,0:0:0:0:
288,224,88961,1,12,0:0:0:0:
288,224,89390,1,4,0:0:0:0:
288,224,89604,1,12,0:0:0:0:
288,224,89818,1,4,0:0:0:0:
288,224,90033,1,12,0:0:0:0:
293,219,90247,1,8,0:0:0:0:
320,224,90354,1,8,0:0:0:0:
293,219,90461,1,0,0:0:0:0:
293,218,90783,1,0,0:0:0:0:
293,218,90890,1,8,0:0:0:0:
264,213,91211,1,0,0:0:0:0:
353,268,91318,1,8,0:0:0:0:
353,268,91425,1,8,0:0:0:0:
353,268,91532,1,0,0:0:0:0:
351,263,91747,1,8,0:0:0:0:
273,213,91961,1,0,0:0:0:0:
344,250,92068,1,0,0:0:0:0:
273,213,92175,1,8,0:0:0:0:
281,212,92390,1,0,0:0:0:0:
294,222,92497,1,0,0:0:0:0:
280,218,92604,1,8,0:0:0:0:
273,213,92711,1,0,0:0:0:0:
261,187,92925,1,8,0:0:0:0:
266,201,93033,1,0,0:0:0:0:
266,201,93140,1,8,0:0:0:0:
266,201,93247,1,8,0:0:0:0:
305,251,93461,1,0,0:0:0:0:
305,251,93675,5,8,0:0:0:0:
261,192,93890,1,0,0:0:0:0:
306,214,94318,1,8,0:0:0:0:
296,211,94747,1,8,0:0:0:0:
296,211,95175,1,8,0:0:0:0:
287,219,95604,1,8,0:0:0:0:
312,230,96247,1,0,0:0:0:0:
312,230,96461,1,8,0:0:0:0:
312,230,96675,1,8,0:0:0:0:
317,227,96890,1,0,0:0:0:0:
261,192,97104,1,0,0:0:0:0:
261,192,97318,1,8,0:0:0:0:
275,193,97747,1,8,0:0:0:0:
310,227,98175,1,8,0:0:0:0:
310,227,98604,1,8,0:0:0:0:
310,227,99033,1,8,0:0:0:0:
288,192,99675,5,0,0:0:0:0:
288,192,99783,1,8,0:0:0:0:
288,192,99890,1,8,0:0:0:0:
352,224,99997,1,8,0:0:0:0:
352,224,100104,1,8,0:0:0:0:
320,224,100211,1,8,0:0:0:0:
320,224,100318,1,0,0:0:0:0:
256,192,100747,1,0,0:0:0:0:
292,220,100961,1,8,0:0:0:0:
320,229,101175,1,8,0:0:0:0:
320,229,101283,1,0,0:0:0:0:
320,229,101390,1,8,0:0:0:0:
320,229,101497,1,8,0:0:0:0:
320,229,101604,1,0,0:0:0:0:
320,229,101711,1,0,0:0:0:0:
320,229,101818,1,8,0:0:0:0:
320,229,101925,1,0,0:0:0:0:
320,229,102033,1,0,0:0:0:0:
262,183,102247,1,8,0:0:0:0:
301,228,102461,1,8,0:0:0:0:
301,228,102568,1,0,0:0:0:0:
301,228,102675,1,8,0:0:0:0:
301,228,102783,1,8,0:0:0:0:
296,234,102890,1,0,0:0:0:0:
293,234,102997,1,0,0:0:0:0:
291,232,103104,1,8,0:0:0:0:
292,227,103318,1,0,0:0:0:0:
292,227,103425,1,8,0:0:0:0:
292,227,103533,1,0,0:0:0:0:
292,227,103640,1,0,0:0:0:0:
292,227,103747,1,8,0:0:0:0:
292,227,103961,1,8,0:0:0:0:
330,240,104068,1,8,0:0:0:0:
292,227,104175,1,0,0:0:0:0:
292,227,104390,1,8,0:0:0:0:
283,220,104604,1,0,0:0:0:0:
283,220,104711,1,8,0:0:0:0:
283,220,104818,1,8,0:0:0:0:
281,220,104925,1,0,0:0:0:0:
281,220,105033,1,8,0:0:0:0:
271,213,105247,1,8,0:0:0:0:
272,215,105354,1,0,0:0:0:0:
272,215,105461,1,8,0:0:0:0:
269,212,105568,1,8,0:0:0:0:
273,211,105675,1,0,0:0:0:0:
280,209,105783,1,0,0:0:0:0:
280,209,105890,1,8,0:0:0:0:
280,209,106104,1,8,0:0:0:0:
272,215,106318,1,0,0:0:0:0:
272,215,106425,1,8,0:0:0:0:
273,217,106533,1,0,0:0:0:0:
271,216,106640,1,0,0:0:0:0:
271,216,106747,1,8,0:0:0:0:
267,217,106854,1,0,0:0:0:0:
267,217,106961,1,8,0:0:0:0:
267,217,107068,1,8,0:0:0:0:
267,217,107175,1,0,0:0:0:0:
273,197,107390,1,8,0:0:0:0:
283,203,107497,1,8,0:0:0:0:
267,195,107604,1,0,0:0:0:0:
267,195,107818,1,8,0:0:0:0:
283,203,107925,1,0,0:0:0:0:
283,203,108033,1,8,0:0:0:0:
283,203,108140,1,8,0:0:0:0:
282,203,108247,1,0,0:0:0:0:
282,203,108354,1,0,0:0:0:0:
283,203,108461,1,8,0:0:0:0:
264,206,108568,1,0,0:0:0:0:
276,192,108675,1,0,0:0:0:0:
272,199,108783,5,8,0:0:0:0:
261,232,108997,1,0,0:0:0:0:
261,232,109104,1,8,0:0:0:0:
242,218,109211,1,8,0:0:0:0:
242,218,109318,1,0,0:0:0:0:
277,240,109425,1,0,0:0:0:0:
275,265,109533,1,8,0:0:0:0:
275,265,109640,1,0,0:0:0:0:
274,264,109747,1,8,0:0:0:0:
273,263,109854,1,8,0:0:0:0:
273,263,109961,1,0,0:0:0:0:
273,263,110068,1,8,0:0:0:0:
273,263,110175,1,0,0:0:0:0:
238,208,110283,1,0,0:0:0:0:
241,244,110390,1,8,0:0:0:0:
252,252,110497,1,8,0:0:0:0:
256,252,110604,1,0,0:0:0:0:
256,252,110818,1,8,0:0:0:0:
256,252,110925,1,8,0:0:0:0:
256,252,111033,1,0,0:0:0:0:
262,256,111247,1,8,0:0:0:0:
262,255,111354,1,0,0:0:0:0:
262,255,111568,1,8,0:0:0:0:
271,236,111783,1,0,0:0:0:0:
284,247,111890,1,8,0:0:0:0:
281,246,111997,1,8,0:0:0:0:
281,246,112104,1,0,0:0:0:0:
281,246,112211,1,8,0:0:0:0:
281,246,112318,1,0,0:0:0:0:
281,245,112425,1,8,0:0:0:0:
281,245,112533,1,8,0:0:0:0:
252,185,112640,1,0,0:0:0:0:
252,185,112961,1,0,0:0:0:0:
331,222,113175,1,8,0:0:0:0:
266,170,113390,1,8,0:0:0:0:
279,178,113604,1,0,0:0:0:0:
263,182,113711,1,0,0:0:0:0:
263,182,113818,1,8,0:0:0:0:
264,182,114033,1,0,0:0:0:0:
264,182,114247,1,8,0:0:0:0:
266,185,114461,1,4,0:0:0:0:
281,186,114675,1,8,0:0:0:0:
281,186,114783,1,0,0:0:0:0:
281,186,114890,1,0,0:0:0:0:
281,186,114997,1,0,0:0:0:0:
281,202,115211,1,0,0:0:0:0:
282,201,115318,1,8,0:0:0:0:
281,201,115533,1,0,0:0:0:0:
281,201,115640,1,0,0:0:0:0:
281,201,115747,1,8,0:0:0:0:
281,201,115961,1,0,0:0:0:0:
271,199,116390,1,0,0:0:0:0:
271,199,116604,1,8,0:0:0:0:
271,199,116818,1,0,0:0:0:0:
271,199,116925,1,0,0:0:0:0:
271,199,117033,1,8,0:0:0:0:
256,192,117140,1,0,0:0:0:0:
326,205,117247,1,8,0:0:0:0:
320,192,117354,1,8,0:0:0:0:
274,203,117461,1,0,0:0:0:0:
274,203,117568,1,0,0:0:0:0:
274,203,117675,1,8,0:0:0:0:
274,203,117890,1,8,0:0:0:0:
320,192,118104,1,0,0:0:0:0:
320,192,118211,1,0,0:0:0:0:
320,192,118318,1,8,0:0:0:0:
320,192,118533,1,8,0:0:0:0:
320,192,118747,1,0,0:0:0:0:
320,192,118961,1,8,0:0:0:0:
320,192,119068,1,0,0:0:0:0:
320,192,119283,1,0,0:0:0:0:
416,256,119390,1,8,0:0:0:0:
288,192,119604,1,0,0:0:0:0:
288,192,119818,1,8,0:0:0:0:
288,192,119925,1,8,0:0:0:0:
288,192,120033,1,0,0:0:0:0:
288,192,120247,1,8,0:0:0:0:
288,192,120461,1,0,0:0:0:0:
288,192,120675,1,8,0:0:0:0:
288,192,120783,1,8,0:0:0:0:
288,192,120890,1,0,0:0:0:0:
288,192,120997,1,0,0:0:0:0:
288,192,121104,1,8,0:0:0:0:
256,192,121318,1,0,0:0:0:0:
256,192,121533,1,8,0:0:0:0:
256,192,121640,1,0,0:0:0:0:
256,192,121747,1,0,0:0:0:0:
256,192,121854,1,0,0:0:0:0:
256,192,122068,1,0,0:0:0:0:
256,192,122175,1,8,0:0:0:0:
256,192,122390,1,0,0:0:0:0:
256,192,122497,1,0,0:0:0:0:
256,192,122604,1,8,0:0:0:0:
256,192,122818,1,8,0:0:0:0:
256,192,123033,1,0,0:0:0:0:
256,192,123247,1,8,0:0:0:0:
288,224,123354,1,8,0:0:0:0:
288,224,123461,1,0,0:0:0:0:
288,224,123675,1,8,0:0:0:0:
256,192,123890,1,0,0:0:0:0:
256,192,123997,1,8,0:0:0:0:
256,192,124104,1,8,0:0:0:0:
256,192,124211,1,0,0:0:0:0:
256,192,124318,1,8,0:0:0:0:
256,192,124425,1,0,0:0:0:0:
256,192,124533,1,8,0:0:0:0:
256,192,124640,1,8,0:0:0:0:
256,192,124747,1,0,0:0:0:0:
288,192,124961,1,8,0:0:0:0:
288,192,125175,1,0,0:0:0:0:
288,192,125390,1,8,0:0:0:0:
288,192,125497,1,0,0:0:0:0:
288,192,125604,1,8,0:0:0:0:
288,192,125711,1,8,0:0:0:0:
288,192,125818,1,0,0:0:0:0:
288,192,125925,1,8,0:0:0:0:
288,192,126140,1,0,0:0:0:0:
288,192,126247,1,8,0:0:0:0:
288,192,126461,1,0,0:0:0:0:
288,192,126675,1,8,0:0:0:0:
288,192,126783,1,0,0:0:0:0:
288,192,126890,1,8,0:0:0:0:
288,192,127104,1,8,0:0:0:0:
288,192,127318,5,0,0:0:0:0:
288,192,127425,1,8,0:0:0:0:
288,192,127533,1,8,0:0:0:0:
288,192,127747,1,8,0:0:0:0:
288,192,127961,1,8,0:0:0:0:
256,192,128175,5,0,0:0:0:0:
256,192,128604,1,0,0:0:0:0:
256,192,128818,1,0,0:0:0:0:
256,192,129033,1,8,0:0:0:0:
256,192,129461,1,8,0:0:0:0:
256,192,129675,1,0,0:0:0:0:
320,192,130104,1,8,0:0:0:0:
320,192,130318,1,0,0:0:0:0:
320,192,130747,1,8,0:0:0:0:
320,192,131175,1,0,0:0:0:0:
320,192,131390,1,0,0:0:0:0:
320,192,131604,1,8,0:0:0:0:
288,224,132033,1,0,0:0:0:0:
288,224,132247,1,8,0:0:0:0:
288,224,132461,1,0,0:0:0:0:
288,192,132890,1,8,0:0:0:0:
288,192,133104,1,0,0:0:0:0:
288,192,133533,1,8,0:0:0:0:
288,192,133747,1,0,0:0:0:0:
320,192,133961,1,0,0:0:0:0:
320,224,134175,1,8,0:0:0:0:
320,224,134390,1,0,0:0:0:0:
320,224,134604,1,8,0:0:0:0:
320,224,134818,1,8,0:0:0:0:
320,224,134925,1,8,0:0:0:0:
320,224,135033,1,0,0:0:0:0:
320,224,135247,1,8,0:0:0:0:
320,224,135461,1,0,0:0:0:0:
352,224,135675,1,0,0:0:0:0:
352,224,135783,1,0,0:0:0:0:
352,224,135890,1,8,0:0:0:0:
320,224,136104,1,8,0:0:0:0:
320,224,136318,1,0,0:0:0:0:
320,224,136533,1,8,0:0:0:0:
256,192,136961,1,0,0:0:0:0:
256,192,137176,1,8,0:0:0:0:
256,192,137283,1,8,0:0:0:0:
256,192,137390,1,0,0:0:0:0:
256,192,137604,1,8,0:0:0:0:
256,192,137818,1,0,0:0:0:0:
256,192,137925,1,8,0:0:0:0:
256,192,138033,1,8,0:0:0:0:
256,192,138247,1,8,0:0:0:0:
256,192,138461,5,0,0:0:0:0:
256,192,138675,1,8,0:0:0:0:
256,192,138783,1,0,0:0:0:0:
256,192,138890,1,0,0:0:0:0:
256,192,138997,1,0,0:0:0:0:
256,192,139211,1,0,0:0:0:0:
256,192,139318,1,8,0:0:0:0:
256,192,139533,1,0,0:0:0:0:
256,192,139640,1,0,0:0:0:0:
256,192,139747,1,8,0:0:0:0:
256,192,139961,1,8,0:0:0:0:
256,192,140175,1,0,0:0:0:0:
256,224,140390,1,8,0:0:0:0:
256,224,140497,1,8,0:0:0:0:
256,224,140604,1,0,0:0:0:0:
256,224,140818,1,8,0:0:0:0:
256,224,141033,1,0,0:0:0:0:
256,224,141140,1,0,0:0:0:0:
256,224,141247,1,8,0:0:0:0:
256,224,141354,1,8,0:0:0:0:
256,224,141461,1,0,0:0:0:0:
256,224,141675,1,8,0:0:0:0:
256,224,141890,1,0,0:0:0:0:
256,192,142104,1,8,0:0:0:0:
256,192,142318,1,0,0:0:0:0:
320,224,142533,1,0,0:0:0:0:
320,224,142640,1,0,0:0:0:0:
320,224,142747,1,8,0:0:0:0:
320,224,142961,1,8,0:0:0:0:
320,224,143175,1,0,0:0:0:0:
320,224,143390,1,8,0:0:0:0:
256,192,143818,1,0,0:0:0:0:
256,192,144033,1,8,0:0:0:0:
256,192,144140,1,8,0:0:0:0:
256,192,144247,1,0,0:0:0:0:
256,192,144461,1,8,0:0:0:0:
256,192,144675,1,0,0:0:0:0:
256,192,144782,1,8,0:0:0:0:
256,192,144890,1,8,0:0:0:0:
256,192,145104,1,8,0:0:0:0:
256,192,145318,5,0,0:0:0:0:
256,192,145532,1,8,0:0:0:0:
256,192,145640,1,0,0:0:0:0:
256,192,145747,1,0,0:0:0:0:
256,192,145854,1,0,0:0:0:0:
256,192,146068,1,0,0:0:0:0:
256,192,146175,1,8,0:0:0:0:
256,192,146390,1,0,0:0:0:0:
256,192,146497,1,0,0:0:0:0:
256,192,146604,1,8,0:0:0:0:
256,192,146818,1,8,0:0:0:0:
256,192,147032,1,0,0:0:0:0:
288,224,147247,1,8,0:0:0:0:
288,224,147354,1,8,0:0:0:0:
288,224,147461,1,0,0:0:0:0:
288,224,147675,1,8,0:0:0:0:
288,224,147890,1,0,0:0:0:0:
288,224,147997,1,0,0:0:0:0:
288,224,148104,1,8,0:0:0:0:
288,224,148211,1,8,0:0:0:0:
288,224,148318,1,0,0:0:0:0:
256,192,148533,1,8,0:0:0:0:
256,192,148747,5,4,0:0:0:0:
256,192,149175,1,12,0:0:0:0:
256,192,149604,1,12,0:0:0:0:
256,192,149818,1,4,0:0:0:0:
256,192,150033,1,4,0:0:0:0:
256,192,150247,1,12,0:0:0:0:
256,192,150675,1,12,0:0:0:0:
256,192,151104,1,4,0:0:0:0:
256,192,151318,1,12,0:0:0:0:
256,192,151533,1,4,0:0:0:0:
256,192,151747,1,12,0:0:0:0:
288,192,151961,1,0,0:0:0:0:
288,192,152068,1,8,0:0:0:0:
352,256,152175,1,0,0:0:0:0:
320,224,152282,1,0,0:0:0:0:
320,224,152389,1,8,0:0:0:0:
352,256,152497,1,0,0:0:0:0:
352,256,152604,1,8,0:0:0:0:
352,256,152711,1,8,0:0:0:0:
352,256,152818,1,0,0:0:0:0:
352,256,152925,1,0,0:0:0:0:
352,256,153032,1,8,0:0:0:0:
288,224,153139,1,0,0:0:0:0:
288,224,153247,1,8,0:0:0:0:
288,224,153354,1,8,0:0:0:0:
288,224,153461,1,0,0:0:0:0:
288,224,153568,1,8,0:0:0:0:
288,224,153675,1,8,0:0:0:0:
288,224,153782,1,0,0:0:0:0:
288,224,153889,1,8,0:0:0:0:
288,224,153997,1,0,0:0:0:0:
320,224,154104,1,8,0:0:0:0:
320,224,154211,1,8,0:0:0:0:
320,224,154318,1,0,0:0:0:0:
320,224,154532,1,8,0:0:0:0:
288,224,154747,1,0,0:0:0:0:
288,224,154854,1,0,0:0:0:0:
320,224,154961,1,8,0:0:0:0:
320,224,155068,1,8,0:0:0:0:
320,224,155175,1,0,0:0:0:0:
256,192,155390,1,8,0:0:0:0:
256,192,155604,1,0,0:0:0:0:
256,192,156033,1,12,0:0:0:0:
256,224,156461,1,12,0:0:0:0:
256,224,156675,1,4,0:0:0:0:
256,224,156890,1,4,0:0:0:0:
256,224,157104,1,12,0:0:0:0:
256,224,157533,1,12,0:0:0:0:
256,224,157961,1,4,0:0:0:0:
256,224,158175,1,12,0:0:0:0:
256,224,158390,1,4,0:0:0:0:
256,224,158604,1,12,0:0:0:0:
256,224,158818,1,8,0:0:0:0:
256,224,158925,1,8,0:0:0:0:
256,224,159033,1,0,0:0:0:0:
256,224,159354,1,0,0:0:0:0:
256,224,159461,1,8,0:0:0:0:
288,224,159783,1,0,0:0:0:0:
288,224,159890,1,8,0:0:0:0:
288,224,159997,1,8,0:0:0:0:
288,224,160104,1,0,0:0:0:0:
288,224,160318,1,8,0:0:0:0:
256,224,160533,1,0,0:0:0:0:
256,224,160640,1,0,0:0:0:0:
256,224,160747,1,8,0:0:0:0:
288,192,160854,1,0,0:0:0:0:
256,224,160961,1,8,0:0:0:0:
256,192,161068,1,8,0:0:0:0:
256,192,161175,1,0,0:0:0:0:
256,192,161283,1,8,0:0:0:0:
256,192,161390,1,0,0:0:0:0:
256,192,161497,1,0,0:0:0:0:
256,192,161604,1,8,0:0:0:0:
256,192,161711,1,0,0:0:0:0:
320,192,161818,1,8,0:0:0:0:
320,192,161925,1,8,0:0:0:0:
352,192,162033,1,0,0:0:0:0:
320,192,162247,1,8,0:0:0:0:
320,192,162461,1,0,0:0:0:0:
256,160,175425,5,0,0:0:0:0:
256,192,175533,1,8,0:0:0:0:
288,192,175747,1,8,0:0:0:0:
288,192,175961,1,8,0:0:0:0:
256,192,176175,5,0,0:0:0:0:
256,192,176389,5,8,0:0:0:0:
256,192,176496,1,8,0:0:0:0:
256,192,176603,1,0,0:0:0:0:
256,192,176818,1,8,0:0:0:0:
256,192,177032,1,0,0:0:0:0:
256,192,177246,1,8,0:0:0:0:
256,192,177353,1,0,0:0:0:0:
256,192,177568,1,0,0:0:0:0:
256,192,177675,1,8,0:0:0:0:
224,192,177890,1,0,0:0:0:0:
256,192,178103,1,8,0:0:0:0:
288,224,178211,1,0,0:0:0:0:
256,224,178318,1,8,0:0:0:0:
256,224,178532,1,8,0:0:0:0:
243,188,178746,1,0,0:0:0:0:
241,188,178961,1,8,0:0:0:0:
241,188,179068,1,0,0:0:0:0:
243,188,179282,1,0,0:0:0:0:
243,188,179389,1,8,0:0:0:0:
235,187,179603,1,0,0:0:0:0:
240,163,179818,1,8,0:0:0:0:
240,163,179925,1,8,0:0:0:0:
224,178,180032,1,0,0:0:0:0:
225,188,180246,1,8,0:0:0:0:
221,164,180461,1,0,0:0:0:0:
224,192,180675,1,8,0:0:0:0:
224,192,180782,1,0,0:0:0:0:
224,192,180889,1,8,0:0:0:0:
224,192,180996,1,8,0:0:0:0:
256,256,181103,1,0,0:0:0:0:
256,224,181318,1,8,0:0:0:0:
256,224,181532,1,0,0:0:0:0:
256,224,181639,1,8,0:0:0:0:
256,224,181746,1,8,0:0:0:0:
256,192,181961,1,0,0:0:0:0:
265,208,182175,1,8,0:0:0:0:
265,208,182282,1,0,0:0:0:0:
265,208,182389,1,8,0:0:0:0:
265,208,182496,1,8,0:0:0:0:
256,192,182603,1,0,0:0:0:0:
265,208,182818,1,8,0:0:0:0:
256,192,183032,1,0,0:0:0:0:
256,192,183246,1,8,0:0:0:0:
320,224,183354,1,8,0:0:0:0:
288,224,183461,1,0,0:0:0:0:
288,224,183675,1,8,0:0:0:0:
320,224,183890,1,0,0:0:0:0:
320,256,184104,1,8,0:0:0:0:
320,256,184211,1,0,0:0:0:0:
320,256,184425,1,0,0:0:0:0:
320,256,184533,1,8,0:0:0:0:
320,256,184747,1,0,0:0:0:0:
320,256,184961,1,8,0:0:0:0:
320,256,185068,1,0,0:0:0:0:
320,256,185175,1,8,0:0:0:0:
320,256,185390,1,8,0:0:0:0:
320,224,185604,1,0,0:0:0:0:
320,224,185818,1,8,0:0:0:0:
288,224,185925,1,0,0:0:0:0:
320,224,186140,1,0,0:0:0:0:
352,256,186247,1,8,0:0:0:0:
320,224,186461,1,0,0:0:0:0:
320,224,186675,1,8,0:0:0:0:
320,224,186783,1,8,0:0:0:0:
352,256,186890,1,0,0:0:0:0:
352,256,187104,1,8,0:0:0:0:
320,224,187318,1,0,0:0:0:0:
320,224,187533,1,8,0:0:0:0:
320,192,187640,1,0,0:0:0:0:
320,224,187854,1,0,0:0:0:0:
352,224,187961,1,8,0:0:0:0:
352,224,188175,1,0,0:0:0:0:
352,224,188390,1,8,0:0:0:0:
352,224,188497,1,0,0:0:0:0:
352,224,188604,1,8,0:0:0:0:
352,224,188818,1,8,0:0:0:0:
320,192,189033,1,0,0:0:0:0:
320,192,189140,1,8,0:0:0:0:
320,192,189247,1,8,0:0:0:0:
320,192,189461,1,0,0:0:0:0:
320,192,189675,1,8,0:0:0:0:
320,192,189890,1,0,0:0:0:0:
224,192,190961,1,0,0:0:0:0:
256,192,191175,5,8,0:0:0:0:
256,224,191604,5,4,0:0:0:0:
256,192,191818,1,8,0:0:0:0:
256,192,191926,1,0,0:0:0:0:
256,192,192033,1,0,0:0:0:0:
256,192,192140,1,0,0:0:0:0:
256,224,192354,1,0,0:0:0:0:
256,256,192461,1,8,0:0:0:0:
288,256,192676,1,0,0:0:0:0:
288,256,192783,1,0,0:0:0:0:
288,256,192890,1,8,0:0:0:0:
288,256,193104,1,8,0:0:0:0:
288,256,193318,1,0,0:0:0:0:
288,224,193533,1,8,0:0:0:0:
288,256,193640,1,8,0:0:0:0:
320,224,193747,1,0,0:0:0:0:
320,288,193961,1,8,0:0:0:0:
320,256,194176,1,0,0:0:0:0:
320,256,194390,1,8,0:0:0:0:
320,256,194497,1,0,0:0:0:0:
320,256,194604,1,8,0:0:0:0:
320,256,194711,1,8,0:0:0:0:
320,256,194818,1,0,0:0:0:0:
352,256,195033,1,8,0:0:0:0:
384,288,195247,1,0,0:0:0:0:
384,288,195354,1,0,0:0:0:0:
384,288,195461,1,8,0:0:0:0:
384,288,195676,1,0,0:0:0:0:
416,256,195890,1,8,0:0:0:0:
335,282,196104,1,8,0:0:0:0:
335,282,196211,1,0,0:0:0:0:
316,297,196426,1,0,0:0:0:0:
316,297,196533,1,8,0:0:0:0:
326,268,196640,1,8,0:0:0:0:
337,289,196747,1,0,0:0:0:0:
326,268,196961,1,8,0:0:0:0:
322,273,197176,1,0,0:0:0:0:
320,256,197283,1,8,0:0:0:0:
288,192,197497,1,0,0:0:0:0:
192,160,197604,1,8,0:0:0:0:
288,192,197711,1,8,0:0:0:0:
192,160,197818,1,0,0:0:0:0:
192,160,198033,1,8,0:0:0:0:
160,160,198247,1,0,0:0:0:0:
288,224,198354,1,8,0:0:0:0:
256,192,198461,5,0,0:0:0:0:
320,224,198675,1,8,0:0:0:0:
320,224,198782,1,0,0:0:0:0:
320,224,198890,1,0,0:0:0:0:
320,224,198997,1,0,0:0:0:0:
256,224,199211,1,0,0:0:0:0:
256,192,199318,1,8,0:0:0:0:
320,256,199533,1,0,0:0:0:0:
320,224,199640,1,0,0:0:0:0:
320,224,199747,1,8,0:0:0:0:
320,224,199961,1,8,0:0:0:0:
256,192,200175,1,0,0:0:0:0:
320,224,200390,1,8,0:0:0:0:
320,224,200497,1,8,0:0:0:0:
320,224,200604,1,0,0:0:0:0:
320,224,200818,1,8,0:0:0:0:
320,224,200925,1,0,0:0:0:0:
352,224,201033,1,8,0:0:0:0:
352,224,201140,1,8,0:0:0:0:
352,224,201247,1,0,0:0:0:0:
352,224,201354,1,0,0:0:0:0:
352,224,201461,5,8,0:0:0:0:
352,224,201675,1,8,0:0:0:0:
320,224,201890,1,0,0:0:0:0:
352,224,202211,1,0,0:0:0:0:
352,224,202318,1,8,0:0:0:0:
352,224,202640,1,0,0:0:0:0:
352,224,202747,1,8,0:0:0:0:
320,256,202854,1,8,0:0:0:0:
352,224,202961,1,0,0:0:0:0:
352,256,203175,1,8,0:0:0:0:
352,224,203390,1,0,0:0:0:0:
352,224,203497,1,8,0:0:0:0:
352,224,203604,1,0,0:0:0:0:
256,224,203818,1,8,0:0:0:0:
256,224,204033,1,0,0:0:0:0:
256,224,204247,1,8,0:0:0:0:
256,224,204354,1,0,0:0:0:0:
256,224,204461,1,8,0:0:0:0:
256,224,204568,1,8,0:0:0:0:
256,224,204676,1,0,0:0:0:0:
288,224,204890,1,8,0:0:0:0:
288,224,205104,1,8,0:0:0:0:
256,192,205318,1,4,0:0:0:0:
288,192,205747,1,12,0:0:0:0:
288,192,206175,1,12,0:0:0:0:
288,192,206390,1,4,0:0:0:0:
288,192,206604,1,4,0:0:0:0:
288,192,206818,1,12,0:0:0:0:
288,192,207247,1,12,0:0:0:0:
288,192,207675,1,4,0:0:0:0:
288,192,207890,1,12,0:0:0:0:
288,224,208104,1,4,0:0:0:0:
288,224,208318,1,12,0:0:0:0:
288,192,208533,1,0,0:0:0:0:
288,192,208640,1,8,0:0:0:0:
352,256,208747,1,0,0:0:0:0:
320,224,208854,1,0,0:0:0:0:
320,224,208961,1,8,0:0:0:0:
352,256,209069,1,0,0:0:0:0:
352,256,209176,1,8,0:0:0:0:
352,256,209283,1,8,0:0:0:0:
352,256,209390,1,0,0:0:0:0:
352,256,209497,1,0,0:0:0:0:
352,256,209604,1,8,0:0:0:0:
288,224,209711,1,0,0:0:0:0:
288,224,209819,1,8,0:0:0:0:
288,224,209926,1,8,0:0:0:0:
288,224,210033,1,0,0:0:0:0:
288,224,210140,1,8,0:0:0:0:
288,224,210247,1,8,0:0:0:0:
288,224,210354,1,0,0:0:0:0:
288,224,210461,1,8,0:0:0:0:
288,224,210569,1,0,0:0:0:0:
320,224,210676,1,8,0:0:0:0:
320,224,210783,1,8,0:0:0:0:
320,224,210890,1,0,0:0:0:0:
352,224,211104,1,8,0:0:0:0:
352,224,211318,1,0,0:0:0:0:
352,224,211425,1,0,0:0:0:0:
320,224,211533,1,8,0:0:0:0:
352,224,211640,1,8,0:0:0:0:
352,224,211747,1,0,0:0:0:0:
352,224,211961,1,8,0:0:0:0:
352,224,212175,1,0,0:0:0:0:
384,256,212604,1,12,0:0:0:0:
384,256,213033,1,12,0:0:0:0:
384,256,213247,1,4,0:0:0:0:
384,256,213461,1,4,0:0:0:0:
384,256,213675,1,12,0:0:0:0:
384,256,214104,1,12,0:0:0:0:
384,256,214533,1,4,0:0:0:0:
384,256,214747,1,12,0:0:0:0:
384,256,214961,1,4,0:0:0:0:
384,256,215175,1,12,0:0:0:0:
384,256,215390,1,8,0:0:0:0:
384,256,215497,1,8,0:0:0:0:
384,256,215604,1,0,0:0:0:0:
384,256,215925,1,0,0:0:0:0:
384,256,216033,1,8,0:0:0:0:
384,256,216354,1,0,0:0:0:0:
384,256,216461,1,8,0:0:0:0:
384,256,216568,1,8,0:0:0:0:
384,256,216675,1,0,0:0:0:0:
384,256,216890,1,8,0:0:0:0:
384,256,217104,1,0,0:0:0:0:
384,256,217211,1,0,0:0:0:0:
384,256,217318,1,8,0:0:0:0:
384,256,217533,1,0,0:0:0:0:
384,256,217640,1,0,0:0:0:0:
384,256,217747,1,8,0:0:0:0:
384,256,217854,1,0,0:0:0:0:
384,256,218068,1,8,0:0:0:0:
384,224,218175,1,0,0:0:0:0:
384,224,218283,1,8,0:0:0:0:
384,224,218390,1,8,0:0:0:0:
384,256,218604,1,0,0:0:0:0:
384,256,218818,1,8,0:0:0:0:
384,256,219033,1,4,0:0:0:0:
384,256,219461,1,12,0:0:0:0:
384,256,219890,1,12,0:0:0:0:
384,256,220104,1,4,0:0:0:0:
384,256,220318,1,4,0:0:0:0:
384,256,220533,1,12,0:0:0:0:
384,256,220961,1,12,0:0:0:0:
384,224,221390,1,4,0:0:0:0:
384,224,221604,1,12,0:0:0:0:
384,256,221818,1,4,0:0:0:0:
384,256,222033,1,12,0:0:0:0:
288,192,222247,5,0,0:0:0:0:
288,192,222354,1,8,0:0:0:0:
352,256,222461,1,0,0:0:0:0:
320,224,222568,1,0,0:0:0:0:
320,224,222675,1,8,0:0:0:0:
352,256,222783,1,0,0:0:0:0:
352,256,222890,1,8,0:0:0:0:
352,256,222997,1,8,0:0:0:0:
352,256,223104,1,0,0:0:0:0:
352,256,223211,1,0,0:0:0:0:
352,256,223318,1,8,0:0:0:0:
288,224,223425,1,0,0:0:0:0:
288,224,223533,1,8,0:0:0:0:
288,224,223640,1,8,0:0:0:0:
288,224,223747,1,0,0:0:0:0:
288,224,223854,1,8,0:0:0:0:
288,224,223961,1,8,0:0:0:0:
288,224,224068,1,0,0:0:0:0:
288,224,224175,1,8,0:0:0:0:
288,224,224283,1,0,0:0:0:0:
320,224,224390,1,8,0:0:0:0:
320,224,224497,1,8,0:0:0:0:
320,224,224604,1,0,0:0:0:0:
352,224,224818,1,8,0:0:0:0:
352,224,225033,1,0,0:0:0:0:
352,224,225140,1,0,0:0:0:0:
352,224,225247,1,8,0:0:0:0:
352,224,225354,1,8,0:0:0:0:
352,224,225461,1,0,0:0:0:0:
320,224,225675,5,8,0:0:0:0:
320,224,225890,1,0,0:0:0:0:
352,224,226318,1,12,0:0:0:0:
352,224,226747,1,12,0:0:0:0:
352,224,226961,1,4,0:0:0:0:
352,224,227175,1,4,0:0:0:0:
352,224,227390,1,12,0:0:0:0:
352,224,227818,1,12,0:0:0:0:
352,224,228247,1,4,0:0:0:0:
352,224,228461,1,12,0:0:0:0:
352,224,228675,1,4,0:0:0:0:
352,224,228890,1,12,0:0:0:0:
352,224,229104,1,8,0:0:0:0:
352,224,229211,1,8,0:0:0:0:
352,224,229318,1,0,0:0:0:0:
352,224,229640,1,0,0:0:0:0:
352,224,229747,1,8,0:0:0:0:
352,224,230068,1,0,0:0:0:0:
352,224,230175,1,8,0:0:0:0:
352,224,230283,1,8,0:0:0:0:
352,224,230390,1,0,0:0:0:0:
352,224,230604,1,8,0:0:0:0:
384,192,230818,1,0,0:0:0:0:
384,192,230925,1,0,0:0:0:0:
384,192,231033,1,8,0:0:0:0:
384,192,231247,1,0,0:0:0:0:
384,192,231354,1,0,0:0:0:0:
384,192,231461,1,8,0:0:0:0:
384,192,231568,1,0,0:0:0:0:
384,192,231783,1,8,0:0:0:0:
384,192,231890,1,0,0:0:0:0:
384,192,231997,1,8,0:0:0:0:
384,192,232104,1,8,0:0:0:0:
384,192,232318,1,0,0:0:0:0:
384,192,232533,1,8,0:0:0:0:
384,192,232747,1,0,0:0:0:0:
320,192,233175,1,8,0:0:0:0:
320,192,233604,1,8,0:0:0:0:
320,192,234033,1,8,0:0:0:0:
320,192,234461,1,8,0:0:0:0:
320,192,235104,1,0,0:0:0:0:
320,192,235318,1,8,0:0:0:0:
320,192,235533,1,8,0:0:0:0:
320,192,235747,1,0,0:0:0:0:
320,192,235961,1,8,0:0:0:0:
320,192,236175,1,0,0:0:0:0:
320,192,236604,1,8,0:0:0:0:
320,192,237033,1,8,0:0:0:0:
320,192,237461,1,8,0:0:0:0:
320,192,237890,1,8,0:0:0:0:
320,192,238533,1,0,0:0:0:0:
320,192,238747,1,8,0:0:0:0:
320,192,238961,1,8,0:0:0:0:
256,192,239175,5,0,0:0:0:0:
256,192,239390,5,8,0:0:0:0:
256,192,239604,5,0,0:0:0:0:
