osu file format v14

[General]
AudioFilename: audio.mp3
AudioLeadIn: 0
PreviewTime: 190982
Countdown: 0
SampleSet: Normal
StackLeniency: 0.7
Mode: 1
LetterboxInBreaks: 0
WidescreenStoryboard: 1

[Editor]
Bookmarks: 201910,205768,219482
DistanceSpacing: 1.6
BeatDivisor: 4
GridSize: 16
TimelineZoom: 1.1

[Metadata]
Title:Tokyo Ghetto
TitleUnicode:トーキョーゲットー
Artist:Eve
ArtistUnicode:Eve
Creator:-dragon67
Version:Muzukashii
Source:
Tags:j-pop pop japanese pop-rock alt-rock rock numa kurowa keitora ibu psychodelic rock utaite
BeatmapID:1765758
BeatmapSetID:822177

[Difficulty]
HPDrainRate:6
CircleSize:2
OverallDifficulty:5
ApproachRate:8
SliderMultiplier:1.40000000596046
SliderTickRate:1

[Events]
//Background and Video events
0,0,"maxresdefault.jpg",0,0
//Break Periods
2,162681,168589
//Storyboard Layer 0 (Background)
//Storyboard Layer 1 (Fail)
//Storyboard Layer 2 (Pass)
//Storyboard Layer 3 (Foreground)
//Storyboard Layer 4 (Overlay)
//Storyboard Sound Samples

[TimingPoints]
3070,428.571428571429,4,1,0,50,1,0
16768,428.571428571429,4,1,0,75,1,0
66482,-100,4,1,0,100,0,1
93910,-100,4,1,0,75,0,0
128196,-100,4,1,0,50,0,0
135053,-100,4,1,0,75,0,0
147910,-100,4,1,0,100,0,0
148768,-100,4,1,0,100,0,1
162482,-100,4,1,0,75,0,0
190982,-100,4,1,0,100,0,0
191625,-100,4,1,0,100,0,1
229339,-100,4,1,0,75,0,0
232768,-100,4,1,0,50,0,0
236625,-100,4,1,0,25,0,0

[HitObjects]
257,187,3070,5,0,0:0:0:0:
257,187,3498,1,8,0:0:0:0:
257,187,3927,1,0,0:0:0:0:
252,185,4355,1,8,0:0:0:0:
257,187,4570,1,0,0:0:0:0:
251,190,4998,1,8,0:0:0:0:
251,190,5212,1,0,0:0:0:0:
251,192,5641,1,0,0:0:0:0:
251,190,6070,1,0,0:0:0:0:
245,190,6498,1,8,0:0:0:0:
245,190,6927,1,8,0:0:0:0:
245,190,7355,1,8,0:0:0:0:
245,190,7677,1,0,0:0:0:0:
245,190,7998,1,8,0:0:0:0:
256,188,8641,1,0,0:0:0:0:
256,188,9070,1,0,0:0:0:0:
245,190,9927,1,0,0:0:0:0:
245,190,10355,1,8,0:0:0:0:
245,190,10784,1,0,0:0:0:0:
245,190,11212,1,8,0:0:0:0:
245,190,11427,1,0,0:0:0:0:
245,190,11855,1,8,0:0:0:0:
245,190,12070,1,0,0:0:0:0:
245,190,12498,1,0,0:0:0:0:
245,190,12927,1,0,0:0:0:0:
245,190,13355,1,8,0:0:0:0:
245,190,13784,1,8,0:0:0:0:
245,190,14212,1,8,0:0:0:0:
245,190,14534,1,0,0:0:0:0:
245,190,14855,1,8,0:0:0:0:
245,190,15284,1,8,0:0:0:0:
245,190,15498,1,0,0:0:0:0:
255,193,16034,1,0,0:0:0:0:
255,193,16141,1,0,0:0:0:0:
255,193,16355,1,0,0:0:0:0:
254,194,16570,1,0,0:0:0:0:
255,193,16768,1,12,0:0:0:0:
256,192,19982,1,0,0:0:0:0:
256,192,20089,1,0,0:0:0:0:
256,192,20196,1,0,0:0:0:0:
256,192,20410,1,0,0:0:0:0:
256,192,20625,1,0,0:0:0:0:
256,192,21482,1,8,0:0:0:0:
256,192,21589,1,8,0:0:0:0:
256,192,21696,1,8,0:0:0:0:
254,193,21910,1,8,0:0:0:0:
256,192,22125,1,8,0:0:0:0:
254,193,22339,1,0,0:0:0:0:
254,193,22553,1,0,0:0:0:0:
254,193,22768,1,8,0:0:0:0:
254,193,22982,1,8,0:0:0:0:
254,193,23410,1,8,0:0:0:0:
254,193,23518,1,8,0:0:0:0:
254,193,23625,1,8,0:0:0:0:
245,190,24053,1,8,0:0:0:0:
245,190,24268,1,0,0:0:0:0:
245,190,24482,1,8,0:0:0:0:
245,190,24910,1,8,0:0:0:0:
245,190,25125,1,8,0:0:0:0:
245,190,25768,1,0,0:0:0:0:
245,190,26196,1,0,0:0:0:0:
245,190,26518,1,0,0:0:0:0:
245,190,26625,1,0,0:0:0:0:
245,190,26839,1,8,0:0:0:0:
245,190,27053,1,0,0:0:0:0:
245,190,27482,1,0,0:0:0:0:
245,190,27910,1,0,0:0:0:0:
245,190,28339,1,0,0:0:0:0:
245,190,28553,1,8,0:0:0:0:
245,190,28982,1,0,0:0:0:0:
245,190,29196,1,0,0:0:0:0:
245,190,29410,1,8,0:0:0:0:
253,190,29625,1,8,0:0:0:0:
256,192,29839,1,8,0:0:0:0:
256,192,29946,1,8,0:0:0:0:
253,190,30053,1,8,0:0:0:0:
253,190,30268,1,8,0:0:0:0:
253,190,30375,1,8,0:0:0:0:
254,193,31446,5,0,0:0:0:0:
254,193,31553,1,0,0:0:0:0:
254,193,31768,1,0,0:0:0:0:
254,193,31982,1,0,0:0:0:0:
254,193,32625,5,8,0:0:0:0:
254,193,32839,1,0,0:0:0:0:
254,193,33053,1,0,0:0:0:0:
254,193,33160,1,0,0:0:0:0:
254,193,33268,1,0,0:0:0:0:
254,193,33910,1,8,0:0:0:0:
254,193,34125,1,0,0:0:0:0:
254,193,34232,1,0,0:0:0:0:
254,193,34339,1,0,0:0:0:0:
254,193,34553,1,8,0:0:0:0:
254,193,34768,1,8,0:0:0:0:
254,193,34875,1,8,0:0:0:0:
254,193,34982,1,8,0:0:0:0:
254,193,35196,1,8,0:0:0:0:
254,193,35410,1,8,0:0:0:0:
254,193,35625,1,4,0:0:0:0:
254,193,36053,1,0,0:0:0:0:
254,193,36160,1,0,0:0:0:0:
254,193,36268,1,0,0:0:0:0:
254,193,36482,1,0,0:0:0:0:
254,193,36696,1,8,0:0:0:0:
254,193,36910,1,0,0:0:0:0:
254,193,37018,1,0,0:0:0:0:
254,193,37125,1,0,0:0:0:0:
254,193,37339,1,0,0:0:0:0:
254,193,37553,1,8,0:0:0:0:
254,193,37768,1,0,0:0:0:0:
254,193,37982,1,8,0:0:0:0:
254,193,38196,1,0,0:0:0:0:
254,193,38410,1,0,0:0:0:0:
254,193,38625,1,0,0:0:0:0:
254,193,38839,1,8,0:0:0:0:
254,193,39482,1,0,0:0:0:0:
254,193,39589,1,0,0:0:0:0:
254,193,39696,1,0,0:0:0:0:
254,193,39910,1,8,0:0:0:0:
254,193,40125,1,8,0:0:0:0:
254,193,40660,1,0,0:0:0:0:
254,193,40768,1,0,0:0:0:0:
254,193,40982,1,8,0:0:0:0:
254,193,41196,1,8,0:0:0:0:
254,193,41303,1,8,0:0:0:0:
254,193,41410,1,8,0:0:0:0:
254,193,41625,1,0,0:0:0:0:
254,193,41839,1,0,0:0:0:0:
254,193,41946,1,0,0:0:0:0:
254,193,42053,1,0,0:0:0:0:
254,193,42268,1,8,0:0:0:0:
254,193,42482,1,4,0:0:0:0:
254,193,42803,1,8,0:0:0:0:
254,193,42910,1,8,0:0:0:0:
254,193,43125,1,8,0:0:0:0:
254,193,43339,1,0,0:0:0:0:
254,193,43660,1,0,0:0:0:0:
254,193,43768,1,0,0:0:0:0:
256,192,43982,1,0,0:0:0:0:
254,193,44196,1,0,0:0:0:0:
254,193,44625,1,0,0:0:0:0:
254,193,45053,1,8,0:0:0:0:
254,193,45268,1,0,0:0:0:0:
254,193,45482,1,0,0:0:0:0:
254,193,45696,1,0,0:0:0:0:
254,193,45910,1,12,0:0:0:0:
254,193,46339,1,12,0:0:0:0:
254,193,46768,1,4,0:0:0:0:
254,193,47089,1,0,0:0:0:0:
254,193,47196,1,0,0:0:0:0:
254,193,47410,1,0,0:0:0:0:
254,193,47839,1,0,0:0:0:0:
254,193,48053,1,0,0:0:0:0:
254,193,48268,1,8,0:0:0:0:
254,193,48482,1,8,0:0:0:0:
254,193,48696,1,0,0:0:0:0:
254,193,48910,1,0,0:0:0:0:
254,193,49018,1,0,0:0:0:0:
254,193,49125,1,0,0:0:0:0:
254,193,49339,1,0,0:0:0:0:
254,193,49768,1,0,0:0:0:0:
254,193,50196,1,0,0:0:0:0:
254,193,50625,1,8,0:0:0:0:
254,193,50839,1,8,0:0:0:0:
254,193,51053,1,0,0:0:0:0:
254,193,51482,1,0,0:0:0:0:
254,193,51910,1,0,0:0:0:0:
254,193,52125,1,8,0:0:0:0:
254,193,52339,1,8,0:0:0:0:
254,193,52446,1,8,0:0:0:0:
254,193,52553,1,8,0:0:0:0:
254,193,52768,1,8,0:0:0:0:
254,193,53196,1,8,0:0:0:0:
254,193,53625,1,0,0:0:0:0:
254,193,53946,1,8,0:0:0:0:
254,193,54053,1,8,0:0:0:0:
254,193,54268,1,8,0:0:0:0:
254,193,54696,1,0,0:0:0:0:
254,193,54910,1,0,0:0:0:0:
254,193,55125,1,8,0:0:0:0:
254,193,55339,1,8,0:0:0:0:
254,193,55553,1,0,0:0:0:0:
254,193,55660,1,0,0:0:0:0:
254,193,55768,1,0,0:0:0:0:
254,193,55982,1,8,0:0:0:0:
254,193,56625,1,0,0:0:0:0:
254,193,57053,1,8,0:0:0:0:
254,193,57482,1,0,0:0:0:0:
254,193,57910,1,8,0:0:0:0:
254,193,58339,1,8,0:0:0:0:
254,193,58768,1,8,0:0:0:0:
254,193,58982,1,0,0:0:0:0:
254,193,59196,1,8,0:0:0:0:
254,193,59410,1,8,0:0:0:0:
255,191,59625,1,12,0:0:0:0:
256,192,60053,12,0,62625,0:0:0:0:
255,193,63053,5,12,0:0:0:0:
256,192,63482,12,0,65625,0:0:0:0:
255,192,66053,5,8,0:0:0:0:
255,192,66482,1,4,0:0:0:0:
255,192,66910,1,8,0:0:0:0:
255,192,67339,1,0,0:0:0:0:
255,192,67660,1,8,0:0:0:0:
255,192,67768,1,8,0:0:0:0:
255,192,68196,1,0,0:0:0:0:
255,192,68518,1,8,0:0:0:0:
255,192,68625,1,8,0:0:0:0:
255,192,68839,1,0,0:0:0:0:
255,192,69053,1,0,0:0:0:0:
255,192,69268,1,0,0:0:0:0:
255,192,69482,1,8,0:0:0:0:
255,192,69589,1,8,0:0:0:0:
255,192,69696,1,8,0:0:0:0:
255,192,70339,1,0,0:0:0:0:
255,192,70768,1,0,0:0:0:0:
255,192,71196,1,8,0:0:0:0:
255,192,71518,1,0,0:0:0:0:
255,192,71625,1,0,0:0:0:0:
255,192,71946,1,8,0:0:0:0:
255,192,72053,1,8,0:0:0:0:
255,192,72482,1,8,0:0:0:0:
255,192,72696,1,8,0:0:0:0:
255,192,72910,1,0,0:0:0:0:
252,190,74196,1,0,0:0:0:0:
252,190,74518,1,8,0:0:0:0:
252,190,74839,1,0,0:0:0:0:
252,190,75053,1,0,0:0:0:0:
252,190,75375,1,8,0:0:0:0:
252,190,75696,1,0,0:0:0:0:
252,190,75910,1,8,0:0:0:0:
252,190,76125,1,0,0:0:0:0:
252,190,76339,1,8,0:0:0:0:
253,192,76768,1,8,0:0:0:0:
252,190,77089,1,8,0:0:0:0:
253,192,77196,1,8,0:0:0:0:
253,192,77625,1,8,0:0:0:0:
253,192,77839,1,8,0:0:0:0:
253,192,78268,1,0,0:0:0:0:
253,192,78482,1,0,0:0:0:0:
253,192,78696,1,8,0:0:0:0:
253,192,78910,1,8,0:0:0:0:
253,192,79125,1,8,0:0:0:0:
253,192,79232,1,8,0:0:0:0:
253,192,79339,1,8,0:0:0:0:
253,192,79553,1,0,0:0:0:0:
253,192,79768,1,0,0:0:0:0:
253,192,80196,1,4,0:0:0:0:
253,192,80625,1,12,0:0:0:0:
253,192,81053,1,4,0:0:0:0:
253,192,81482,1,8,0:0:0:0:
253,192,81696,1,4,0:0:0:0:
253,192,82125,1,12,0:0:0:0:
253,192,82553,1,8,0:0:0:0:
253,192,82768,1,8,0:0:0:0:
253,192,82875,1,8,0:0:0:0:
253,192,82982,1,8,0:0:0:0:
253,192,83196,1,8,0:0:0:0:
253,192,83625,1,8,0:0:0:0:
253,192,83839,1,0,0:0:0:0:
253,192,83946,1,0,0:0:0:0:
253,192,84053,1,0,0:0:0:0:
253,192,84268,1,8,0:0:0:0:
253,192,84482,1,8,0:0:0:0:
253,192,84696,1,8,0:0:0:0:
253,192,84910,1,0,0:0:0:0:
253,192,85125,1,0,0:0:0:0:
253,192,85232,1,0,0:0:0:0:
253,192,85339,1,0,0:0:0:0:
253,192,85553,1,8,0:0:0:0:
253,192,85768,1,8,0:0:0:0:
253,192,86196,1,0,0:0:0:0:
253,192,86410,1,0,0:0:0:0:
253,192,86518,1,0,0:0:0:0:
253,192,86625,1,0,0:0:0:0:
253,192,86839,1,12,0:0:0:0:
253,192,87482,1,4,0:0:0:0:
253,192,87910,1,4,0:0:0:0:
253,192,88339,1,4,0:0:0:0:
253,192,88553,1,4,0:0:0:0:
253,192,88982,1,4,0:0:0:0:
253,192,89410,1,8,0:0:0:0:
253,192,89518,1,8,0:0:0:0:
253,192,89625,1,8,0:0:0:0:
253,192,89839,1,8,0:0:0:0:
253,192,89946,1,8,0:0:0:0:
253,192,90053,1,8,0:0:0:0:
253,192,90482,1,8,0:0:0:0:
253,192,90589,1,8,0:0:0:0:
253,192,90910,1,0,0:0:0:0:
253,192,91018,1,0,0:0:0:0:
253,192,91339,1,0,0:0:0:0:
253,192,91446,1,0,0:0:0:0:
253,192,91553,1,0,0:0:0:0:
253,192,91982,1,0,0:0:0:0:
253,192,92196,1,0,0:0:0:0:
253,192,92625,1,8,0:0:0:0:
253,192,93053,1,8,0:0:0:0:
253,192,93160,1,8,0:0:0:0:
253,192,93268,1,8,0:0:0:0:
253,192,93482,1,0,0:0:0:0:
253,192,93696,1,0,0:0:0:0:
253,192,93910,1,4,0:0:0:0:
254,192,96268,5,8,0:0:0:0:
254,192,96375,1,8,0:0:0:0:
254,192,96482,1,8,0:0:0:0:
254,192,96696,1,8,0:0:0:0:
254,192,96910,1,0,0:0:0:0:
254,192,97125,1,0,0:0:0:0:
254,192,97339,1,4,0:0:0:0:
64,192,99696,2,0,P|288:192|272:192,1,210.000000894069
257,191,100768,1,4,0:0:0:0:
257,191,101196,1,8,0:0:0:0:
257,191,101410,1,8,0:0:0:0:
257,191,101518,1,8,0:0:0:0:
257,191,101625,1,8,0:0:0:0:
257,191,101839,1,8,0:0:0:0:
257,191,102482,1,8,0:0:0:0:
257,191,102696,1,8,0:0:0:0:
257,191,102803,1,8,0:0:0:0:
257,191,102910,1,8,0:0:0:0:
257,191,103125,1,8,0:0:0:0:
257,191,103339,1,0,0:0:0:0:
257,191,103446,1,0,0:0:0:0:
257,191,103553,1,0,0:0:0:0:
257,191,103768,1,8,0:0:0:0:
257,191,103982,1,0,0:0:0:0:
257,191,104625,1,0,0:0:0:0:
257,191,104732,1,0,0:0:0:0:
257,191,104839,1,0,0:0:0:0:
257,191,105053,1,8,0:0:0:0:
257,191,105268,1,8,0:0:0:0:
257,191,105375,1,8,0:0:0:0:
257,191,105482,1,8,0:0:0:0:
257,191,105696,1,8,0:0:0:0:
257,191,105910,1,0,0:0:0:0:
257,191,106125,1,8,0:0:0:0:
257,191,106339,1,0,0:0:0:0:
257,191,106553,1,0,0:0:0:0:
257,191,106660,1,0,0:0:0:0:
257,191,106768,1,0,0:0:0:0:
257,191,106982,1,0,0:0:0:0:
253,191,107196,1,8,0:0:0:0:
257,191,107410,1,8,0:0:0:0:
257,192,108053,1,0,0:0:0:0:
257,191,108268,1,0,0:0:0:0:
257,192,108482,1,0,0:0:0:0:
257,192,108589,1,0,0:0:0:0:
257,192,108696,1,0,0:0:0:0:
257,191,109125,1,0,0:0:0:0:
257,191,109232,1,0,0:0:0:0:
257,192,109339,1,0,0:0:0:0:
257,192,109553,1,8,0:0:0:0:
257,191,109768,1,0,0:0:0:0:
257,191,109875,1,0,0:0:0:0:
257,191,109982,1,0,0:0:0:0:
257,191,110196,1,0,0:0:0:0:
257,192,110410,1,0,0:0:0:0:
257,192,110518,1,0,0:0:0:0:
257,191,110625,1,0,0:0:0:0:
257,191,110839,1,8,0:0:0:0:
257,191,111053,1,0,0:0:0:0:
257,192,111268,1,0,0:0:0:0:
257,192,111482,1,8,0:0:0:0:
257,191,111589,1,8,0:0:0:0:
257,191,111803,1,0,0:0:0:0:
257,191,111910,1,0,0:0:0:0:
257,191,112018,1,0,0:0:0:0:
257,191,112232,1,8,0:0:0:0:
257,192,112339,1,8,0:0:0:0:
257,191,112553,1,8,0:0:0:0:
257,191,112660,1,8,0:0:0:0:
261,193,113196,1,8,0:0:0:0:
262,192,113410,1,0,0:0:0:0:
261,193,113625,1,0,0:0:0:0:
261,193,113839,1,0,0:0:0:0:
261,193,114053,1,8,0:0:0:0:
262,192,114268,1,0,0:0:0:0:
261,193,114482,1,4,0:0:0:0:
261,193,114910,1,4,0:0:0:0:
261,193,115339,1,12,0:0:0:0:
261,193,115660,1,8,0:0:0:0:
261,193,115768,1,8,0:0:0:0:
261,193,115982,1,0,0:0:0:0:
261,193,116410,1,0,0:0:0:0:
261,193,116625,1,8,0:0:0:0:
261,193,116839,1,0,0:0:0:0:
261,193,117053,1,0,0:0:0:0:
261,193,117268,1,0,0:0:0:0:
261,193,117482,1,8,0:0:0:0:
261,193,117589,1,8,0:0:0:0:
261,193,117696,1,8,0:0:0:0:
261,193,117910,1,0,0:0:0:0:
261,193,118339,1,8,0:0:0:0:
261,193,118768,1,0,0:0:0:0:
261,193,118982,1,8,0:0:0:0:
261,193,119089,1,8,0:0:0:0:
261,193,119410,1,8,0:0:0:0:
261,193,119625,1,0,0:0:0:0:
261,193,120053,1,0,0:0:0:0:
261,193,120268,1,8,0:0:0:0:
261,193,120482,1,0,0:0:0:0:
261,193,120696,1,0,0:0:0:0:
261,193,120910,1,8,0:0:0:0:
261,193,121018,1,8,0:0:0:0:
261,193,121125,1,8,0:0:0:0:
261,193,121339,1,12,0:0:0:0:
261,193,121768,1,0,0:0:0:0:
261,193,122196,1,0,0:0:0:0:
261,193,122518,1,8,0:0:0:0:
261,193,122625,1,8,0:0:0:0:
261,193,122839,1,8,0:0:0:0:
261,193,123268,1,0,0:0:0:0:
261,193,123482,1,8,0:0:0:0:
261,193,123696,1,8,0:0:0:0:
261,193,123910,1,0,0:0:0:0:
261,193,124125,1,8,0:0:0:0:
261,193,124339,1,8,0:0:0:0:
261,193,124446,1,8,0:0:0:0:
261,193,124553,1,8,0:0:0:0:
261,193,124768,1,8,0:0:0:0:
261,193,125196,1,0,0:0:0:0:
261,193,125625,1,8,0:0:0:0:
261,193,126053,1,0,0:0:0:0:
261,193,126482,1,8,0:0:0:0:
261,193,126910,1,0,0:0:0:0:
261,193,127446,1,0,0:0:0:0:
261,193,127553,1,0,0:0:0:0:
261,193,127768,1,8,0:0:0:0:
261,193,127982,1,0,0:0:0:0:
261,193,128196,1,4,0:0:0:0:
261,193,128839,1,0,0:0:0:0:
261,193,129053,1,8,0:0:0:0:
261,193,129696,1,0,0:0:0:0:
261,193,130125,1,0,0:0:0:0:
261,193,130339,1,8,0:0:0:0:
261,193,130768,1,8,0:0:0:0:
261,193,131625,1,12,0:0:0:0:
261,193,132268,1,0,0:0:0:0:
261,193,132482,1,8,0:0:0:0:
261,193,133125,1,0,0:0:0:0:
261,193,133339,1,8,0:0:0:0:
261,193,133553,1,0,0:0:0:0:
261,193,133768,1,0,0:0:0:0:
261,193,134196,1,8,0:0:0:0:
261,193,134303,1,8,0:0:0:0:
261,193,134625,1,8,0:0:0:0:
261,193,134839,1,8,0:0:0:0:
261,193,134946,1,8,0:0:0:0:
261,193,135053,1,8,0:0:0:0:
256,192,135482,12,8,138053,0:0:0:0:
256,191,138482,5,0,0:0:0:0:
256,191,138696,1,0,0:0:0:0:
256,191,138910,1,8,0:0:0:0:
256,191,139339,1,8,0:0:0:0:
256,191,139768,1,0,0:0:0:0:
256,191,139982,1,8,0:0:0:0:
256,191,140410,1,0,0:0:0:0:
256,191,140625,1,0,0:0:0:0:
256,191,140839,1,8,0:0:0:0:
256,194,141053,1,0,0:0:0:0:
256,194,141268,1,0,0:0:0:0:
256,194,141482,1,8,0:0:0:0:
256,191,141696,1,8,0:0:0:0:
252,198,141910,1,0,0:0:0:0:
256,192,142339,12,0,143625,0:0:0:0:
253,193,144053,5,8,0:0:0:0:
253,193,144696,1,0,0:0:0:0:
253,193,144910,1,8,0:0:0:0:
256,197,145339,5,0,0:0:0:0:
256,197,145553,1,0,0:0:0:0:
256,197,145768,1,8,0:0:0:0:
256,197,146196,1,8,0:0:0:0:
256,197,146625,1,0,0:0:0:0:
256,197,146839,1,8,0:0:0:0:
256,197,147053,1,8,0:0:0:0:
256,197,147482,1,8,0:0:0:0:
256,197,148018,5,8,0:0:0:0:
256,197,148125,1,8,0:0:0:0:
255,193,148339,5,0,0:0:0:0:
253,195,148553,1,0,0:0:0:0:
250,197,148768,1,4,0:0:0:0:
253,192,149196,1,12,0:0:0:0:
253,192,149624,1,4,0:0:0:0:
253,192,150053,1,8,0:0:0:0:
253,192,150267,1,4,0:0:0:0:
253,192,150696,1,12,0:0:0:0:
253,192,151124,1,8,0:0:0:0:
253,192,151232,1,8,0:0:0:0:
253,192,151339,1,8,0:0:0:0:
253,192,151553,1,8,0:0:0:0:
253,192,151660,1,8,0:0:0:0:
253,192,151767,1,8,0:0:0:0:
253,192,152196,1,8,0:0:0:0:
253,192,152410,1,0,0:0:0:0:
253,192,152517,1,0,0:0:0:0:
253,192,152624,1,0,0:0:0:0:
253,192,152839,1,8,0:0:0:0:
253,192,153053,1,8,0:0:0:0:
253,192,153267,1,8,0:0:0:0:
253,192,153481,1,0,0:0:0:0:
253,192,153696,1,0,0:0:0:0:
253,192,153803,1,0,0:0:0:0:
253,192,153910,1,0,0:0:0:0:
253,192,154124,1,8,0:0:0:0:
253,192,154339,1,8,0:0:0:0:
253,192,154767,1,0,0:0:0:0:
253,192,154981,1,0,0:0:0:0:
253,192,155089,1,0,0:0:0:0:
253,192,155196,1,0,0:0:0:0:
253,192,155410,1,12,0:0:0:0:
253,192,156053,1,4,0:0:0:0:
253,192,156481,1,4,0:0:0:0:
253,192,156910,1,4,0:0:0:0:
253,192,157124,1,4,0:0:0:0:
253,192,157553,1,4,0:0:0:0:
253,192,157981,1,8,0:0:0:0:
253,192,158089,1,8,0:0:0:0:
253,192,158196,1,8,0:0:0:0:
253,192,158410,1,8,0:0:0:0:
253,192,158518,1,8,0:0:0:0:
253,192,158624,1,8,0:0:0:0:
253,192,159053,1,8,0:0:0:0:
253,192,159481,1,0,0:0:0:0:
253,192,159910,1,0,0:0:0:0:
253,192,160017,1,0,0:0:0:0:
253,192,160124,1,0,0:0:0:0:
253,192,160553,1,0,0:0:0:0:
253,192,160767,1,0,0:0:0:0:
253,192,161196,1,8,0:0:0:0:
253,192,161624,1,8,0:0:0:0:
253,192,161731,1,8,0:0:0:0:
253,192,161839,1,8,0:0:0:0:
253,192,162053,1,0,0:0:0:0:
253,192,162267,1,0,0:0:0:0:
253,192,162481,1,4,0:0:0:0:
253,194,169339,5,0,0:0:0:0:
253,194,169768,1,0,0:0:0:0:
253,194,170196,1,0,0:0:0:0:
253,194,170518,1,0,0:0:0:0:
253,194,170625,1,0,0:0:0:0:
253,194,170839,1,0,0:0:0:0:
253,194,171482,1,0,0:0:0:0:
253,194,171910,1,0,0:0:0:0:
261,194,172339,1,8,0:0:0:0:
261,194,172768,1,8,0:0:0:0:
261,194,173196,1,8,0:0:0:0:
261,194,173625,1,8,0:0:0:0:
261,194,173946,1,8,0:0:0:0:
261,194,174053,1,8,0:0:0:0:
261,194,174268,1,8,0:0:0:0:
261,194,174696,1,8,0:0:0:0:
261,194,174910,1,8,0:0:0:0:
251,190,175446,1,0,0:0:0:0:
251,190,175553,1,0,0:0:0:0:
251,190,175768,1,0,0:0:0:0:
251,190,175982,1,8,0:0:0:0:
251,190,176196,1,4,0:0:0:0:
251,190,176625,1,8,0:0:0:0:
251,190,177053,1,0,0:0:0:0:
251,190,177375,1,8,0:0:0:0:
256,196,177482,1,8,0:0:0:0:
251,190,177696,1,0,0:0:0:0:
256,196,178125,1,0,0:0:0:0:
256,196,178339,1,8,0:0:0:0:
256,192,178553,1,8,0:0:0:0:
256,196,178768,1,0,0:0:0:0:
256,196,179089,1,8,0:0:0:0:
256,186,179196,1,8,0:0:0:0:
256,188,179625,1,0,0:0:0:0:
256,188,179839,1,0,0:0:0:0:
256,188,180053,1,8,0:0:0:0:
254,193,180910,1,8,0:0:0:0:
254,193,181125,1,0,0:0:0:0:
254,193,181339,1,0,0:0:0:0:
254,193,181768,1,8,0:0:0:0:
254,193,181982,1,0,0:0:0:0:
254,193,182196,1,8,0:0:0:0:
254,193,182410,1,8,0:0:0:0:
254,193,182839,1,8,0:0:0:0:
254,193,182946,1,8,0:0:0:0:
254,193,183053,1,8,0:0:0:0:
254,193,183268,1,8,0:0:0:0:
245,190,183482,1,8,0:0:0:0:
245,190,183910,1,8,0:0:0:0:
245,190,184125,1,0,0:0:0:0:
245,190,184339,1,8,0:0:0:0:
252,192,185196,1,8,0:0:0:0:
256,192,185410,1,8,0:0:0:0:
252,192,185625,1,0,0:0:0:0:
252,192,185946,1,8,0:0:0:0:
252,192,186053,1,8,0:0:0:0:
256,192,186268,1,0,0:0:0:0:
252,192,186482,1,0,0:0:0:0:
252,192,186910,1,8,0:0:0:0:
252,192,187339,1,0,0:0:0:0:
252,192,187660,1,0,0:0:0:0:
252,192,187768,1,0,0:0:0:0:
252,192,187982,1,0,0:0:0:0:
252,192,188410,1,0,0:0:0:0:
246,188,188625,1,8,0:0:0:0:
240,192,189053,1,0,0:0:0:0:
255,191,189160,5,0,0:0:0:0:
255,191,189268,1,0,0:0:0:0:
255,191,189482,1,0,0:0:0:0:
255,191,189696,1,8,0:0:0:0:
255,192,191196,5,8,0:0:0:0:
255,192,191625,1,4,0:0:0:0:
255,192,192053,1,8,0:0:0:0:
255,192,192482,1,0,0:0:0:0:
255,192,192803,1,8,0:0:0:0:
255,192,192911,1,8,0:0:0:0:
255,192,193339,1,0,0:0:0:0:
255,192,193661,1,8,0:0:0:0:
255,192,193768,1,8,0:0:0:0:
255,192,193982,1,0,0:0:0:0:
255,192,194196,1,0,0:0:0:0:
255,192,194411,1,0,0:0:0:0:
255,192,194625,1,8,0:0:0:0:
255,192,194732,1,8,0:0:0:0:
255,192,194839,1,8,0:0:0:0:
255,192,195482,1,0,0:0:0:0:
255,192,195911,1,0,0:0:0:0:
255,192,196339,1,8,0:0:0:0:
255,192,196661,1,0,0:0:0:0:
255,192,196768,1,0,0:0:0:0:
255,192,197089,1,8,0:0:0:0:
255,192,197196,1,8,0:0:0:0:
255,192,197625,1,8,0:0:0:0:
255,192,197839,1,8,0:0:0:0:
255,192,198053,1,0,0:0:0:0:
252,190,199339,1,0,0:0:0:0:
252,190,199661,1,8,0:0:0:0:
252,190,199982,1,0,0:0:0:0:
252,190,200196,1,0,0:0:0:0:
252,190,200518,1,8,0:0:0:0:
252,190,200839,1,0,0:0:0:0:
252,190,201053,1,8,0:0:0:0:
252,190,201268,1,0,0:0:0:0:
252,190,201482,1,8,0:0:0:0:
253,192,201911,1,8,0:0:0:0:
252,190,202232,1,8,0:0:0:0:
253,192,202339,1,8,0:0:0:0:
253,192,202768,1,8,0:0:0:0:
253,192,202982,1,8,0:0:0:0:
253,192,203411,1,0,0:0:0:0:
253,192,203625,1,0,0:0:0:0:
253,192,203839,1,8,0:0:0:0:
253,192,204053,1,8,0:0:0:0:
253,192,204268,1,8,0:0:0:0:
253,192,204375,1,8,0:0:0:0:
253,192,204482,1,8,0:0:0:0:
253,192,204696,1,0,0:0:0:0:
253,192,204911,1,0,0:0:0:0:
253,192,205339,1,4,0:0:0:0:
253,192,205768,1,12,0:0:0:0:
253,192,206196,1,4,0:0:0:0:
253,192,206625,1,8,0:0:0:0:
253,192,206839,1,4,0:0:0:0:
253,192,207268,1,12,0:0:0:0:
253,192,207696,1,8,0:0:0:0:
253,192,207911,1,8,0:0:0:0:
253,192,208018,1,8,0:0:0:0:
253,192,208125,1,8,0:0:0:0:
253,192,208339,1,8,0:0:0:0:
253,192,208768,1,8,0:0:0:0:
253,192,208982,1,0,0:0:0:0:
253,192,209089,1,0,0:0:0:0:
253,192,209196,1,0,0:0:0:0:
253,192,209411,1,8,0:0:0:0:
253,192,209625,1,8,0:0:0:0:
253,192,209839,1,8,0:0:0:0:
253,192,210053,1,0,0:0:0:0:
253,192,210268,1,0,0:0:0:0:
253,192,210375,1,0,0:0:0:0:
253,192,210482,1,0,0:0:0:0:
253,192,210696,1,8,0:0:0:0:
253,192,210911,1,8,0:0:0:0:
253,192,211339,1,0,0:0:0:0:
253,192,211553,1,0,0:0:0:0:
253,192,211661,1,0,0:0:0:0:
253,192,211768,1,0,0:0:0:0:
253,192,211982,1,12,0:0:0:0:
253,192,212625,1,4,0:0:0:0:
253,192,213053,1,4,0:0:0:0:
253,192,213482,1,4,0:0:0:0:
253,192,213696,1,4,0:0:0:0:
253,192,214125,1,4,0:0:0:0:
253,192,214553,1,8,0:0:0:0:
253,192,214661,1,8,0:0:0:0:
253,192,214768,1,8,0:0:0:0:
253,192,214982,1,8,0:0:0:0:
253,192,215089,1,8,0:0:0:0:
253,192,215196,1,8,0:0:0:0:
253,192,215625,1,8,0:0:0:0:
253,192,215732,1,8,0:0:0:0:
253,192,216053,1,0,0:0:0:0:
253,192,216161,1,0,0:0:0:0:
253,192,216482,1,0,0:0:0:0:
253,192,216589,1,0,0:0:0:0:
253,192,216696,1,0,0:0:0:0:
253,192,217125,1,0,0:0:0:0:
253,192,217339,1,0,0:0:0:0:
253,192,217768,1,8,0:0:0:0:
253,192,218196,1,8,0:0:0:0:
253,192,218303,1,8,0:0:0:0:
253,192,218411,1,8,0:0:0:0:
253,192,218625,1,0,0:0:0:0:
253,192,218839,1,0,0:0:0:0:
253,192,219053,1,4,0:0:0:0:
253,192,219482,1,12,0:0:0:0:
253,192,219910,1,4,0:0:0:0:
253,192,220339,1,8,0:0:0:0:
253,192,220553,1,4,0:0:0:0:
253,192,220982,1,12,0:0:0:0:
253,192,221410,1,8,0:0:0:0:
253,192,221518,1,8,0:0:0:0:
253,192,221625,1,8,0:0:0:0:
253,192,221839,1,8,0:0:0:0:
253,192,221946,1,8,0:0:0:0:
253,192,222053,1,8,0:0:0:0:
253,192,222482,1,8,0:0:0:0:
253,192,222696,1,0,0:0:0:0:
253,192,222803,1,0,0:0:0:0:
253,192,222910,1,0,0:0:0:0:
253,192,223125,1,8,0:0:0:0:
253,192,223339,1,8,0:0:0:0:
253,192,223553,1,8,0:0:0:0:
253,192,223767,1,0,0:0:0:0:
253,192,223982,1,0,0:0:0:0:
253,192,224089,1,0,0:0:0:0:
253,192,224196,1,0,0:0:0:0:
253,192,224410,1,8,0:0:0:0:
253,192,224625,1,8,0:0:0:0:
253,192,225053,1,0,0:0:0:0:
253,192,225267,1,0,0:0:0:0:
253,192,225375,1,0,0:0:0:0:
253,192,225482,1,0,0:0:0:0:
253,192,225696,1,12,0:0:0:0:
253,192,226339,1,4,0:0:0:0:
253,192,226767,1,4,0:0:0:0:
253,192,227196,1,4,0:0:0:0:
253,192,227410,1,4,0:0:0:0:
253,192,227839,1,4,0:0:0:0:
253,192,228267,1,8,0:0:0:0:
253,192,228375,1,8,0:0:0:0:
253,192,228482,1,8,0:0:0:0:
253,192,228696,1,8,0:0:0:0:
253,192,228804,1,8,0:0:0:0:
253,192,228910,1,8,0:0:0:0:
253,192,229339,1,8,0:0:0:0:
253,192,229767,1,0,0:0:0:0:
253,192,230196,1,0,0:0:0:0:
253,192,230303,1,0,0:0:0:0:
253,192,230410,1,0,0:0:0:0:
253,192,230839,1,0,0:0:0:0:
253,192,231053,1,0,0:0:0:0:
253,192,231482,1,8,0:0:0:0:
253,192,231910,1,8,0:0:0:0:
253,192,232017,1,8,0:0:0:0:
253,192,232125,1,8,0:0:0:0:
253,192,232339,1,0,0:0:0:0:
253,192,232553,5,0,0:0:0:0:
253,192,232767,1,4,0:0:0:0:
256,192,233196,12,0,234696,0:0:0:0:
255,191,235125,5,8,0:0:0:0:
255,191,235232,1,8,0:0:0:0:
255,191,235339,1,8,0:0:0:0:
255,191,235553,1,8,0:0:0:0:
255,191,235768,1,0,0:0:0:0:
255,191,235982,1,0,0:0:0:0:
255,191,236196,1,0,0:0:0:0:
256,192,236625,12,0,238125,0:0:0:0:
255,191,238553,5,8,0:0:0:0:
255,191,238660,1,8,0:0:0:0:
255,191,238768,1,8,0:0:0:0:
255,191,238982,1,8,0:0:0:0:
255,191,239196,1,0,0:0:0:0:
255,191,239410,1,0,0:0:0:0:
255,191,239625,1,0,0:0:0:0:
