osu file format v14

[General]
AudioFilename: audio.mp3
AudioLeadIn: 0
PreviewTime: 62752
Countdown: 1
SampleSet: Soft
StackLeniency: 0.7
Mode: 0
LetterboxInBreaks: 0
WidescreenStoryboard: 1

[Editor]
Bookmarks: 106909,123502,123737,154909,181909,211909,214909
DistanceSpacing: 1.5
BeatDivisor: 4
GridSize: 8
TimelineZoom: 1.4

[Metadata]
Title:The Secret About That Girl
TitleUnicode:あの娘シークレット
Artist:Eve
ArtistUnicode:Eve
Creator:toadnica
Version:Insane
Source:
Tags:bunka japanese alternative rock Numa KaiSeiP anako secret
BeatmapID:2106482
BeatmapSetID:948536

[Difficulty]
HPDrainRate:5
CircleSize:4
OverallDifficulty:6.4
ApproachRate:8.5
SliderMultiplier:1.4
SliderTickRate:1

[Events]
//Background and Video events
Video,0,"game ovr.mp4"
0,0,"heart.png",0,0
//Break Periods
2,155108,161359
//Storyboard Layer 0 (Background)
//Storyboard Layer 1 (Fail)
//Storyboard Layer 2 (Pass)
//Storyboard Layer 3 (Foreground)
//Storyboard Layer 4 (Overlay)
//Storyboard Sound Samples

[TimingPoints]
409,375,4,2,2,25,1,0
784,-100,4,2,2,15,0,0
971,-100,4,2,2,25,0,0
1534,-100,4,2,2,15,0,0
1721,-100,4,2,1,50,0,0
1909,-100,4,2,2,50,0,0
7534,-100,4,2,1,75,0,0
7909,-100,4,2,2,50,0,0
10534,-100,4,2,1,50,0,0
10909,-100,4,2,1,60,0,0
11284,-100,4,2,1,70,0,0
11659,-100,4,2,1,80,0,0
13534,-100,4,2,2,80,0,0
27409,-83.3333333333333,4,2,2,80,0,0
44471,-83.3333333333333,4,2,1,80,0,0
44659,-83.3333333333333,4,2,1,80,0,0
45409,-83.3333333333333,4,2,2,80,0,0
50940,-83.3333333333333,4,2,1,80,0,0
51409,-83.3333333333333,4,2,2,69,0,0
57034,-83.3333333333333,4,2,1,69,0,0
57409,-76.9230769230769,4,2,1,69,0,0
57690,-100,4,2,1,69,0,0
57971,-76.9230769230769,4,2,1,69,0,0
58252,-100,4,2,1,69,0,0
60034,-333.333333333333,4,2,1,69,0,0
60409,-333.333333333333,4,2,1,80,0,0
61909,-100,4,2,1,80,0,0
63409,-66.6666666666667,4,2,1,80,0,1
64534,-66.6666666666667,4,2,2,80,0,1
64721,-66.6666666666667,4,2,1,80,0,1
64815,-66.6666666666667,4,2,2,80,0,1
64909,-66.6666666666667,4,2,1,80,0,1
66034,-66.6666666666667,4,2,2,80,0,1
66221,-66.6666666666667,4,2,1,80,0,1
66315,-66.6666666666667,4,2,2,80,0,1
66409,-66.6666666666667,4,2,1,80,0,1
67534,-66.6666666666667,4,2,2,80,0,1
67721,-66.6666666666667,4,2,1,80,0,1
67815,-66.6666666666667,4,2,2,80,0,1
67909,-66.6666666666667,4,2,1,80,0,1
69034,-66.6666666666667,4,2,2,80,0,1
69221,-66.6666666666667,4,2,1,80,0,1
69315,-66.6666666666667,4,2,2,80,0,1
69409,-66.6666666666667,4,2,1,80,0,1
70534,-66.6666666666667,4,2,2,80,0,1
70721,-66.6666666666667,4,2,1,80,0,1
70815,-66.6666666666667,4,2,2,80,0,1
70909,-66.6666666666667,4,2,1,80,0,1
72034,-66.6666666666667,4,2,2,80,0,0
72221,-66.6666666666667,4,2,1,80,0,0
72315,-66.6666666666667,4,2,2,80,0,0
72409,-57.1428571428571,4,2,1,80,0,1
72784,-100,4,2,1,80,0,1
73159,-133.333333333333,4,2,1,80,0,0
73721,-50,4,2,1,80,0,1
74284,-50,4,2,1,80,0,0
74846,-50,4,2,1,80,0,1
75221,-50,4,2,1,80,0,0
75409,-66.6666666666667,4,2,1,80,0,1
76534,-66.6666666666667,4,2,2,80,0,1
76721,-66.6666666666667,4,2,1,80,0,1
76815,-66.6666666666667,4,2,2,80,0,1
76909,-66.6666666666667,4,2,1,80,0,1
78034,-66.6666666666667,4,2,2,80,0,1
78221,-66.6666666666667,4,2,1,80,0,1
78315,-66.6666666666667,4,2,2,80,0,1
78409,-66.6666666666667,4,2,1,80,0,1
79534,-66.6666666666667,4,2,2,80,0,1
79721,-66.6666666666667,4,2,1,80,0,1
79815,-66.6666666666667,4,2,2,80,0,1
79909,-66.6666666666667,4,2,1,80,0,1
80659,-66.6666666666667,4,2,1,80,0,0
81409,-57.1428571428571,4,2,1,80,0,1
82159,-100,4,2,1,80,0,0
82721,-50,4,2,1,80,0,1
83284,-66.6666666666667,4,2,1,80,0,1
84034,-66.6666666666667,4,2,1,80,0,0
84409,-66.6666666666667,4,2,1,80,0,1
84784,-133.333333333333,4,2,1,80,0,1
85159,-66.6666666666667,4,2,1,80,0,1
87221,-66.6666666666667,4,2,1,80,0,0
88534,-66.6666666666667,4,2,1,80,0,0
88721,-66.6666666666667,4,2,1,80,0,0
88909,-76.9230769230769,4,2,2,80,0,0
92846,-200,4,2,1,80,0,0
93221,-100,4,2,1,80,0,0
96596,-100,4,2,2,80,0,0
97346,-100,4,2,1,80,0,0
97534,-100,4,2,2,80,0,0
97909,-100,4,2,1,80,0,0
98659,-100,4,2,2,80,0,0
100346,-100,4,2,1,35,0,0
100534,-100,4,2,1,80,0,0
102409,-100,4,2,2,80,0,0
103346,-100,4,2,1,80,0,0
117409,-66.6666666666667,4,2,1,80,0,0
118909,-100,4,2,2,80,0,0
123034,-100,4,2,1,35,0,0
123221,-100,4,2,1,80,0,0
123409,-100,4,2,2,65,0,0
123502,-500,4,2,2,65,0,0
124346,-100,4,2,2,65,0,0
124909,-66.6666666666667,4,2,2,65,0,0
129409,-100,4,2,2,65,0,0
130909,-66.6666666666667,4,2,1,80,0,1
132034,-66.6666666666667,4,2,2,80,0,1
132221,-66.6666666666667,4,2,1,80,0,1
132315,-66.6666666666667,4,2,2,80,0,1
132409,-66.6666666666667,4,2,1,80,0,1
133534,-66.6666666666667,4,2,2,80,0,1
133721,-66.6666666666667,4,2,1,80,0,1
133815,-66.6666666666667,4,2,2,80,0,1
133909,-66.6666666666667,4,2,1,80,0,1
135034,-66.6666666666667,4,2,2,80,0,1
135221,-66.6666666666667,4,2,1,80,0,1
135315,-66.6666666666667,4,2,2,80,0,1
135409,-66.6666666666667,4,2,1,80,0,1
136534,-66.6666666666667,4,2,2,80,0,1
136721,-66.6666666666667,4,2,1,80,0,1
136815,-66.6666666666667,4,2,2,80,0,1
136909,-66.6666666666667,4,2,1,80,0,1
138034,-66.6666666666667,4,2,2,80,0,1
138221,-66.6666666666667,4,2,1,80,0,1
138315,-66.6666666666667,4,2,2,80,0,1
138409,-66.6666666666667,4,2,1,80,0,1
139534,-66.6666666666667,4,2,2,80,0,0
139721,-66.6666666666667,4,2,1,80,0,0
139815,-66.6666666666667,4,2,2,80,0,0
139909,-57.1428571428571,4,2,1,80,0,1
140284,-100,4,2,1,80,0,1
140659,-100,4,2,1,80,0,0
141221,-50,4,2,1,80,0,1
141784,-100,4,2,1,80,0,1
142534,-100,4,2,1,80,0,0
142909,-66.6666666666667,4,2,1,80,0,1
144034,-66.6666666666667,4,2,2,80,0,1
144221,-66.6666666666667,4,2,1,80,0,1
144315,-66.6666666666667,4,2,2,80,0,1
144409,-66.6666666666667,4,2,1,80,0,1
145534,-66.6666666666667,4,2,2,80,0,1
145721,-66.6666666666667,4,2,1,80,0,1
145815,-66.6666666666667,4,2,2,80,0,1
145909,-66.6666666666667,4,2,1,80,0,1
147034,-66.6666666666667,4,2,2,80,0,1
147221,-66.6666666666667,4,2,1,80,0,1
147315,-66.6666666666667,4,2,2,80,0,1
147409,-66.6666666666667,4,2,1,80,0,1
148909,-57.1428571428571,4,2,1,80,0,1
149659,-57.1428571428571,4,2,1,80,0,0
150221,-50,4,2,1,80,0,1
150784,-66.6666666666667,4,2,1,80,0,1
151346,-66.6666666666667,4,2,1,80,0,0
151909,-57.1428571428571,4,2,1,80,0,1
152284,-66.6666666666667,4,2,1,80,0,1
154721,-133.333333333333,4,2,1,80,0,0
154909,-133.333333333333,4,2,2,50,0,0
162034,-500,4,2,1,50,0,0
162409,-500,4,2,2,50,0,0
162502,-500,4,2,2,50,0,0
163534,-500,4,2,2,50,0,0
163909,-500,4,2,2,50,0,0
164002,-500,4,2,2,50,0,0
164284,-500,4,2,2,35,0,0
164471,-500,4,2,2,50,0,0
165034,-500,4,2,1,80,0,0
165409,-500,4,2,1,80,0,0
166534,-133.333333333333,4,2,1,80,0,0
166909,-83.3333333333333,4,2,1,80,0,1
177034,-83.3333333333333,4,2,1,80,0,0
177221,-83.3333333333333,4,2,1,80,0,1
180409,-133.333333333333,4,2,1,80,0,0
180784,-133.333333333333,4,2,1,80,0,0
181909,-66.6666666666667,4,2,1,80,0,1
183034,-66.6666666666667,4,2,2,80,0,1
183221,-66.6666666666667,4,2,1,80,0,1
183315,-66.6666666666667,4,2,2,80,0,1
183409,-66.6666666666667,4,2,1,80,0,1
184534,-66.6666666666667,4,2,2,80,0,1
184721,-66.6666666666667,4,2,1,80,0,1
184815,-66.6666666666667,4,2,2,80,0,1
184909,-66.6666666666667,4,2,1,80,0,1
186034,-66.6666666666667,4,2,2,80,0,1
186221,-66.6666666666667,4,2,1,80,0,1
186315,-66.6666666666667,4,2,2,80,0,1
186409,-66.6666666666667,4,2,1,80,0,1
187534,-66.6666666666667,4,2,2,80,0,1
187721,-66.6666666666667,4,2,1,80,0,1
187815,-66.6666666666667,4,2,2,80,0,1
187909,-66.6666666666667,4,2,1,80,0,1
189034,-66.6666666666667,4,2,2,80,0,1
189221,-66.6666666666667,4,2,1,80,0,1
189315,-66.6666666666667,4,2,2,80,0,1
189409,-66.6666666666667,4,2,1,80,0,1
190534,-66.6666666666667,4,2,2,80,0,1
190721,-66.6666666666667,4,2,1,80,0,1
190815,-66.6666666666667,4,2,2,80,0,1
190909,-57.1428571428571,4,2,1,80,0,1
191284,-100,4,2,1,80,0,1
191659,-133.333333333333,4,2,1,80,0,1
192034,-133.333333333333,4,2,1,80,0,0
192221,-50,4,2,1,80,0,1
192784,-100,4,2,1,80,0,1
193909,-66.6666666666667,4,2,1,80,0,1
195034,-66.6666666666667,4,2,2,80,0,1
195221,-66.6666666666667,4,2,1,80,0,1
195315,-66.6666666666667,4,2,2,80,0,1
195409,-66.6666666666667,4,2,1,80,0,1
196534,-66.6666666666667,4,2,2,80,0,1
196721,-66.6666666666667,4,2,1,80,0,1
196815,-66.6666666666667,4,2,2,80,0,1
196909,-66.6666666666667,4,2,1,80,0,1
198034,-66.6666666666667,4,2,2,80,0,1
198221,-66.6666666666667,4,2,1,80,0,1
198315,-66.6666666666667,4,2,2,80,0,1
198409,-66.6666666666667,4,2,1,80,0,1
199721,-66.6666666666667,4,2,1,80,0,0
199909,-57.1428571428571,4,2,1,80,0,1
200659,-57.1428571428571,4,2,1,80,0,0
201221,-50,4,2,1,80,0,1
201784,-50,4,2,1,80,0,0
202909,-50,4,2,1,80,0,1
203284,-66.6666666666667,4,2,1,80,0,0
203659,-50,4,2,1,80,0,1
204034,-100,4,2,1,80,0,0
204221,-57.1428571428571,4,2,1,80,0,1
204784,-66.6666666666667,4,2,1,80,0,1
205721,-66.6666666666667,4,2,1,80,0,0
205909,-57.1428571428571,4,2,1,80,0,1
206284,-66.6666666666667,4,2,1,80,0,1
206659,-100,4,2,1,80,0,0
207221,-50,4,2,1,80,0,1
207784,-66.6666666666667,4,2,1,80,0,1
208721,-66.6666666666667,4,2,1,80,0,0
208909,-57.1428571428571,4,2,1,80,0,1
209284,-66.6666666666667,4,2,1,80,0,1
209659,-66.6666666666667,4,2,1,80,0,0
210221,-50,4,2,1,80,0,1
211534,-100,4,2,1,80,0,1
211721,-100,4,2,1,80,0,0
213409,-100,4,2,2,45,0,0
214159,-100,4,2,1,45,0,0
214534,-200,4,2,1,80,0,0
214815,-200,4,2,1,80,0,0
214909,-100,4,2,2,80,0,0
228409,-100,4,2,2,5,0,0

[Colours]
Combo1 : 210,119,119
Combo2 : 203,237,177
Combo3 : 132,230,193
Combo4 : 201,170,221

[HitObjects]
111,192,409,5,2,0:0:0:0:
111,192,596,1,2,0:0:0:0:
188,154,784,6,0,L|225:155,2,35,2|2|2,0:0|0:0|0:0,0:0:0:0:
88,206,1159,1,2,0:0:0:0:
128,279,1346,1,2,0:0:0:0:
88,363,1534,5,2,0:0:0:0:
88,363,1627,1,2,0:0:0:0:
88,363,1721,2,0,L|135:357,1,35,2|0,0:0|0:0,0:0:0:0:
211,305,1909,6,0,P|246:299|289:312,1,70,2|2,3:2|0:0,0:0:0:0:
279,306,2190,1,0,0:0:0:0:
279,306,2284,1,2,3:2:0:0:
387,347,2471,2,0,L|382:277,1,70,2|2,0:2|3:2,0:0:0:0:
403,186,2846,5,2,0:0:0:0:
403,186,3034,2,0,L|407:116,1,70,2|2,3:2|0:0,0:0:0:0:
310,136,3409,6,0,L|200:122,2,105,2|0|2,3:2|0:0|0:2,0:0:0:0:
164,239,4346,2,0,L|201:245,1,35,2|0,0:0|0:0,0:0:0:0:
280,289,4534,5,2,3:2:0:0:
309,282,4627,1,2,0:0:0:0:
339,276,4721,2,0,L|373:270,1,35,2|0,0:0|0:0,0:0:0:0:
458,201,4909,6,0,L|486:308,2,105,2|0|2,3:2|0:0|0:2,0:0:0:0:
458,201,5659,1,2,3:2:0:0:
389,140,5846,1,2,0:0:0:0:
295,184,6034,2,0,P|256:177|225:185,1,70,2|2,3:2|0:0,0:0:0:0:
156,250,6409,6,0,P|97:260|53:241,1,105,2|0,3:2|0:0,0:0:0:0:
38,227,6784,1,2,3:2:0:0:
101,108,6971,2,0,L|111:180,1,70,2|2,0:2|3:2,0:0:0:0:
178,268,7346,5,2,0:0:0:0:
178,268,7534,2,0,B|161:343|161:343|192:330,1,105,2|0,3:2|0:0,0:0:0:0:
186,332,7909,5,2,3:2:0:0:
278,308,8096,1,2,0:0:0:0:
367,342,8284,2,0,L|448:361,1,70,2|2,3:2|0:2,0:0:0:0:
494,275,8659,5,2,3:2:0:0:
412,226,8846,1,2,0:0:0:0:
317,234,9034,2,0,P|284:225|235:235,1,70,2|2,3:2|0:0,0:0:0:0:
198,319,9409,5,2,3:2:0:0:
230,239,9596,1,2,0:0:0:0:
170,158,9784,2,0,B|168:125|147:120|146:81,1,70,2|2,3:2|0:2,0:0:0:0:
110,3,10159,2,0,P|142:-6|187:4,1,70,2|2,3:2|0:0,0:0:0:0:
239,69,10534,6,0,P|289:83|359:67,1,105,2|0,3:2|0:0,0:0:0:0:
358,69,10909,5,2,3:2:0:0:
304,235,11284,1,2,3:2:0:0:
190,146,11659,1,2,3:2:0:0:
190,146,11846,6,0,L|145:150,1,35,8|8,0:0|0:0,0:0:0:0:
79,196,12034,1,8,0:0:0:0:
67,335,12221,6,0,L|80:173,1,140,4|8,3:2|0:0,0:0:0:0:
49,67,12784,1,8,0:0:0:0:
183,130,12971,5,4,0:3:0:0:
183,130,13065,1,4,0:3:0:0:
183,130,13159,2,0,P|202:125|230:122,1,35,8|4,0:0|0:3,0:0:0:0:
307,163,13346,1,4,0:3:0:0:
307,163,13534,6,0,B|289:213|289:213|309:272,1,105,10|0,0:0|0:0,0:0:0:0:
296,289,13909,6,0,L|174:279,1,105,4|0,3:2|3:0,0:0:0:0:
163,270,14284,2,0,L|83:278,1,70,8|2,0:0|3:2,0:0:0:0:
19,211,14659,1,0,0:0:0:0:
107,168,14846,1,2,3:2:0:0:
0,220,15034,1,8,0:0:0:0:
163,270,15221,6,0,B|239:271|229:311|307:315,1,140,2|2,0:0|0:0,0:0:0:0:
378,283,15690,1,0,3:0:0:0:
378,283,15784,2,0,L|387:199,1,70,8|2,0:0|3:2,0:0:0:0:
433,110,16159,6,0,L|415:154,1,35,0|8,0:0|0:0,0:0:0:0:
385,213,16346,1,2,3:2:0:0:
323,145,16534,2,0,P|287:137|248:147,1,70,8|2,0:0|0:0,0:0:0:0:
163,202,16909,6,0,L|151:91,1,105,0|0,3:2|3:0,0:0:0:0:
124,79,17284,2,0,L|114:161,1,70,8|2,0:0|3:2,0:0:0:0:
67,249,17659,1,0,0:0:0:0:
175,218,17846,1,2,3:2:0:0:
39,258,18034,1,8,0:0:0:0:
170,302,18221,6,0,P|199:252|298:262,1,140,2|2,0:0|0:0,0:0:0:0:
335,321,18690,1,0,3:0:0:0:
354,307,18784,2,0,L|373:238,1,70,8|2,0:0|0:0,0:0:0:0:
349,150,19159,5,8,0:0:0:0:
343,133,19252,1,8,0:0:0:0:
339,116,19346,1,8,0:0:0:0:
269,49,19534,5,8,0:0:0:0:
269,49,19627,1,8,0:0:0:0:
269,49,19721,2,0,L|219:52,1,35,10|0,0:0|0:0,0:0:0:0:
98,100,19909,6,0,B|170:100|169:143|230:143,1,140,4|8,3:2|0:0,0:0:0:0:
228,142,20471,1,2,3:2:0:0:
304,233,20659,1,0,0:0:0:0:
216,127,20846,1,2,3:2:0:0:
201,232,21034,1,8,0:0:0:0:
349,164,21221,6,0,L|336:318,1,140,2|2,0:0|0:0,0:0:0:0:
292,378,21690,1,0,3:0:0:0:
272,363,21784,2,0,L|184:356,1,70,8|2,0:0|3:2,0:0:0:0:
104,289,22159,6,0,L|149:285,2,35,0|8|2,0:0|0:0|3:2,0:0:0:0:
0,315,22534,2,0,P|-1:277|13:232,1,70,8|2,0:0|0:0,0:0:0:0:
99,192,22909,6,0,L|180:209,1,70,0|2,3:2|0:0,0:0:0:0:
240,172,23190,1,0,3:0:0:0:
240,172,23284,2,0,L|321:155,1,70,8|2,0:0|3:2,0:0:0:0:
387,218,23659,6,0,L|430:224,2,35,8|8|8,0:0|0:0|0:0,0:0:0:0:
391,301,24034,1,8,0:0:0:0:
255,193,24221,6,0,B|186:192|193:238|103:238,1,140,4|0,3:2|3:0,0:0:0:0:
14,127,24784,5,10,0:0:0:0:
131,154,24971,1,0,3:0:0:0:
71,60,25159,5,10,0:0:0:0:
188,33,25346,1,0,3:0:0:0:
0,145,25534,5,10,0:0:0:0:
117,172,25721,1,0,3:0:0:0:
87,46,25909,5,10,0:0:0:0:
210,17,26096,1,0,3:0:0:0:
126,191,26284,6,0,P|109:228|104:272,1,70,10|0,0:0|3:0,0:0:0:0:
299,147,26659,1,8,0:0:0:0:
299,147,26846,6,0,P|260:109|166:113,1,140,0|8,3:2|0:0,0:0:0:0:
82,193,27315,1,8,0:0:0:0:
82,193,27409,6,0,L|186:182,1,83.9999974365235,4|2,3:2|0:0,0:0:0:0:
243,215,27690,1,0,3:0:0:0:
272,229,27784,2,0,L|376:218,1,83.9999974365235,8|2,0:0|0:0,0:0:0:0:
478,103,28159,6,0,B|415:103|421:132|352:131,2,125.999996154785,0|0|2,0:0|0:0|0:0,0:0:0:0:
478,281,28909,2,0,B|415:281|421:252|352:253,2,125.999996154785,0|0|2,3:0|3:0|0:0,0:0:0:0:
369,348,29659,2,0,P|326:358|281:347,1,83.9999974365235,0|2,0:0|3:2,0:0:0:0:
208,295,30034,2,0,P|165:285|120:296,1,83.9999974365235,8|2,0:0|0:0,0:0:0:0:
27,350,30409,6,0,L|17:266,1,83.9999974365235,0|2,3:2|0:0,0:0:0:0:
46,178,30690,1,0,3:0:0:0:
59,161,30784,2,0,P|96:145|143:147,1,83.9999974365235,8|2,0:0|0:0,0:0:0:0:
223,224,31159,6,0,B|265:229|265:229|295:258|295:258|349:264,2,125.999996154785,0|0|2,0:0|0:0|0:0,0:0:0:0:
139,146,31909,2,0,B|96:151|96:151|66:180|66:180|25:184,2,125.999996154785,0|0|2,3:0|3:0|0:0,0:0:0:0:
223,64,32659,2,0,L|319:65,1,83.9999974365235,0|2,0:0|3:2,0:0:0:0:
386,147,33034,2,0,P|395:193|385:243,1,83.9999974365235,8|2,0:0|0:0,0:0:0:0:
322,310,33409,5,0,3:2:0:0:
236,258,33596,1,2,0:0:0:0:
236,258,33690,1,0,3:0:0:0:
236,258,33784,1,8,0:0:0:0:
133,317,33971,1,2,0:0:0:0:
38,243,34159,6,0,B|41:177|12:183|13:94,2,125.999996154785,0|0|2,0:0|0:0|0:0,0:0:0:0:
173,176,34909,2,0,B|170:110|199:116|198:27,2,125.999996154785,0|0|2,3:0|3:0|0:0,0:0:0:0:
235,258,35659,2,0,P|280:265|327:259,1,83.9999974365235,0|2,0:0|3:2,0:0:0:0:
451,176,36034,2,0,P|409:172|367:179,1,83.9999974365235,8|2,0:0|0:0,0:0:0:0:
235,258,36409,6,0,P|174:304|97:253,1,167.999994873047,0|8,3:2|0:0,0:0:0:0:
121,168,36971,1,2,0:0:0:0:
74,77,37159,6,0,L|203:66,2,125.999996154785,0|0|2,0:0|0:0|0:0,0:0:0:0:
246,178,37909,2,0,L|121:168,2,125.999996154785,0|0|2,3:0|3:0|0:0,0:0:0:0:
346,143,38659,2,0,L|431:150,1,83.9999974365235,0|2,0:0|3:2,0:0:0:0:
481,245,39034,2,0,L|397:251,1,83.9999974365235,8|2,0:0|0:0,0:0:0:0:
255,330,39315,1,8,0:0:0:0:
255,330,39409,6,0,P|200:288|94:304,1,167.999994873047,4|8,3:2|0:0,0:0:0:0:
35,363,39971,1,2,0:0:0:0:
57,217,40159,6,0,L|33:82,1,125.999996154785,0|0,0:0|0:0,0:0:0:0:
43,62,40534,1,8,0:0:0:0:
179,94,40721,1,2,0:0:0:0:
179,94,40815,1,8,0:0:0:0:
179,94,40909,2,0,P|230:75|314:105,1,125.999996154785,0|0,3:0|3:0,0:0:0:0:
322,109,41284,2,0,P|364:122|406:110,1,83.9999974365235,8|2,0:0|0:0,0:0:0:0:
481,53,41659,5,0,0:0:0:0:
431,251,42034,1,8,0:0:0:0:
338,210,42221,2,0,P|317:204|292:203,1,41.9999987182618,2|8,0:0|0:0,0:0:0:0:
238,284,42409,6,0,P|184:301|121:218,1,167.999994873047,0|8,3:2|0:0,0:0:0:0:
157,140,42971,1,2,0:0:0:0:
160,45,43159,6,0,B|93:46|107:80|28:86,2,125.999996154785,0|0|2,0:0|0:0|0:0,0:0:0:0:
238,89,43815,1,8,0:0:0:0:
238,89,43909,2,0,B|304:90|290:124|369:130,2,125.999996154785,0|0|2,3:0|3:0|0:0,0:0:0:0:
163,196,44659,5,8,0:0:0:0:
163,196,44752,1,8,0:0:0:0:
163,196,44846,2,0,L|152:285,1,83.9999974365235,0|8,3:2|0:0,0:0:0:0:
147,309,45127,1,8,0:0:0:0:
179,335,45220,1,8,0:0:0:0:
219,346,45314,1,8,0:0:0:0:
260,339,45409,6,0,L|357:374,1,83.9999974365235,4|2,3:2|0:0,0:0:0:0:
431,302,45690,1,0,3:0:0:0:
417,283,45784,2,0,L|337:254,1,83.9999974365235,8|2,0:0|0:0,0:0:0:0:
255,175,46159,6,0,P|195:153|127:187,1,125.999996154785,0|0,0:0|0:0,0:0:0:0:
121,195,46534,1,8,0:0:0:0:
31,136,46721,1,2,0:0:0:0:
31,136,46815,1,8,0:0:0:0:
31,136,46909,2,0,L|16:6,2,125.999996154785,0|0|2,3:0|3:0|0:0,0:0:0:0:
0,235,47659,5,0,0:0:0:0:
66,293,47846,1,2,3:2:0:0:
121,195,48034,1,8,0:0:0:0:
121,195,48221,2,0,L|172:194,1,41.9999987182618,2|8,0:0|0:0,0:0:0:0:
257,249,48409,6,0,P|345:237|383:299,1,167.999994873047,0|8,3:2|0:0,0:0:0:0:
451,227,48971,1,2,0:0:0:0:
402,141,49159,6,0,B|392:98|392:98|405:55|405:55|399:12,2,125.999996154785,0|0|2,0:0|0:0|0:0,0:0:0:0:
306,43,49815,1,8,0:0:0:0:
306,43,49909,2,0,L|211:42,1,83.9999974365235,0|2,3:0|0:0,0:0:0:0:
148,96,50190,1,0,3:0:0:0:
125,115,50284,2,0,P|82:124|33:109,1,83.9999974365235,8|8,0:0|0:0,0:0:0:0:
193,193,50565,1,8,0:0:0:0:
222,228,50659,6,0,L|316:236,1,83.9999974365235,8|0,0:0|0:0,0:0:0:0:
137,258,50940,6,0,L|83:335,1,83.9999974365235,2|0,3:2|0:0,0:0:0:0:
157,171,51221,6,0,L|132:119,1,41.9999987182618,8|0,0:0|0:0,0:0:0:0:
162,15,51409,6,0,B|222:16|215:51|294:55,2,125.999996154785,4|0|0,3:2|3:0|3:0,0:0:0:0:
125,198,52346,1,2,0:0:0:0:
76,112,52534,2,0,P|120:101|168:108,1,83.9999974365235,8|2,0:0|0:0,0:0:0:0:
227,178,52909,6,0,P|266:218|348:212,2,125.999996154785,0|0|0,3:2|3:0|3:0,0:0:0:0:
306,0,53846,1,2,0:0:0:0:
345,71,54034,2,0,L|300:148,1,83.9999974365235,8|2,0:0|0:0,0:0:0:0:
347,240,54409,6,0,B|324:282|324:282|298:296|298:296|273:343,2,125.999996154785,0|0|0,3:2|3:0|3:0,0:0:0:0:
125,326,55346,1,2,0:0:0:0:
174,252,55534,2,0,L|171:161,1,83.9999974365235,8|2,0:0|0:0,0:0:0:0:
88,40,55909,6,0,L|74:172,1,125.999996154785,0|0,3:2|3:0,0:0:0:0:
57,190,56284,1,0,0:0:0:0:
174,252,56471,2,0,P|219:263|262:252,1,83.9999974365235,10|0,0:0|0:0,0:0:0:0:
216,172,56846,1,0,3:0:0:0:
357,103,57034,6,0,P|312:92|269:103,1,83.9999974365235,10|8,0:0|0:0,0:0:0:0:
332,298,57315,1,8,0:0:0:0:
332,298,57409,6,0,P|346:235|290:163,1,136.499993751526,4|0,3:2|3:0,0:0:0:0:
285,170,57784,2,0,P|303:182|322:206,1,35,8|0,0:0|0:0,0:0:0:0:
247,334,57971,6,0,B|182:330|197:364|111:367,1,136.499993751526,2|0,3:2|0:0,0:0:0:0:
98,357,58346,2,0,L|105:314,1,35,0|0,3:0|0:0,0:0:0:0:
59,233,58534,1,8,0:0:0:0:
96,114,58721,6,0,L|247:104,1,140,2|0,3:2|3:0,0:0:0:0:
356,55,59284,5,10,0:0:0:0:
383,138,59471,1,0,3:0:0:0:
294,195,59659,5,10,0:0:0:0:
267,278,59846,1,0,3:0:0:0:
358,373,60034,6,0,L|390:369,1,31.4999990386963,8|0,0:0|0:0,0:0:0:0:
327,363,60409,5,12,0:0:0:0:
211,344,60596,1,0,3:2:0:0:
315,232,60784,5,10,0:0:0:0:
187,252,60971,1,0,3:0:0:0:
343,145,61159,5,10,0:0:0:0:
203,123,61346,1,0,3:0:0:0:
331,14,61534,5,10,0:0:0:0:
177,38,61721,1,0,0:0:0:0:
343,145,61909,5,8,3:2:0:0:
362,173,62002,1,8,0:0:0:0:
371,207,62096,2,0,P|375:229|374:251,1,35,8|8,0:0|0:0,0:0:0:0:
276,208,62284,5,8,3:2:0:0:
267,250,62377,1,8,0:0:0:0:
245,287,62471,2,0,P|229:308|209:327,1,35,8|8,0:0|0:0,0:0:0:0:
147,216,62659,5,2,3:1:0:0:
147,216,63409,6,0,B|96:214|95:240|41:240,1,105.000004005432,4|2,3:2|0:0,0:0:0:0:
142,311,63784,1,8,0:0:0:0:
50,140,63971,1,2,0:0:0:0:
224,266,64159,2,0,B|275:264|276:290|330:290,1,105.000004005432,0|2,3:0|0:0,0:0:0:0:
416,231,64534,6,0,P|422:204|417:177,3,52.5000020027161,10|2|2|2,0:0|0:0|0:0|0:0,0:0:0:0:
375,113,64909,6,0,P|330:97|274:113,1,105.000004005432,0|2,3:0|0:0,0:0:0:0:
201,192,65284,1,8,0:0:0:0:
106,85,65471,2,0,L|82:198,1,105.000004005432,2|0,0:0|3:0,0:0:0:0:
143,276,65846,2,0,L|167:389,1,105.000004005432,2|10,0:0|0:0,0:0:0:0:
264,309,66221,1,2,0:0:0:0:
286,298,66315,1,10,0:0:0:0:
315,313,66409,6,0,P|366:298|436:321,1,105.000004005432,0|2,3:2|0:0,0:0:0:0:
301,202,66784,1,8,0:0:0:0:
415,308,66971,1,2,0:0:0:0:
224,239,67159,2,0,P|173:254|103:231,1,105.000004005432,0|2,3:0|0:0,0:0:0:0:
51,170,67534,5,10,0:0:0:0:
51,170,67627,1,2,0:0:0:0:
51,170,67721,2,0,L|50:113,1,52.5000020027161,2|2,0:0|0:0,0:0:0:0:
100,43,67909,6,0,B|135:43|135:43|165:60|165:60|206:61,1,105.000004005432,0|2,3:0|0:0,0:0:0:0:
280,113,68284,2,0,L|336:115,1,52.5000020027161,8|0,0:0|0:0,0:0:0:0:
409,34,68471,2,0,B|448:135|448:135|383:232,1,210.000008010865,2|2,0:0|0:0,0:0:0:0:
391,219,69034,1,10,0:0:0:0:
313,284,69221,6,0,P|286:277|252:278,1,52.5000020027161,2|2,0:0|0:0,0:0:0:0:
180,222,69409,6,0,P|71:242|19:164,1,210.000008010865,0|8,3:2|0:0,0:0:0:0:
60,89,69971,1,2,0:0:0:0:
29,3,70159,1,0,3:0:0:0:
82,103,70346,2,0,P|135:91|189:113,1,105.000004005432,2|10,0:0|0:0,0:0:0:0:
257,163,70721,2,0,P|282:175|317:180,1,52.5000020027161,2|2,0:0|0:0,0:0:0:0:
397,157,70909,5,0,3:0:0:0:
397,157,71096,2,0,L|413:274,1,105.000004005432,2|8,0:0|0:0,0:0:0:0:
451,349,71471,1,2,0:0:0:0:
318,247,71659,2,0,P|264:252|229:294,1,105.000004005432,0|2,3:0|0:0,0:0:0:0:
291,367,72034,1,10,0:0:0:0:
280,343,72127,1,2,0:0:0:0:
261,324,72221,1,2,0:0:0:0:
231,310,72315,1,2,0:0:0:0:
207,308,72409,6,0,P|145:323|82:175,1,245.000002336502,4|8,3:2|3:2,0:0:0:0:
466,342,73159,5,0,3:0:0:0:
162,50,73534,1,10,0:0:0:0:
84,143,73721,6,0,B|234:138|182:245|373:251,1,280,4|0,3:2|3:0,0:0:0:0:
305,136,74284,5,10,0:0:0:0:
113,245,74471,1,0,0:0:0:0:
326,123,74659,5,10,0:0:0:0:
113,245,74846,5,8,0:0:0:0:
141,226,74939,1,8,0:0:0:0:
175,234,75033,1,8,3:2:0:0:
193,262,75127,1,8,0:0:0:0:
213,293,75221,1,8,0:0:0:0:
246,300,75315,1,8,0:0:0:0:
275,282,75409,6,0,B|329:282|317:315|394:323,1,105.000004005432,4|2,3:2|0:0,0:0:0:0:
260,187,75784,1,8,0:0:0:0:
371,319,75971,1,2,0:0:0:0:
484,188,76159,2,0,B|430:188|442:221|365:229,1,105.000004005432,0|2,3:0|0:0,0:0:0:0:
260,187,76534,1,10,0:0:0:0:
260,187,76627,1,2,0:0:0:0:
260,187,76721,1,2,0:0:0:0:
260,187,76815,1,2,0:0:0:0:
260,187,76909,6,0,P|208:180|153:208,1,105.000004005432,0|2,3:0|0:0,0:0:0:0:
221,268,77284,1,8,0:0:0:0:
183,353,77471,2,0,P|234:360|281:339,1,105.000004005432,2|0,0:0|3:0,0:0:0:0:
330,259,77846,1,2,0:0:0:0:
330,259,78034,6,0,L|441:264,1,105.000004005432,10|10,0:0|0:0,0:0:0:0:
394,172,78315,1,10,0:0:0:0:
394,172,78409,6,0,P|381:113|401:67,1,105.000004005432,0|2,3:2|0:0,0:0:0:0:
254,212,78784,2,0,P|239:153|201:120,1,105.000004005432,8|2,0:0|0:0,0:0:0:0:
181,270,79159,1,0,3:0:0:0:
208,124,79346,1,2,0:0:0:0:
114,178,79534,6,0,P|86:175|51:179,1,52.5000020027161,10|2,0:0|0:0,0:0:0:0:
4,88,79721,2,0,P|30:90|56:89,1,52.5000020027161,2|2,0:0|0:0,0:0:0:0:
129,19,79909,6,0,P|180:10|242:19,1,105.000004005432,0|2,3:0|0:0,0:0:0:0:
305,80,80284,2,0,P|356:89|408:82,1,105.000004005432,8|2,0:0|0:0,0:0:0:0:
408,82,80659,5,0,3:0:0:0:
378,199,80846,1,4,0:3:0:0:
436,331,81034,1,4,0:3:0:0:
351,188,81221,6,0,P|330:181|291:178,1,52.5000020027161,4|0,0:3|0:0,0:0:0:0:
178,284,81409,6,0,P|111:292|63:245,1,122.500001168251,4|0,3:2|0:0,0:0:0:0:
130,148,81690,1,0,3:0:0:0:
130,148,81784,6,0,B|185:146|185:187|257:194,1,122.500001168251,8|0,0:0|0:0,0:0:0:0:
388,106,82159,6,0,P|371:100|354:98,1,35,2|0,3:2|0:0,0:0:0:0:
351,188,82346,5,8,0:0:0:0:
393,319,82534,1,10,0:0:0:0:
233,240,82721,6,0,P|134:214|81:306,1,210,12|0,0:0|0:0,0:0:0:0:
95,314,83096,1,0,3:0:0:0:
172,131,83284,2,0,P|223:141|279:180,1,105.000004005432,10|0,0:0|3:0,0:0:0:0:
313,308,83659,5,10,0:0:0:0:
370,158,83846,1,8,3:2:0:0:
476,209,84034,1,8,3:2:0:0:
476,209,84221,2,0,L|423:217,1,52.5000020027161,4|4,3:3|3:3,0:0:0:0:
246,256,84409,6,0,L|63:280,1,157.500006008148,4|8,3:2|0:0,0:0:0:0:
119,292,84784,1,8,0:0:0:0:
64,182,84971,5,0,3:0:0:0:
64,182,85065,1,0,3:0:0:0:
64,182,85159,1,0,0:0:0:0:
20,83,85346,1,2,0:0:0:0:
20,83,85534,6,0,P|52:75|81:75,1,52.5000020027161,0|0,3:0|0:0,0:0:0:0:
189,178,85721,6,0,P|286:218|348:174,1,157.500006008148,12|0,0:0|0:0,0:0:0:0:
346,197,86096,2,0,P|326:214|298:225,1,52.5000020027161,2|0,3:2|0:0,0:0:0:0:
401,106,86284,5,8,0:0:0:0:
266,132,86471,1,2,3:2:0:0:
440,29,86659,5,8,0:0:0:0:
291,0,86846,1,8,0:0:0:0:
265,214,87034,1,4,0:3:0:0:
258,229,87127,1,4,0:3:0:0:
246,244,87221,5,4,3:2:0:0:
142,309,88534,6,0,B|89:310|91:338|33:338,1,105.000004005432,0|8,0:0|0:0,0:0:0:0:
42,337,88815,1,8,0:0:0:0:
42,337,88909,6,0,L|34:240,1,90.9999958343508,4|2,3:2|0:0,0:0:0:0:
83,178,89190,1,0,3:0:0:0:
83,178,89284,2,0,L|91:81,1,90.9999958343508,8|2,0:0|3:2,0:0:0:0:
192,140,89659,6,0,P|241:137|290:161,2,90.9999958343508,0|2|8,0:0|3:2|0:0,0:0:0:0:
260,343,90221,2,0,P|187:303|223:229,1,181.999991668702,2|2,0:0|0:0,0:0:0:0:
323,292,90690,1,0,3:0:0:0:
340,285,90784,6,0,L|431:318,1,90.9999958343508,8|2,0:0|3:2,0:0:0:0:
347,201,91159,1,0,0:0:0:0:
259,236,91346,1,2,3:2:0:0:
370,191,91534,1,8,0:0:0:0:
229,329,91721,6,0,P|248:262|156:212,1,181.999991668702,2|2,0:0|0:0,0:0:0:0:
165,209,92190,1,0,3:0:0:0:
165,209,92284,1,8,0:0:0:0:
210,128,92471,1,2,3:2:0:0:
77,160,92659,1,0,0:0:0:0:
77,160,92846,6,0,P|79:186|90:211,1,52.5,2|0,3:2|0:0,0:0:0:0:
175,257,93221,6,0,P|122:221|71:146,1,140,12|0,0:0|3:0,0:0:0:0:
125,60,93784,5,10,0:0:0:0:
0,99,93971,1,0,3:0:0:0:
138,229,94159,5,10,0:0:0:0:
13,191,94346,2,0,L|8:320,1,105,0|0,3:0|0:0,0:0:0:0:
21,321,94721,2,0,P|41:308|56:293,1,35,8|8,0:0|0:0,0:0:0:0:
138,229,94909,6,0,P|182:213|255:239,2,105,4|2|2,3:2|3:2|3:2,0:0:0:0:
355,161,96221,1,8,0:0:0:0:
316,241,96409,6,0,L|333:359,2,105,0|0|2,3:0|3:0|3:2,0:0:0:0:
141,132,97346,5,2,0:0:0:0:
141,132,97534,1,2,0:0:0:0:
51,273,97909,6,0,B|94:266|105:303|168:299,2,105,2|2|2,3:2|3:2|3:2,0:0:0:0:
310,149,99221,1,0,0:0:0:0:
248,208,99409,6,0,P|197:194|138:211,1,105,0|0,3:0|3:0,0:0:0:0:
198,311,99971,1,2,3:2:0:0:
198,311,100346,1,2,0:2:0:0:
112,286,100534,6,0,L|28:288,1,70,2|8,0:2|0:0,0:0:0:0:
0,151,100909,6,0,B|54:151|51:179|113:180,2,105,2|2|2,3:2|3:2|3:2,0:0:0:0:
108,49,101846,1,0,3:0:0:0:
198,237,102221,1,8,0:0:0:0:
280,145,102409,6,0,L|293:257,2,105,0|0|2,3:0|3:0|3:2,0:0:0:0:
422,321,103346,5,0,3:2:0:0:
422,321,103534,1,2,0:0:0:0:
331,278,103721,1,8,0:0:0:0:
214,351,103909,6,0,B|178:345|178:345|151:353|151:353|96:339,2,105,2|2|2,3:2|3:2|3:2,0:0:0:0:
146,235,104846,1,0,3:0:0:0:
92,167,105034,6,0,L|98:78,1,70,10|0,0:0|0:0,0:0:0:0:
172,16,105409,6,0,P|234:11|279:34,1,105,2|0,3:2|3:0,0:0:0:0:
300,49,105784,6,0,P|338:64|379:58,1,70,10|0,0:0|0:0,0:0:0:0:
232,150,106159,5,10,0:0:0:0:
366,62,106346,1,0,3:0:0:0:
395,238,106534,1,8,3:2:0:0:
360,239,106627,1,8,0:0:0:0:
325,240,106721,1,8,0:0:0:0:
290,241,106815,1,8,0:0:0:0:
258,260,106909,6,0,P|222:250|171:255,1,70,4|10,3:2|0:0,0:0:0:0:
118,302,107190,1,0,0:0:0:0:
118,302,107284,2,0,P|83:302|49:292,1,70,0|10,3:0|0:0,0:0:0:0:
95,205,107565,1,0,0:0:0:0:
86,184,107659,6,0,L|119:93,1,70,0|10,3:0|0:0,0:0:0:0:
108,38,107940,1,0,3:0:0:0:
104,21,108034,1,0,3:0:0:0:
211,130,108221,1,10,0:0:0:0:
211,130,108315,1,0,0:0:0:0:
211,130,108409,6,0,P|244:118|306:123,1,70,0|10,3:0|0:0,0:0:0:0:
331,220,108690,1,0,0:0:0:0:
331,220,108784,2,0,P|298:208|236:213,1,70,0|10,3:0|0:0,0:0:0:0:
198,286,109159,6,0,L|204:365,1,70,0|10,3:0|0:0,0:0:0:0:
104,241,109440,1,0,3:0:0:0:
104,241,109534,2,0,L|110:162,1,70,0|10,3:0|0:0,0:0:0:0:
86,70,109909,6,0,P|125:66|162:82,1,70,0|10,3:0|0:0,0:0:0:0:
205,153,110284,2,0,P|238:163|272:159,1,70,0|10,3:0|0:0,0:0:0:0:
350,100,110565,1,0,0:0:0:0:
367,112,110659,6,0,L|379:202,1,70,0|10,3:0|0:0,0:0:0:0:
427,263,110940,1,0,3:0:0:0:
427,263,111034,2,0,L|415:353,1,70,0|10,3:0|0:0,0:0:0:0:
322,282,111409,6,0,P|286:273|238:285,1,70,0|10,3:0|0:0,0:0:0:0:
159,202,111690,1,0,0:0:0:0:
159,202,111784,2,0,P|193:206|227:197,1,70,0|10,3:0|0:0,0:0:0:0:
98,128,112159,6,0,P|74:153|60:194,1,70,0|10,3:0|0:0,0:0:0:0:
187,101,112440,1,0,3:0:0:0:
187,101,112534,2,0,P|170:70|134:45,1,70,0|10,3:0|0:0,0:0:0:0:
159,202,112909,6,0,L|168:285,1,70,0|10,3:0|0:0,0:0:0:0:
273,147,113284,2,0,L|282:64,1,70,0|10,3:0|0:0,0:0:0:0:
384,103,113565,1,0,0:0:0:0:
375,119,113659,6,0,P|414:115|450:127,1,70,0|10,3:0|0:0,0:0:0:0:
433,230,113940,1,0,3:0:0:0:
433,230,114034,2,0,P|398:234|364:225,1,70,0|10,3:0|0:0,0:0:0:0:
264,203,114409,6,0,L|270:278,1,70,0|10,3:0|0:0,0:0:0:0:
196,139,114690,1,0,0:0:0:0:
196,139,114784,2,0,L|201:69,1,70,0|10,3:0|0:0,0:0:0:0:
61,7,115159,6,0,P|101:5|140:18,1,70,0|10,3:0|0:0,0:0:0:0:
196,139,115534,2,0,P|229:147|264:144,1,70,0|10,3:0|0:0,0:0:0:0:
351,28,115909,6,0,L|346:115,1,70,0|10,3:0|0:0,0:0:0:0:
391,169,116190,1,0,0:0:0:0:
407,191,116284,2,0,L|412:278,1,70,0|10,3:0|0:0,0:0:0:0:
340,331,116659,5,0,3:0:0:0:
256,284,116846,1,10,0:0:0:0:
256,284,116940,2,0,L|212:289,1,35,0|0,3:0|3:0,0:0:0:0:
146,340,117221,1,10,0:0:0:0:
72,233,117409,6,0,L|85:108,1,105.000004005432,4|8,3:2|0:0,0:0:0:0:
133,46,117690,1,8,0:0:0:0:
133,46,117784,6,0,P|187:40|247:62,1,105.000004005432,8|8,3:2|0:0,0:0:0:0:
303,116,118065,1,8,0:0:0:0:
303,116,118159,5,8,3:2:0:0:
270,204,118346,1,0,3:0:0:0:
315,313,118534,2,0,P|236:286|157:296,1,157.500006008148,10|0,0:0|0:0,0:0:0:0:
140,313,118909,6,0,B|86:314|91:341|36:339,2,105,4|0|0,3:2|3:0|3:0,0:0:0:0:
231,168,119846,1,0,3:0:0:0:
296,232,120034,2,0,L|370:229,1,70,8|0,0:0|0:0,0:0:0:0:
469,131,120409,6,0,P|404:119|367:166,2,105,0|0|0,3:2|3:0|3:0,0:0:0:0:
209,142,121346,1,0,3:0:0:0:
129,184,121534,1,8,0:0:0:0:
33,146,121721,1,0,0:0:0:0:
140,207,121909,6,0,L|145:327,2,105,0|0|8,3:2|3:0|0:0,0:0:0:0:
220,119,122659,2,0,L|217:84,2,35,2|0|8,0:0|3:0|0:0,0:0:0:0:
174,236,123034,2,0,L|176:270,1,35,10|0,0:0|0:0,0:0:0:0:
219,345,123221,5,2,3:2:0:0:
211,147,124346,2,0,P|189:147|158:142,3,35,0|0|0|0,0:0|0:0|0:0|0:0,0:0:0:0:
116,36,124721,1,0,0:0:0:0:
96,51,124815,1,0,0:0:0:0:
78,71,124909,6,0,P|59:113|56:191,1,105.000004005432,4|0,3:2|0:0,0:0:0:0:
105,252,125190,1,0,3:0:0:0:
105,252,125284,6,0,P|131:264|166:269,1,52.5000020027161,8|0,0:0|0:0,0:0:0:0:
277,200,125471,2,0,P|216:203|194:328,1,210.000008010865,2|2,3:2|3:2,0:0:0:0:
365,183,126034,1,8,0:0:0:0:
87,90,126221,6,0,B|139:84|139:84|179:113|179:113|305:106,1,210.000008010865,4|2,3:2|3:1,0:0:0:0:
381,64,126784,5,8,0:0:0:0:
461,96,126971,1,0,3:0:0:0:
354,54,127159,1,8,0:0:0:0:
380,188,127346,5,8,0:0:0:0:
380,188,127440,1,8,0:0:0:0:
380,188,127534,1,8,3:2:0:0:
353,172,127627,1,8,0:0:0:0:
322,177,127721,1,8,0:0:0:0:
302,199,127815,1,8,0:0:0:0:
299,230,127909,6,0,P|246:212|193:214,1,105.000004005432,12|0,0:2|3:0,0:0:0:0:
97,324,128284,5,10,0:2:0:0:
233,302,128471,1,0,3:0:0:0:
149,205,128659,5,10,0:2:0:0:
299,230,128846,1,0,3:0:0:0:
101,126,129034,5,10,0:2:0:0:
266,98,129221,1,0,3:0:0:0:
265,319,129409,5,8,3:2:0:0:
234,333,129502,1,8,0:0:0:0:
199,336,129596,2,0,P|176:336|155:332,1,35,8|8,0:0|0:0,0:0:0:0:
213,242,129784,5,8,3:2:0:0:
173,227,129877,1,8,0:0:0:0:
140,199,129971,2,0,P|121:179|106:157,1,35,8|8,0:0|0:0,0:0:0:0:
225,114,130159,5,10,0:0:0:0:
225,114,130909,6,0,B|277:101|277:101|333:116,1,105.000004005432,4|2,3:2|0:0,0:0:0:0:
326,232,131284,2,0,B|276:245|276:245|224:232,1,105.000004005432,8|2,0:0|0:0,0:0:0:0:
385,175,131659,1,0,3:0:0:0:
162,174,131846,1,2,0:0:0:0:
213,267,132034,6,0,L|267:281,2,52.5000020027161,10|2|2,0:0|0:0|0:0,0:0:0:0:
146,324,132315,1,2,0:0:0:0:
129,333,132409,6,0,L|22:305,2,105.000004005432,0|2|8,3:0|0:0|0:0,0:0:0:0:
264,262,132971,2,0,P|318:262|381:308,1,105.000004005432,2|0,0:0|3:0,0:0:0:0:
183,145,133346,2,0,P|129:145|66:99,1,105.000004005432,2|10,0:0|0:0,0:0:0:0:
155,40,133721,1,2,0:0:0:0:
155,40,133815,1,10,0:0:0:0:
155,40,133909,6,0,L|272:32,1,105.000004005432,0|2,3:2|0:0,0:0:0:0:
377,82,134284,1,8,0:0:0:0:
259,32,134471,1,2,0:0:0:0:
327,167,134659,2,0,L|431:174,1,105.000004005432,0|2,3:0|0:0,0:0:0:0:
274,248,135034,6,0,P|242:244|216:248,1,52.5000020027161,10|2,0:0|0:0,0:0:0:0:
156,295,135221,2,0,P|124:299|98:295,1,52.5000020027161,2|2,0:0|0:0,0:0:0:0:
47,224,135409,6,0,L|47:108,1,105.000004005432,0|2,3:0|0:0,0:0:0:0:
112,45,135784,2,0,P|138:40|169:44,1,52.5000020027161,8|0,0:0|0:0,0:0:0:0:
239,105,135971,2,0,B|290:104|283:138|354:138,1,105.000004005432,2|0,0:0|3:0,0:0:0:0:
334,232,136346,2,0,B|283:231|290:265|219:265,1,105.000004005432,2|10,0:0|0:0,0:0:0:0:
164,226,136627,5,2,0:0:0:0:
151,217,136721,2,0,L|88:217,1,52.5000020027161,2|2,0:0|0:0,0:0:0:0:
30,373,136909,6,0,P|67:315|198:366,1,210.000008010865,0|8,3:2|0:0,0:0:0:0:
255,274,137471,1,2,0:0:0:0:
236,184,137659,1,0,3:0:0:0:
284,103,137846,2,0,L|403:98,1,105.000004005432,2|10,0:0|0:0,0:0:0:0:
236,184,138127,1,2,0:0:0:0:
236,184,138221,6,0,P|181:170|116:185,1,105.000004005432,2|0,0:0|3:0,0:0:0:0:
324,321,138596,2,0,P|375:327|425:314,1,105.000004005432,2|8,0:0|0:0,0:0:0:0:
367,212,138971,1,2,0:0:0:0:
411,120,139159,1,0,3:0:0:0:
358,33,139346,2,0,L|241:37,1,105.000004005432,2|10,0:0|0:0,0:0:0:0:
187,98,139627,5,2,0:0:0:0:
167,114,139721,2,0,L|106:118,1,52.5000020027161,2|2,0:0|0:0,0:0:0:0:
0,222,139909,6,0,L|270:247,1,245.000002336502,4|8,3:2|3:2,0:0:0:0:
463,155,140471,1,0,0:0:0:0:
463,155,140565,1,0,3:0:0:0:
463,155,140659,6,0,P|426:129|345:195,1,140,0|10,3:0|0:0,0:0:0:0:
239,341,141221,6,0,L|214:55,1,280,4|0,3:2|3:0,0:0:0:0:
59,109,141784,5,8,0:0:0:0:
77,106,141877,1,8,0:0:0:0:
96,104,141971,2,0,L|145:97,1,35,8|8,0:0|0:0,0:0:0:0:
226,180,142159,5,8,3:2:0:0:
255,184,142252,1,8,0:0:0:0:
286,188,142346,2,0,L|341:195,1,35,8|8,0:0|0:0,0:0:0:0:
370,85,142534,5,8,3:2:0:0:
406,79,142627,1,8,0:0:0:0:
445,74,142721,2,0,L|504:67,1,35,8|8,0:0|0:0,0:0:0:0:
483,247,142909,6,0,B|433:247|432:221|381:223,1,105.000004005432,4|2,3:2|0:0,0:0:0:0:
386,318,143284,1,8,0:0:0:0:
478,147,143471,1,2,0:0:0:0:
304,273,143659,2,0,B|253:271|252:297|198:297,1,105.000004005432,0|2,3:0|0:0,0:0:0:0:
106,242,144034,6,0,P|100:215|105:188,3,52.5000020027161,10|2|2|2,0:0|0:0|0:0|0:0,0:0:0:0:
153,120,144409,6,0,P|198:104|254:120,1,105.000004005432,0|2,3:0|0:0,0:0:0:0:
327,199,144784,1,8,0:0:0:0:
422,92,144971,6,0,P|437:141|446:205,1,105.000004005432,2|0,0:0|3:0,0:0:0:0:
386,283,145346,2,0,P|369:336|362:396,1,105.000004005432,2|10,0:0|0:0,0:0:0:0:
293,222,145721,1,10,0:0:0:0:
274,210,145815,1,10,0:0:0:0:
243,220,145909,6,0,B|190:219|186:246|136:248,1,105.000004005432,0|2,3:2|0:0,0:0:0:0:
12,217,146284,1,8,0:0:0:0:
142,157,146471,1,2,0:0:0:0:
1,53,146659,2,0,B|54:52|58:79|108:81,1,105.000004005432,0|2,3:0|0:0,0:0:0:0:
234,44,147034,5,10,0:0:0:0:
247,38,147127,1,2,0:0:0:0:
262,37,147221,1,2,0:0:0:0:
277,39,147315,1,2,0:0:0:0:
291,45,147409,6,0,L|303:162,1,105.000004005432,0|2,3:0|0:0,0:0:0:0:
410,233,147784,2,0,L|420:128,1,105.000004005432,8|2,0:0|0:0,0:0:0:0:
304,259,148159,1,0,3:0:0:0:
174,123,148346,5,4,0:3:0:0:
117,280,148534,1,4,0:3:0:0:
181,107,148721,2,0,L|160:163,1,52.5000020027161,4|8,0:3|0:0,0:0:0:0:
107,303,148909,6,0,B|237:290|215:384|365:378,1,245.000002336502,4|8,3:2|0:0,0:0:0:0:
395,306,149471,1,0,0:0:0:0:
269,127,149659,6,0,L|242:256,2,122.500001168251,2|8|10,3:2|0:0|0:0,0:0:0:0:
107,303,150221,6,0,L|63:22,1,280,12|0,0:0|3:0,0:0:0:0:
179,150,150784,2,0,P|274:218|351:169,1,210.000008010865,10|10,0:0|0:0,0:0:0:0:
324,91,151346,5,8,3:2:0:0:
369,15,151534,1,8,3:2:0:0:
443,156,151721,1,4,3:3:0:0:
443,156,151815,1,4,3:3:0:0:
443,156,151909,6,0,B|438:256|382:216|392:349,1,183.750001752377,4|8,3:2|0:0,0:0:0:0:
406,352,152284,1,8,0:0:0:0:
140,273,152659,2,0,L|127:159,1,105.000004005432,0|2,0:0|0:0,0:0:0:0:
153,62,153034,1,0,3:0:0:0:
239,208,153221,6,0,B|292:176|330:182|330:182|357:211|351:246,1,157.500006008148,12|0,0:0|0:0,0:0:0:0:
352,259,153596,5,2,3:2:0:0:
206,286,153784,1,8,0:0:0:0:
321,176,153971,5,2,3:2:0:0:
161,147,154159,1,8,0:0:0:0:
294,42,154346,5,8,0:0:0:0:
118,73,154534,1,4,0:3:0:0:
118,73,154721,6,0,P|92:81|60:84,1,52.5000020027161,2|2,3:1|0:0,0:0:0:0:
161,135,162034,6,0,L|158:162,1,28,2|2,3:2|0:0,0:0:0:0:
203,228,163534,6,0,P|215:232|230:231,1,28,2|2,3:2|0:0,0:0:0:0:
291,175,165034,6,0,L|294:148,1,28,2|2,3:2|3:2,0:0:0:0:
349,73,165784,5,2,3:2:0:0:
230,238,166159,1,2,3:2:0:0:
230,238,166346,1,0,3:0:0:0:
77,264,166534,6,0,L|7:255,1,52.5000020027161,8|0,0:0|0:0,0:0:0:0:
133,346,166815,1,8,0:0:0:0:
158,360,166909,6,0,P|203:369|256:356,1,83.9999974365235,2|2,3:1|0:0,0:0:0:0:
288,289,167190,1,8,0:0:0:0:
288,289,167284,2,0,L|282:245,1,41.9999987182618,2|0,3:1|0:0,0:0:0:0:
324,180,167471,2,0,L|330:136,1,41.9999987182618,10|0,0:0|0:0,0:0:0:0:
290,61,167659,6,0,P|248:53|203:60,1,83.9999974365235,2|10,3:1|0:0,0:0:0:0:
133,110,168034,1,2,3:1:0:0:
34,44,168221,2,0,L|14:222,1,167.999994873047,10|2,0:0|0:0,0:0:0:0:
31,242,168690,1,8,0:0:0:0:
31,242,168784,1,2,3:1:0:0:
155,231,168971,6,0,P|231:266|295:209,1,167.999994873047,10|10,0:0|0:0,0:0:0:0:
253,118,169534,2,0,L|398:126,1,125.999996154785,2|8,3:1|0:0,0:0:0:0:
399,143,169909,1,2,3:1:0:0:
399,143,170002,6,0,L|408:187,1,41.9999987182618,8|10,0:0|0:0,0:0:0:0:
372,269,170190,1,8,0:0:0:0:
372,269,170283,2,0,L|363:313,1,41.9999987182618,2|0,3:1|0:0,0:0:0:0:
416,378,170471,1,10,0:0:0:0:
284,272,170659,6,0,P|238:254|191:265,1,83.9999974365235,2|10,3:1|0:0,0:0:0:0:
133,150,171034,2,0,P|170:167|212:163,1,83.9999974365235,2|10,3:1|0:0,0:0:0:0:
316,102,171409,6,0,L|340:188,1,83.9999974365235,2|2,3:1|0:0,0:0:0:0:
428,129,171690,1,8,0:0:0:0:
418,108,171784,2,0,L|440:27,1,83.9999974365235,2|10,3:1|0:0,0:0:0:0:
482,200,172159,6,0,L|487:249,1,41.9999987182618,2|0,3:1|0:0,0:0:0:0:
386,303,172346,2,0,L|390:261,1,41.9999987182618,10|0,0:0|0:0,0:0:0:0:
338,182,172534,2,0,B|291:168|291:168|234:184,1,83.9999974365235,2|10,3:1|0:0,0:0:0:0:
147,209,172909,6,0,P|142:168|154:125,1,83.9999974365235,2|2,3:1|0:0,0:0:0:0:
214,58,173190,1,8,0:0:0:0:
228,48,173284,6,0,P|248:39|281:30,1,41.9999987182618,2|0,3:1|0:0,0:0:0:0:
347,98,173471,2,0,P|367:105|397:122,1,41.9999987182618,10|0,0:0|0:0,0:0:0:0:
467,233,173659,5,2,3:1:0:0:
425,239,173752,1,0,0:0:0:0:
390,261,173846,1,10,0:0:0:0:
353,281,173940,1,0,0:0:0:0:
313,291,174034,6,0,L|261:285,1,41.9999987182618,2|0,3:1|0:0,0:0:0:0:
203,228,174221,2,0,L|151:234,1,41.9999987182618,10|0,0:0|0:0,0:0:0:0:
54,295,174409,5,2,3:1:0:0:
51,267,174502,1,0,0:0:0:0:
48,240,174596,1,2,0:0:0:0:
46,213,174690,1,8,0:0:0:0:
43,186,174784,6,0,L|53:138,3,41.9999987182618,2|0|10|0,3:1|0:0|0:0|0:0,0:0:0:0:
118,76,175159,5,2,3:1:0:0:
118,76,175252,1,0,0:0:0:0:
118,76,175346,2,0,P|137:76|166:86,1,41.9999987182618,10|0,0:0|0:0,0:0:0:0:
228,156,175534,5,2,3:1:0:0:
332,79,175721,2,0,L|340:186,1,83.9999974365235,10|2,0:0|3:1,0:0:0:0:
359,262,176096,2,0,P|337:265|315:262,1,41.9999987182618,10|0,0:0|0:0,0:0:0:0:
240,301,176284,6,0,P|193:284|137:294,1,83.9999974365235,2|10,3:1|0:0,0:0:0:0:
57,327,176659,1,2,3:1:0:0:
159,286,176846,1,2,0:0:0:0:
20,231,177034,5,2,3:1:0:0:
20,231,177127,1,0,0:0:0:0:
20,231,177221,6,0,P|1:136|68:92,1,167.999994873047,12|0,0:0|3:0,0:0:0:0:
151,154,177784,5,10,0:0:0:0:
241,173,177971,1,0,3:0:0:0:
316,83,178159,5,10,0:0:0:0:
406,64,178346,1,0,3:0:0:0:
289,89,178534,1,10,0:0:0:0:
496,147,178721,6,0,B|445:159|445:159|423:189|423:189|336:208,1,167.999994873047,4|0,3:2|3:0,0:0:0:0:
221,190,179284,5,10,0:0:0:0:
134,214,179471,1,0,3:0:0:0:
277,279,179659,6,0,P|295:276|326:277,1,41.9999987182618,10|0,0:0|0:0,0:0:0:0:
391,319,179846,1,0,3:0:0:0:
505,279,180034,6,0,P|487:276|456:277,1,41.9999987182618,4|4,3:3|0:3,0:0:0:0:
391,319,180221,1,4,0:3:0:0:
387,187,180409,6,0,L|392:73,1,105.000004005432,10|0,0:0|0:0,0:0:0:0:
365,168,181909,6,0,B|416:170|417:144|466:144,1,105.000004005432,4|2,3:2|0:0,0:0:0:0:
370,73,182284,1,8,0:0:0:0:
462,244,182471,1,2,0:0:0:0:
288,118,182659,2,0,B|237:120|236:94|186:94,1,105.000004005432,0|2,3:0|0:0,0:0:0:0:
89,149,183034,6,0,P|84:174|87:200,3,52.5000020027161,10|2|2|2,0:0|0:0|0:0|0:0,0:0:0:0:
137,271,183409,6,0,L|252:272,1,105.000004005432,0|2,3:0|0:0,0:0:0:0:
311,192,183784,1,8,0:0:0:0:
406,299,183971,2,0,L|427:196,1,105.000004005432,2|0,0:0|3:0,0:0:0:0:
369,108,184346,2,0,L|347:5,1,105.000004005432,2|10,0:0|0:0,0:0:0:0:
248,75,184721,1,2,0:0:0:0:
226,86,184815,1,2,0:0:0:0:
197,70,184909,6,0,P|147:85|96:75,1,105.000004005432,0|2,3:2|0:0,0:0:0:0:
211,182,185284,1,8,0:0:0:0:
97,76,185471,1,2,0:0:0:0:
287,145,185659,2,0,P|337:130|388:140,1,105.000004005432,0|2,3:0|0:0,0:0:0:0:
461,214,186034,5,10,0:0:0:0:
461,214,186127,1,2,0:0:0:0:
461,214,186221,2,0,P|465:237|461:266,1,52.5000020027161,2|2,0:0|0:0,0:0:0:0:
411,341,186409,6,0,P|356:350|296:340,1,105.000004005432,0|2,3:0|0:0,0:0:0:0:
226,285,186784,2,0,P|196:281|171:284,1,52.5000020027161,8|0,0:0|0:0,0:0:0:0:
73,332,186971,2,0,B|56:305|50:286|48:266|70:245|75:224|68:197|39:186|36:170|31:146|53:108,1,210.000008010865,2|2,0:0|0:0,0:0:0:0:
98,53,187534,1,10,0:0:0:0:
115,45,187627,1,2,0:0:0:0:
135,42,187721,1,2,0:0:0:0:
154,44,187815,1,2,0:0:0:0:
172,51,187909,6,0,P|225:60|293:41,1,105.000004005432,0|2,3:2|0:0,0:0:0:0:
410,134,188284,2,0,P|358:123|307:132,1,105.000004005432,8|2,0:0|0:0,0:0:0:0:
355,230,188659,5,0,3:0:0:0:
305,334,188846,2,0,L|409:336,1,105.000004005432,2|10,0:0|0:0,0:0:0:0:
234,274,189127,1,2,0:0:0:0:
234,274,189221,6,0,B|189:271|184:298|131:296,1,105.000004005432,2|0,0:0|3:0,0:0:0:0:
135,153,189596,2,0,B|186:151|191:178|236:175,1,105.000004005432,2|8,0:0|0:0,0:0:0:0:
326,123,189971,5,2,0:0:0:0:
432,143,190159,1,0,3:0:0:0:
377,50,190346,2,0,P|329:35|275:46,1,105.000004005432,2|10,0:0|0:0,0:0:0:0:
184,90,190627,5,2,0:0:0:0:
167,75,190721,2,0,P|137:71|102:77,1,52.5000020027161,2|2,0:0|0:0,0:0:0:0:
25,193,190909,6,0,B|125:188|77:254|197:257,1,183.750001752377,4|0,3:2|0:0,0:0:0:0:
213,242,191284,6,0,P|250:235|291:239,1,70,8|0,3:2|0:0,0:0:0:0:
256,348,191659,1,0,3:0:0:0:
333,134,192034,5,10,0:0:0:0:
264,102,192221,6,0,P|383:77|363:204,1,280,4|0,3:2|3:0,0:0:0:0:
155,91,192784,5,8,0:0:0:0:
124,193,192971,1,8,0:0:0:0:
283,224,193159,5,8,3:2:0:0:
252,122,193346,5,8,0:0:0:0:
271,111,193440,1,8,0:0:0:0:
290,106,193534,2,0,P|311:104|347:110,1,35,8|8,3:2|0:0,0:0:0:0:
462,161,193721,5,8,0:0:0:0:
440,174,193815,1,8,0:0:0:0:
427,192,193909,6,0,B|425:246|448:241|445:306,1,105.000004005432,4|2,3:2|0:0,0:0:0:0:
264,326,194284,2,0,B|262:273|285:278|283:224,1,105.000004005432,8|2,0:0|0:0,0:0:0:0:
440,181,194659,6,0,B|438:235|461:230|458:295,1,105.000004005432,4|2,3:2|0:0,0:0:0:0:
249,336,195034,2,0,B|246:282|269:287|267:233,1,105.000004005432,10|2,0:0|0:0,0:0:0:0:
223,140,195315,1,2,0:0:0:0:
223,140,195409,6,0,L|109:131,1,105.000004005432,0|2,3:0|0:0,0:0:0:0:
105,223,195784,1,8,0:0:0:0:
51,67,195971,6,0,P|27:122|41:185,1,105.000004005432,2|0,0:0|3:0,0:0:0:0:
105,223,196346,2,0,P|108:274|85:321,1,105.000004005432,2|10,0:0|0:0,0:0:0:0:
72,343,196627,1,2,0:0:0:0:
72,343,196721,2,0,P|96:353|131:357,1,52.5000020027161,10|10,0:0|0:0,0:0:0:0:
227,296,196909,6,0,L|339:318,1,105.000004005432,0|2,3:2|0:0,0:0:0:0:
416,281,197284,1,8,0:0:0:0:
204,205,197471,1,2,0:0:0:0:
396,181,197659,2,0,L|284:203,1,105.000004005432,0|2,3:0|0:0,0:0:0:0:
149,136,198034,5,10,0:0:0:0:
123,152,198127,1,2,0:0:0:0:
97,170,198221,6,0,L|84:279,1,105.000004005432,2|0,0:0|3:0,0:0:0:0:
12,129,198596,2,0,L|0:24,1,105.000004005432,2|8,0:0|0:0,0:0:0:0:
95,50,198971,5,2,0:0:0:0:
95,50,199159,1,0,3:0:0:0:
177,216,199346,5,4,0:3:0:0:
285,70,199534,1,4,0:3:0:0:
158,235,199721,1,4,0:3:0:0:
408,261,199909,6,0,P|350:214|281:294,1,183.750001752377,4|0,3:2|3:0,0:0:0:0:
260,298,200284,1,8,0:0:0:0:
68,131,200659,5,8,0:0:0:0:
45,249,200846,1,0,3:0:0:0:
102,119,201034,1,10,0:0:0:0:
231,208,201221,6,0,B|365:203|321:304|503:298,1,280,4|0,3:2|3:0,0:0:0:0:
385,168,201784,5,10,0:0:0:0:
231,208,201971,1,0,3:0:0:0:
420,91,202159,5,10,0:0:0:0:
251,47,202346,1,0,3:0:0:0:
219,234,202534,5,10,0:0:0:0:
154,142,202721,2,0,P|121:137|80:141,1,70,0|0,3:0|0:0,0:0:0:0:
49,247,202909,6,0,P|145:224|167:372,1,280,4|8,3:2|0:0,0:0:0:0:
466,78,203659,6,0,P|340:73|343:199,1,280,4|8,3:2|0:0,0:0:0:0:
477,340,204221,6,0,L|197:303,1,245.000002336502,4|0,3:2|0:0,0:0:0:0:
95,227,204784,6,0,P|150:201|212:201,1,105.000004005432,10|0,0:0|0:0,0:0:0:0:
332,336,205159,2,0,P|280:330|233:307,1,105.000004005432,2|0,3:2|0:0,0:0:0:0:
90,212,205534,2,0,P|145:186|207:186,1,105.000004005432,10|8,0:0|0:0,0:0:0:0:
281,230,205815,1,8,0:0:0:0:
281,230,205909,6,0,B|276:169|276:169|302:133|302:133|298:42,1,183.750001752377,4|0,3:2|0:0,0:0:0:0:
276,42,206284,1,8,0:0:0:0:
381,289,206659,5,2,3:2:0:0:
248,329,206846,2,0,L|300:338,1,35,0|8,0:0|0:0,0:0:0:0:
400,318,207034,1,8,0:0:0:0:
200,245,207221,6,0,B|194:78|194:78|113:76|90:155,1,280,12|8,0:2|0:0,0:0:0:0:
284,271,207784,6,0,P|208:332|120:280,1,210.000008010865,8|2,0:0|3:1,0:0:0:0:
335,196,208346,5,8,0:0:0:0:
200,245,208534,1,8,0:0:0:0:
233,139,208721,1,4,0:3:0:0:
233,139,208815,1,4,0:3:0:0:
233,139,208909,6,0,P|175:138|89:224,1,183.750001752377,4|0,3:2|3:0,0:0:0:0:
98,247,209284,1,8,0:0:0:0:
159,343,209471,1,0,3:0:0:0:
159,343,209565,1,0,3:0:0:0:
159,343,209659,6,0,L|273:342,1,105.000004005432,0|2,3:0|0:0,0:0:0:0:
359,301,210034,1,0,3:0:0:0:
296,190,210221,6,0,P|416:187|484:323,1,280,12|8,0:0|3:2,0:0:0:0:
194,238,210784,5,8,3:2:0:0:
359,301,210971,1,8,3:2:0:0:
138,170,211159,5,8,3:2:0:0:
303,107,211346,1,8,3:2:0:0:
56,174,211534,6,0,P|58:153|72:120,1,35,4|4,3:3|3:3,0:0:0:0:
188,8,211721,1,4,3:2:0:0:
206,239,213409,5,2,0:0:0:0:
298,150,213784,1,2,0:0:0:0:
377,212,214159,6,0,L|426:207,3,35,4|4|4|4,0:3|0:3|0:3|0:3,0:0:0:0:
494,168,214534,6,0,P|502:199|502:234,1,52.5,2|0,0:2|0:0,0:0:0:0:
496,254,214909,6,0,P|491:292|506:330,1,70,4|2,3:2|0:0,0:0:0:0:
400,365,215190,1,0,3:0:0:0:
400,365,215284,2,0,P|408:331|404:297,1,70,8|2,0:0|3:2,0:0:0:0:
306,324,215659,5,0,0:0:0:0:
235,256,215846,2,0,L|158:260,1,70,2|8,3:2|0:0,0:0:0:0:
79,332,216221,2,0,P|52:260|80:186,1,140,2|2,0:0|0:0,0:0:0:0:
131,145,216690,1,0,3:0:0:0:
131,145,216784,6,0,L|126:61,1,70,8|2,0:0|3:2,0:0:0:0:
222,97,217159,2,0,L|294:92,2,70,0|2|8,0:0|3:2|0:0,0:0:0:0:
267,188,217721,2,0,P|297:215|410:184,1,140,2|2,0:0|0:0,0:0:0:0:
390,206,218190,1,0,3:0:0:0:
390,206,218284,6,0,L|385:287,1,70,8|2,0:0|3:2,0:0:0:0:
475,148,218659,2,0,L|470:78,1,70,0|2,0:0|3:2,0:0:0:0:
403,17,219034,1,8,0:0:0:0:
320,87,219221,6,0,B|246:83|266:127|157:127,1,140,2|2,0:0|0:0,0:0:0:0:
109,66,219690,1,0,3:0:0:0:
109,66,219784,2,0,P|93:98|91:149,1,70,8|2,0:0|0:0,0:0:0:0:
207,191,220159,2,0,P|202:156|186:125,1,70,0|2,0:0|3:2,0:0:0:0:
132,267,220534,5,8,0:0:0:0:
166,269,220627,1,8,0:0:0:0:
201,271,220721,1,10,0:0:0:0:
236,273,220815,1,0,0:0:0:0:
271,275,220909,6,0,B|321:278|319:312|372:312,1,105,4|0,3:2|3:0,0:0:0:0:
384,325,221284,1,8,0:0:0:0:
372,220,221471,1,2,3:2:0:0:
433,132,221659,2,0,L|502:130,2,70,0|2|8,0:0|3:2|0:0,0:0:0:0:
347,52,222221,6,0,L|202:57,1,140,2|2,0:0|0:0,0:0:0:0:
133,94,222690,1,0,3:0:0:0:
121,105,222784,2,0,P|116:141|129:180,1,70,8|2,0:0|3:2,0:0:0:0:
195,243,223159,5,0,0:0:0:0:
288,192,223346,1,2,3:2:0:0:
174,255,223534,1,8,0:0:0:0:
320,303,223721,6,0,P|366:289|441:348,1,140,2|2,0:0|0:0,0:0:0:0:
437,337,224190,1,0,3:0:0:0:
437,337,224284,2,0,L|430:265,2,70,8|2|0,0:0|3:2|0:0,0:0:0:0:
356,366,224846,1,2,3:2:0:0:
259,226,225034,1,8,0:0:0:0:
100,328,225221,6,0,L|86:170,1,140,4|0,3:2|3:0,0:0:0:0:
262,189,225784,5,8,3:2:0:0:
209,136,225971,1,8,3:2:0:0:
262,209,226159,5,8,3:2:0:0:
262,89,226346,1,8,3:2:0:0:
263,228,226534,5,8,3:2:0:0:
333,71,226721,1,8,3:2:0:0:
261,245,226909,5,8,3:2:0:0:
408,84,227096,1,8,3:2:0:0:
261,269,227284,5,8,3:2:0:0:
463,138,227471,1,8,3:2:0:0:
261,287,227659,5,8,3:2:0:0:
262,89,227846,6,0,P|140:96|126:172,1,210,4|0,3:2|0:0,0:0:0:0:
