osu file format v14

[General]
AudioFilename: audio.mp3
AudioLeadIn: 0
PreviewTime: 84119
Countdown: 0
SampleSet: Soft
StackLeniency: 0.7
Mode: 0
LetterboxInBreaks: 0
WidescreenStoryboard: 1

[Editor]
DistanceSpacing: 1.3
BeatDivisor: 4
GridSize: 32
TimelineZoom: 1.9

[Metadata]
Title:Shinkai
TitleUnicode:心海
Artist:Eve
ArtistUnicode:Eve
Creator:HeTo
Version:Xahlt's Hard
Source:ジョゼと虎と魚たち
Tags:joze to tora to sakana tachi Josee, the Tiger and the Fish jpop j-pop pop anime movie japanese saggin xahlt
BeatmapID:2763619
BeatmapSetID:1323251

[Difficulty]
HPDrainRate:4.5
CircleSize:3.8
OverallDifficulty:6
ApproachRate:7.1
SliderMultiplier:1.38
SliderTickRate:1

[Events]
//Background and Video events
0,0,"bg.jpg",0,0
Video,76,"shinkai.mp4"
//Break Periods
//Storyboard Layer 0 (Background)
//Storyboard Layer 1 (Fail)
//Storyboard Layer 2 (Pass)
//Storyboard Layer 3 (Foreground)
//Storyboard Layer 4 (Overlay)
//Storyboard Sound Samples

[TimingPoints]
17778,487.80487804878,4,2,1,30,1,0
25582,-100,4,2,1,45,0,0
37168,-100,4,2,1,5,0,0
37290,-100,4,2,1,45,0,0
40460,-100,4,2,1,30,0,0
40704,-100,4,2,1,45,0,0
41192,-111.111111111111,4,2,1,45,0,0
41435,-111.111111111111,4,2,1,30,0,0
41680,-111.111111111111,4,2,1,45,0,0
43874,-111.111111111111,4,2,1,30,0,0
44119,-111.111111111111,4,2,1,45,0,0
47289,-111.111111111111,4,2,1,30,0,0
47534,-111.111111111111,4,2,1,45,0,0
49119,-111.111111111111,4,2,1,5,0,0
49240,-111.111111111111,4,2,1,45,0,0
53143,-111.111111111111,4,2,1,30,0,0
53387,-111.111111111111,4,2,1,45,0,0
55948,-111.111111111111,4,2,1,5,0,0
56070,-111.111111111111,4,2,1,55,0,0
56802,-111.111111111111,4,2,1,50,0,0
57533,-111.111111111111,4,2,1,30,0,0
57777,-111.111111111111,4,2,1,50,0,0
62899,-111.111111111111,4,2,1,30,0,0
63021,-111.111111111111,4,2,1,50,0,0
68752,-111.111111111111,4,2,1,30,0,0
68997,-111.111111111111,4,2,1,50,0,0
69484,-111.111111111111,4,2,1,30,0,0
69729,-111.111111111111,4,2,1,50,0,0
71679,-111.111111111111,4,2,1,55,0,0
72412,-111.111111111111,4,2,1,45,0,0
72899,-111.111111111111,4,2,1,30,0,0
73387,-111.111111111111,4,2,1,45,0,0
73874,-111.111111111111,4,2,1,30,0,0
74363,-111.111111111111,4,2,1,45,0,0
74606,-111.111111111111,4,2,1,30,0,0
75094,-111.111111111111,4,2,1,45,0,0
81435,-111.111111111111,4,2,1,55,0,0
81680,-111.111111111111,4,2,1,60,0,0
82412,-111.111111111111,4,2,1,45,0,0
83997,-111.111111111111,4,2,1,5,0,0
84119,-90.9090909090908,4,2,1,70,0,1
84362,-90.9090909090908,4,2,1,30,0,1
84607,-90.9090909090908,4,2,1,70,0,1
84973,-90.9090909090908,4,2,1,5,0,1
85095,-90.9090909090908,4,2,1,70,0,1
97777,-90.9090909090908,4,2,1,70,0,1
98753,-90.9090909090908,4,2,1,70,0,0
98997,-90.9090909090908,4,2,1,70,0,0
99119,-90.9090909090908,4,2,1,70,0,0
99363,-90.9090909090908,4,2,1,70,0,0
99485,-90.9090909090908,4,2,1,70,0,0
99729,-90.9090909090908,4,2,1,70,0,1
99972,-90.9090909090908,4,2,1,30,0,1
100217,-90.9090909090908,4,2,1,70,0,1
100582,-90.9090909090908,4,2,1,5,0,1
100704,-90.9090909090908,4,2,1,70,0,1
116314,-90.9090909090908,4,2,1,60,0,1
116557,-90.9090909090908,4,2,1,30,0,1
117168,-90.9090909090908,4,2,1,5,0,1
117290,-100,4,2,1,50,0,0
125095,-111.111111111111,4,2,1,40,0,0
125338,-111.111111111111,4,2,1,30,0,0
125582,-111.111111111111,4,2,1,40,0,0
125825,-111.111111111111,4,2,1,30,0,0
126070,-111.111111111111,4,2,1,40,0,0
131191,-111.111111111111,4,2,1,30,0,0
131436,-111.111111111111,4,2,1,40,0,0
131679,-111.111111111111,4,2,1,30,0,0
131802,-111.111111111111,4,2,1,40,0,0
137045,-111.111111111111,4,2,1,30,0,0
137290,-111.111111111111,4,2,1,40,0,0
141192,-111.111111111111,4,2,1,50,0,0
141435,-111.111111111111,4,2,1,30,0,0
141680,-111.111111111111,4,2,1,50,0,0
146801,-111.111111111111,4,2,1,30,0,0
147046,-111.111111111111,4,2,1,50,0,0
147777,-111.111111111111,4,2,1,30,0,0
148021,-111.111111111111,4,2,1,50,0,0
152655,-111.111111111111,4,2,1,30,0,0
152899,-111.111111111111,4,2,1,50,0,0
153386,-111.111111111111,4,2,1,30,0,0
153631,-111.111111111111,4,2,1,50,0,0
156314,-111.111111111111,4,2,1,45,0,0
156801,-111.111111111111,4,2,1,30,0,0
157290,-111.111111111111,4,2,1,45,0,0
157777,-111.111111111111,4,2,1,30,0,0
158265,-111.111111111111,4,2,1,45,0,0
158508,-111.111111111111,4,2,1,30,0,0
158996,-111.111111111111,4,2,1,45,0,0
165094,-111.111111111111,4,2,1,55,0,0
165582,-111.111111111111,4,2,1,65,0,0
167046,487.80487804878,4,2,1,70,1,0
167046,-90.9090909090908,4,2,1,70,0,1
167289,-90.9090909090908,4,2,1,30,0,1
167533,-90.9090909090908,4,2,1,70,0,1
174606,-90.9090909090908,4,2,1,30,0,1
174850,-90.9090909090908,4,2,1,70,0,1
183631,-90.9090909090908,4,2,1,70,0,0
184606,-125,4,2,1,40,0,0
192411,-111.111111111111,4,2,1,50,0,0
193630,-111.111111111111,4,2,1,30,0,0
193753,-111.111111111111,4,2,1,50,0,0
195581,-111.111111111111,4,2,1,30,0,0
195704,-111.111111111111,4,2,1,50,0,0
195947,-111.111111111111,4,2,1,30,0,0
196070,-111.111111111111,4,2,1,50,0,0
199972,-111.111111111111,4,2,1,60,0,0
200216,-111.111111111111,4,2,1,55,0,0
205337,-111.111111111111,4,2,1,60,0,0
205826,-111.111111111111,4,2,1,65,0,0
207777,-100,4,2,1,65,0,0
208509,-100,4,2,1,50,0,0
211924,-90.9090909090909,4,2,1,70,0,1
221680,-90.9090909090909,4,2,1,50,0,1
222655,-90.9090909090909,4,2,1,70,0,0
222899,-90.9090909090909,4,2,1,70,0,0
223021,-90.9090909090909,4,2,1,70,0,0
223265,-90.9090909090909,4,2,1,70,0,0
223387,-90.9090909090909,4,2,1,70,0,0
223631,-90.9090909090909,4,2,1,70,0,1
223874,-90.9090909090909,4,2,1,30,0,1
224119,-90.9090909090909,4,2,1,70,0,1
224485,-90.9090909090909,4,2,1,5,0,1
224606,-90.9090909090909,4,2,1,70,0,1
240459,-90.9090909090909,4,2,1,30,0,1
241070,-90.9090909090909,4,2,1,5,0,1
241192,-100,4,2,1,60,0,0
244849,-100,4,2,1,30,0,0
245094,-100,4,2,1,60,0,0
248875,-100,4,2,1,5,0,0
248997,-100,4,2,1,60,0,0
252654,-100,4,2,1,30,0,0
252899,-100,4,2,1,60,0,0
256802,-100,4,2,1,30,0,0

[Colours]
Combo1 : 247,157,9
Combo2 : 147,255,255
Combo3 : 255,255,70
Combo4 : 56,218,10

[HitObjects]
64,99,17777,6,0,P|66:64|55:32,2,69,2|2|2,0:0|0:0|0:0,0:0:0:0:
12,172,18509,2,0,B|73:180|73:180|84:186|84:186|164:195,1,138,2|2,0:0|0:0,0:0:0:0:
233,233,19241,1,2,0:0:0:0:
233,233,19485,2,0,L|241:161,1,69,2|0,0:0|0:0,0:0:0:0:
322,126,19973,2,0,L|342:201,1,69,2|0,0:0|0:0,0:0:0:0:
317,279,20460,1,2,0:0:0:0:
394,324,20704,2,0,P|457:308|472:244,1,138,2|2,0:0|0:0,0:0:0:0:
430,66,21680,6,0,L|512:42,2,69,2|2|2,0:0|0:0|0:0,0:0:0:0:
348,26,22412,2,0,P|279:4|210:41,1,138,2|2,0:0|0:0,0:0:0:0:
160,94,23143,1,2,0:0:0:0:
160,94,23387,2,0,L|132:19,1,69,2|0,0:0|0:0,0:0:0:0:
48,8,23875,2,0,L|32:77,1,69,2|0,0:0|0:0,0:0:0:0:
6,161,24363,1,2,0:0:0:0:
72,220,24607,2,0,B|145:209|135:253|211:237,1,138,2|2,0:0|0:0,0:0:0:0:
362,150,25582,6,0,P|398:162|424:190,1,69,2|0,1:2|0:0,0:0:0:0:
476,253,26070,1,10,0:0:0:0:
426,327,26314,2,0,B|371:339|371:339|357:355|357:355|286:374,1,138,2|2,0:0|0:0,0:0:0:0:
219,328,27046,1,8,0:0:0:0:
145,378,27290,2,0,L|66:385,1,69,2|0,0:0|1:2,0:0:0:0:
70,296,27777,2,0,L|138:289,1,69,2|8,0:0|0:0,0:0:0:0:
219,328,28265,1,2,0:0:0:0:
287,270,28509,2,0,B|295:193|230:215|263:114,1,138,2|10,1:2|0:0,0:0:0:0:
140,2,29485,6,0,L|57:19,1,69,2|0,1:2|0:0,0:0:0:0:
19,89,29973,1,10,0:0:0:0:
85,149,30217,2,0,B|112:183|112:183|86:296,1,138,2|2,0:0|0:0,0:0:0:0:
30,341,30948,1,8,0:0:0:0:
110,379,31192,2,0,L|192:366,1,69,2|0,0:0|1:2,0:0:0:0:
242,305,31680,2,0,L|324:318,1,69,2|8,0:0|0:0,0:0:0:0:
378,374,32168,1,2,0:0:0:0:
450,321,32412,2,0,B|440:258|440:258|444:246|444:246|428:164,1,138,2|10,1:2|0:0,0:0:0:0:
495,17,33387,6,0,P|481:47|452:66,1,69,2|0,1:2|0:0,0:0:0:0:
367,37,33875,1,10,0:0:0:0:
304,101,34119,2,0,B|314:164|314:164|310:176|310:176|326:258,1,138,2|2,0:0|0:0,0:0:0:0:
377,307,34851,1,8,0:0:0:0:
308,363,35095,2,0,P|275:372|241:365,1,69,2|0,0:0|1:2,0:0:0:0:
205,283,35582,2,0,P|171:275|138:284,1,69,2|10,0:0|0:0,0:0:0:0:
67,339,36070,2,0,L|51:258,1,69,2|0,0:0|1:2,0:0:0:0:
3,196,36558,1,2,0:0:0:0:
33,111,36802,2,0,P|70:77|120:80,1,103.5,10|0,0:0|0:0,0:0:0:0:
154,110,37290,6,0,L|227:95,1,69,2|0,1:2|0:0,0:0:0:0:
277,26,37777,1,10,0:0:0:0:
343,85,38021,2,0,B|371:123|371:123|359:236,1,138,2|2,0:0|0:0,0:0:0:0:
308,286,38753,1,10,0:0:0:0:
376,343,38997,2,0,B|444:349|444:349|453:356|453:356|541:362,2,138,14|2|0,0:0|0:0|0:0,0:0:0:0:
308,286,40217,2,0,L|223:272,1,69,2|0,0:0|0:0,0:0:0:0:
160,316,40704,1,10,0:0:0:0:
152,306,41192,6,0,P|142:276|150:247,1,62.0999981048585,2|0,1:2|0:0,0:0:0:0:
214,196,41680,2,0,P|223:166|215:137,1,62.0999981048585,10|0,0:0|0:0,0:0:0:0:
169,70,42168,2,0,P|113:46|60:73,1,124.199996209717,2|10,1:2|0:0,0:0:0:0:
17,141,42899,2,0,B|27:195|27:195|22:209|22:209|36:274,1,124.199996209717,2|2,0:0|0:0,0:0:0:0:
20,342,43631,2,0,L|95:335,1,62.0999981048585,10|0,0:0|0:0,0:0:0:0:
142,282,44119,1,2,1:2:0:0:
286,365,44607,1,10,0:0:0:0:
286,365,44851,6,0,B|300:333|300:333|271:223,1,124.199996209717,2|2,0:0|0:0,0:0:0:0:
223,186,45582,2,0,L|235:106,1,62.0999981048585,10|0,0:0|0:0,0:0:0:0:
250,48,46070,1,2,1:2:0:0:
250,48,46314,2,0,P|296:10|356:19,1,124.199996209717,2|0,0:0|0:0,0:0:0:0:
420,66,47046,2,0,P|433:95|445:123,1,62.0999981048585,2|0,1:2|0:0,0:0:0:0:
499,184,47534,2,0,P|495:214|492:245,1,62.0999981048585,10|0,0:0|0:0,0:0:0:0:
503,325,48021,2,0,B|453:337|453:337|440:348|440:348|377:363,1,124.199996209717,2|10,1:2|0:0,0:0:0:0:
304,368,48753,6,0,P|280:314|222:306,1,124.199996209717,2|0,0:0|0:0,0:0:0:0:
169,368,49485,1,10,0:0:0:0:
88,353,49729,2,0,P|77:292|66:231,1,124.199996209717,2|0,0:0|0:0,0:0:0:0:
10,173,50460,1,10,0:0:0:0:
56,107,50704,2,0,B|117:85|87:46|170:25,1,124.199996209717,2|0,0:0|0:0,0:0:0:0:
230,16,51436,1,10,0:0:0:0:
280,79,51680,2,0,B|308:114|308:114|285:190,1,124.199996209717,2|0,0:0|0:0,0:0:0:0:
236,254,52412,1,10,0:0:0:0:
270,325,52656,6,0,P|311:370|371:371,1,124.199996209717,2|0,0:0|0:0,0:0:0:0:
443,335,53387,1,10,0:0:0:0:
456,255,53631,2,0,B|443:193|491:202|470:128,1,124.199996209717,2|0,0:0|0:0,0:0:0:0:
505,61,54363,1,10,0:0:0:0:
432,25,54607,2,0,B|375:36|375:36|369:41|369:41|296:57,1,124.199996209717,2|0,0:0|0:0,0:0:0:0:
240,16,55338,1,10,0:0:0:0:
178,68,55582,2,0,P|153:28|89:29,1,93.1499971572877,2|0,0:0|0:0,0:0:0:0:
72,34,56070,5,8,0:1:0:0:
34,105,56314,1,2,1:2:0:0:
100,150,56558,1,8,0:1:0:0:
45,209,56802,2,0,L|54:251,2,31.0499990524292,0|8|12,1:2|0:3|0:3,0:0:0:0:
100,150,57290,6,0,L|172:163,1,62.0999981048585,10|0,0:0|0:0,0:0:0:0:
195,234,57777,2,0,L|267:221,1,62.0999981048585,2|0,1:2|0:0,0:0:0:0:
329,257,58265,1,10,0:0:0:0:
428,129,58753,2,0,L|410:58,2,62.0999981048585,2|2|10,1:2|0:0|0:0,0:0:0:0:
492,177,59485,2,0,P|526:226|512:284,1,124.199996209717,2|2,0:0|0:0,0:0:0:0:
459,347,60217,1,10,0:0:0:0:
384,317,60460,6,0,B|323:318|338:366|261:371,1,124.199996209717,2|2,0:0|0:0,0:0:0:0:
215,314,61192,2,0,P|186:301|156:299,1,62.0999981048585,10|0,0:0|0:0,0:0:0:0:
85,336,61680,1,2,1:2:0:0:
85,336,61924,2,0,L|64:210,1,124.199996209717,2|0,0:0|0:0,0:0:0:0:
3,160,62656,2,0,L|18:74,1,62.0999981048585,2|0,1:2|0:0,0:0:0:0:
21,93,63021,1,2,0:0:0:0:
28,87,63143,2,0,L|43:1,1,62.0999981048585,10|0,0:0|0:0,0:0:0:0:
117,6,63631,2,0,P|166:11|180:91,1,124.199996209717,2|10,1:2|0:0,0:0:0:0:
149,146,64363,6,0,B|203:159|203:159|212:167|212:167|273:185,1,124.199996209717,2|0,0:0|0:0,0:0:0:0:
323,240,65095,1,10,0:0:0:0:
376,179,65338,2,0,P|346:122|381:56,1,124.199996209717,2|0,0:0|0:0,0:0:0:0:
418,8,66070,1,10,0:0:0:0:
483,55,66314,2,0,P|513:112|478:178,1,124.199996209717,2|0,0:0|0:0,0:0:0:0:
448,231,67046,1,10,0:0:0:0:
491,299,67290,2,0,B|435:320|435:320|431:325|431:325|356:353,1,124.199996209717,2|0,0:0|0:0,0:0:0:0:
300,372,68021,1,10,0:0:0:0:
233,326,68265,6,0,B|209:299|209:299|227:197,1,124.199996209717,2|0,0:0|0:0,0:0:0:0:
281,154,68997,1,10,0:0:0:0:
238,85,69241,2,0,L|172:72,1,62.0999981048585,2|0,0:0|1:2,0:0:0:0:
117,26,69729,1,2,0:0:0:0:
117,26,69973,1,10,0:0:0:0:
47,65,70217,2,0,P|14:97|23:172,1,124.199996209717,2|0,0:0|0:0,0:0:0:0:
85,224,70948,1,10,0:0:0:0:
50,297,71192,2,0,L|185:330,1,124.199996209717,2|8,0:0|0:1,0:0:0:0:
245,295,71924,1,2,1:2:0:0:
296,356,72168,1,8,0:1:0:0:
370,324,72412,6,0,L|344:186,1,124.199996209717,6|0,1:2|0:0,0:0:0:0:
263,63,73387,2,0,P|312:28|370:43,1,124.199996209717,2|0,1:2|0:0,0:0:0:0:
506,131,74363,2,0,L|497:207,1,62.0999981048585,2|0,1:2|0:0,0:0:0:0:
440,248,74851,2,0,L|431:324,1,62.0999981048585,2|2,0:0|0:0,0:0:0:0:
364,353,75338,2,0,P|334:318|289:315,1,93.1499971572877,2|2,1:2|0:0,0:0:0:0:
179,360,76070,6,0,L|136:231,1,124.199996209717,6|0,1:2|0:0,0:0:0:0:
62,217,76802,2,0,L|74:140,1,62.0999981048585,0|0,1:2|0:0,0:0:0:0:
24,89,77290,2,0,L|36:12,1,62.0999981048585,0|0,1:2|0:0,0:0:0:0:
110,2,77777,1,0,1:2:0:0:
164,61,78021,2,0,L|304:82,1,124.199996209717,0|2,0:0|0:0,0:0:0:0:
346,134,78753,2,0,L|266:169,1,62.0999981048585,0|2,1:2|0:0,0:0:0:0:
281,164,79119,1,2,0:0:0:0:
273,170,79241,2,0,L|294:270,2,93.1499971572877,2|2|2,1:2|0:0|0:0,0:0:0:0:
192,162,80217,6,0,L|73:220,1,124.199996209717,2|0,1:2|1:2,0:0:0:0:
15,264,80948,2,0,P|4:321|55:349,1,124.199996209717,0|0,1:2|1:2,0:0:0:0:
121,302,81680,1,0,1:2:0:0:
178,359,81924,1,6,1:2:0:0:
189,352,82412,6,0,L|254:350,1,62.0999981048585,2|2,0:0|0:0,0:0:0:0:
325,381,82899,1,2,0:0:0:0:
385,327,83143,2,0,L|419:317,2,20.6999993682862,2|2|2,0:0|0:0|0:0,0:0:0:0:
365,307,83387,1,2,0:0:0:0:
299,260,83631,2,0,L|316:154,1,93.1499971572877,2|0,0:0|0:0,0:0:0:0:
323,119,84119,6,0,P|352:95|389:92,1,75.9000023162842,4|0,0:1|0:0,0:0:0:0:
450,9,84607,2,0,P|497:36|508:91,1,113.850003474426,10|0,0:0|0:0,0:0:0:0:
494,104,85095,2,0,P|478:138|475:175,1,75.9000023162842,2|2,1:2|0:1,0:0:0:0:
509,268,85582,1,10,0:0:0:0:
435,334,85826,2,0,B|376:330|376:330|350:311|350:311|275:306,1,151.800004632568,2|2,0:1|0:1,0:0:0:0:
207,362,86558,1,10,0:0:0:0:
207,263,86802,1,2,0:1:0:0:
117,313,87046,2,0,P|67:286|13:298,2,113.850003474426,2|2|2,1:2|0:0|0:1,0:0:0:0:
207,263,88021,6,0,B|201:199|260:196|240:101,1,151.800004632568,2|10,1:2|0:0,0:0:0:0:
279,26,88753,2,0,P|210:12|154:68,1,151.800004632568,2|2,0:1|0:1,0:0:0:0:
63,26,89485,1,10,0:0:0:0:
16,113,89729,2,0,P|69:164|73:238,1,151.800004632568,2|2,0:1|0:1,0:0:0:0:
25,324,90460,1,10,0:0:0:0:
109,374,90704,2,0,B|181:368|181:368|186:363|186:363|294:352,1,151.800004632568,2|2,0:1|0:1,0:0:0:0:
321,279,91436,1,10,0:0:0:0:
409,322,91680,6,0,B|424:276|424:276|370:154,1,151.800004632568,2|2,0:1|0:1,0:0:0:0:
310,114,92412,1,10,0:0:0:0:
238,182,92656,2,0,B|154:184|179:233|73:232,1,151.800004632568,2|2,0:1|0:1,0:0:0:0:
11,181,93387,1,10,0:0:0:0:
31,84,93631,2,0,P|63:63|100:56,1,75.9000023162842,2|0,0:1|1:2,0:0:0:0:
197,96,94119,1,2,0:1:0:0:
181,0,94363,1,10,0:0:0:0:
274,32,94607,2,0,P|311:32|346:46,1,75.9000023162842,2|0,0:1|1:2,0:0:0:0:
406,125,95095,2,0,L|485:112,2,75.9000023162842,2|10|2,0:1|0:0|0:1,0:0:0:0:
326,182,95826,6,0,P|304:212|303:249,1,75.9000023162842,2|2,1:2|0:1,0:0:0:0:
343,341,96314,1,10,0:0:0:0:
439,321,96558,2,0,P|477:257|462:185,1,151.800004632568,2|2,0:1|0:1,0:0:0:0:
490,90,97290,1,10,0:0:0:0:
412,28,97534,1,2,0:1:0:0:
401,31,97656,1,2,0:1:0:0:
389,33,97777,2,0,L|294:26,1,75.9000023162842,2|2,1:2|0:1,0:0:0:0:
245,98,98265,1,10,0:0:0:0:
228,1,98509,1,2,0:1:0:0:
148,59,98753,6,0,L|53:52,1,75.9000023162842,10|0,0:0|0:0,0:0:0:0:
48,53,99119,2,0,P|25:83|20:120,1,75.9000023162842,10|0,0:0|0:0,0:0:0:0:
27,142,99485,1,10,0:0:0:0:
8,254,99729,6,0,L|104:264,1,75.9000023162842,4|0,1:0|0:0,0:0:0:0:
179,287,100217,2,0,L|196:159,1,113.850003474426,10|0,0:0|0:0,0:0:0:0:
199,155,100704,2,0,P|232:138|268:144,1,75.9000023162842,2|2,1:2|0:1,0:0:0:0:
350,88,101192,1,10,0:0:0:0:
426,150,101436,2,0,P|461:215|427:279,1,151.800004632568,2|2,0:1|0:1,0:0:0:0:
327,279,102168,1,10,0:0:0:0:
273,362,102412,1,2,0:1:0:0:
371,368,102656,2,0,L|499:375,2,113.850003474426,2|2|2,1:2|0:0|0:1,0:0:0:0:
327,279,103631,6,0,B|246:278|278:338|170:341,1,151.800004632568,2|10,1:2|0:0,0:0:0:0:
103,381,104363,2,0,B|89:312|89:312|90:305|90:305|73:222,1,151.800004632568,2|2,0:1|0:1,0:0:0:0:
4,163,105095,1,8,0:0:0:0:
60,82,105338,1,2,0:1:0:0:
139,140,105582,2,0,P|194:152|244:127,1,113.850003474426,2|2,1:2|0:0,0:0:0:0:
262,110,106070,2,0,P|312:85|366:96,1,113.850003474426,10|2,0:0|0:0,0:0:0:0:
391,111,106558,2,0,L|471:99,2,75.9000023162842,2|2|10,1:2|0:1|0:0,0:0:0:0:
328,187,107290,1,2,0:1:0:0:
405,248,107534,1,0,1:2:0:0:
414,255,108021,5,10,0:0:0:0:
355,334,108265,2,0,B|296:326|296:326|267:340|267:340|199:330,1,151.800004632568,2|2,0:1|0:1,0:0:0:0:
129,269,108997,1,10,0:0:0:0:
56,336,109241,2,0,B|52:255|-11:287|11:163,1,151.800004632568,2|2,0:1|0:1,0:0:0:0:
70,121,109973,1,10,0:0:0:0:
164,162,110217,2,0,P|240:168|315:177,1,151.800004632568,2|2,0:1|0:1,0:0:0:0:
397,232,110948,1,10,0:0:0:0:
473,169,111192,2,0,L|454:92,1,75.9000023162842,2|0,0:1|1:2,0:0:0:0:
425,0,111680,1,2,0:1:0:0:
343,55,111924,2,0,B|275:45|275:45|269:38|269:38|173:24,1,151.800004632568,10|0,0:0|1:2,0:0:0:0:
120,90,112656,5,2,0:1:0:0:
74,3,112899,1,10,0:0:0:0:
14,81,113143,2,0,B|38:244|38:243,1,151.800004632568,2|2,0:1|0:1,0:0:0:0:
35,242,113753,1,2,0:0:0:0:
34,253,113875,2,0,L|48:331,1,75.9000023162842,10|2,0:0|0:1,0:0:0:0:
140,360,114363,2,0,L|153:285,1,75.9000023162842,0|2,1:2|0:1,0:0:0:0:
214,208,114851,1,8,0:0:0:0:
214,208,115095,1,2,0:1:0:0:
308,236,115338,2,0,B|345:242|345:242|348:245|348:245|405:254,2,75.9000023162842,0|10|10,1:2|0:0|0:0,0:0:0:0:
243,311,116070,5,10,0:0:0:0:
321,371,116314,2,0,L|397:361,1,75.9000023162842,6|0,0:0|0:0,0:0:0:0:
494,374,116802,2,0,P|467:326|475:271,1,113.850003474426,2|0,0:0|0:0,0:0:0:0:
484,253,117290,6,0,P|498:221|499:187,2,69,2|0|2,1:2|3:0|0:0,0:0:0:0:
408,203,118021,2,0,B|348:190|348:190|338:195|338:195|255:175,1,138,2|2,1:2|0:0,0:0:0:0:
198,226,118753,1,2,0:0:0:0:
198,226,118997,2,0,L|111:213,1,69,2|0,1:2|0:0,0:0:0:0:
75,144,119485,2,0,L|143:132,1,69,2|0,1:2|0:0,0:0:0:0:
177,48,119973,1,2,0:0:0:0:
244,106,120217,2,0,P|251:72|262:39,1,69,8|2,0:1|0:0,0:0:0:0:
347,11,120704,2,0,P|358:43|364:77,1,69,2|0,0:0|0:0,0:0:0:0:
372,84,121070,1,0,1:2:0:0:
378,91,121192,6,0,P|366:123|360:157,2,69,2|0|2,1:2|0:0|0:0,0:0:0:0:
456,46,121924,2,0,P|484:108|492:176,1,138,2|2,1:2|0:0,0:0:0:0:
413,221,122656,1,0,0:0:0:0:
375,302,122899,2,0,B|438:318|438:318|450:325|450:325|512:338,2,138,2|2|2,1:2|1:2|0:0,0:0:0:0:
311,238,124119,2,0,L|219:252,1,69,8|0,0:1|1:2,0:0:0:0:
174,306,124607,1,2,1:2:0:0:
162,298,125095,6,0,P|146:271|145:240,1,62.0999981048585,2|0,0:0|0:0,0:0:0:0:
201,183,125582,2,0,P|210:153|205:123,1,62.0999981048585,2|0,0:0|0:0,0:0:0:0:
145,69,126070,1,2,0:0:0:0:
137,79,126558,1,2,0:0:0:0:
75,26,126802,2,0,B|49:62|49:62|59:168,1,124.199996209717,2|2,0:0|0:0,0:0:0:0:
12,209,127534,1,2,0:0:0:0:
12,209,127777,2,0,L|30:349,1,124.199996209717,2|2,0:0|0:0,0:0:0:0:
99,369,128509,2,0,L|114:302,1,62.0999981048585,2|2,0:0|0:0,0:0:0:0:
132,230,128997,6,0,P|186:203|239:230,1,124.199996209717,0|2,0:0|0:0,0:0:0:0:
345,353,129973,1,2,0:0:0:0:
345,353,130217,2,0,L|337:275,2,62.0999981048585,2|0|2,0:0|0:0|0:0,0:0:0:0:
424,368,130948,2,0,L|416:290,1,62.0999981048585,2|2,0:0|0:0,0:0:0:0:
472,247,131436,2,0,P|476:216|469:186,1,62.0999981048585,2|0,0:0|0:0,0:0:0:0:
462,180,131802,1,2,0:0:0:0:
456,172,131924,2,0,P|449:141|452:111,1,62.0999981048585,2|0,0:0|0:0,0:0:0:0:
387,43,132412,1,2,0:0:0:0:
314,101,132656,6,0,L|178:84,1,124.199996209717,2|0,0:0|0:0,0:0:0:0:
128,33,133387,1,2,0:0:0:0:
64,82,133631,2,0,B|68:147|14:130|17:217,1,124.199996209717,2|0,0:0|0:0,0:0:0:0:
58,263,134363,1,2,0:0:0:0:
124,217,134607,2,0,P|173:181|233:191,1,124.199996209717,2|0,0:0|0:0,0:0:0:0:
290,247,135338,1,2,0:0:0:0:
261,322,135582,2,0,P|211:357|151:347,1,124.199996209717,2|0,0:0|0:0,0:0:0:0:
77,378,136314,1,2,0:0:0:0:
26,314,136558,6,0,B|11:276|11:276|42:182,1,124.199996209717,2|0,0:0|0:0,0:0:0:0:
8,121,137290,1,2,0:0:0:0:
69,68,137534,2,0,B|127:75|121:8|202:23,1,124.199996209717,2|0,0:0|0:0,0:0:0:0:
253,51,138265,1,2,0:0:0:0:
245,131,138509,2,0,B|260:175|260:175|253:206|253:206|272:253,1,124.199996209717,2|0,0:0|0:0,0:0:0:0:
332,300,139241,1,2,0:0:0:0:
344,220,139485,1,0,0:0:0:0:
270,248,139729,1,2,0:0:0:0:
332,300,139973,5,8,0:1:0:0:
410,280,140217,1,10,0:0:0:0:
429,201,140460,1,8,0:1:0:0:
371,143,140704,2,0,L|361:89,2,31.0499990524292,0|8|12,1:2|0:3|0:3,0:0:0:0:
448,120,141192,6,0,L|432:53,1,62.0999981048585,14|0,0:0|0:0,0:0:0:0:
364,17,141680,2,0,P|333:14|304:26,1,62.0999981048585,2|0,1:2|0:0,0:0:0:0:
234,66,142168,2,0,P|193:87|147:83,1,93.1499971572877,10|2,0:0|0:0,0:0:0:0:
108,69,142656,2,0,L|98:3,2,62.0999981048585,2|2|10,1:2|0:0|0:0,0:0:0:0:
46,121,143387,2,0,B|44:185|100:169|100:255,1,124.199996209717,2|2,0:0|0:0,0:0:0:0:
63,303,144119,1,10,0:0:0:0:
61,318,144607,6,0,L|264:336,1,186.299994314575,2|2,1:2|0:0,0:0:0:0:
252,341,145460,1,2,0:0:0:0:
258,348,145582,2,0,L|395:359,1,124.199996209717,2|8,1:2|0:0,0:0:0:0:
447,309,146314,1,2,0:0:0:0:
412,236,146558,2,0,L|396:156,1,62.0999981048585,2|0,1:2|0:0,0:0:0:0:
326,141,147046,2,0,L|313:201,1,62.0999981048585,10|0,0:0|0:0,0:0:0:0:
312,211,147412,1,2,0:0:0:0:
310,220,147534,2,0,P|285:238|255:244,1,62.0999981048585,2|0,1:2|0:0,0:0:0:0:
190,195,148021,1,10,0:0:0:0:
118,233,148265,6,0,P|59:235|32:183,1,124.199996209717,2|0,0:0|0:0,0:0:0:0:
3,106,148997,1,10,0:0:0:0:
54,43,149241,2,0,B|109:48|109:48|119:52|119:52|179:57,1,124.199996209717,2|0,0:0|0:0,0:0:0:0:
257,64,149973,1,10,0:0:0:0:
324,19,150217,2,0,P|383:19|418:68,1,124.199996209717,2|0,0:0|0:0,0:0:0:0:
477,123,150948,1,10,0:0:0:0:
448,198,151192,2,0,L|305:224,1,124.199996209717,2|0,0:0|0:0,0:0:0:0:
253,183,151924,1,10,0:0:0:0:
202,245,152168,6,0,P|188:303|228:347,1,124.199996209717,2|0,0:0|0:0,0:0:0:0:
308,360,152899,1,10,0:0:0:0:
370,309,153143,2,0,L|444:293,1,62.0999981048585,2|0,0:0|1:2,0:0:0:0:
465,222,153631,2,0,L|389:213,1,62.0999981048585,2|10,0:0|0:0,0:0:0:0:
338,165,154119,2,0,P|368:130|348:73,1,93.1499971572877,2|2,0:0|0:0,0:0:0:0:
338,52,154607,1,2,0:0:0:0:
264,18,154851,1,10,0:0:0:0:
199,66,155095,2,0,B|201:115|201:115|215:133|215:133|220:206,1,124.199996209717,2|8,0:0|0:1,0:0:0:0:
266,250,155826,1,2,1:2:0:0:
211,309,156070,1,8,0:1:0:0:
134,283,156314,6,0,B|109:229|143:216|102:141,1,124.199996209717,6|0,1:2|0:0,0:0:0:0:
0,44,157290,2,0,B|30:97|-3:110|21:164,1,124.199996209717,2|0,1:2|0:0,0:0:0:0:
9,325,158265,2,0,P|40:320|70:327,1,62.0999981048585,2|0,1:2|0:0,0:0:0:0:
139,369,158753,2,0,P|168:376|199:371,1,62.0999981048585,2|2,0:0|0:0,0:0:0:0:
268,329,159241,2,0,B|258:289|258:289|261:279|261:279|247:231,1,93.1499971572877,2|2,1:2|0:0,0:0:0:0:
213,123,159973,6,0,P|249:76|309:82,1,124.199996209717,6|0,1:2|0:0,0:0:0:0:
364,140,160704,2,0,L|382:199,1,62.0999981048585,0|0,1:2|0:0,0:0:0:0:
363,278,161192,2,0,L|381:337,1,62.0999981048585,0|0,1:2|0:0,0:0:0:0:
453,374,161680,1,0,1:2:0:0:
497,306,161924,2,0,B|500:250|500:250|505:244|505:244|510:160,1,124.199996209717,0|2,0:0|0:0,0:0:0:0:
481,107,162656,2,0,P|450:116|417:105,1,62.0999981048585,0|2,1:2|0:0,0:0:0:0:
416,100,163021,1,2,0:0:0:0:
409,92,163143,2,0,L|410:-6,2,93.1499971572877,2|2|2,1:2|0:0|0:0,0:0:0:0:
330,66,164119,6,0,P|271:51|215:74,1,124.199996209717,2|0,1:2|1:2,0:0:0:0:
153,126,164851,2,0,L|127:47,1,62.0999981048585,0|0,1:0|1:2,0:0:0:0:
61,30,165338,1,8,0:0:0:0:
6,89,165582,1,8,0:0:0:0:
47,158,165826,1,14,0:0:0:0:
47,158,167046,6,0,L|55:260,1,75.9000023162842,4|0,0:1|0:0,0:0:0:0:
21,326,167533,2,0,P|53:309|91:309,1,75.9000023162842,10|2,0:0|0:1,0:0:0:0:
169,248,168021,1,2,1:2:0:0:
169,248,168265,1,2,0:1:0:0:
238,318,168509,1,10,0:0:0:0:
310,250,168753,2,0,P|315:212|301:177,1,75.9000023162842,2|0,0:1|1:2,0:0:0:0:
217,125,169241,2,0,P|211:87|225:52,1,75.9000023162842,2|8,0:1|0:0,0:0:0:0:
313,8,169728,2,0,B|375:24|375:24|390:41|390:41|470:55,1,151.800004632568,2|10,0:1|0:1,0:0:0:0:
510,133,170460,1,10,0:1:0:0:
499,143,170948,6,0,L|509:228,1,75.9000023162842,2|2,1:2|0:1,0:0:0:0:
422,268,171436,2,0,L|413:192,1,75.9000023162842,10|2,0:0|0:1,0:0:0:0:
331,145,171924,1,2,1:2:0:0:
331,145,172167,1,2,0:1:0:0:
268,221,172411,1,10,0:0:0:0:
190,160,172655,2,0,P|155:144|118:146,1,75.9000023162842,2|0,0:1|1:2,0:0:0:0:
25,182,173143,2,0,L|34:260,1,75.9000023162842,2|8,0:1|0:0,0:0:0:0:
6,352,173631,2,0,B|77:344|77:344|86:349|86:349|171:338,1,151.800004632568,2|10,0:1|0:1,0:0:0:0:
229,274,174363,2,0,L|306:294,1,75.9000023162842,10|0,0:1|0:0,0:0:0:0:
379,352,174850,6,0,P|416:359|450:344,1,75.9000023162842,2|2,1:2|0:1,0:0:0:0:
505,261,175338,2,0,L|488:177,1,75.9000023162842,10|2,0:0|0:1,0:0:0:0:
414,130,175826,1,2,1:2:0:0:
414,130,176070,1,2,0:0:0:0:
351,206,176314,1,10,0:0:0:0:
262,161,176558,2,0,L|181:176,1,75.9000023162842,2|0,0:1|1:2,0:0:0:0:
117,244,177046,2,0,L|36:229,1,75.9000023162842,2|10,0:1|0:0,0:0:0:0:
5,138,177533,2,0,P|8:66|74:38,1,151.800004632568,2|10,0:1|0:1,0:0:0:0:
163,81,178265,1,10,0:1:0:0:
173,65,178753,6,0,P|205:47|243:46,1,75.9000023162842,2|2,1:2|0:1,0:0:0:0:
328,97,179241,2,0,P|365:96|398:77,1,75.9000023162842,10|2,0:0|0:1,0:0:0:0:
490,125,179728,1,2,1:2:0:0:
490,125,179972,1,2,0:1:0:0:
438,208,180216,1,10,0:0:0:0:
496,287,180460,2,0,B|426:293|441:342|346:356,1,151.800004632568,2|2,0:0|0:1,0:0:0:0:
273,308,181192,2,0,P|257:273|248:236,1,75.9000023162842,10|2,0:0|0:1,0:0:0:0:
187,158,181680,2,0,P|169:191|157:227,1,75.9000023162842,2|2,1:2|0:1,0:0:0:0:
80,288,182167,2,0,P|64:253|55:216,1,75.9000023162842,10|2,0:0|0:1,0:0:0:0:
73,119,182655,6,0,L|-16:137,2,75.9000023162842,0|8|8,1:2|0:1|0:1,0:0:0:0:
144,50,183387,1,8,0:1:0:0:
220,112,183631,1,6,0:0:0:0:
220,112,184606,6,0,L|213:228,1,110.4,2|0,1:2|1:2,0:0:0:0:
265,280,185338,1,2,0:0:0:0:
269,288,185460,1,2,0:0:0:0:
272,295,185582,2,0,L|267:388,2,82.8,2|2|2,1:2|0:0|0:0,0:0:0:0:
339,255,186558,2,0,P|386:225|447:218,1,110.4,2|2,1:2|1:2,0:0:0:0:
493,161,187289,1,2,0:0:0:0:
440,104,187533,2,0,B|432:67|432:67|434:59|434:59|426:23,2,82.8,2|2|2,1:2|0:0|0:0,0:0:0:0:
367,131,188509,6,0,P|320:101|259:94,1,110.4,2|0,1:2|1:2,0:0:0:0:
189,104,189241,1,2,0:0:0:0:
153,172,189485,2,0,L|162:273,2,82.8,2|2|2,1:2|0:0|0:0,0:0:0:0:
189,104,190460,2,0,L|181:21,2,82.8,2|2|2,1:2|0:0|0:0,0:0:0:0:
153,172,191436,2,0,L|162:273,2,82.8,2|2|2,1:2|0:0|0:0,0:0:0:0:
85,127,192411,6,0,P|26:136|10:192,1,124.199996209717,2|8,1:2|0:0,0:0:0:0:
69,247,193143,1,2,0:0:0:0:
28,316,193387,2,0,L|102:334,1,62.0999981048585,2|0,1:2|0:0,0:0:0:0:
119,357,193753,2,0,L|221:382,1,93.1499971572877,2|2,0:0|0:0,0:0:0:0:
275,331,194363,2,0,B|269:268|295:280|283:200,1,124.199996209717,2|8,1:2|0:0,0:0:0:0:
233,145,195094,1,2,0:0:0:0:
228,136,195216,1,2,0:0:0:0:
223,127,195338,2,0,P|219:96|226:66,1,62.0999981048585,2|0,1:2|0:0,0:0:0:0:
257,39,195704,2,0,L|334:29,1,62.0999981048585,2|0,0:0|0:0,0:0:0:0:
358,23,196070,1,2,0:0:0:0:
420,73,196314,6,0,B|436:136|381:134|403:212,1,124.199996209717,2|8,1:2|0:0,0:0:0:0:
451,253,197045,1,2,0:0:0:0:
456,260,197167,1,2,0:0:0:0:
462,266,197289,2,0,P|467:315|395:336,1,124.199996209717,2|8,1:2|0:0,0:0:0:0:
331,308,198021,2,0,L|255:317,1,62.0999981048585,2|0,0:0|1:2,0:0:0:0:
195,282,198509,2,0,L|119:291,1,62.0999981048585,2|8,0:0|0:0,0:0:0:0:
66,335,198997,1,2,0:0:0:0:
12,274,199241,2,0,L|2:179,2,93.1499971572877,2|2|8,1:2|0:0|0:1,0:0:0:0:
66,335,200216,6,0,B|150:344|150:344|162:349|162:349|254:357,1,186.299994314575,6|2,1:2|0:0,0:0:0:0:
314,307,201192,1,2,1:2:0:0:
459,376,201680,1,10,0:0:0:0:
497,305,201924,2,0,P|508:246|468:201,1,124.199996209717,2|2,0:0|0:0,0:0:0:0:
388,209,202655,1,10,0:0:0:0:
327,155,202899,2,0,L|311:73,1,62.0999981048585,2|0,0:0|1:2,0:0:0:0:
236,76,203387,2,0,L|259:208,1,124.199996209717,2|2,0:0|0:0,0:0:0:0:
217,268,204119,5,2,1:2:0:0:
214,277,204241,1,2,0:0:0:0:
210,285,204363,2,0,P|181:307|147:308,1,62.0999981048585,2|8,0:0|0:0,0:0:0:0:
95,256,204850,1,2,0:0:0:0:
33,307,205094,2,0,L|45:367,2,62.0999981048585,0|8|8,1:2|0:1|0:1,0:0:0:0:
5,230,205826,6,0,B|20:179|20:179|19:166|19:166|33:107,1,124.199996209717,6|8,1:2|0:1,0:0:0:0:
102,68,206558,1,8,0:1:0:0:
135,141,206802,2,0,B|197:166|175:197|238:221,1,124.199996209717,6|8,1:2|0:1,0:0:0:0:
305,189,207533,1,8,0:1:0:0:
354,263,207777,5,4,0:1:0:0:
493,32,208509,1,2,0:0:0:0:
485,40,208997,2,0,L|479:114,1,69,2|2,0:0|0:0,0:0:0:0:
404,158,209485,1,2,0:0:0:0:
337,98,209728,2,0,P|278:66|219:95,1,138,2|2,0:0|0:0,0:0:0:0:
176,174,210460,2,0,P|152:196|106:208,1,69,2|0,0:0|0:0,0:0:0:0:
40,162,210948,2,0,L|30:52,2,103.5,2|2|2,0:0|0:0|0:0,0:0:0:0:
8,254,211924,6,0,P|12:326|81:346,1,151.800004632568,4|10,0:1|0:0,0:0:0:0:
167,298,212655,2,0,B|231:311|231:311|242:316|242:316|332:334,1,151.800004632568,2|2,0:1|0:1,0:0:0:0:
402,377,213387,1,10,0:0:0:0:
473,308,213631,2,0,P|480:235|422:192,1,151.800004632568,2|2,0:1|0:1,0:0:0:0:
330,231,214363,1,10,0:0:0:0:
284,144,214606,2,0,B|219:157|219:157|208:162|208:162|118:180,1,151.800004632568,2|2,0:1|0:1,0:0:0:0:
64,245,215338,1,10,0:0:0:0:
17,157,215582,6,0,P|15:92|115:50,1,151.800004632568,2|2,0:1|0:1,0:0:0:0:
173,79,216314,1,10,0:0:0:0:
249,17,216558,2,0,B|328:18|311:62|412:49,1,151.800004632568,2|2,0:1|0:1,0:0:0:0:
482,6,217289,1,10,0:0:0:0:
508,101,217533,2,0,L|502:202,1,75.9000023162842,2|0,0:1|1:2,0:0:0:0:
420,230,218021,1,2,0:1:0:0:
490,299,218265,1,10,0:0:0:0:
395,329,218509,2,0,L|316:344,1,75.9000023162842,2|0,0:1|1:2,0:0:0:0:
227,377,218997,2,0,L|235:285,2,75.9000023162842,2|10|2,0:1|0:0|1:1,0:0:0:0:
135,341,219728,6,0,L|143:249,1,75.9000023162842,0|2,1:2|0:1,0:0:0:0:
54,217,220216,1,10,0:0:0:0:
84,123,220460,2,0,L|237:142,1,151.800004632568,8|0,3:0|1:2,0:0:0:0:
316,197,221192,2,0,L|327:116,1,75.9000023162842,10|6,0:0|1:2,0:0:0:0:
412,170,221680,6,0,L|431:243,2,75.9000023162842,2|0|2,0:0|0:0|0:0,0:0:0:0:
467,88,222411,1,2,0:0:0:0:
399,15,222655,2,0,P|361:11|326:26,1,75.9000023162842,10|0,0:0|0:0,0:0:0:0:
310,47,223021,2,0,P|275:61|237:58,1,75.9000023162842,10|0,0:0|0:0,0:0:0:0:
209,44,223387,1,10,0:0:0:0:
117,7,223631,6,0,L|24:32,1,75.9000023162842,4|0,0:1|0:0,0:0:0:0:
4,117,224119,2,0,L|124:142,1,113.850003474426,10|0,0:0|0:0,0:0:0:0:
134,144,224606,2,0,P|158:173|163:211,1,75.9000023162842,2|2,1:2|0:1,0:0:0:0:
97,283,225094,1,10,0:0:0:0:
158,360,225338,2,0,L|311:334,1,151.800004632568,2|2,0:1|0:1,0:0:0:0:
382,269,226070,1,10,0:0:0:0:
404,365,226314,1,2,0:1:0:0:
477,298,226558,2,0,L|478:162,2,113.850003474426,2|2|2,1:2|0:0|0:1,0:0:0:0:
382,269,227533,6,0,B|314:256|314:256|299:259|299:259|217:246,1,151.800004632568,2|10,1:2|0:0,0:0:0:0:
135,267,228265,2,0,B|119:192|196:197|143:92,1,151.800004632568,2|2,0:1|0:1,0:0:0:0:
90,46,228997,1,8,0:0:0:0:
9,102,229241,1,2,0:1:0:0:
26,199,229485,2,0,B|34:252|1:254|15:330,1,113.850003474426,2|2,1:2|0:0,0:0:0:0:
13,332,229972,2,0,P|59:365|114:360,1,113.850003474426,10|2,0:0|0:0,0:0:0:0:
133,350,230460,2,0,L|123:261,2,75.9000023162842,2|2|10,1:2|0:1|0:0,0:0:0:0:
228,378,231192,1,2,0:1:0:0:
269,288,231436,1,0,1:2:0:0:
276,274,231924,5,10,0:0:0:0:
201,210,232167,2,0,B|191:145|191:145|197:126|197:126|182:42,1,151.800004632568,2|2,0:1|0:1,0:0:0:0:
265,2,232899,1,10,0:0:0:0:
341,64,233143,2,0,B|407:102|392:127|467:170,1,151.800004632568,2|2,0:1|0:1,0:0:0:0:
506,247,233875,1,10,0:0:0:0:
426,304,234119,2,0,P|350:313|275:325,1,151.800004632568,2|2,0:1|0:1,0:0:0:0:
192,378,234850,1,10,0:0:0:0:
129,301,235094,2,0,L|140:207,1,75.9000023162842,2|0,0:1|1:2,0:0:0:0:
216,164,235582,1,2,0:1:0:0:
158,82,235826,2,0,P|96:42|27:66,1,151.800004632568,10|0,0:0|1:2,0:0:0:0:
7,163,236558,5,2,0:1:0:0:
96,205,236802,1,10,0:0:0:0:
50,291,237045,2,0,B|116:306|116:306|123:310|123:310|208:329,1,151.800004632568,2|2,0:1|0:0,0:0:0:0:
207,321,237655,1,2,0:0:0:0:
217,316,237777,2,0,L|297:339,1,75.9000023162842,10|2,0:0|0:1,0:0:0:0:
378,382,238265,2,0,L|392:308,1,75.9000023162842,0|2,1:2|0:1,0:0:0:0:
465,240,238753,1,10,0:0:0:0:
465,240,238997,1,2,0:1:0:0:
389,176,239241,6,0,L|296:193,2,75.9000023162842,0|10|10,1:2|0:0|0:0,0:0:0:0:
483,145,239972,1,10,0:0:0:0:
409,79,240216,2,0,L|316:96,1,75.9000023162842,6|0,0:0|0:0,0:0:0:0:
245,45,240704,2,0,P|193:33|156:74,1,113.850003474426,2|0,0:0|0:0,0:0:0:0:
153,97,241192,6,0,P|187:114|213:144,2,69,2|0|10,1:2|0:0|0:0,0:0:0:0:
73,51,241924,2,0,P|12:75|0:140,1,138,2|2,0:0|0:0,0:0:0:0:
68,198,242655,1,8,0:0:0:0:
68,198,242899,2,0,L|54:278,1,69,2|0,0:0|1:2,0:0:0:0:
130,317,243387,2,0,L|141:249,1,69,2|8,0:0|0:0,0:0:0:0:
216,198,243875,1,2,0:0:0:0:
281,251,244119,2,0,P|316:254|350:261,1,69,2|0,1:2|0:0,0:0:0:0:
393,339,244606,2,0,P|358:342|324:349,1,69,10|0,0:0|0:0,0:0:0:0:
235,343,245094,6,0,L|250:263,2,69,2|0|10,1:2|0:0|0:0,0:0:0:0:
151,376,245826,2,0,B|141:312|141:312|144:303|144:303|133:239,1,138,2|2,0:0|0:0,0:0:0:0:
181,163,246558,1,8,0:0:0:0:
132,86,246802,2,0,P|75:51|8:60,2,138,2|2|2,0:0|0:0|0:0,0:0:0:0:
181,163,248021,2,0,L|276:152,1,69,2|2,1:2|0:0,0:0:0:0:
334,184,248509,2,0,B|327:135|327:135|323:129|323:129|313:59,1,103.5,10|0,0:0|0:0,0:0:0:0:
313,56,248997,6,0,L|218:45,2,69,2|0|10,1:2|0:0|0:0,0:0:0:0:
389,10,249728,2,0,P|456:13|492:69,1,138,2|2,0:0|0:0,0:0:0:0:
450,148,250460,1,8,0:0:0:0:
450,148,250704,2,0,P|439:181|434:215,1,69,2|0,0:0|1:2,0:0:0:0:
492,284,251192,2,0,P|502:316|507:350,1,69,2|8,0:0|0:0,0:0:0:0:
422,382,251680,1,2,0:0:0:0:
336,350,251924,2,0,L|249:337,1,69,2|0,1:2|0:0,0:0:0:0:
182,364,252411,2,0,L|94:350,1,69,10|0,0:0|0:0,0:0:0:0:
34,311,252899,6,0,L|21:390,2,69,2|0|10,1:2|0:0|0:0,0:0:0:0:
112,267,253631,2,0,B|103:206|103:206|105:198|105:198|93:114,1,138,2|2,0:0|0:0,0:0:0:0:
35,63,254363,1,8,0:0:0:0:
107,11,254606,2,0,B|171:21|172:41|247:50,2,138,2|2|2,0:0|0:0|0:0,0:0:0:0:
35,63,255826,1,0,1:2:0:0:
95,130,256070,1,8,0:1:0:0:
30,192,256314,1,8,0:1:0:0:
79,266,256558,1,8,0:1:0:0:
165,242,256802,5,2,0:0:0:0:
