osu file format v14

[General]
AudioFilename: audio.ogg
AudioLeadIn: 0
PreviewTime: 57466
Countdown: 0
SampleSet: Normal
StackLeniency: 0.7
Mode: 1
LetterboxInBreaks: 0
WidescreenStoryboard: 0

[Editor]
Bookmarks: 723,13354,25986,38617,57565,70196,84407,103354,122301,134933,147565,153880,160196,166512,183880,196512
DistanceSpacing: 1
BeatDivisor: 3
GridSize: 32
TimelineZoom: 1.6

[Metadata]
Title:raison d'etre
TitleUnicode:レーゾンデートル
Artist:Eve
ArtistUnicode:Eve
Creator:KyeX
Version:2199's Oni
Source:
Tags:rock japanese jrock j-rock utaite yoneyama mai gaston_2199 ENISHIYA Inc. numa 米山舞 Smile d'être dêtre detre Genki Kawamura Ryu Nakayama 7ZEL Wakana Okamura Shunsuke Hosoi HAL College of Technology and Design 専門学校HAL[東京·大阪·名古屋] toy's factory
BeatmapID:2939917
BeatmapSetID:1426696

[Difficulty]
HPDrainRate:5
CircleSize:5
OverallDifficulty:5
ApproachRate:5
SliderMultiplier:1.4
SliderTickRate:1

[Events]
//Background and Video events
0,0,"77236805_p0.jpg",0,0
Video,-460,"output.mp4"
//Break Periods
//Storyboard Layer 0 (Background)
//Storyboard Layer 1 (Fail)
//Storyboard Layer 2 (Pass)
//Storyboard Layer 3 (Foreground)
//Storyboard Layer 4 (Overlay)
//Storyboard Sound Samples

[TimingPoints]
723,394.736842105263,4,1,0,80,1,0
723,-111.111111111111,4,1,0,80,0,0
13354,-100,4,1,0,80,0,0
26183,-111.111111111111,4,1,0,70,0,0
33288,-111.111111111111,4,1,0,60,0,0
36841,-111.111111111111,4,1,0,80,0,0
38617,-100,4,1,0,80,0,0
52828,-111.111111111111,4,1,0,80,0,0
55986,-108.695652173913,4,1,0,80,0,0
56183,-106.382978723404,4,1,0,80,0,0
56380,-104.166666666667,4,1,0,80,0,0
56578,-102.040816326531,4,1,0,80,0,0
56972,-90.9090909090909,4,1,0,80,0,0
57565,-100,4,1,0,90,0,1
81249,-100,4,1,0,80,0,0
90624,-125,4,1,0,70,0,0
93880,-117.647058823529,4,1,0,80,0,0
97038,-111.111111111111,4,1,0,70,0,0
101578,-111.111111111111,4,1,0,80,0,0
103354,-100,4,1,0,80,0,0
116380,-111.111111111111,4,1,0,80,0,0
120722,-108.695652173913,4,1,0,80,0,0
120920,-106.382978723404,4,1,0,80,0,0
121117,-104.166666666667,4,1,0,80,0,0
121315,-102.040816326531,4,1,0,80,0,0
121709,-90.9090909090908,4,1,0,80,0,0
122104,-100,4,1,0,80,0,0
122301,-100,4,1,0,90,0,1
134933,-100,4,1,0,80,0,0
175986,-125,4,1,0,70,0,0
179144,-111.111111111111,4,1,0,80,0,0
180722,-108.695652173913,4,1,0,80,0,0
180919,-106.382978723404,4,1,0,80,0,0
181116,-104.166666666667,4,1,0,80,0,0
181314,-102.040816326531,4,1,0,80,0,0
181708,-90.9090909090909,4,1,0,80,0,0
183880,-100,4,1,0,90,0,1
209144,-100,4,1,0,100,0,0

[HitObjects]
254,208,723,5,4,0:0:0:0:
239,177,1117,1,0,0:0:0:0:
185,162,1315,1,8,0:0:0:0:
234,142,1512,1,0,0:0:0:0:
263,222,1907,1,0,0:0:0:0:
285,165,2104,1,8,0:0:0:0:
220,117,2499,1,8,0:0:0:0:
259,204,2696,1,0,0:0:0:0:
175,220,3091,1,8,0:0:0:0:
176,215,3486,1,8,0:0:0:0:
260,241,3880,1,0,0:0:0:0:
250,235,4275,1,8,0:0:0:0:
254,232,4670,1,0,0:0:0:0:
253,183,4867,1,8,0:0:0:0:
263,205,5065,1,0,0:0:0:0:
229,88,5459,1,8,0:0:0:0:
226,224,5854,1,0,0:0:0:0:
228,216,6249,1,0,0:0:0:0:
234,167,6446,1,0,0:0:0:0:
240,257,6644,1,8,0:0:0:0:
254,208,7038,5,4,0:0:0:0:
239,177,7433,1,0,0:0:0:0:
185,162,7630,1,8,0:0:0:0:
234,142,7828,1,0,0:0:0:0:
263,222,8222,1,0,0:0:0:0:
285,165,8420,1,8,0:0:0:0:
220,117,8815,1,8,0:0:0:0:
259,204,9012,1,0,0:0:0:0:
175,220,9407,1,8,0:0:0:0:
176,215,9801,1,8,0:0:0:0:
194,152,9999,1,8,0:0:0:0:
260,241,10196,1,0,0:0:0:0:
250,235,10591,1,8,0:0:0:0:
254,232,10986,1,0,0:0:0:0:
253,183,11183,1,8,0:0:0:0:
263,205,11380,5,0,0:0:0:0:
245,151,11578,1,12,0:0:0:0:
228,216,12565,1,8,0:0:0:0:
252,199,12861,1,8,0:0:0:0:
178,190,13157,1,8,0:0:0:0:
254,208,13354,1,4,0:0:0:0:
231,207,13650,1,0,0:0:0:0:
239,177,13749,1,8,0:0:0:0:
285,213,13946,1,0,0:0:0:0:
234,142,14144,1,8,0:0:0:0:
236,69,14341,1,0,0:0:0:0:
234,142,14440,1,8,0:0:0:0:
263,222,14538,1,0,0:0:0:0:
262,207,14736,1,8,0:0:0:0:
259,204,15130,1,0,0:0:0:0:
259,204,15328,1,8,0:0:0:0:
259,204,15525,1,8,0:0:0:0:
175,220,15722,1,0,0:0:0:0:
176,215,16019,1,8,0:0:0:0:
260,241,16315,1,8,0:0:0:0:
260,241,16512,1,0,0:0:0:0:
250,235,16907,1,8,0:0:0:0:
230,163,17104,1,0,0:0:0:0:
254,232,17301,1,8,0:0:0:0:
214,189,17597,1,8,0:0:0:0:
216,213,17696,1,0,0:0:0:0:
237,211,17894,1,0,0:0:0:0:
226,224,18288,1,0,0:0:0:0:
226,224,18486,1,8,0:0:0:0:
340,165,18683,1,0,0:0:0:0:
228,216,18880,1,8,0:0:0:0:
228,216,18979,1,8,0:0:0:0:
228,216,19176,1,8,0:0:0:0:
240,257,19275,1,0,0:0:0:0:
296,236,19472,1,8,0:0:0:0:
254,208,19670,1,4,0:0:0:0:
231,207,19966,1,0,0:0:0:0:
239,177,20065,1,8,0:0:0:0:
285,213,20262,1,0,0:0:0:0:
234,142,20459,1,8,0:0:0:0:
236,69,20657,1,0,0:0:0:0:
234,142,20755,1,8,0:0:0:0:
263,222,20854,1,0,0:0:0:0:
262,207,21051,1,8,0:0:0:0:
259,204,21446,1,0,0:0:0:0:
259,204,21644,1,8,0:0:0:0:
259,204,21841,1,8,0:0:0:0:
175,220,22038,1,0,0:0:0:0:
176,215,22334,1,8,0:0:0:0:
260,241,22630,1,8,0:0:0:0:
260,241,22828,1,4,0:0:0:0:
250,235,23222,1,8,0:0:0:0:
230,163,23420,1,0,0:0:0:0:
254,232,23617,1,8,0:0:0:0:
214,189,23913,1,8,0:0:0:0:
237,211,24209,1,4,0:0:0:0:
226,224,24604,1,0,0:0:0:0:
226,224,24801,1,8,0:0:0:0:
340,165,24999,5,0,0:0:0:0:
322,156,25097,1,0,0:0:0:0:
228,216,25196,1,8,0:0:0:0:
228,216,25492,1,8,0:0:0:0:
240,257,25591,1,0,0:0:0:0:
296,236,25788,1,8,0:0:0:0:
267,184,25986,1,4,0:0:0:0:
277,196,26380,1,8,0:0:0:0:
260,174,26479,1,0,0:0:0:0:
277,196,26578,1,8,0:0:0:0:
277,196,26775,1,0,0:0:0:0:
241,167,27170,1,0,0:0:0:0:
251,200,27367,1,8,0:0:0:0:
232,182,27565,1,0,0:0:0:0:
226,139,27762,1,0,0:0:0:0:
218,78,27861,1,0,0:0:0:0:
218,146,27959,1,8,0:0:0:0:
239,205,28157,1,8,0:0:0:0:
269,218,28354,1,0,0:0:0:0:
222,187,28749,1,8,0:0:0:0:
197,173,28847,1,8,0:0:0:0:
237,183,28946,1,8,0:0:0:0:
235,176,29144,1,0,0:0:0:0:
238,180,29440,1,8,0:0:0:0:
208,185,29736,1,0,0:0:0:0:
214,181,29933,1,8,0:0:0:0:
294,200,30229,1,8,0:0:0:0:
241,132,30525,1,8,0:0:0:0:
246,177,30722,1,0,0:0:0:0:
241,147,31117,1,8,0:0:0:0:
295,86,31315,1,0,0:0:0:0:
255,190,31512,1,8,0:0:0:0:
252,190,31709,1,8,0:0:0:0:
252,190,31808,1,8,0:0:0:0:
252,190,31907,1,0,0:0:0:0:
255,190,32104,1,8,0:0:0:0:
298,188,32301,1,0,0:0:0:0:
225,91,32696,1,8,0:0:0:0:
176,26,33091,1,0,0:0:0:0:
241,212,33486,1,0,0:0:0:0:
241,212,33683,1,8,0:0:0:0:
268,205,33880,1,0,0:0:0:0:
244,183,33979,1,0,0:0:0:0:
176,26,34078,1,0,0:0:0:0:
255,199,34275,1,8,0:0:0:0:
255,199,34472,1,0,0:0:0:0:
256,204,34670,1,8,0:0:0:0:
236,218,35065,1,0,0:0:0:0:
250,190,35262,1,8,0:0:0:0:
275,251,35459,1,0,0:0:0:0:
256,197,35657,1,0,0:0:0:0:
260,223,35854,1,8,0:0:0:0:
245,206,35953,1,0,0:0:0:0:
255,206,36051,1,8,0:0:0:0:
261,201,36249,1,0,0:0:0:0:
230,136,36644,1,0,0:0:0:0:
230,136,36841,1,12,0:0:0:0:
203,140,37828,1,8,0:0:0:0:
212,140,38124,1,8,0:0:0:0:
247,179,38420,1,8,0:0:0:0:
247,179,38617,1,4,0:0:0:0:
238,160,39012,1,8,0:0:0:0:
247,179,39308,1,8,0:0:0:0:
244,156,39407,1,0,0:0:0:0:
244,156,39703,1,8,0:0:0:0:
252,177,39999,1,8,0:0:0:0:
252,177,40196,1,0,0:0:0:0:
259,198,40394,1,0,0:0:0:0:
258,195,40492,1,0,0:0:0:0:
252,177,40591,1,8,0:0:0:0:
226,111,40788,1,8,0:0:0:0:
251,192,40986,1,0,0:0:0:0:
251,192,41282,1,8,0:0:0:0:
251,192,41578,1,8,0:0:0:0:
258,195,41775,1,0,0:0:0:0:
251,192,42170,1,8,0:0:0:0:
230,101,42466,1,0,0:0:0:0:
230,101,42565,1,8,0:0:0:0:
281,198,42861,1,8,0:0:0:0:
269,205,43157,1,0,0:0:0:0:
270,200,43354,1,8,0:0:0:0:
270,200,43551,1,0,0:0:0:0:
264,180,43650,1,0,0:0:0:0:
272,200,43749,1,8,0:0:0:0:
269,205,43946,1,0,0:0:0:0:
269,205,44144,1,8,0:0:0:0:
274,211,44440,1,8,0:0:0:0:
274,211,44736,1,8,0:0:0:0:
278,209,44933,1,0,0:0:0:0:
273,205,45328,1,8,0:0:0:0:
264,203,45525,1,0,0:0:0:0:
264,204,45624,1,0,0:0:0:0:
262,201,45722,1,0,0:0:0:0:
261,190,45920,1,8,0:0:0:0:
269,205,46117,1,0,0:0:0:0:
254,199,46315,1,8,0:0:0:0:
258,197,46709,1,8,0:0:0:0:
257,195,46808,1,8,0:0:0:0:
258,197,46907,1,8,0:0:0:0:
258,197,47104,1,0,0:0:0:0:
258,197,47301,1,8,0:0:0:0:
256,191,47499,1,0,0:0:0:0:
258,197,47597,1,8,0:0:0:0:
256,193,47696,1,0,0:0:0:0:
249,187,47894,1,8,0:0:0:0:
249,187,48091,1,0,0:0:0:0:
249,140,48288,1,0,0:0:0:0:
254,176,48486,1,8,0:0:0:0:
249,187,48880,1,0,0:0:0:0:
221,85,49176,1,8,0:0:0:0:
260,182,49275,1,0,0:0:0:0:
256,189,49472,1,12,0:0:0:0:
244,179,49867,1,8,0:0:0:0:
251,167,50065,1,8,0:0:0:0:
236,157,50262,1,0,0:0:0:0:
244,157,50459,1,8,0:0:0:0:
237,167,50755,1,0,0:0:0:0:
237,132,50854,1,0,0:0:0:0:
246,149,51051,1,8,0:0:0:0:
246,149,51249,1,4,0:0:0:0:
245,189,52828,1,4,0:0:0:0:
261,172,54012,1,8,0:0:0:0:
245,189,54407,1,4,0:0:0:0:
245,189,54801,1,0,0:0:0:0:
245,189,54999,1,0,0:0:0:0:
254,202,55196,1,8,0:0:0:0:
265,189,55394,1,8,0:0:0:0:
262,190,55591,1,4,0:0:0:0:
272,186,55986,1,8,0:0:0:0:
256,192,56183,1,0,0:0:0:0:
255,194,56380,1,0,0:0:0:0:
262,190,56578,1,8,0:0:0:0:
233,176,56972,1,4,0:0:0:0:
268,194,57565,1,12,0:0:0:0:
250,189,57959,1,8,0:0:0:0:
257,184,58157,1,0,0:0:0:0:
257,185,58354,1,8,0:0:0:0:
254,164,58453,1,0,0:0:0:0:
257,166,58650,1,0,0:0:0:0:
252,184,58749,1,8,0:0:0:0:
263,177,58946,1,8,0:0:0:0:
246,179,59144,1,0,0:0:0:0:
264,181,59538,1,8,0:0:0:0:
264,178,59736,1,0,0:0:0:0:
263,177,59834,1,0,0:0:0:0:
263,177,59933,1,8,0:0:0:0:
246,109,60130,1,8,0:0:0:0:
264,181,60328,1,0,0:0:0:0:
260,187,60525,1,8,0:0:0:0:
260,187,60722,1,0,0:0:0:0:
260,187,61117,1,8,0:0:0:0:
261,199,61315,1,0,0:0:0:0:
261,200,61413,1,8,0:0:0:0:
259,199,61709,1,8,0:0:0:0:
265,191,61907,1,0,0:0:0:0:
251,174,62104,1,8,0:0:0:0:
255,178,62499,1,8,0:0:0:0:
257,182,62696,1,8,0:0:0:0:
280,185,62894,1,0,0:0:0:0:
259,177,63091,1,8,0:0:0:0:
262,191,63288,1,8,0:0:0:0:
277,182,63387,1,8,0:0:0:0:
262,191,63486,1,0,0:0:0:0:
262,191,63683,1,0,0:0:0:0:
255,184,63880,1,12,0:0:0:0:
256,184,64275,1,8,0:0:0:0:
250,191,64472,1,0,0:0:0:0:
244,188,64571,1,8,0:0:0:0:
241,184,64670,1,0,0:0:0:0:
255,184,64867,1,0,0:0:0:0:
247,182,65065,1,8,0:0:0:0:
250,183,65262,1,8,0:0:0:0:
256,176,65459,1,0,0:0:0:0:
251,169,65657,1,0,0:0:0:0:
255,184,65854,1,8,0:0:0:0:
255,185,66051,1,8,0:0:0:0:
259,182,66150,1,8,0:0:0:0:
259,182,66249,1,0,0:0:0:0:
259,182,66446,1,8,0:0:0:0:
264,182,66644,1,8,0:0:0:0:
265,190,67038,1,4,0:0:0:0:
259,182,67334,1,8,0:0:0:0:
264,182,67630,1,8,0:0:0:0:
272,181,67828,1,4,0:0:0:0:
274,181,68124,1,8,0:0:0:0:
274,181,68420,1,8,0:0:0:0:
276,174,68617,1,4,0:0:0:0:
278,184,68913,1,8,0:0:0:0:
278,184,69012,1,0,0:0:0:0:
270,185,69209,1,8,0:0:0:0:
270,185,69407,1,0,0:0:0:0:
269,185,69604,1,8,0:0:0:0:
255,156,69703,1,8,0:0:0:0:
269,185,69801,1,8,0:0:0:0:
269,185,69900,1,8,0:0:0:0:
269,185,69999,1,8,0:0:0:0:
268,194,70196,1,4,0:0:0:0:
250,189,70591,1,8,0:0:0:0:
257,184,70788,1,0,0:0:0:0:
257,185,70986,1,8,0:0:0:0:
254,164,71084,1,8,0:0:0:0:
257,166,71282,1,0,0:0:0:0:
252,184,71380,1,8,0:0:0:0:
263,177,71578,1,8,0:0:0:0:
246,179,71775,1,0,0:0:0:0:
264,181,72170,1,8,0:0:0:0:
264,178,72367,1,0,0:0:0:0:
263,177,72466,1,0,0:0:0:0:
263,177,72565,1,8,0:0:0:0:
246,109,72762,1,0,0:0:0:0:
264,181,72959,1,8,0:0:0:0:
260,187,73157,1,8,0:0:0:0:
260,187,73354,1,0,0:0:0:0:
246,109,73749,1,8,0:0:0:0:
263,202,73946,1,0,0:0:0:0:
263,202,74144,1,8,0:0:0:0:
267,201,74341,1,0,0:0:0:0:
262,201,74440,1,8,0:0:0:0:
261,197,74538,1,0,0:0:0:0:
255,194,74736,1,8,0:0:0:0:
255,194,74933,1,0,0:0:0:0:
261,194,75328,1,8,0:0:0:0:
261,197,75525,1,8,0:0:0:0:
255,194,75722,1,0,0:0:0:0:
255,194,75920,1,8,0:0:0:0:
251,195,76019,1,8,0:0:0:0:
262,205,76117,1,8,0:0:0:0:
263,207,76216,1,8,0:0:0:0:
253,195,76315,1,8,0:0:0:0:
253,195,76512,1,4,0:0:0:0:
122,203,76808,1,0,0:0:0:0:
259,188,76907,1,8,0:0:0:0:
263,189,77104,1,0,0:0:0:0:
263,189,77301,1,12,0:0:0:0:
273,191,77597,1,8,0:0:0:0:
276,197,77696,1,0,0:0:0:0:
276,197,77894,1,8,0:0:0:0:
273,192,78091,1,4,0:0:0:0:
223,103,78387,1,0,0:0:0:0:
244,193,78486,1,8,0:0:0:0:
273,191,78683,1,0,0:0:0:0:
253,179,78880,1,12,0:0:0:0:
253,208,79275,1,12,0:0:0:0:
258,193,79670,1,4,0:0:0:0:
253,194,80065,1,8,0:0:0:0:
254,200,80262,1,0,0:0:0:0:
249,184,80459,1,8,0:0:0:0:
252,194,80657,1,0,0:0:0:0:
250,174,80854,1,8,0:0:0:0:
250,191,81249,1,4,0:0:0:0:
254,184,84012,1,8,0:0:0:0:
254,208,84407,1,4,0:0:0:0:
231,207,84703,1,0,0:0:0:0:
239,177,84801,1,8,0:0:0:0:
285,213,84999,1,0,0:0:0:0:
234,142,85196,1,8,0:0:0:0:
236,69,85394,1,0,0:0:0:0:
234,142,85492,1,8,0:0:0:0:
263,222,85591,1,0,0:0:0:0:
262,207,85788,1,8,0:0:0:0:
259,204,86183,1,0,0:0:0:0:
259,204,86380,1,8,0:0:0:0:
259,204,86578,1,8,0:0:0:0:
175,220,86775,1,0,0:0:0:0:
176,215,87071,1,8,0:0:0:0:
260,241,87367,1,8,0:0:0:0:
245,198,87466,1,8,0:0:0:0:
260,241,87565,1,0,0:0:0:0:
246,160,87762,1,8,0:0:0:0:
223,101,87959,1,8,0:0:0:0:
274,123,88157,1,0,0:0:0:0:
223,101,88354,1,8,0:0:0:0:
161,130,88551,1,0,0:0:0:0:
227,111,88749,1,8,0:0:0:0:
209,50,88946,1,4,0:0:0:0:
240,199,90722,1,0,0:0:0:0:
240,199,91512,1,8,0:0:0:0:
241,176,92104,1,0,0:0:0:0:
233,157,93091,1,8,0:0:0:0:
256,181,93880,1,0,0:0:0:0:
257,191,94275,1,8,0:0:0:0:
214,169,94472,1,8,0:0:0:0:
241,169,94670,1,0,0:0:0:0:
247,179,95065,1,8,0:0:0:0:
249,168,95459,1,0,0:0:0:0:
234,111,95591,1,0,0:0:0:0:
250,169,95722,1,0,0:0:0:0:
247,149,95854,1,8,0:0:0:0:
213,232,96117,1,0,0:0:0:0:
249,167,96249,1,0,0:0:0:0:
256,192,96512,1,0,0:0:0:0:
287,185,96644,1,8,0:0:0:0:
252,216,97038,1,0,0:0:0:0:
263,189,97433,1,8,0:0:0:0:
249,195,97828,1,0,0:0:0:0:
262,198,98222,1,8,0:0:0:0:
273,186,98420,1,8,0:0:0:0:
258,168,98519,1,8,0:0:0:0:
257,196,98617,1,0,0:0:0:0:
265,187,98815,1,8,0:0:0:0:
262,198,99012,1,0,0:0:0:0:
256,191,99209,1,0,0:0:0:0:
257,196,99407,1,8,0:0:0:0:
236,218,99801,1,0,0:0:0:0:
250,190,99999,1,8,0:0:0:0:
275,251,100196,1,0,0:0:0:0:
258,216,100394,1,8,0:0:0:0:
260,223,100591,1,8,0:0:0:0:
244,193,100690,1,0,0:0:0:0:
255,206,100788,1,8,0:0:0:0:
261,201,100986,1,0,0:0:0:0:
258,216,101380,1,8,0:0:0:0:
260,206,101578,1,4,0:0:0:0:
258,211,102565,1,8,0:0:0:0:
258,211,102861,1,8,0:0:0:0:
258,211,103157,1,8,0:0:0:0:
233,164,103354,1,4,0:0:0:0:
238,160,103749,1,8,0:0:0:0:
247,179,104045,1,8,0:0:0:0:
244,156,104144,1,0,0:0:0:0:
244,156,104440,1,8,0:0:0:0:
252,177,104736,1,8,0:0:0:0:
252,177,104933,1,0,0:0:0:0:
259,198,105130,1,0,0:0:0:0:
252,177,105229,1,0,0:0:0:0:
213,72,105328,1,8,0:0:0:0:
226,111,105525,1,8,0:0:0:0:
251,192,105722,1,0,0:0:0:0:
251,192,106019,1,8,0:0:0:0:
251,192,106315,1,8,0:0:0:0:
258,195,106512,1,0,0:0:0:0:
251,192,106907,1,8,0:0:0:0:
230,101,107203,1,0,0:0:0:0:
230,101,107301,1,8,0:0:0:0:
281,198,107597,1,8,0:0:0:0:
269,205,107894,1,0,0:0:0:0:
270,200,108091,1,8,0:0:0:0:
270,200,108288,1,0,0:0:0:0:
258,168,108387,1,0,0:0:0:0:
272,200,108486,1,8,0:0:0:0:
269,205,108683,1,0,0:0:0:0:
269,205,108880,1,8,0:0:0:0:
274,211,109176,1,8,0:0:0:0:
274,211,109472,1,8,0:0:0:0:
278,209,109670,1,0,0:0:0:0:
273,205,110065,1,8,0:0:0:0:
264,203,110262,1,0,0:0:0:0:
264,204,110361,1,0,0:0:0:0:
265,204,110459,1,0,0:0:0:0:
264,130,110657,1,8,0:0:0:0:
269,205,110854,1,0,0:0:0:0:
254,199,111051,1,8,0:0:0:0:
258,197,111446,1,8,0:0:0:0:
258,197,111545,1,8,0:0:0:0:
258,197,111644,1,0,0:0:0:0:
249,140,111841,1,8,0:0:0:0:
258,197,112038,1,0,0:0:0:0:
247,135,112236,1,0,0:0:0:0:
258,197,112334,1,0,0:0:0:0:
258,197,112433,1,8,0:0:0:0:
249,187,112630,1,8,0:0:0:0:
249,187,112828,1,0,0:0:0:0:
256,178,113222,1,8,0:0:0:0:
247,121,113420,1,8,0:0:0:0:
249,187,113617,1,0,0:0:0:0:
221,85,113913,1,8,0:0:0:0:
260,182,114012,1,0,0:0:0:0:
256,189,114209,1,12,0:0:0:0:
244,179,114604,1,12,0:0:0:0:
236,157,114999,1,0,0:0:0:0:
234,142,115097,1,0,0:0:0:0:
244,157,115196,1,8,0:0:0:0:
237,167,115492,1,0,0:0:0:0:
237,132,115591,1,0,0:0:0:0:
246,149,115788,1,8,0:0:0:0:
246,149,115986,1,4,0:0:0:0:
235,64,116578,1,12,0:0:0:0:
183,189,116972,1,0,0:0:0:0:
207,131,117170,1,0,0:0:0:0:
245,189,117565,1,4,0:0:0:0:
225,77,118157,1,12,0:0:0:0:
251,42,118551,1,0,0:0:0:0:
261,172,118749,1,0,0:0:0:0:
245,189,119144,1,4,0:0:0:0:
245,189,119538,1,0,0:0:0:0:
245,189,119736,1,0,0:0:0:0:
254,202,119933,1,8,0:0:0:0:
265,189,120130,1,8,0:0:0:0:
262,190,120328,1,0,0:0:0:0:
272,186,120722,5,8,0:0:0:0:
256,192,120920,1,0,0:0:0:0:
255,194,121117,1,0,0:0:0:0:
262,190,121315,1,8,0:0:0:0:
256,203,121709,5,4,0:0:0:0:
251,201,122104,1,8,0:0:0:0:
268,194,122301,1,4,0:0:0:0:
250,189,122696,1,8,0:0:0:0:
257,184,122894,1,0,0:0:0:0:
257,185,123091,1,8,0:0:0:0:
254,164,123190,1,8,0:0:0:0:
257,166,123387,1,0,0:0:0:0:
252,184,123486,1,8,0:0:0:0:
263,177,123683,1,8,0:0:0:0:
246,179,123880,1,0,0:0:0:0:
264,181,124275,1,8,0:0:0:0:
264,178,124472,1,0,0:0:0:0:
263,177,124571,1,0,0:0:0:0:
263,177,124670,1,8,0:0:0:0:
246,109,124867,1,0,0:0:0:0:
264,181,125065,1,8,0:0:0:0:
260,187,125262,1,8,0:0:0:0:
260,187,125459,1,0,0:0:0:0:
246,109,125854,1,8,0:0:0:0:
263,202,126051,1,0,0:0:0:0:
263,202,126249,1,8,0:0:0:0:
267,201,126446,1,0,0:0:0:0:
262,201,126545,1,8,0:0:0:0:
261,197,126644,1,0,0:0:0:0:
255,194,126841,1,8,0:0:0:0:
255,194,127038,1,0,0:0:0:0:
261,194,127433,1,8,0:0:0:0:
261,197,127630,1,8,0:0:0:0:
255,194,127828,1,0,0:0:0:0:
255,194,128025,1,8,0:0:0:0:
251,195,128124,1,8,0:0:0:0:
262,205,128222,1,8,0:0:0:0:
263,207,128321,1,8,0:0:0:0:
253,195,128420,1,8,0:0:0:0:
253,195,128617,1,4,0:0:0:0:
258,188,128913,1,0,0:0:0:0:
259,188,129012,1,8,0:0:0:0:
263,189,129209,1,0,0:0:0:0:
263,189,129407,1,12,0:0:0:0:
273,191,129703,1,8,0:0:0:0:
276,197,129801,1,0,0:0:0:0:
276,197,129999,1,8,0:0:0:0:
273,192,130196,1,4,0:0:0:0:
244,193,130492,1,0,0:0:0:0:
262,173,130591,1,8,0:0:0:0:
273,191,130788,1,0,0:0:0:0:
253,179,130986,1,12,0:0:0:0:
253,208,131380,1,12,0:0:0:0:
258,193,131775,1,4,0:0:0:0:
253,194,132170,1,8,0:0:0:0:
254,200,132367,1,0,0:0:0:0:
249,184,132565,1,8,0:0:0:0:
252,194,132762,1,0,0:0:0:0:
250,174,132959,1,8,0:0:0:0:
254,200,133354,1,4,0:0:0:0:
250,174,133749,1,0,0:0:0:0:
250,174,133946,1,0,0:0:0:0:
250,174,134144,1,8,0:0:0:0:
250,174,134341,1,0,0:0:0:0:
250,174,134538,1,8,0:0:0:0:
254,208,134933,1,4,0:0:0:0:
231,207,135229,1,0,0:0:0:0:
239,177,135328,1,8,0:0:0:0:
285,213,135525,1,0,0:0:0:0:
234,142,135722,1,8,0:0:0:0:
236,69,135920,1,0,0:0:0:0:
234,142,136019,1,8,0:0:0:0:
263,222,136117,1,0,0:0:0:0:
262,207,136315,1,8,0:0:0:0:
259,204,136709,1,0,0:0:0:0:
259,204,136907,1,8,0:0:0:0:
259,204,137104,1,8,0:0:0:0:
175,220,137301,1,0,0:0:0:0:
176,215,137597,1,8,0:0:0:0:
260,241,137894,1,8,0:0:0:0:
260,241,138091,1,0,0:0:0:0:
250,235,138486,1,8,0:0:0:0:
230,163,138683,1,0,0:0:0:0:
254,232,138880,1,8,0:0:0:0:
214,189,139176,1,8,0:0:0:0:
216,213,139275,1,0,0:0:0:0:
237,211,139472,1,0,0:0:0:0:
226,224,139867,1,0,0:0:0:0:
226,224,140065,1,8,0:0:0:0:
340,165,140262,1,0,0:0:0:0:
228,216,140459,1,8,0:0:0:0:
228,216,140558,1,8,0:0:0:0:
228,216,140755,1,8,0:0:0:0:
240,257,140854,1,0,0:0:0:0:
296,236,141051,1,8,0:0:0:0:
254,208,141249,1,4,0:0:0:0:
231,207,141545,1,0,0:0:0:0:
239,177,141644,1,8,0:0:0:0:
285,213,141841,1,0,0:0:0:0:
234,142,142038,1,8,0:0:0:0:
236,69,142236,1,0,0:0:0:0:
234,142,142334,1,8,0:0:0:0:
263,222,142433,1,0,0:0:0:0:
262,207,142630,1,12,0:0:0:0:
259,204,143025,1,0,0:0:0:0:
259,204,143222,1,8,0:0:0:0:
259,204,143420,1,8,0:0:0:0:
175,220,143617,1,0,0:0:0:0:
176,215,143913,1,8,0:0:0:0:
260,241,144209,1,8,0:0:0:0:
260,241,144407,1,4,0:0:0:0:
250,235,144801,1,8,0:0:0:0:
230,163,144999,1,0,0:0:0:0:
254,232,145196,1,8,0:0:0:0:
214,189,145492,1,8,0:0:0:0:
237,211,145788,1,4,0:0:0:0:
226,224,146183,1,8,0:0:0:0:
226,224,146380,5,8,0:0:0:0:
340,165,146578,5,0,0:0:0:0:
322,156,146676,1,0,0:0:0:0:
228,216,146775,1,8,0:0:0:0:
228,216,146972,1,0,0:0:0:0:
226,184,147071,1,8,0:0:0:0:
240,257,147170,1,0,0:0:0:0:
296,236,147367,1,8,0:0:0:0:
267,184,147565,1,4,0:0:0:0:
277,196,147959,1,8,0:0:0:0:
265,184,148157,1,0,0:0:0:0:
265,184,148354,1,8,0:0:0:0:
325,184,148650,1,8,0:0:0:0:
273,195,148749,1,0,0:0:0:0:
259,194,148946,1,0,0:0:0:0:
260,208,149144,1,8,0:0:0:0:
259,181,149341,1,0,0:0:0:0:
280,189,149440,1,0,0:0:0:0:
269,187,149538,1,8,0:0:0:0:
287,191,149736,1,0,0:0:0:0:
271,186,149933,1,8,0:0:0:0:
265,186,150229,1,0,0:0:0:0:
269,187,150525,1,8,0:0:0:0:
272,193,150722,1,0,0:0:0:0:
268,199,151117,1,8,0:0:0:0:
264,193,151315,1,0,0:0:0:0:
255,192,151512,1,8,0:0:0:0:
255,191,151808,1,8,0:0:0:0:
256,192,151907,1,0,0:0:0:0:
256,192,152104,1,0,0:0:0:0:
250,180,152301,1,8,0:0:0:0:
255,192,152499,1,0,0:0:0:0:
251,205,152597,1,0,0:0:0:0:
255,191,152696,1,8,0:0:0:0:
244,195,152894,1,0,0:0:0:0:
256,192,153091,1,8,0:0:0:0:
249,196,153190,1,8,0:0:0:0:
249,190,153387,1,0,0:0:0:0:
245,184,153683,1,0,0:0:0:0:
221,118,153880,1,4,0:0:0:0:
277,196,154275,1,8,0:0:0:0:
265,184,154472,1,0,0:0:0:0:
265,184,154670,1,8,0:0:0:0:
273,195,155065,1,8,0:0:0:0:
259,194,155262,1,0,0:0:0:0:
260,208,155657,1,0,0:0:0:0:
269,187,155854,1,8,0:0:0:0:
287,191,156051,1,8,0:0:0:0:
271,186,156249,1,0,0:0:0:0:
262,143,156446,1,0,0:0:0:0:
265,186,156545,1,0,0:0:0:0:
265,186,156644,1,8,0:0:0:0:
269,187,156841,1,8,0:0:0:0:
272,193,157038,1,0,0:0:0:0:
268,199,157433,1,8,0:0:0:0:
264,193,157630,1,0,0:0:0:0:
255,192,157828,1,8,0:0:0:0:
256,192,158222,1,0,0:0:0:0:
256,192,158420,1,8,0:0:0:0:
255,192,158815,1,8,0:0:0:0:
255,191,159012,1,8,0:0:0:0:
244,195,159209,1,0,0:0:0:0:
256,192,159407,5,8,0:0:0:0:
249,190,159703,1,0,0:0:0:0:
246,166,159801,1,0,0:0:0:0:
245,184,159999,1,8,0:0:0:0:
248,192,160196,1,4,0:0:0:0:
254,176,160591,5,8,0:0:0:0:
267,178,160986,1,0,0:0:0:0:
239,178,161282,1,8,0:0:0:0:
254,184,161380,1,0,0:0:0:0:
247,184,161676,1,0,0:0:0:0:
247,184,161775,1,8,0:0:0:0:
261,182,161972,1,0,0:0:0:0:
244,186,162170,1,8,0:0:0:0:
237,116,162367,1,0,0:0:0:0:
236,89,162466,1,0,0:0:0:0:
252,202,162565,1,8,0:0:0:0:
251,198,162861,1,0,0:0:0:0:
253,198,163157,1,8,0:0:0:0:
252,202,163354,1,0,0:0:0:0:
255,193,163749,1,8,0:0:0:0:
244,171,164144,1,0,0:0:0:0:
232,90,164341,1,8,0:0:0:0:
264,174,164538,1,8,0:0:0:0:
253,180,164736,1,0,0:0:0:0:
253,180,165130,1,8,0:0:0:0:
257,182,165328,1,8,0:0:0:0:
257,182,165525,1,0,0:0:0:0:
257,182,165722,1,8,0:0:0:0:
257,182,165920,1,8,0:0:0:0:
257,182,166019,1,8,0:0:0:0:
257,182,166117,1,0,0:0:0:0:
251,184,166216,1,0,0:0:0:0:
253,187,166315,1,8,0:0:0:0:
248,192,166512,1,4,0:0:0:0:
254,176,166907,5,8,0:0:0:0:
267,178,167301,1,0,0:0:0:0:
239,178,167597,1,8,0:0:0:0:
254,184,167696,1,0,0:0:0:0:
247,184,167992,1,0,0:0:0:0:
247,184,168091,1,8,0:0:0:0:
261,182,168288,1,0,0:0:0:0:
244,186,168486,1,8,0:0:0:0:
237,130,168683,1,0,0:0:0:0:
235,97,168782,1,0,0:0:0:0:
252,202,168880,1,8,0:0:0:0:
251,198,169176,1,0,0:0:0:0:
253,198,169472,1,8,0:0:0:0:
252,202,169670,1,4,0:0:0:0:
255,193,170065,1,8,0:0:0:0:
244,171,170459,1,0,0:0:0:0:
235,177,170755,1,8,0:0:0:0:
264,174,170854,1,0,0:0:0:0:
253,180,171051,1,12,0:0:0:0:
253,180,171446,1,8,0:0:0:0:
257,182,171644,1,8,0:0:0:0:
257,182,171841,1,0,0:0:0:0:
257,182,172038,1,8,0:0:0:0:
257,182,172236,1,0,0:0:0:0:
257,182,172433,1,0,0:0:0:0:
257,182,172828,1,4,0:0:0:0:
257,193,174407,5,12,0:0:0:0:
254,188,175986,1,4,0:0:0:0:
253,189,177565,1,4,0:0:0:0:
254,196,179144,1,4,0:0:0:0:
261,193,179538,1,0,0:0:0:0:
261,193,179736,1,0,0:0:0:0:
261,193,179933,1,8,0:0:0:0:
261,193,180130,1,8,0:0:0:0:
261,193,180328,1,4,0:0:0:0:
261,193,180722,1,8,0:0:0:0:
261,193,180920,1,0,0:0:0:0:
253,197,181117,1,0,0:0:0:0:
250,192,181315,1,8,0:0:0:0:
250,193,181709,1,4,0:0:0:0:
257,185,182499,1,12,0:0:0:0:
257,185,182795,1,4,0:0:0:0:
257,185,183091,1,12,0:0:0:0:
232,92,183880,1,12,0:0:0:0:
250,189,184275,1,8,0:0:0:0:
257,184,184472,1,0,0:0:0:0:
257,185,184670,1,8,0:0:0:0:
254,164,184769,1,0,0:0:0:0:
257,166,184966,1,0,0:0:0:0:
252,184,185065,1,8,0:0:0:0:
263,177,185262,1,8,0:0:0:0:
246,179,185459,1,0,0:0:0:0:
246,109,185657,1,0,0:0:0:0:
264,181,185854,1,8,0:0:0:0:
264,178,186051,1,0,0:0:0:0:
263,177,186150,1,0,0:0:0:0:
263,177,186249,1,8,0:0:0:0:
246,109,186446,1,8,0:0:0:0:
260,75,186545,1,8,0:0:0:0:
264,181,186644,1,0,0:0:0:0:
260,187,186841,1,8,0:0:0:0:
260,187,187038,1,0,0:0:0:0:
260,187,187433,1,8,0:0:0:0:
261,199,187630,1,0,0:0:0:0:
261,200,187729,1,8,0:0:0:0:
259,199,188025,1,8,0:0:0:0:
249,192,188124,1,8,0:0:0:0:
265,191,188222,1,0,0:0:0:0:
251,174,188420,1,8,0:0:0:0:
218,97,188617,1,0,0:0:0:0:
255,178,188815,1,8,0:0:0:0:
251,176,188913,1,0,0:0:0:0:
257,182,189012,1,8,0:0:0:0:
280,185,189209,1,0,0:0:0:0:
259,177,189407,1,8,0:0:0:0:
262,191,189604,1,8,0:0:0:0:
250,159,189703,1,8,0:0:0:0:
262,191,189801,1,0,0:0:0:0:
262,191,189999,1,0,0:0:0:0:
255,184,190196,1,12,0:0:0:0:
256,184,190591,1,8,0:0:0:0:
250,191,190788,1,0,0:0:0:0:
246,123,190887,1,8,0:0:0:0:
225,125,190986,1,0,0:0:0:0:
255,184,191183,1,0,0:0:0:0:
247,182,191380,1,8,0:0:0:0:
250,183,191578,1,8,0:0:0:0:
245,170,191676,1,8,0:0:0:0:
256,176,191775,1,0,0:0:0:0:
237,115,191972,1,0,0:0:0:0:
255,184,192170,1,8,0:0:0:0:
242,149,192269,1,0,0:0:0:0:
255,185,192367,1,8,0:0:0:0:
259,182,192466,1,8,0:0:0:0:
259,182,192565,1,0,0:0:0:0:
259,182,192762,1,8,0:0:0:0:
264,182,192959,1,8,0:0:0:0:
265,190,193354,1,4,0:0:0:0:
259,182,193650,1,8,0:0:0:0:
264,182,193946,1,8,0:0:0:0:
272,181,194144,1,4,0:0:0:0:
274,181,194440,1,8,0:0:0:0:
274,181,194736,1,8,0:0:0:0:
276,174,194933,1,4,0:0:0:0:
238,103,195130,1,8,0:0:0:0:
278,184,195229,1,8,0:0:0:0:
278,184,195328,1,0,0:0:0:0:
270,185,195525,1,8,0:0:0:0:
270,185,195722,1,0,0:0:0:0:
269,185,195920,1,8,0:0:0:0:
255,156,196019,1,8,0:0:0:0:
269,185,196117,1,8,0:0:0:0:
269,185,196216,1,8,0:0:0:0:
269,185,196315,1,8,0:0:0:0:
268,194,196512,1,4,0:0:0:0:
250,189,196907,1,8,0:0:0:0:
257,184,197104,1,0,0:0:0:0:
257,185,197301,1,8,0:0:0:0:
254,164,197400,1,8,0:0:0:0:
257,166,197597,1,0,0:0:0:0:
252,184,197696,1,8,0:0:0:0:
263,177,197894,1,8,0:0:0:0:
246,179,198091,1,0,0:0:0:0:
218,124,198288,1,0,0:0:0:0:
264,181,198486,1,8,0:0:0:0:
264,178,198683,1,0,0:0:0:0:
263,177,198782,1,0,0:0:0:0:
263,177,198880,1,8,0:0:0:0:
246,109,199078,1,8,0:0:0:0:
229,94,199176,1,0,0:0:0:0:
264,181,199275,1,8,0:0:0:0:
260,187,199472,1,8,0:0:0:0:
260,187,199670,1,0,0:0:0:0:
246,109,200065,1,8,0:0:0:0:
263,202,200262,1,0,0:0:0:0:
263,202,200459,1,8,0:0:0:0:
267,201,200657,1,0,0:0:0:0:
262,201,200755,1,8,0:0:0:0:
261,197,200854,1,0,0:0:0:0:
255,194,201051,1,8,0:0:0:0:
255,194,201249,1,0,0:0:0:0:
261,194,201446,1,0,0:0:0:0:
261,194,201644,1,8,0:0:0:0:
261,197,201841,1,8,0:0:0:0:
248,174,201940,1,8,0:0:0:0:
255,194,202038,1,0,0:0:0:0:
255,194,202236,1,8,0:0:0:0:
251,195,202334,1,8,0:0:0:0:
262,205,202433,1,8,0:0:0:0:
263,207,202532,1,8,0:0:0:0:
253,195,202630,1,8,0:0:0:0:
253,195,202828,1,4,0:0:0:0:
258,188,203124,1,0,0:0:0:0:
259,188,203222,1,8,0:0:0:0:
263,189,203420,1,0,0:0:0:0:
263,189,203617,1,12,0:0:0:0:
276,197,203913,1,8,0:0:0:0:
273,191,204012,1,0,0:0:0:0:
276,197,204209,1,8,0:0:0:0:
273,192,204407,1,4,0:0:0:0:
250,131,204604,1,0,0:0:0:0:
262,173,204703,1,0,0:0:0:0:
244,193,204801,1,8,0:0:0:0:
273,191,204999,1,0,0:0:0:0:
253,179,205196,1,12,0:0:0:0:
253,208,205591,1,12,0:0:0:0:
258,193,205986,1,4,0:0:0:0:
253,194,206380,1,8,0:0:0:0:
254,200,206578,1,0,0:0:0:0:
249,184,206775,1,8,0:0:0:0:
252,194,206972,1,0,0:0:0:0:
250,174,207170,1,8,0:0:0:0:
250,191,207565,1,4,0:0:0:0:
248,92,207959,1,0,0:0:0:0:
248,92,208091,1,0,0:0:0:0:
235,43,208222,1,8,0:0:0:0:
248,92,208354,1,8,0:0:0:0:
248,92,208617,1,0,0:0:0:0:
248,92,208749,1,0,0:0:0:0:
180,15,209144,1,4,0:0:0:0:
