osu file format v14

[General]
AudioFilename: audio.mp3
AudioLeadIn: 0
PreviewTime: 45659
Countdown: 0
SampleSet: Normal
StackLeniency: 0.7
Mode: 1
LetterboxInBreaks: 0
WidescreenStoryboard: 0

[Editor]
DistanceSpacing: 0.8
BeatDivisor: 4
GridSize: 32
TimelineZoom: 4.499998

[Metadata]
Title:Outsider
TitleUnicode:アウトサイダー
Artist:Eve
ArtistUnicode:Eve
Creator:Quorum
Version:Raph's Inner Oni
Source:
Tags:japanese 快晴P kaise-p 歌い手 nobuhito"UNA"tanahashi いぶ ibu otogi おとぎ utaite numa mah kaiseip 棚橋 una 信仁 jpop j-pop pop jrock j-rock rock Raphalge
BeatmapID:2993198
BeatmapSetID:1456280

[Difficulty]
HPDrainRate:6
CircleSize:2
OverallDifficulty:6
ApproachRate:10
SliderMultiplier:1.4
SliderTickRate:1

[Events]
//Background and Video events
0,0,"outsider.jpg",0,50
//Break Periods
//Storyboard Layer 0 (Background)
//Storyboard Layer 1 (Fail)
//Storyboard Layer 2 (Pass)
//Storyboard Layer 3 (Foreground)
//Storyboard Layer 4 (Overlay)
//Storyboard Sound Samples

[TimingPoints]
478,348.837209302326,4,1,0,85,1,0
45129,348.837209302326,4,1,0,85,1,8
46175,348.837209302326,4,1,0,85,1,1
46175,-100,4,1,0,85,0,1
68500,-100,4,1,0,85,0,0
99198,348.837209302326,4,1,0,85,1,8
100244,348.837209302326,4,1,0,85,1,1
100244,-100,4,1,0,85,0,1
122569,-100,4,1,0,85,0,0
144895,348.837209302326,4,1,0,85,1,8
145069,-104.166666666667,4,1,0,85,0,8
145592,-106.382978723404,4,1,0,85,0,0
145767,-107.52688172043,4,1,0,85,0,0
145941,348.837209302326,4,1,0,85,1,0
145941,-108.695652173913,4,1,0,85,0,0
155185,-105.263157894737,4,1,0,85,0,0
155359,-104.166666666667,4,1,0,85,0,0
155534,-103.092783505155,4,1,0,85,0,0
155621,-102.040816326531,4,1,0,85,0,0
155708,-101.010101010101,4,1,0,85,0,0
155970,-99.009900990099,4,1,0,85,0,0
156231,-97.0873786407767,4,1,0,85,0,0
156406,-95.2380952380952,4,1,0,85,0,0
159371,-100,4,1,0,85,0,0
159894,-100,4,1,0,85,0,1
193382,-100,4,1,0,85,0,0

[HitObjects]
256,192,478,5,4,0:0:0:0:
256,192,3268,1,4,0:0:0:0:
256,192,5710,1,8,0:0:0:0:
256,192,6059,1,4,0:0:0:0:
288,224,6233,1,8,0:0:0:0:
288,224,6321,1,8,0:0:0:0:
288,224,6408,1,0,0:0:0:0:
288,224,6582,1,8,0:0:0:0:
288,224,6757,1,0,0:0:0:0:
288,224,6844,1,8,0:0:0:0:
288,224,7018,1,8,0:0:0:0:
288,224,7105,1,0,0:0:0:0:
288,224,7280,1,8,0:0:0:0:
288,224,7454,1,0,0:0:0:0:
288,224,7629,1,8,0:0:0:0:
288,224,7716,1,0,0:0:0:0:
288,224,7803,1,0,0:0:0:0:
288,224,7890,1,0,0:0:0:0:
256,224,7978,1,8,0:0:0:0:
288,224,8152,1,0,0:0:0:0:
288,224,8414,1,8,0:0:0:0:
288,224,8675,1,0,0:0:0:0:
288,224,8850,1,8,0:0:0:0:
320,224,9024,1,8,0:0:0:0:
288,224,9111,1,8,0:0:0:0:
320,224,9198,1,0,0:0:0:0:
320,224,9373,1,8,0:0:0:0:
320,224,9547,1,0,0:0:0:0:
320,256,9634,1,8,0:0:0:0:
320,256,9809,1,8,0:0:0:0:
320,256,9896,1,0,0:0:0:0:
320,256,10071,1,8,0:0:0:0:
320,224,10245,1,0,0:0:0:0:
320,224,10419,1,8,0:0:0:0:
320,224,10507,1,8,0:0:0:0:
320,224,10594,1,0,0:0:0:0:
320,224,10681,1,0,0:0:0:0:
320,256,10768,1,8,0:0:0:0:
320,256,10943,1,0,0:0:0:0:
254,157,11117,1,8,0:0:0:0:
352,256,11204,1,8,0:0:0:0:
254,157,11291,1,0,0:0:0:0:
352,256,11466,1,0,0:0:0:0:
352,256,11553,1,8,0:0:0:0:
352,256,11640,1,0,0:0:0:0:
320,256,11815,1,8,0:0:0:0:
352,256,11902,1,8,0:0:0:0:
384,256,11989,1,0,0:0:0:0:
384,256,12164,1,8,0:0:0:0:
352,256,12338,1,0,0:0:0:0:
352,256,12425,1,8,0:0:0:0:
384,256,12600,1,8,0:0:0:0:
384,256,12687,1,0,0:0:0:0:
384,256,12861,1,8,0:0:0:0:
384,256,13036,1,0,0:0:0:0:
352,256,13210,1,8,0:0:0:0:
352,256,13297,1,0,0:0:0:0:
352,256,13384,1,0,0:0:0:0:
352,256,13472,1,0,0:0:0:0:
352,256,13559,1,8,0:0:0:0:
352,256,13733,1,0,0:0:0:0:
384,288,13995,1,8,0:0:0:0:
384,256,14257,1,0,0:0:0:0:
448,288,14431,1,8,0:0:0:0:
416,288,14605,1,8,0:0:0:0:
416,288,14693,1,8,0:0:0:0:
416,288,14780,1,0,0:0:0:0:
416,288,14954,1,8,0:0:0:0:
384,256,15129,1,0,0:0:0:0:
384,256,15216,1,8,0:0:0:0:
384,256,15390,1,8,0:0:0:0:
384,256,15478,1,0,0:0:0:0:
384,288,15652,1,8,0:0:0:0:
416,288,15739,1,8,0:0:0:0:
384,288,15826,1,0,0:0:0:0:
320,256,16088,1,8,0:0:0:0:
256,192,16350,5,0,0:0:0:0:
256,192,16437,1,8,0:0:0:0:
256,192,16524,1,8,0:0:0:0:
256,192,16698,1,8,0:0:0:0:
256,192,16873,1,0,0:0:0:0:
256,192,17222,1,4,0:0:0:0:
256,192,17396,1,8,0:0:0:0:
224,192,17571,1,0,0:0:0:0:
256,192,17745,1,8,0:0:0:0:
256,192,17832,1,0,0:0:0:0:
256,192,17919,1,8,0:0:0:0:
256,192,18094,1,8,0:0:0:0:
256,192,18181,1,0,0:0:0:0:
256,192,18443,1,0,0:0:0:0:
256,192,18617,1,8,0:0:0:0:
256,192,18791,1,0,0:0:0:0:
256,192,18879,1,8,0:0:0:0:
256,192,18966,1,8,0:0:0:0:
256,192,19140,1,0,0:0:0:0:
256,224,19228,1,8,0:0:0:0:
256,192,19315,1,0,0:0:0:0:
320,224,19489,1,8,0:0:0:0:
320,224,19576,1,0,0:0:0:0:
320,224,19838,1,0,0:0:0:0:
320,224,20012,1,8,0:0:0:0:
320,224,20187,1,0,0:0:0:0:
320,224,20274,1,0,0:0:0:0:
320,224,20361,1,8,0:0:0:0:
320,224,20536,1,8,0:0:0:0:
320,224,20710,1,0,0:0:0:0:
320,224,20884,1,8,0:0:0:0:
320,224,20972,1,0,0:0:0:0:
320,224,21146,1,0,0:0:0:0:
320,224,21233,1,8,0:0:0:0:
320,224,21408,1,0,0:0:0:0:
320,224,21582,1,8,0:0:0:0:
320,224,21669,1,0,0:0:0:0:
320,224,21757,1,8,0:0:0:0:
320,224,21931,1,0,0:0:0:0:
320,224,22105,1,8,0:0:0:0:
320,224,22280,1,8,0:0:0:0:
320,224,22454,1,0,0:0:0:0:
320,224,22803,1,0,0:0:0:0:
320,224,22978,1,8,0:0:0:0:
320,224,23152,1,0,0:0:0:0:
320,224,23326,1,8,0:0:0:0:
320,224,23414,1,8,0:0:0:0:
320,224,23501,1,0,0:0:0:0:
320,224,23675,1,8,0:0:0:0:
320,224,23762,1,0,0:0:0:0:
352,256,24024,1,0,0:0:0:0:
352,256,24198,1,8,0:0:0:0:
352,256,24373,1,0,0:0:0:0:
352,224,24460,1,0,0:0:0:0:
352,224,24547,1,8,0:0:0:0:
384,256,24722,1,0,0:0:0:0:
352,256,24809,1,8,0:0:0:0:
352,288,24896,1,0,0:0:0:0:
352,256,25071,1,8,0:0:0:0:
352,256,25158,1,0,0:0:0:0:
320,256,25419,1,0,0:0:0:0:
352,288,25594,1,8,0:0:0:0:
352,256,25768,1,0,0:0:0:0:
352,256,25855,1,0,0:0:0:0:
320,256,25943,1,8,0:0:0:0:
320,256,26117,1,8,0:0:0:0:
320,256,26291,1,0,0:0:0:0:
352,256,26466,1,8,0:0:0:0:
352,256,26553,1,0,0:0:0:0:
352,256,26640,1,8,0:0:0:0:
352,256,26815,1,8,0:0:0:0:
352,256,26989,1,0,0:0:0:0:
352,256,27251,1,0,0:0:0:0:
352,256,27338,1,8,0:0:0:0:
352,256,27512,1,8,0:0:0:0:
352,256,27687,1,0,0:0:0:0:
320,256,27861,1,8,0:0:0:0:
320,256,27948,1,8,0:0:0:0:
320,256,28036,1,0,0:0:0:0:
320,256,28210,1,8,0:0:0:0:
320,256,28384,1,4,0:0:0:0:
320,256,28646,1,0,0:0:0:0:
352,256,28733,1,8,0:0:0:0:
384,256,28908,1,8,0:0:0:0:
352,224,29082,1,0,0:0:0:0:
352,256,29257,1,8,0:0:0:0:
352,256,29344,1,0,0:0:0:0:
352,256,29605,1,0,0:0:0:0:
416,256,29780,1,8,0:0:0:0:
352,256,29954,1,0,0:0:0:0:
352,256,30041,1,0,0:0:0:0:
384,256,30129,1,8,0:0:0:0:
416,288,30303,1,8,0:0:0:0:
416,288,30478,1,0,0:0:0:0:
384,256,30652,1,8,0:0:0:0:
416,288,30739,1,0,0:0:0:0:
352,288,30914,1,0,0:0:0:0:
352,256,31001,1,8,0:0:0:0:
256,192,31175,1,0,0:0:0:0:
256,192,31350,1,8,0:0:0:0:
256,192,31524,1,0,0:0:0:0:
256,192,31611,1,0,0:0:0:0:
256,192,31698,1,8,0:0:0:0:
256,192,31873,1,0,0:0:0:0:
256,192,32047,1,8,0:0:0:0:
256,192,32134,1,0,0:0:0:0:
256,192,32396,1,0,0:0:0:0:
320,224,32571,1,8,0:0:0:0:
320,224,32745,1,0,0:0:0:0:
320,224,32832,1,0,0:0:0:0:
320,224,32919,1,8,0:0:0:0:
320,224,33094,1,8,0:0:0:0:
320,224,33268,1,0,0:0:0:0:
320,224,33443,1,8,0:0:0:0:
352,224,33530,1,0,0:0:0:0:
320,192,33704,1,0,0:0:0:0:
352,224,33791,1,8,0:0:0:0:
320,224,33966,1,0,0:0:0:0:
320,224,34228,1,0,0:0:0:0:
320,256,34315,1,8,0:0:0:0:
320,256,34489,1,8,0:0:0:0:
320,256,34664,1,0,0:0:0:0:
320,224,34838,1,8,0:0:0:0:
320,224,34925,1,0,0:0:0:0:
320,256,35187,1,0,0:0:0:0:
320,256,35361,1,8,0:0:0:0:
320,256,35536,1,0,0:0:0:0:
320,256,35623,1,0,0:0:0:0:
320,256,35710,1,8,0:0:0:0:
320,256,35884,1,8,0:0:0:0:
320,256,36059,1,0,0:0:0:0:
320,256,36233,1,8,0:0:0:0:
320,256,36321,1,0,0:0:0:0:
320,288,36495,1,0,0:0:0:0:
320,256,36582,1,8,0:0:0:0:
320,256,36757,1,0,0:0:0:0:
320,256,36931,1,8,0:0:0:0:
320,288,37105,1,0,0:0:0:0:
320,288,37193,1,0,0:0:0:0:
320,288,37280,1,8,0:0:0:0:
320,288,37454,1,8,0:0:0:0:
352,288,37629,1,0,0:0:0:0:
352,288,37716,1,8,0:0:0:0:
320,288,37803,1,0,0:0:0:0:
320,288,37978,1,8,0:0:0:0:
352,288,38152,1,0,0:0:0:0:
320,224,38414,1,0,0:0:0:0:
320,224,38501,1,8,0:0:0:0:
320,224,38675,1,8,0:0:0:0:
320,224,38850,1,0,0:0:0:0:
320,224,39024,1,0,0:0:0:0:
320,224,39198,1,8,0:0:0:0:
352,256,39373,1,8,0:0:0:0:
256,192,39547,5,4,0:0:0:0:
256,192,39896,1,0,0:0:0:0:
256,192,40071,1,4,0:0:0:0:
256,192,40419,1,0,0:0:0:0:
256,192,40594,1,4,0:0:0:0:
256,192,40943,1,0,0:0:0:0:
256,192,41117,1,4,0:0:0:0:
256,192,41466,1,0,0:0:0:0:
256,192,41640,1,12,0:0:0:0:
256,192,41989,1,8,0:0:0:0:
256,192,42164,1,4,0:0:0:0:
256,192,42512,1,0,0:0:0:0:
256,192,42687,1,12,0:0:0:0:
256,192,43036,1,8,0:0:0:0:
256,192,43210,1,4,0:0:0:0:
256,192,43559,1,0,0:0:0:0:
256,192,43733,1,8,0:0:0:0:
256,192,43908,1,0,0:0:0:0:
256,192,44082,1,0,0:0:0:0:
256,192,44257,1,8,0:0:0:0:
256,192,44431,1,8,0:0:0:0:
288,224,44605,1,0,0:0:0:0:
256,192,44780,1,8,0:0:0:0:
256,192,44867,1,8,0:0:0:0:
320,222,44954,1,8,0:0:0:0:
256,192,45041,1,0,0:0:0:0:
288,224,45303,1,8,0:0:0:0:
288,224,45390,1,8,0:0:0:0:
320,222,45477,1,8,0:0:0:0:
288,224,45565,1,0,0:0:0:0:
256,224,45826,1,8,0:0:0:0:
288,256,45913,1,8,0:0:0:0:
288,256,46001,1,8,0:0:0:0:
288,256,46088,1,8,0:0:0:0:
288,256,46175,1,4,0:0:0:0:
256,256,46349,1,8,0:0:0:0:
288,224,46523,1,8,0:0:0:0:
288,224,46698,1,0,0:0:0:0:
320,256,46785,1,0,0:0:0:0:
320,256,46872,1,0,0:0:0:0:
320,256,46959,1,0,0:0:0:0:
320,256,47047,1,8,0:0:0:0:
320,256,47221,1,0,0:0:0:0:
320,256,47395,1,8,0:0:0:0:
320,256,47483,1,8,0:0:0:0:
320,256,47570,1,0,0:0:0:0:
320,256,47744,1,8,0:0:0:0:
320,256,47919,1,8,0:0:0:0:
320,256,48093,1,0,0:0:0:0:
320,256,48180,1,0,0:0:0:0:
320,256,48268,1,0,0:0:0:0:
320,256,48355,1,0,0:0:0:0:
320,256,48442,1,8,0:0:0:0:
288,256,48616,1,0,0:0:0:0:
256,192,48791,1,8,0:0:0:0:
256,192,48878,1,0,0:0:0:0:
256,192,48965,1,8,0:0:0:0:
256,192,49052,1,8,0:0:0:0:
256,192,49140,1,0,0:0:0:0:
256,192,49227,1,0,0:0:0:0:
256,192,49314,1,8,0:0:0:0:
256,192,49401,1,0,0:0:0:0:
256,192,49488,1,8,0:0:0:0:
288,224,49576,1,8,0:0:0:0:
288,224,49663,1,0,0:0:0:0:
288,224,49750,1,8,0:0:0:0:
288,224,49837,1,0,0:0:0:0:
288,224,49925,1,8,0:0:0:0:
288,224,50012,1,8,0:0:0:0:
288,224,50099,1,0,0:0:0:0:
288,224,50186,1,0,0:0:0:0:
288,224,50273,1,0,0:0:0:0:
288,224,50361,1,8,0:0:0:0:
288,224,50535,1,8,0:0:0:0:
288,224,50622,1,8,0:0:0:0:
288,224,50709,1,0,0:0:0:0:
288,288,50884,1,8,0:0:0:0:
288,288,51058,1,8,0:0:0:0:
288,256,51145,1,0,0:0:0:0:
320,288,51233,1,8,0:0:0:0:
320,288,51320,1,8,0:0:0:0:
320,288,51407,1,0,0:0:0:0:
320,288,51581,1,8,0:0:0:0:
320,288,51756,1,0,0:0:0:0:
352,288,51930,1,8,0:0:0:0:
352,288,52018,1,8,0:0:0:0:
352,288,52105,1,0,0:0:0:0:
352,288,52279,1,8,0:0:0:0:
352,288,52366,1,0,0:0:0:0:
352,288,52454,1,8,0:0:0:0:
352,288,52541,1,8,0:0:0:0:
352,288,52628,1,0,0:0:0:0:
352,288,52715,1,8,0:0:0:0:
416,320,52802,1,8,0:0:0:0:
416,320,52977,1,0,0:0:0:0:
352,320,53064,1,8,0:0:0:0:
352,256,53151,1,8,0:0:0:0:
384,288,53326,1,0,0:0:0:0:
416,288,53413,1,8,0:0:0:0:
416,288,53500,1,0,0:0:0:0:
352,320,53675,1,8,0:0:0:0:
384,288,53849,1,0,0:0:0:0:
384,288,54023,1,8,0:0:0:0:
384,288,54111,1,0,0:0:0:0:
384,288,54198,1,8,0:0:0:0:
384,288,54285,1,8,0:0:0:0:
384,288,54372,1,0,0:0:0:0:
384,288,54459,1,0,0:0:0:0:
320,256,54547,1,12,0:0:0:0:
384,288,54721,1,0,0:0:0:0:
279,288,54808,1,0,0:0:0:0:
384,288,54895,1,8,0:0:0:0:
384,288,55070,1,8,0:0:0:0:
352,288,55157,1,0,0:0:0:0:
352,288,55244,1,8,0:0:0:0:
352,288,55331,1,8,0:0:0:0:
352,288,55419,1,0,0:0:0:0:
352,288,55593,1,8,0:0:0:0:
352,288,55768,1,8,0:0:0:0:
352,288,55855,1,8,0:0:0:0:
320,256,55942,1,4,0:0:0:0:
352,288,56116,1,8,0:0:0:0:
352,288,56204,1,0,0:0:0:0:
352,288,56291,1,8,0:0:0:0:
352,288,56465,1,0,0:0:0:0:
352,288,56640,1,8,0:0:0:0:
352,288,56727,1,8,0:0:0:0:
352,288,56814,1,0,0:0:0:0:
352,288,56901,1,8,0:0:0:0:
352,288,56988,1,8,0:0:0:0:
352,288,57076,1,0,0:0:0:0:
352,288,57163,1,0,0:0:0:0:
352,288,57250,1,8,0:0:0:0:
288,192,57337,1,4,0:0:0:0:
352,288,57512,1,8,0:0:0:0:
352,288,57686,1,8,0:0:0:0:
352,288,57861,1,0,0:0:0:0:
352,288,57948,1,0,0:0:0:0:
352,288,58035,1,0,0:0:0:0:
352,288,58122,1,0,0:0:0:0:
352,288,58209,1,8,0:0:0:0:
320,288,58384,1,0,0:0:0:0:
320,288,58558,1,8,0:0:0:0:
320,288,58645,1,8,0:0:0:0:
320,288,58733,1,0,0:0:0:0:
320,288,58907,1,8,0:0:0:0:
320,288,59081,1,8,0:0:0:0:
320,256,59256,1,0,0:0:0:0:
320,256,59343,1,0,0:0:0:0:
320,256,59430,1,0,0:0:0:0:
320,288,59518,1,0,0:0:0:0:
320,288,59605,1,8,0:0:0:0:
320,256,59779,1,0,0:0:0:0:
256,192,59954,1,8,0:0:0:0:
256,192,60041,1,0,0:0:0:0:
256,192,60128,1,8,0:0:0:0:
256,192,60215,1,8,0:0:0:0:
256,192,60302,1,0,0:0:0:0:
256,192,60390,1,0,0:0:0:0:
256,192,60477,1,8,0:0:0:0:
256,192,60564,1,0,0:0:0:0:
256,192,60651,1,8,0:0:0:0:
288,224,60738,1,8,0:0:0:0:
288,224,60826,1,0,0:0:0:0:
288,224,60913,1,8,0:0:0:0:
288,224,61000,1,0,0:0:0:0:
288,224,61087,1,8,0:0:0:0:
288,224,61175,1,8,0:0:0:0:
288,224,61262,1,0,0:0:0:0:
288,224,61349,1,0,0:0:0:0:
288,224,61436,1,0,0:0:0:0:
288,224,61523,1,8,0:0:0:0:
256,256,61698,1,8,0:0:0:0:
288,256,61785,1,8,0:0:0:0:
288,256,61872,1,0,0:0:0:0:
288,256,62047,1,8,0:0:0:0:
288,256,62221,1,8,0:0:0:0:
288,256,62308,1,0,0:0:0:0:
288,256,62395,1,8,0:0:0:0:
288,256,62483,1,8,0:0:0:0:
288,256,62570,1,0,0:0:0:0:
288,256,62744,1,8,0:0:0:0:
256,256,62919,1,0,0:0:0:0:
352,288,63093,1,8,0:0:0:0:
352,288,63180,1,8,0:0:0:0:
352,288,63268,1,0,0:0:0:0:
352,288,63442,1,8,0:0:0:0:
352,288,63529,1,0,0:0:0:0:
352,288,63616,1,8,0:0:0:0:
352,288,63704,1,8,0:0:0:0:
352,288,63791,1,0,0:0:0:0:
352,288,63878,1,8,0:0:0:0:
416,320,63965,1,8,0:0:0:0:
416,320,64140,1,0,0:0:0:0:
352,320,64227,1,8,0:0:0:0:
352,256,64314,1,8,0:0:0:0:
384,288,64488,1,0,0:0:0:0:
416,288,64576,1,8,0:0:0:0:
416,288,64663,1,0,0:0:0:0:
352,320,64837,1,8,0:0:0:0:
384,288,65012,1,0,0:0:0:0:
288,224,65186,1,8,0:0:0:0:
352,256,65273,1,8,0:0:0:0:
352,256,65361,1,0,0:0:0:0:
352,256,65535,1,8,0:0:0:0:
256,192,65709,5,4,0:0:0:0:
352,288,65884,1,8,0:0:0:0:
352,288,65971,1,0,0:0:0:0:
352,288,66058,1,8,0:0:0:0:
352,288,66233,1,8,0:0:0:0:
256,192,66407,1,4,0:0:0:0:
352,256,66581,1,8,0:0:0:0:
352,256,66669,1,8,0:0:0:0:
352,256,66756,1,0,0:0:0:0:
352,256,66930,1,8,0:0:0:0:
256,192,67105,1,4,0:0:0:0:
288,224,67279,1,8,0:0:0:0:
288,192,67366,1,8,0:0:0:0:
256,192,67454,1,4,0:0:0:0:
288,224,67628,1,0,0:0:0:0:
295,268,67715,1,8,0:0:0:0:
256,192,67802,1,4,0:0:0:0:
256,192,67977,1,8,0:0:0:0:
256,192,68064,1,8,0:0:0:0:
256,192,68151,1,8,0:0:0:0:
256,192,68238,1,8,0:0:0:0:
288,192,68326,1,8,0:0:0:0:
288,192,68413,1,8,0:0:0:0:
256,192,68500,1,4,0:0:0:0:
256,192,68849,1,0,0:0:0:0:
256,192,69023,1,4,0:0:0:0:
256,192,69372,1,0,0:0:0:0:
256,192,69547,1,4,0:0:0:0:
256,192,69895,1,0,0:0:0:0:
256,192,70070,1,4,0:0:0:0:
256,192,70419,1,0,0:0:0:0:
256,192,70593,1,4,0:0:0:0:
256,192,71291,1,4,0:0:0:0:
288,224,71465,1,8,0:0:0:0:
288,224,71552,1,8,0:0:0:0:
288,224,71640,1,0,0:0:0:0:
288,224,71814,1,8,0:0:0:0:
288,224,71988,1,0,0:0:0:0:
320,224,72163,1,8,0:0:0:0:
320,224,72250,1,0,0:0:0:0:
320,224,72425,1,0,0:0:0:0:
320,224,72512,1,8,0:0:0:0:
320,224,72686,1,0,0:0:0:0:
320,224,72861,1,8,0:0:0:0:
320,224,72948,1,0,0:0:0:0:
320,224,73035,1,8,0:0:0:0:
320,224,73209,1,8,0:0:0:0:
320,224,73384,1,0,0:0:0:0:
320,224,73558,1,8,0:0:0:0:
320,224,73645,1,0,0:0:0:0:
320,224,73820,1,0,0:0:0:0:
320,224,73907,1,8,0:0:0:0:
320,256,74081,1,0,0:0:0:0:
352,256,74256,1,8,0:0:0:0:
320,256,74343,1,8,0:0:0:0:
320,256,74430,1,0,0:0:0:0:
320,256,74605,1,8,0:0:0:0:
320,256,74779,1,0,0:0:0:0:
320,256,74866,1,8,0:0:0:0:
320,256,74954,1,8,0:0:0:0:
320,256,75041,1,0,0:0:0:0:
320,256,75215,1,0,0:0:0:0:
320,256,75302,1,8,0:0:0:0:
320,256,75477,1,0,0:0:0:0:
320,256,75651,1,8,0:0:0:0:
320,256,75738,1,8,0:0:0:0:
320,256,75826,1,0,0:0:0:0:
320,256,76000,1,8,0:0:0:0:
320,224,76175,1,0,0:0:0:0:
320,256,76262,1,0,0:0:0:0:
320,256,76349,1,8,0:0:0:0:
320,256,76436,1,8,0:0:0:0:
320,256,76523,1,0,0:0:0:0:
320,256,76698,1,8,0:0:0:0:
320,256,76872,1,4,0:0:0:0:
288,256,77047,1,8,0:0:0:0:
288,256,77134,1,8,0:0:0:0:
288,256,77221,1,0,0:0:0:0:
288,256,77395,1,8,0:0:0:0:
288,256,77570,1,0,0:0:0:0:
288,256,77744,1,8,0:0:0:0:
288,256,77831,1,0,0:0:0:0:
288,256,78006,1,0,0:0:0:0:
288,256,78093,1,8,0:0:0:0:
288,256,78180,1,8,0:0:0:0:
288,256,78268,1,0,0:0:0:0:
288,256,78442,1,8,0:0:0:0:
288,256,78529,1,0,0:0:0:0:
288,256,78616,1,8,0:0:0:0:
288,320,78791,1,8,0:0:0:0:
288,320,78965,1,0,0:0:0:0:
320,256,79140,1,8,0:0:0:0:
320,288,79227,1,0,0:0:0:0:
320,256,79401,1,0,0:0:0:0:
320,256,79488,1,8,0:0:0:0:
320,256,79663,1,0,0:0:0:0:
288,224,79837,1,8,0:0:0:0:
288,224,79925,1,8,0:0:0:0:
288,224,80012,1,0,0:0:0:0:
288,256,80186,1,8,0:0:0:0:
256,192,80361,1,0,0:0:0:0:
256,192,80448,1,8,0:0:0:0:
256,192,80535,1,8,0:0:0:0:
256,192,80622,1,8,0:0:0:0:
256,192,80709,1,0,0:0:0:0:
288,224,80884,1,8,0:0:0:0:
288,224,81058,1,0,0:0:0:0:
256,224,81407,1,8,0:0:0:0:
256,224,81756,1,8,0:0:0:0:
256,224,82105,1,0,0:0:0:0:
256,192,82454,5,12,0:0:0:0:
256,192,82628,1,0,0:0:0:0:
352,224,82802,1,8,0:0:0:0:
352,224,82977,1,8,0:0:0:0:
352,256,83326,1,0,0:0:0:0:
352,256,83500,1,8,0:0:0:0:
384,256,83675,1,0,0:0:0:0:
384,256,83762,1,0,0:0:0:0:
384,256,83849,1,8,0:0:0:0:
384,256,84023,1,8,0:0:0:0:
384,256,84111,1,0,0:0:0:0:
384,256,84285,1,0,0:0:0:0:
352,256,84372,1,8,0:0:0:0:
352,256,84547,1,0,0:0:0:0:
384,256,84721,1,8,0:0:0:0:
352,256,84808,1,0,0:0:0:0:
352,256,84983,1,0,0:0:0:0:
352,256,85070,1,8,0:0:0:0:
352,256,85244,1,0,0:0:0:0:
288,224,85419,1,8,0:0:0:0:
416,288,85593,1,8,0:0:0:0:
416,288,85768,1,0,0:0:0:0:
288,224,86116,1,0,0:0:0:0:
352,256,86291,1,8,0:0:0:0:
352,256,86465,1,0,0:0:0:0:
352,256,86552,1,0,0:0:0:0:
352,256,86640,1,8,0:0:0:0:
352,256,86814,1,8,0:0:0:0:
352,256,86901,1,0,0:0:0:0:
352,256,87076,1,0,0:0:0:0:
384,256,87163,1,8,0:0:0:0:
352,256,87337,1,0,0:0:0:0:
352,256,87512,1,8,0:0:0:0:
352,256,87599,1,0,0:0:0:0:
352,256,87686,1,8,0:0:0:0:
352,256,87861,1,8,0:0:0:0:
384,256,88035,1,0,0:0:0:0:
352,256,88209,1,8,0:0:0:0:
352,256,88384,1,8,0:0:0:0:
352,256,88558,1,0,0:0:0:0:
352,256,88907,1,0,0:0:0:0:
352,256,89081,1,8,0:0:0:0:
352,256,89256,1,0,0:0:0:0:
352,256,89343,1,0,0:0:0:0:
352,256,89430,1,8,0:0:0:0:
352,256,89605,1,8,0:0:0:0:
352,256,89692,1,0,0:0:0:0:
352,256,89866,1,0,0:0:0:0:
352,256,89954,1,8,0:0:0:0:
352,256,90128,1,0,0:0:0:0:
352,256,90302,1,8,0:0:0:0:
352,256,90390,1,0,0:0:0:0:
352,256,90564,1,0,0:0:0:0:
352,256,90651,1,8,0:0:0:0:
352,256,90826,1,0,0:0:0:0:
352,256,91000,1,8,0:0:0:0:
352,256,91087,1,0,0:0:0:0:
352,288,91175,1,8,0:0:0:0:
384,256,91262,1,8,0:0:0:0:
352,288,91349,1,0,0:0:0:0:
352,256,91523,1,8,0:0:0:0:
352,256,91698,1,0,0:0:0:0:
352,256,91785,1,8,0:0:0:0:
352,256,91872,1,8,0:0:0:0:
352,256,92047,1,8,0:0:0:0:
352,256,92221,1,0,0:0:0:0:
352,256,92483,1,0,0:0:0:0:
352,256,92570,1,8,0:0:0:0:
352,256,92744,1,8,0:0:0:0:
352,256,92919,1,0,0:0:0:0:
352,256,93093,1,0,0:0:0:0:
352,256,93268,1,8,0:0:0:0:
352,256,93442,1,8,0:0:0:0:
256,192,93616,5,4,0:0:0:0:
256,192,93965,1,0,0:0:0:0:
320,224,94140,1,4,0:0:0:0:
320,224,94488,1,0,0:0:0:0:
320,224,94663,1,4,0:0:0:0:
320,224,95012,1,0,0:0:0:0:
320,224,95186,1,4,0:0:0:0:
320,224,95535,1,0,0:0:0:0:
320,224,95709,1,12,0:0:0:0:
320,256,96058,1,8,0:0:0:0:
320,256,96233,1,4,0:0:0:0:
320,256,96581,1,0,0:0:0:0:
320,256,96756,1,12,0:0:0:0:
320,256,97105,1,8,0:0:0:0:
320,256,97279,1,4,0:0:0:0:
320,256,97628,1,0,0:0:0:0:
320,256,97802,1,8,0:0:0:0:
320,256,97977,1,0,0:0:0:0:
320,256,98151,1,0,0:0:0:0:
320,256,98326,1,8,0:0:0:0:
320,256,98500,1,0,0:0:0:0:
320,256,98675,1,8,0:0:0:0:
320,256,98849,1,8,0:0:0:0:
256,192,99721,5,0,0:0:0:0:
256,224,99895,1,8,0:0:0:0:
288,256,99982,1,8,0:0:0:0:
288,256,100070,1,8,0:0:0:0:
288,256,100157,1,8,0:0:0:0:
288,256,100244,1,4,0:0:0:0:
256,256,100418,1,8,0:0:0:0:
288,224,100592,1,8,0:0:0:0:
288,224,100767,1,0,0:0:0:0:
320,256,100854,1,0,0:0:0:0:
320,256,100941,1,0,0:0:0:0:
320,256,101028,1,0,0:0:0:0:
320,256,101116,1,8,0:0:0:0:
320,256,101290,1,0,0:0:0:0:
320,256,101464,1,8,0:0:0:0:
320,256,101552,1,8,0:0:0:0:
320,256,101639,1,0,0:0:0:0:
320,256,101813,1,8,0:0:0:0:
320,256,101988,1,8,0:0:0:0:
320,256,102162,1,0,0:0:0:0:
320,256,102249,1,0,0:0:0:0:
320,256,102337,1,0,0:0:0:0:
320,256,102424,1,0,0:0:0:0:
320,256,102511,1,8,0:0:0:0:
288,256,102685,1,0,0:0:0:0:
256,192,102860,1,8,0:0:0:0:
256,192,102947,1,0,0:0:0:0:
256,192,103034,1,8,0:0:0:0:
256,192,103121,1,8,0:0:0:0:
256,192,103209,1,0,0:0:0:0:
256,192,103296,1,0,0:0:0:0:
256,192,103383,1,8,0:0:0:0:
256,192,103470,1,0,0:0:0:0:
256,192,103557,1,8,0:0:0:0:
288,224,103645,1,8,0:0:0:0:
288,224,103732,1,0,0:0:0:0:
288,224,103819,1,0,0:0:0:0:
288,224,103906,1,8,0:0:0:0:
288,224,103994,1,0,0:0:0:0:
288,224,104081,1,0,0:0:0:0:
288,224,104168,1,8,0:0:0:0:
288,224,104255,1,8,0:0:0:0:
288,224,104342,1,8,0:0:0:0:
288,224,104430,1,0,0:0:0:0:
288,224,104604,1,8,0:0:0:0:
288,224,104691,1,8,0:0:0:0:
288,224,104778,1,0,0:0:0:0:
288,288,104953,1,8,0:0:0:0:
288,288,105127,1,8,0:0:0:0:
288,256,105214,1,0,0:0:0:0:
320,288,105302,1,8,0:0:0:0:
320,288,105389,1,8,0:0:0:0:
320,288,105476,1,0,0:0:0:0:
320,288,105650,1,8,0:0:0:0:
320,288,105825,1,0,0:0:0:0:
352,288,105999,1,8,0:0:0:0:
352,288,106087,1,8,0:0:0:0:
352,288,106174,1,0,0:0:0:0:
352,288,106348,1,8,0:0:0:0:
352,288,106435,1,0,0:0:0:0:
352,288,106523,1,8,0:0:0:0:
352,288,106610,1,8,0:0:0:0:
352,288,106697,1,0,0:0:0:0:
352,288,106784,1,8,0:0:0:0:
416,320,106871,1,8,0:0:0:0:
416,320,107046,1,0,0:0:0:0:
352,320,107133,1,8,0:0:0:0:
352,256,107220,1,8,0:0:0:0:
384,288,107395,1,0,0:0:0:0:
416,288,107482,1,8,0:0:0:0:
416,288,107569,1,0,0:0:0:0:
352,320,107744,1,8,0:0:0:0:
384,288,107918,1,0,0:0:0:0:
384,288,108092,1,8,0:0:0:0:
384,288,108180,1,0,0:0:0:0:
384,288,108267,1,8,0:0:0:0:
384,288,108354,1,8,0:0:0:0:
384,288,108441,1,0,0:0:0:0:
384,288,108528,1,0,0:0:0:0:
320,256,108616,1,12,0:0:0:0:
384,288,108790,1,0,0:0:0:0:
309,271,108877,1,0,0:0:0:0:
384,288,108964,1,8,0:0:0:0:
384,288,109139,1,8,0:0:0:0:
352,288,109226,1,0,0:0:0:0:
352,288,109313,1,8,0:0:0:0:
352,288,109400,1,8,0:0:0:0:
352,288,109488,1,0,0:0:0:0:
352,288,109662,1,8,0:0:0:0:
352,288,109837,1,8,0:0:0:0:
352,288,109924,1,8,0:0:0:0:
320,256,110011,1,4,0:0:0:0:
352,288,110185,1,8,0:0:0:0:
352,288,110273,1,0,0:0:0:0:
352,288,110360,1,8,0:0:0:0:
352,288,110534,1,0,0:0:0:0:
352,288,110709,1,8,0:0:0:0:
352,288,110796,1,8,0:0:0:0:
352,288,110883,1,0,0:0:0:0:
352,288,110970,1,8,0:0:0:0:
352,288,111057,1,8,0:0:0:0:
352,288,111145,1,0,0:0:0:0:
352,288,111232,1,0,0:0:0:0:
352,288,111319,1,8,0:0:0:0:
288,192,111406,1,4,0:0:0:0:
352,288,111581,1,8,0:0:0:0:
352,288,111755,1,8,0:0:0:0:
352,288,111930,1,0,0:0:0:0:
352,288,112017,1,0,0:0:0:0:
352,288,112104,1,0,0:0:0:0:
352,288,112191,1,0,0:0:0:0:
352,288,112278,1,8,0:0:0:0:
320,288,112453,1,0,0:0:0:0:
320,288,112627,1,8,0:0:0:0:
320,288,112714,1,8,0:0:0:0:
320,288,112802,1,0,0:0:0:0:
320,288,112976,1,8,0:0:0:0:
320,288,113150,1,8,0:0:0:0:
320,256,113325,1,0,0:0:0:0:
320,256,113412,1,0,0:0:0:0:
320,256,113499,1,0,0:0:0:0:
320,288,113587,1,0,0:0:0:0:
320,288,113674,1,8,0:0:0:0:
320,256,113848,1,0,0:0:0:0:
256,192,114023,1,8,0:0:0:0:
256,192,114110,1,0,0:0:0:0:
256,192,114197,1,8,0:0:0:0:
256,192,114284,1,8,0:0:0:0:
256,192,114371,1,0,0:0:0:0:
256,192,114459,1,0,0:0:0:0:
256,192,114546,1,8,0:0:0:0:
256,192,114633,1,0,0:0:0:0:
256,192,114720,1,8,0:0:0:0:
288,224,114807,1,8,0:0:0:0:
288,224,114895,1,0,0:0:0:0:
288,224,114982,1,0,0:0:0:0:
288,224,115069,1,8,0:0:0:0:
288,224,115156,1,0,0:0:0:0:
288,224,115244,1,0,0:0:0:0:
288,224,115331,1,8,0:0:0:0:
288,224,115418,1,8,0:0:0:0:
288,224,115505,1,8,0:0:0:0:
288,224,115592,1,0,0:0:0:0:
256,256,115767,1,8,0:0:0:0:
288,256,115854,1,8,0:0:0:0:
288,256,115941,1,0,0:0:0:0:
288,256,116116,1,8,0:0:0:0:
288,256,116290,1,8,0:0:0:0:
288,256,116377,1,0,0:0:0:0:
288,256,116464,1,8,0:0:0:0:
288,256,116552,1,8,0:0:0:0:
288,256,116639,1,0,0:0:0:0:
288,256,116813,1,8,0:0:0:0:
256,256,116988,1,0,0:0:0:0:
352,288,117162,1,8,0:0:0:0:
352,288,117249,1,8,0:0:0:0:
352,288,117337,1,0,0:0:0:0:
352,288,117511,1,8,0:0:0:0:
352,288,117598,1,0,0:0:0:0:
352,288,117685,1,8,0:0:0:0:
352,288,117773,1,8,0:0:0:0:
352,288,117860,1,0,0:0:0:0:
352,288,117947,1,8,0:0:0:0:
416,320,118034,1,8,0:0:0:0:
416,320,118209,1,0,0:0:0:0:
352,320,118296,1,8,0:0:0:0:
352,256,118383,1,8,0:0:0:0:
384,288,118557,1,0,0:0:0:0:
416,288,118645,1,8,0:0:0:0:
416,288,118732,1,0,0:0:0:0:
352,320,118906,1,8,0:0:0:0:
384,288,119081,1,0,0:0:0:0:
288,224,119255,1,8,0:0:0:0:
288,224,119342,1,0,0:0:0:0:
288,224,119430,1,8,0:0:0:0:
288,224,119517,1,8,0:0:0:0:
288,224,119604,1,0,0:0:0:0:
288,224,119691,1,0,0:0:0:0:
288,224,119778,1,12,0:0:0:0:
352,256,119953,1,0,0:0:0:0:
352,256,120127,1,8,0:0:0:0:
352,256,120302,1,0,0:0:0:0:
352,256,120389,1,0,0:0:0:0:
352,256,120476,1,8,0:0:0:0:
352,256,120563,1,8,0:0:0:0:
352,288,120650,1,0,0:0:0:0:
352,288,120825,1,8,0:0:0:0:
352,288,120999,1,0,0:0:0:0:
352,288,121087,1,0,0:0:0:0:
288,224,121174,1,12,0:0:0:0:
352,288,121348,1,0,0:0:0:0:
352,288,121435,1,8,0:0:0:0:
352,288,121523,1,8,0:0:0:0:
352,288,121697,1,0,0:0:0:0:
256,192,121871,1,12,0:0:0:0:
256,192,122046,1,0,0:0:0:0:
256,192,122220,1,12,0:0:0:0:
320,256,122395,1,8,0:0:0:0:
256,192,122569,5,4,0:0:0:0:
288,192,122918,1,0,0:0:0:0:
256,192,123092,1,4,0:0:0:0:
320,224,123441,1,0,0:0:0:0:
320,224,123616,1,4,0:0:0:0:
320,224,123964,1,0,0:0:0:0:
320,224,124139,1,4,0:0:0:0:
320,224,124488,1,0,0:0:0:0:
320,224,124662,1,12,0:0:0:0:
320,224,125011,1,8,0:0:0:0:
320,224,125185,1,4,0:0:0:0:
320,224,125534,1,0,0:0:0:0:
320,224,125709,1,12,0:0:0:0:
320,224,126057,1,8,0:0:0:0:
352,256,126232,1,4,0:0:0:0:
320,224,126406,1,8,0:0:0:0:
320,224,126581,1,8,0:0:0:0:
320,224,126755,1,4,0:0:0:0:
320,224,127104,1,8,0:0:0:0:
320,224,127278,1,4,0:0:0:0:
320,224,127627,1,8,0:0:0:0:
320,224,127802,1,4,0:0:0:0:
320,224,128150,1,8,0:0:0:0:
320,224,128325,1,4,0:0:0:0:
352,224,128674,1,0,0:0:0:0:
352,224,128848,1,12,0:0:0:0:
352,224,129197,1,8,0:0:0:0:
352,224,129371,1,4,0:0:0:0:
352,256,129720,1,0,0:0:0:0:
352,256,129895,1,12,0:0:0:0:
352,224,130244,1,8,0:0:0:0:
352,224,130418,1,4,0:0:0:0:
352,256,130592,1,8,0:0:0:0:
352,256,130767,1,8,0:0:0:0:
352,256,130941,1,4,0:0:0:0:
352,256,131290,1,8,0:0:0:0:
352,256,131464,1,4,0:0:0:0:
352,256,131639,1,8,0:0:0:0:
352,256,131813,1,8,0:0:0:0:
352,256,131988,1,4,0:0:0:0:
384,256,132162,1,0,0:0:0:0:
384,256,132337,1,8,0:0:0:0:
320,256,132511,1,4,0:0:0:0:
384,256,132685,1,8,0:0:0:0:
384,256,132860,1,8,0:0:0:0:
320,256,133034,1,4,0:0:0:0:
384,256,133209,1,8,0:0:0:0:
384,256,133383,1,8,0:0:0:0:
320,256,133557,1,4,0:0:0:0:
384,256,133732,1,0,0:0:0:0:
384,256,133906,1,8,0:0:0:0:
320,256,134081,1,4,0:0:0:0:
384,256,134255,1,8,0:0:0:0:
384,256,134430,1,8,0:0:0:0:
320,256,134604,1,4,0:0:0:0:
384,256,134953,1,8,0:0:0:0:
320,256,135127,1,4,0:0:0:0:
384,256,135302,1,8,0:0:0:0:
384,256,135476,1,8,0:0:0:0:
320,256,135650,1,4,0:0:0:0:
384,256,135825,1,0,0:0:0:0:
384,256,135999,1,8,0:0:0:0:
320,256,136174,1,4,0:0:0:0:
384,256,136348,1,8,0:0:0:0:
384,256,136523,1,8,0:0:0:0:
320,256,136697,1,4,0:0:0:0:
384,256,136871,1,0,0:0:0:0:
384,256,137046,1,8,0:0:0:0:
320,256,137220,1,4,0:0:0:0:
384,256,137395,1,0,0:0:0:0:
384,256,137569,1,8,0:0:0:0:
320,256,137744,1,4,0:0:0:0:
384,256,137918,1,8,0:0:0:0:
384,256,138092,1,8,0:0:0:0:
320,256,138267,1,4,0:0:0:0:
384,256,138441,1,8,0:0:0:0:
384,256,138616,1,8,0:0:0:0:
320,256,138790,1,4,0:0:0:0:
352,256,138964,1,8,0:0:0:0:
352,256,139052,1,8,0:0:0:0:
352,256,139139,1,8,0:0:0:0:
352,256,139226,1,8,0:0:0:0:
320,256,139313,1,4,0:0:0:0:
352,256,139488,1,8,0:0:0:0:
352,256,139662,1,8,0:0:0:0:
320,256,139837,1,4,0:0:0:0:
352,256,140011,1,0,0:0:0:0:
352,256,140185,1,8,0:0:0:0:
320,256,140360,1,4,0:0:0:0:
352,256,140534,1,8,0:0:0:0:
352,256,140709,1,8,0:0:0:0:
320,256,140883,1,4,0:0:0:0:
352,256,141057,1,8,0:0:0:0:
352,256,141232,1,8,0:0:0:0:
352,256,141319,1,8,0:0:0:0:
320,256,141406,1,4,0:0:0:0:
352,256,141581,1,0,0:0:0:0:
352,256,141755,1,8,0:0:0:0:
320,256,141930,1,4,0:0:0:0:
352,256,142104,1,8,0:0:0:0:
352,256,142278,1,8,0:0:0:0:
320,256,142453,1,4,0:0:0:0:
352,256,142627,1,0,0:0:0:0:
352,256,142802,1,8,0:0:0:0:
320,256,142976,1,4,0:0:0:0:
352,256,143325,1,0,0:0:0:0:
352,256,143499,1,8,0:0:0:0:
352,256,143674,1,8,0:0:0:0:
352,256,143848,1,0,0:0:0:0:
352,256,144023,1,8,0:0:0:0:
352,256,144110,1,8,0:0:0:0:
352,256,144197,1,8,0:0:0:0:
320,224,144284,1,8,0:0:0:0:
320,224,144371,1,0,0:0:0:0:
288,192,144546,1,4,0:0:0:0:
288,192,145069,1,0,0:0:0:0:
256,192,145592,1,0,0:0:0:0:
288,192,145767,1,8,0:0:0:0:
288,224,145941,1,4,0:0:0:0:
288,192,146115,1,8,0:0:0:0:
288,192,146289,1,8,0:0:0:0:
288,192,146464,1,0,0:0:0:0:
288,192,146813,1,8,0:0:0:0:
288,192,147161,1,0,0:0:0:0:
288,192,147336,1,8,0:0:0:0:
288,192,147510,1,0,0:0:0:0:
288,192,147685,1,0,0:0:0:0:
288,192,147859,1,8,0:0:0:0:
288,192,148208,1,8,0:0:0:0:
288,192,148557,1,0,0:0:0:0:
320,192,148731,1,8,0:0:0:0:
320,224,148906,1,0,0:0:0:0:
320,224,149080,1,8,0:0:0:0:
320,224,149254,1,8,0:0:0:0:
320,224,149429,1,0,0:0:0:0:
320,224,149603,1,0,0:0:0:0:
352,224,149778,1,8,0:0:0:0:
352,224,149952,1,0,0:0:0:0:
352,224,150127,1,8,0:0:0:0:
352,224,150301,1,8,0:0:0:0:
352,224,150475,1,0,0:0:0:0:
352,224,150650,1,8,0:0:0:0:
352,224,150824,1,0,0:0:0:0:
352,224,150999,1,0,0:0:0:0:
352,224,151173,1,8,0:0:0:0:
384,224,151347,1,8,0:0:0:0:
384,224,151522,1,0,0:0:0:0:
384,224,152045,1,0,0:0:0:0:
384,224,152220,1,8,0:0:0:0:
352,192,152481,1,0,0:0:0:0:
384,224,152743,1,8,0:0:0:0:
384,224,152917,1,0,0:0:0:0:
384,224,153179,1,8,0:0:0:0:
384,224,153441,1,8,0:0:0:0:
384,224,153615,1,0,0:0:0:0:
352,224,154138,1,0,0:0:0:0:
384,256,154313,1,8,0:0:0:0:
384,256,154487,1,8,0:0:0:0:
384,256,154661,1,0,0:0:0:0:
384,224,155185,1,0,0:0:0:0:
384,224,155359,1,8,0:0:0:0:
288,192,155534,5,8,0:0:0:0:
288,192,155621,1,8,0:0:0:0:
288,192,155708,1,0,0:0:0:0:
288,192,155970,1,0,0:0:0:0:
320,192,156231,1,0,0:0:0:0:
320,192,156406,1,12,0:0:0:0:
256,192,159371,1,0,0:0:0:0:
256,192,159545,1,8,0:0:0:0:
256,192,159720,1,8,0:0:0:0:
288,256,159894,1,4,0:0:0:0:
256,256,160068,1,8,0:0:0:0:
288,224,160243,1,8,0:0:0:0:
288,224,160417,1,0,0:0:0:0:
320,256,160504,1,0,0:0:0:0:
320,256,160592,1,0,0:0:0:0:
320,256,160679,1,0,0:0:0:0:
320,256,160766,1,8,0:0:0:0:
320,256,160941,1,0,0:0:0:0:
320,256,161115,1,8,0:0:0:0:
320,256,161202,1,8,0:0:0:0:
320,256,161289,1,0,0:0:0:0:
320,256,161464,1,8,0:0:0:0:
320,256,161638,1,8,0:0:0:0:
320,256,161813,1,0,0:0:0:0:
320,256,161900,1,0,0:0:0:0:
320,256,161987,1,0,0:0:0:0:
320,256,162074,1,0,0:0:0:0:
320,256,162161,1,8,0:0:0:0:
288,256,162336,1,0,0:0:0:0:
256,192,162510,1,8,0:0:0:0:
256,192,162597,1,0,0:0:0:0:
256,192,162685,1,8,0:0:0:0:
256,192,162772,1,8,0:0:0:0:
256,192,162859,1,0,0:0:0:0:
256,192,162946,1,0,0:0:0:0:
256,192,163034,1,8,0:0:0:0:
256,192,163121,1,0,0:0:0:0:
256,192,163208,1,8,0:0:0:0:
288,224,163295,1,8,0:0:0:0:
288,224,163382,1,0,0:0:0:0:
288,224,163470,1,8,0:0:0:0:
288,224,163557,1,0,0:0:0:0:
288,224,163644,1,8,0:0:0:0:
288,224,163731,1,8,0:0:0:0:
288,224,163818,1,0,0:0:0:0:
288,224,163906,1,0,0:0:0:0:
288,224,163993,1,0,0:0:0:0:
288,224,164080,1,8,0:0:0:0:
288,224,164254,1,8,0:0:0:0:
288,224,164342,1,8,0:0:0:0:
288,224,164429,1,0,0:0:0:0:
288,288,164603,1,8,0:0:0:0:
288,288,164778,1,8,0:0:0:0:
288,256,164865,1,0,0:0:0:0:
320,288,164952,1,8,0:0:0:0:
320,288,165039,1,8,0:0:0:0:
320,288,165127,1,0,0:0:0:0:
320,288,165301,1,8,0:0:0:0:
320,288,165475,1,0,0:0:0:0:
352,288,165650,1,8,0:0:0:0:
352,288,165737,1,8,0:0:0:0:
352,288,165824,1,0,0:0:0:0:
352,288,165999,1,8,0:0:0:0:
352,288,166086,1,0,0:0:0:0:
352,288,166173,1,8,0:0:0:0:
352,288,166260,1,8,0:0:0:0:
352,288,166347,1,0,0:0:0:0:
352,288,166435,1,8,0:0:0:0:
416,320,166522,1,8,0:0:0:0:
416,320,166696,1,0,0:0:0:0:
352,320,166784,1,8,0:0:0:0:
352,256,166871,1,8,0:0:0:0:
384,288,167045,1,0,0:0:0:0:
416,288,167132,1,8,0:0:0:0:
416,288,167220,1,0,0:0:0:0:
352,320,167394,1,8,0:0:0:0:
384,288,167568,1,0,0:0:0:0:
384,288,167743,1,8,0:0:0:0:
384,288,167830,1,0,0:0:0:0:
384,288,167917,1,8,0:0:0:0:
384,288,168004,1,8,0:0:0:0:
384,288,168092,1,0,0:0:0:0:
384,288,168179,1,0,0:0:0:0:
320,256,168266,1,12,0:0:0:0:
384,288,168441,1,0,0:0:0:0:
261,276,168528,1,0,0:0:0:0:
384,288,168615,1,8,0:0:0:0:
384,288,168789,1,8,0:0:0:0:
352,288,168877,1,0,0:0:0:0:
352,288,168964,1,8,0:0:0:0:
352,288,169051,1,8,0:0:0:0:
352,288,169138,1,0,0:0:0:0:
352,288,169313,1,8,0:0:0:0:
352,288,169487,1,8,0:0:0:0:
352,288,169574,1,8,0:0:0:0:
320,256,169661,1,4,0:0:0:0:
352,288,169836,1,8,0:0:0:0:
352,288,169923,1,0,0:0:0:0:
352,288,170010,1,8,0:0:0:0:
352,288,170185,1,0,0:0:0:0:
352,288,170359,1,8,0:0:0:0:
352,288,170446,1,8,0:0:0:0:
352,288,170534,1,0,0:0:0:0:
352,288,170621,1,8,0:0:0:0:
352,288,170708,1,8,0:0:0:0:
352,288,170795,1,0,0:0:0:0:
352,288,170882,1,0,0:0:0:0:
352,288,170970,1,8,0:0:0:0:
288,192,171057,1,4,0:0:0:0:
352,288,171231,1,8,0:0:0:0:
352,288,171406,1,8,0:0:0:0:
352,288,171580,1,0,0:0:0:0:
352,288,171667,1,0,0:0:0:0:
352,288,171754,1,0,0:0:0:0:
352,288,171842,1,0,0:0:0:0:
352,288,171929,1,8,0:0:0:0:
320,288,172103,1,0,0:0:0:0:
320,288,172278,1,8,0:0:0:0:
320,288,172365,1,8,0:0:0:0:
320,288,172452,1,0,0:0:0:0:
320,288,172627,1,8,0:0:0:0:
320,288,172801,1,8,0:0:0:0:
320,256,172975,1,0,0:0:0:0:
320,256,173063,1,0,0:0:0:0:
320,256,173150,1,0,0:0:0:0:
320,288,173237,1,0,0:0:0:0:
320,288,173324,1,8,0:0:0:0:
320,256,173499,1,0,0:0:0:0:
256,192,173673,1,8,0:0:0:0:
256,192,173760,1,0,0:0:0:0:
256,192,173847,1,8,0:0:0:0:
256,192,173935,1,8,0:0:0:0:
256,192,174022,1,0,0:0:0:0:
256,192,174109,1,0,0:0:0:0:
256,192,174196,1,8,0:0:0:0:
256,192,174284,1,0,0:0:0:0:
256,192,174371,1,8,0:0:0:0:
288,224,174458,1,8,0:0:0:0:
288,224,174545,1,0,0:0:0:0:
288,224,174632,1,0,0:0:0:0:
288,224,174720,1,8,0:0:0:0:
288,224,174807,1,0,0:0:0:0:
288,224,174894,1,0,0:0:0:0:
288,224,174981,1,8,0:0:0:0:
288,224,175068,1,8,0:0:0:0:
288,224,175156,1,8,0:0:0:0:
288,224,175243,1,0,0:0:0:0:
256,256,175417,1,8,0:0:0:0:
288,256,175504,1,8,0:0:0:0:
288,256,175592,1,0,0:0:0:0:
288,256,175766,1,8,0:0:0:0:
288,256,175941,1,8,0:0:0:0:
288,256,176028,1,0,0:0:0:0:
288,256,176115,1,8,0:0:0:0:
288,256,176202,1,8,0:0:0:0:
288,256,176289,1,0,0:0:0:0:
288,256,176464,1,8,0:0:0:0:
256,256,176638,1,0,0:0:0:0:
352,288,176813,1,8,0:0:0:0:
352,288,176900,1,8,0:0:0:0:
352,288,176987,1,0,0:0:0:0:
352,288,177161,1,8,0:0:0:0:
352,288,177249,1,0,0:0:0:0:
352,288,177336,1,8,0:0:0:0:
352,288,177423,1,8,0:0:0:0:
352,288,177510,1,0,0:0:0:0:
352,288,177597,1,8,0:0:0:0:
416,320,177685,1,8,0:0:0:0:
416,320,177859,1,0,0:0:0:0:
352,320,177946,1,8,0:0:0:0:
352,256,178034,1,8,0:0:0:0:
384,288,178208,1,0,0:0:0:0:
416,288,178295,1,8,0:0:0:0:
416,288,178382,1,0,0:0:0:0:
352,320,178557,1,8,0:0:0:0:
384,288,178731,1,0,0:0:0:0:
288,224,178906,1,8,0:0:0:0:
288,224,178993,1,0,0:0:0:0:
288,224,179080,1,8,0:0:0:0:
288,224,179167,1,8,0:0:0:0:
288,224,179254,1,0,0:0:0:0:
288,224,179342,1,0,0:0:0:0:
288,224,179429,1,12,0:0:0:0:
352,256,179603,1,0,0:0:0:0:
225,260,179691,1,0,0:0:0:0:
352,256,179778,1,8,0:0:0:0:
352,256,179952,1,8,0:0:0:0:
352,256,180039,1,0,0:0:0:0:
352,256,180127,1,8,0:0:0:0:
352,256,180214,1,8,0:0:0:0:
352,288,180301,1,0,0:0:0:0:
352,288,180475,1,8,0:0:0:0:
352,288,180650,1,0,0:0:0:0:
352,288,180737,1,0,0:0:0:0:
288,224,180824,1,12,0:0:0:0:
352,288,180999,1,0,0:0:0:0:
352,288,181086,1,8,0:0:0:0:
352,288,181173,1,8,0:0:0:0:
352,288,181347,1,0,0:0:0:0:
256,192,181522,1,12,0:0:0:0:
256,192,181696,1,8,0:0:0:0:
256,192,181871,1,4,0:0:0:0:
320,256,182045,1,8,0:0:0:0:
320,256,182132,1,8,0:0:0:0:
256,192,182220,5,4,0:0:0:0:
256,192,182394,1,8,0:0:0:0:
256,192,182568,1,8,0:0:0:0:
256,192,182743,1,0,0:0:0:0:
256,192,183092,1,0,0:0:0:0:
256,192,183266,1,8,0:0:0:0:
256,192,183441,1,0,0:0:0:0:
256,192,183528,1,0,0:0:0:0:
256,192,183615,1,8,0:0:0:0:
256,192,183789,1,8,0:0:0:0:
256,192,183964,1,8,0:0:0:0:
288,192,184138,1,0,0:0:0:0:
320,224,184487,1,0,0:0:0:0:
320,224,184661,1,8,0:0:0:0:
320,224,184836,1,0,0:0:0:0:
320,224,184923,1,8,0:0:0:0:
320,224,185010,1,0,0:0:0:0:
320,224,185185,1,0,0:0:0:0:
320,224,185359,1,8,0:0:0:0:
352,256,185534,1,0,0:0:0:0:
320,256,185882,1,0,0:0:0:0:
352,256,186057,1,8,0:0:0:0:
352,256,186231,1,0,0:0:0:0:
352,256,186318,1,8,0:0:0:0:
352,256,186406,1,0,0:0:0:0:
341,224,186580,1,0,0:0:0:0:
352,256,186667,1,0,0:0:0:0:
416,256,186754,1,8,0:0:0:0:
320,256,186929,1,8,0:0:0:0:
352,256,187103,1,0,0:0:0:0:
352,256,187278,1,8,0:0:0:0:
352,256,187365,1,8,0:0:0:0:
320,224,187452,1,0,0:0:0:0:
352,256,187627,1,8,0:0:0:0:
352,256,187801,1,4,0:0:0:0:
352,256,187975,1,8,0:0:0:0:
352,256,188063,1,0,0:0:0:0:
352,256,188150,1,8,0:0:0:0:
352,256,188324,1,8,0:0:0:0:
384,256,188499,1,0,0:0:0:0:
384,256,188673,1,8,0:0:0:0:
384,256,188760,1,0,0:0:0:0:
384,288,188935,1,0,0:0:0:0:
384,288,189022,1,8,0:0:0:0:
352,256,189196,1,0,0:0:0:0:
384,288,189284,1,8,0:0:0:0:
352,256,189371,1,8,0:0:0:0:
352,256,189458,1,0,0:0:0:0:
352,288,189632,1,8,0:0:0:0:
352,256,189720,1,0,0:0:0:0:
352,256,189894,1,8,0:0:0:0:
384,224,190068,1,0,0:0:0:0:
384,224,190156,1,0,0:0:0:0:
384,256,190243,1,8,0:0:0:0:
384,256,190417,1,8,0:0:0:0:
384,256,190592,1,4,0:0:0:0:
384,256,190766,1,8,0:0:0:0:
384,256,190853,1,8,0:0:0:0:
384,256,190941,1,0,0:0:0:0:
384,256,191115,1,8,0:0:0:0:
384,256,191289,1,0,0:0:0:0:
384,256,191464,1,8,0:0:0:0:
384,256,191551,1,0,0:0:0:0:
384,256,191638,1,8,0:0:0:0:
352,256,191813,1,8,0:0:0:0:
352,256,191900,1,8,0:0:0:0:
352,256,191987,1,4,0:0:0:0:
269,208,192161,1,0,0:0:0:0:
352,256,192249,1,0,0:0:0:0:
352,256,192336,1,8,0:0:0:0:
352,256,192510,1,0,0:0:0:0:
384,256,192685,1,12,0:0:0:0:
384,256,192859,1,0,0:0:0:0:
352,288,193034,1,12,0:0:0:0:
384,256,193208,1,8,0:0:0:0:
352,256,193382,1,4,0:0:0:0:
352,256,193731,1,0,0:0:0:0:
352,256,193906,1,4,0:0:0:0:
352,288,194254,1,0,0:0:0:0:
352,288,194429,1,4,0:0:0:0:
256,160,194778,5,0,0:0:0:0:
352,288,194952,1,4,0:0:0:0:
352,256,195301,1,0,0:0:0:0:
352,256,195475,1,4,0:0:0:0:
256,160,195650,1,8,0:0:0:0:
352,256,195824,1,8,0:0:0:0:
352,288,195999,1,4,0:0:0:0:
288,224,196173,1,8,0:0:0:0:
288,224,196260,1,8,0:0:0:0:
288,224,196347,1,8,0:0:0:0:
352,256,196522,1,4,0:0:0:0:
288,224,196696,1,4,0:0:0:0:
256,192,197045,1,0,0:0:0:0:
256,192,197132,1,0,0:0:0:0:
256,192,197220,1,12,0:0:0:0:
