osu file format v14

[General]
AudioFilename: audio.mp3
AudioLeadIn: 0
PreviewTime: 45659
Countdown: 0
SampleSet: Normal
StackLeniency: 0.7
Mode: 1
LetterboxInBreaks: 0
WidescreenStoryboard: 1

[Editor]
Bookmarks: 187810
DistanceSpacing: 0.8
BeatDivisor: 4
GridSize: 32
TimelineZoom: 2.999999

[Metadata]
Title:Outsider
TitleUnicode:アウトサイダー
Artist:Eve
ArtistUnicode:Eve
Creator:Quorum
Version:Muzukashii
Source:
Tags:japanese 快晴P kaise-p 歌い手 nobuhito"UNA"tanahashi いぶ ibu otogi おとぎ utaite numa mah kaiseip 棚橋 una 信仁 jpop j-pop pop jrock j-rock rock Raphalge
BeatmapID:3058367
BeatmapSetID:1456280

[Difficulty]
HPDrainRate:6
CircleSize:5
OverallDifficulty:5
ApproachRate:5
SliderMultiplier:1.4
SliderTickRate:1

[Events]
//Background and Video events
0,0,"outsider.jpg",0,50
//Break Periods
2,146141,154334
//Storyboard Layer 0 (Background)
//Storyboard Layer 1 (Fail)
//Storyboard Layer 2 (Pass)
//Storyboard Layer 3 (Foreground)
//Storyboard Layer 4 (Overlay)
//Storyboard Sound Samples

[TimingPoints]
478,348.837209302326,4,1,0,85,1,0
45129,348.837209302326,4,1,0,85,1,8
45826,-96.1538461538461,4,1,0,85,0,8
45913,-94.3396226415094,4,1,0,85,0,8
46001,-92.5925925925926,4,1,0,85,0,8
46175,348.837209302326,4,1,0,85,1,1
46175,-90.9090909090909,4,1,0,85,0,1
67977,-92.5925925925926,4,1,0,85,0,1
68064,-94.3396226415094,4,1,0,85,0,1
68151,-96.1538461538461,4,1,0,85,0,1
68326,-98.0392156862745,4,1,0,85,0,1
68500,-100,4,1,0,85,0,0
99198,348.837209302326,4,1,0,85,1,8
99721,-98.0392156862745,4,1,0,85,0,8
99895,-96.1538461538461,4,1,0,85,0,8
99982,-94.3396226415094,4,1,0,85,0,8
100070,-92.5925925925926,4,1,0,85,0,8
100244,348.837209302326,4,1,0,85,1,1
100244,-90.9090909090909,4,1,0,85,0,1
122046,-94.3396226415094,4,1,0,85,0,1
122220,-96.1538461538461,4,1,0,85,0,1
122395,-98.0392156862745,4,1,0,85,0,1
122569,-100,4,1,0,85,0,0
144895,348.837209302326,4,1,0,85,1,8
145941,348.837209302326,4,1,0,85,1,0
159894,-90.9090909090909,4,1,0,85,0,1
182220,-90.9090909090909,4,1,0,85,0,0

[HitObjects]
258,181,478,5,12,0:0:0:0:
255,195,3268,1,12,0:0:0:0:
252,199,5710,1,0,0:0:0:0:
252,199,6059,1,12,0:0:0:0:
251,192,6408,1,0,0:0:0:0:
251,192,6582,1,8,0:0:0:0:
251,192,6757,1,0,0:0:0:0:
251,192,6844,1,0,0:0:0:0:
251,192,6931,1,0,0:0:0:0:
251,192,7105,1,8,0:0:0:0:
251,192,7280,1,8,0:0:0:0:
253,183,7629,1,0,0:0:0:0:
245,182,7890,1,0,0:0:0:0:
245,182,7978,1,0,0:0:0:0:
246,180,8152,1,8,0:0:0:0:
250,175,8501,1,0,0:0:0:0:
245,182,8850,1,0,0:0:0:0:
246,180,9024,1,8,0:0:0:0:
246,180,9198,1,8,0:0:0:0:
246,180,9373,1,8,0:0:0:0:
246,180,9547,1,0,0:0:0:0:
246,180,9634,1,0,0:0:0:0:
246,180,9722,1,0,0:0:0:0:
246,176,9896,1,8,0:0:0:0:
246,180,10071,1,0,0:0:0:0:
246,180,10419,1,0,0:0:0:0:
221,170,10681,1,0,0:0:0:0:
221,170,10768,1,0,0:0:0:0:
221,170,10943,1,8,0:0:0:0:
221,170,11640,1,0,0:0:0:0:
237,166,11815,1,8,0:0:0:0:
237,166,11989,1,0,0:0:0:0:
237,166,12164,1,8,0:0:0:0:
237,166,12338,1,0,0:0:0:0:
237,166,12425,1,0,0:0:0:0:
237,166,12512,1,0,0:0:0:0:
237,166,12687,1,8,0:0:0:0:
237,166,12861,1,0,0:0:0:0:
234,148,13210,1,0,0:0:0:0:
234,148,13472,1,8,0:0:0:0:
234,148,13559,1,8,0:0:0:0:
234,148,13733,1,0,0:0:0:0:
242,160,14082,1,0,0:0:0:0:
234,148,14431,1,0,0:0:0:0:
234,148,14605,1,8,0:0:0:0:
234,148,14780,1,8,0:0:0:0:
234,148,14954,1,8,0:0:0:0:
234,148,15129,1,0,0:0:0:0:
234,148,15216,1,0,0:0:0:0:
234,148,15303,1,0,0:0:0:0:
234,148,15478,1,8,0:0:0:0:
234,148,15652,1,0,0:0:0:0:
234,148,16001,1,0,0:0:0:0:
264,136,16262,1,0,0:0:0:0:
234,148,16350,1,0,0:0:0:0:
234,148,16524,1,8,0:0:0:0:
234,148,17047,1,0,0:0:0:0:
234,148,17222,1,12,0:0:0:0:
234,161,17571,1,8,0:0:0:0:
240,167,17919,1,8,0:0:0:0:
234,161,18181,1,8,0:0:0:0:
240,167,18617,1,8,0:0:0:0:
239,166,18791,1,8,0:0:0:0:
250,152,18966,1,8,0:0:0:0:
228,150,19140,1,0,0:0:0:0:
245,129,19228,1,0,0:0:0:0:
234,131,19315,1,0,0:0:0:0:
228,150,19576,1,8,0:0:0:0:
230,104,19838,1,0,0:0:0:0:
228,150,20012,1,8,0:0:0:0:
234,146,20361,1,8,0:0:0:0:
234,146,20710,1,8,0:0:0:0:
210,152,21233,1,0,0:0:0:0:
234,146,21408,1,8,0:0:0:0:
234,146,21757,1,0,0:0:0:0:
230,104,21931,1,8,0:0:0:0:
234,146,22105,1,8,0:0:0:0:
234,146,22454,1,0,0:0:0:0:
234,146,22803,1,8,0:0:0:0:
234,146,23152,1,8,0:0:0:0:
234,146,23501,1,0,0:0:0:0:
234,146,23762,1,8,0:0:0:0:
234,146,24198,1,8,0:0:0:0:
234,146,24373,1,8,0:0:0:0:
233,138,24547,1,8,0:0:0:0:
230,104,24722,1,0,0:0:0:0:
229,132,24809,1,0,0:0:0:0:
234,146,24896,1,0,0:0:0:0:
234,146,25158,1,8,0:0:0:0:
220,146,25419,1,0,0:0:0:0:
234,146,25768,1,0,0:0:0:0:
220,137,25943,1,8,0:0:0:0:
234,146,26117,1,0,0:0:0:0:
234,146,26291,1,8,0:0:0:0:
234,146,26640,1,8,0:0:0:0:
230,104,26815,1,8,0:0:0:0:
234,146,26989,1,8,0:0:0:0:
234,146,27338,1,0,0:0:0:0:
234,146,27687,1,8,0:0:0:0:
234,146,28036,1,0,0:0:0:0:
186,129,28210,1,0,0:0:0:0:
234,146,28384,1,12,0:0:0:0:
234,146,29082,1,8,0:0:0:0:
234,146,29257,1,8,0:0:0:0:
234,146,29344,1,8,0:0:0:0:
234,146,29605,1,0,0:0:0:0:
234,146,29780,1,8,0:0:0:0:
234,146,30041,1,8,0:0:0:0:
213,121,30129,1,8,0:0:0:0:
234,146,30303,1,0,0:0:0:0:
234,146,30478,1,8,0:0:0:0:
234,146,30739,1,0,0:0:0:0:
234,146,30826,1,0,0:0:0:0:
234,146,31001,1,8,0:0:0:0:
234,146,31524,1,8,0:0:0:0:
234,146,31873,1,8,0:0:0:0:
234,146,32134,1,0,0:0:0:0:
212,129,32222,1,0,0:0:0:0:
234,146,32396,1,8,0:0:0:0:
234,146,32571,1,8,0:0:0:0:
234,146,32832,1,0,0:0:0:0:
224,122,32919,1,0,0:0:0:0:
234,146,33094,1,0,0:0:0:0:
234,146,33268,1,8,0:0:0:0:
234,146,33530,1,0,0:0:0:0:
199,145,33617,1,0,0:0:0:0:
234,146,33791,1,8,0:0:0:0:
234,146,34315,1,8,0:0:0:0:
234,146,34664,1,8,0:0:0:0:
234,146,34925,1,0,0:0:0:0:
226,129,35012,1,0,0:0:0:0:
234,146,35187,1,0,0:0:0:0:
234,146,35361,1,8,0:0:0:0:
234,146,35623,1,8,0:0:0:0:
224,125,35710,1,8,0:0:0:0:
234,146,35884,1,0,0:0:0:0:
234,146,36059,1,8,0:0:0:0:
234,146,36321,1,0,0:0:0:0:
206,131,36408,1,0,0:0:0:0:
234,146,36582,1,8,0:0:0:0:
219,129,36931,1,8,0:0:0:0:
234,146,37105,1,8,0:0:0:0:
234,146,37280,1,0,0:0:0:0:
234,146,37454,1,8,0:0:0:0:
234,146,37803,1,8,0:0:0:0:
234,146,37978,1,0,0:0:0:0:
234,146,38152,1,8,0:0:0:0:
234,146,38501,1,8,0:0:0:0:
234,146,38850,1,8,0:0:0:0:
234,146,39024,1,0,0:0:0:0:
234,146,39198,1,8,0:0:0:0:
234,146,39547,1,12,0:0:0:0:
248,162,39896,1,0,0:0:0:0:
248,162,40071,1,12,0:0:0:0:
248,162,40419,1,8,0:0:0:0:
248,162,40594,1,4,0:0:0:0:
248,162,40943,1,8,0:0:0:0:
248,162,41117,1,4,0:0:0:0:
248,162,41466,1,0,0:0:0:0:
248,162,41640,1,12,0:0:0:0:
248,162,41989,1,0,0:0:0:0:
248,162,42164,1,12,0:0:0:0:
248,162,42512,1,8,0:0:0:0:
248,162,42687,1,4,0:0:0:0:
248,162,43036,1,0,0:0:0:0:
248,162,43210,1,12,0:0:0:0:
248,162,43733,1,8,0:0:0:0:
248,162,43908,1,8,0:0:0:0:
248,162,44082,1,0,0:0:0:0:
248,162,44431,1,0,0:0:0:0:
248,162,44605,1,0,0:0:0:0:
248,162,44780,1,8,0:0:0:0:
248,162,44867,1,8,0:0:0:0:
248,162,44954,1,8,0:0:0:0:
243,156,45303,1,8,0:0:0:0:
243,156,45390,1,8,0:0:0:0:
243,156,45477,1,8,0:0:0:0:
243,156,45826,1,8,0:0:0:0:
243,156,45913,1,8,0:0:0:0:
243,156,46001,1,8,0:0:0:0:
243,156,46175,1,12,0:0:0:0:
253,144,46523,1,0,0:0:0:0:
253,144,46698,1,8,0:0:0:0:
253,144,46872,1,0,0:0:0:0:
253,144,47047,1,8,0:0:0:0:
253,144,47395,1,0,0:0:0:0:
253,144,47483,1,0,0:0:0:0:
253,144,47570,1,0,0:0:0:0:
253,144,47744,1,8,0:0:0:0:
253,144,47919,1,8,0:0:0:0:
253,144,48093,1,8,0:0:0:0:
253,144,48268,1,0,0:0:0:0:
253,144,48442,1,8,0:0:0:0:
253,144,48791,1,8,0:0:0:0:
253,144,48965,1,8,0:0:0:0:
253,144,49140,1,0,0:0:0:0:
248,125,49227,1,0,0:0:0:0:
253,144,49314,1,0,0:0:0:0:
253,144,49488,1,8,0:0:0:0:
253,144,49663,1,0,0:0:0:0:
253,144,49837,1,0,0:0:0:0:
254,120,50012,1,8,0:0:0:0:
254,120,50361,1,8,0:0:0:0:
254,120,50535,1,8,0:0:0:0:
254,120,50709,1,0,0:0:0:0:
254,120,50884,1,0,0:0:0:0:
254,120,51058,1,8,0:0:0:0:
254,120,51233,1,0,0:0:0:0:
254,120,51407,1,8,0:0:0:0:
254,120,51756,1,0,0:0:0:0:
254,120,52279,1,0,0:0:0:0:
254,120,52454,1,8,0:0:0:0:
254,120,52715,1,8,0:0:0:0:
254,120,52977,1,8,0:0:0:0:
254,120,53151,1,0,0:0:0:0:
254,120,53326,1,8,0:0:0:0:
254,120,53500,1,8,0:0:0:0:
254,120,53675,1,0,0:0:0:0:
256,95,54023,1,8,0:0:0:0:
256,95,54198,1,0,0:0:0:0:
256,95,54372,1,0,0:0:0:0:
256,95,54547,1,8,0:0:0:0:
256,95,54895,1,8,0:0:0:0:
256,95,55070,1,0,0:0:0:0:
256,95,55244,1,8,0:0:0:0:
256,95,55419,1,0,0:0:0:0:
256,95,55593,1,8,0:0:0:0:
257,89,55680,1,8,0:0:0:0:
256,95,55768,1,8,0:0:0:0:
256,95,55942,1,0,0:0:0:0:
256,95,56291,1,8,0:0:0:0:
256,95,56465,1,8,0:0:0:0:
256,95,56640,1,0,0:0:0:0:
256,95,56814,1,8,0:0:0:0:
256,95,56901,1,8,0:0:0:0:
256,95,56988,1,8,0:0:0:0:
256,95,57163,1,0,0:0:0:0:
256,95,57337,1,12,0:0:0:0:
228,67,57686,1,0,0:0:0:0:
228,67,57861,1,8,0:0:0:0:
260,87,58035,1,8,0:0:0:0:
260,87,58209,1,0,0:0:0:0:
260,87,58558,1,0,0:0:0:0:
260,87,58733,1,8,0:0:0:0:
260,87,58907,1,0,0:0:0:0:
260,87,59081,1,8,0:0:0:0:
254,88,59256,1,8,0:0:0:0:
260,87,59430,1,0,0:0:0:0:
254,79,59605,1,0,0:0:0:0:
254,79,59954,1,8,0:0:0:0:
254,79,60041,1,8,0:0:0:0:
254,79,60128,1,8,0:0:0:0:
254,79,60302,1,0,0:0:0:0:
254,79,60477,1,0,0:0:0:0:
254,79,60651,1,8,0:0:0:0:
254,79,60738,1,8,0:0:0:0:
254,79,60826,1,8,0:0:0:0:
254,79,61000,1,0,0:0:0:0:
254,79,61175,1,8,0:0:0:0:
254,79,61349,1,0,0:0:0:0:
254,79,61523,1,0,0:0:0:0:
254,79,61872,1,8,0:0:0:0:
254,79,62047,1,8,0:0:0:0:
254,79,62221,1,8,0:0:0:0:
254,79,62395,1,0,0:0:0:0:
254,79,62570,1,8,0:0:0:0:
254,79,62744,1,0,0:0:0:0:
254,79,62919,1,8,0:0:0:0:
246,78,63442,1,0,0:0:0:0:
244,79,63616,1,8,0:0:0:0:
244,79,63878,1,8,0:0:0:0:
244,79,64140,1,8,0:0:0:0:
244,79,64314,1,0,0:0:0:0:
246,78,64488,1,8,0:0:0:0:
244,79,64663,1,0,0:0:0:0:
244,79,64837,1,0,0:0:0:0:
244,79,65186,1,0,0:0:0:0:
244,79,65273,1,0,0:0:0:0:
244,79,65361,1,0,0:0:0:0:
246,78,65535,1,8,0:0:0:0:
244,79,65709,1,8,0:0:0:0:
240,87,65884,1,0,0:0:0:0:
244,79,66058,1,8,0:0:0:0:
244,79,66233,1,8,0:0:0:0:
244,79,66407,1,0,0:0:0:0:
246,78,66581,1,0,0:0:0:0:
244,79,66756,1,8,0:0:0:0:
244,79,67105,1,8,0:0:0:0:
244,79,67279,1,0,0:0:0:0:
244,79,67454,1,8,0:0:0:0:
246,78,67628,1,0,0:0:0:0:
244,79,67802,1,8,0:0:0:0:
244,79,67977,1,8,0:0:0:0:
267,98,68064,1,8,0:0:0:0:
244,79,68151,1,8,0:0:0:0:
195,102,68326,1,0,0:0:0:0:
246,78,68500,1,12,0:0:0:0:
234,146,68849,1,0,0:0:0:0:
234,146,69023,1,12,0:0:0:0:
248,162,69372,1,8,0:0:0:0:
248,162,69547,1,4,0:0:0:0:
248,162,69895,1,8,0:0:0:0:
248,162,70070,1,4,0:0:0:0:
248,162,70419,1,0,0:0:0:0:
248,162,70593,1,12,0:0:0:0:
248,162,71291,1,12,0:0:0:0:
142,121,71640,1,0,0:0:0:0:
254,157,71988,1,8,0:0:0:0:
248,162,72250,1,8,0:0:0:0:
247,157,72512,1,0,0:0:0:0:
247,157,72686,1,0,0:0:0:0:
248,162,73209,1,0,0:0:0:0:
247,157,73384,1,8,0:0:0:0:
247,157,73645,1,8,0:0:0:0:
247,157,73907,1,0,0:0:0:0:
247,157,74081,1,8,0:0:0:0:
247,157,74605,1,0,0:0:0:0:
247,157,74779,1,8,0:0:0:0:
247,157,75041,1,8,0:0:0:0:
247,157,75302,1,0,0:0:0:0:
247,157,75477,1,8,0:0:0:0:
247,157,76000,1,0,0:0:0:0:
247,157,76175,1,8,0:0:0:0:
247,157,76436,1,0,0:0:0:0:
247,157,76698,1,0,0:0:0:0:
247,157,76872,1,12,0:0:0:0:
227,135,77221,1,0,0:0:0:0:
247,157,77570,1,8,0:0:0:0:
247,157,77831,1,8,0:0:0:0:
247,157,78093,1,0,0:0:0:0:
247,157,78268,1,8,0:0:0:0:
247,157,78791,1,0,0:0:0:0:
247,157,78965,1,8,0:0:0:0:
247,157,79227,1,8,0:0:0:0:
247,157,79488,1,0,0:0:0:0:
247,157,79663,1,8,0:0:0:0:
247,157,80186,1,0,0:0:0:0:
247,157,80361,1,8,0:0:0:0:
247,157,80622,1,0,0:0:0:0:
247,157,80884,1,0,0:0:0:0:
247,157,81058,1,8,0:0:0:0:
240,165,82105,1,0,0:0:0:0:
247,157,82454,1,12,0:0:0:0:
239,150,82802,1,8,0:0:0:0:
239,150,82977,1,0,0:0:0:0:
235,152,83326,1,8,0:0:0:0:
235,152,83500,1,8,0:0:0:0:
239,150,83675,1,0,0:0:0:0:
239,150,83849,1,8,0:0:0:0:
235,152,84111,1,8,0:0:0:0:
235,152,84372,1,0,0:0:0:0:
235,152,84547,1,8,0:0:0:0:
239,150,84808,1,8,0:0:0:0:
235,152,85070,1,0,0:0:0:0:
235,152,85244,1,8,0:0:0:0:
239,150,85768,1,0,0:0:0:0:
235,152,86116,1,8,0:0:0:0:
235,152,86291,1,8,0:0:0:0:
235,152,86465,1,0,0:0:0:0:
235,152,86640,1,8,0:0:0:0:
239,150,86901,1,8,0:0:0:0:
235,152,87163,1,8,0:0:0:0:
235,152,87337,1,8,0:0:0:0:
235,152,87512,1,0,0:0:0:0:
235,152,87686,1,8,0:0:0:0:
239,150,87861,1,0,0:0:0:0:
235,152,88035,1,8,0:0:0:0:
235,152,88558,1,0,0:0:0:0:
239,150,88907,1,8,0:0:0:0:
235,152,89081,1,8,0:0:0:0:
235,152,89256,1,0,0:0:0:0:
235,152,89430,1,8,0:0:0:0:
235,152,89692,1,8,0:0:0:0:
235,152,89954,1,0,0:0:0:0:
235,152,90128,1,8,0:0:0:0:
235,152,90390,1,8,0:0:0:0:
235,152,90651,1,8,0:0:0:0:
235,152,91000,1,8,0:0:0:0:
235,152,91175,1,8,0:0:0:0:
235,152,91349,1,0,0:0:0:0:
235,152,91523,1,8,0:0:0:0:
235,152,91698,1,0,0:0:0:0:
239,150,91785,1,0,0:0:0:0:
235,152,91872,1,0,0:0:0:0:
235,152,92047,1,8,0:0:0:0:
235,152,92221,1,0,0:0:0:0:
235,152,92570,1,8,0:0:0:0:
235,152,92744,1,0,0:0:0:0:
235,152,92919,1,8,0:0:0:0:
235,152,93093,1,8,0:0:0:0:
235,152,93268,1,8,0:0:0:0:
235,152,93442,1,0,0:0:0:0:
235,152,93616,1,12,0:0:0:0:
234,146,93965,1,0,0:0:0:0:
234,146,94140,1,12,0:0:0:0:
248,162,94488,1,8,0:0:0:0:
248,162,94663,1,4,0:0:0:0:
248,162,95012,1,8,0:0:0:0:
248,162,95186,1,4,0:0:0:0:
248,162,95535,1,0,0:0:0:0:
248,162,95709,1,12,0:0:0:0:
234,146,96058,1,0,0:0:0:0:
234,146,96233,1,12,0:0:0:0:
248,162,96581,1,8,0:0:0:0:
248,162,96756,1,4,0:0:0:0:
248,162,97105,1,0,0:0:0:0:
248,162,97279,1,12,0:0:0:0:
248,162,97628,1,0,0:0:0:0:
248,162,97802,1,8,0:0:0:0:
292,171,97977,1,8,0:0:0:0:
258,147,98151,1,0,0:0:0:0:
268,163,98326,1,8,0:0:0:0:
268,163,98500,1,0,0:0:0:0:
268,163,98849,1,8,0:0:0:0:
268,163,99721,1,8,0:0:0:0:
268,163,99895,1,0,0:0:0:0:
249,151,99982,1,0,0:0:0:0:
268,163,100070,1,0,0:0:0:0:
243,156,100244,1,12,0:0:0:0:
253,144,100592,1,8,0:0:0:0:
253,144,100767,1,8,0:0:0:0:
253,144,100941,1,0,0:0:0:0:
253,144,101116,1,8,0:0:0:0:
253,144,101464,1,8,0:0:0:0:
253,144,101639,1,8,0:0:0:0:
253,144,101813,1,8,0:0:0:0:
253,144,101988,1,0,0:0:0:0:
253,144,102162,1,8,0:0:0:0:
253,144,102337,1,0,0:0:0:0:
253,144,102511,1,8,0:0:0:0:
253,144,102860,1,8,0:0:0:0:
253,133,102947,1,8,0:0:0:0:
253,144,103034,1,8,0:0:0:0:
253,144,103209,1,0,0:0:0:0:
253,144,103383,1,8,0:0:0:0:
253,144,103557,1,0,0:0:0:0:
253,144,103732,1,8,0:0:0:0:
253,144,103906,1,8,0:0:0:0:
254,120,104081,1,8,0:0:0:0:
254,120,104255,1,0,0:0:0:0:
254,120,104430,1,8,0:0:0:0:
254,120,104778,1,8,0:0:0:0:
254,120,104953,1,0,0:0:0:0:
254,120,105127,1,8,0:0:0:0:
254,120,105302,1,0,0:0:0:0:
254,120,105476,1,8,0:0:0:0:
254,120,105650,1,8,0:0:0:0:
254,120,105825,1,0,0:0:0:0:
254,120,106348,1,0,0:0:0:0:
254,120,106523,1,8,0:0:0:0:
254,120,106784,1,8,0:0:0:0:
254,120,107046,1,8,0:0:0:0:
254,120,107220,1,0,0:0:0:0:
254,120,107482,1,0,0:0:0:0:
254,120,107744,1,8,0:0:0:0:
256,95,108092,1,8,0:0:0:0:
256,95,108267,1,8,0:0:0:0:
256,95,108441,1,0,0:0:0:0:
256,95,108616,1,8,0:0:0:0:
256,95,108964,1,8,0:0:0:0:
256,95,109139,1,0,0:0:0:0:
256,95,109313,1,8,0:0:0:0:
256,95,109488,1,0,0:0:0:0:
256,95,109662,1,0,0:0:0:0:
257,89,109749,1,0,0:0:0:0:
256,95,109837,1,8,0:0:0:0:
256,95,110011,1,0,0:0:0:0:
256,95,110360,1,8,0:0:0:0:
256,95,110534,1,8,0:0:0:0:
256,95,110709,1,0,0:0:0:0:
256,95,110883,1,8,0:0:0:0:
256,95,110970,1,8,0:0:0:0:
256,95,111057,1,8,0:0:0:0:
256,95,111232,1,0,0:0:0:0:
256,95,111406,1,12,0:0:0:0:
228,67,111755,1,8,0:0:0:0:
228,67,111930,1,8,0:0:0:0:
256,83,112104,1,0,0:0:0:0:
260,87,112278,1,8,0:0:0:0:
260,87,112627,1,8,0:0:0:0:
260,87,112802,1,8,0:0:0:0:
260,76,112976,1,0,0:0:0:0:
260,87,113150,1,8,0:0:0:0:
254,88,113325,1,8,0:0:0:0:
260,76,113499,1,0,0:0:0:0:
254,79,113674,1,0,0:0:0:0:
254,79,114023,1,8,0:0:0:0:
254,79,114197,1,8,0:0:0:0:
254,79,114371,1,0,0:0:0:0:
254,79,114546,1,8,0:0:0:0:
254,79,114720,1,0,0:0:0:0:
254,79,114807,1,0,0:0:0:0:
254,79,114895,1,0,0:0:0:0:
254,79,115069,1,8,0:0:0:0:
254,79,115244,1,8,0:0:0:0:
254,79,115418,1,0,0:0:0:0:
230,75,115505,1,0,0:0:0:0:
254,79,115592,1,8,0:0:0:0:
254,79,115941,1,8,0:0:0:0:
254,79,116116,1,0,0:0:0:0:
254,79,116290,1,0,0:0:0:0:
254,79,116464,1,0,0:0:0:0:
254,79,116639,1,8,0:0:0:0:
254,79,116813,1,0,0:0:0:0:
254,79,116988,1,8,0:0:0:0:
246,78,117511,1,0,0:0:0:0:
244,79,117685,1,8,0:0:0:0:
244,79,117947,1,8,0:0:0:0:
244,79,118209,1,8,0:0:0:0:
244,79,118383,1,0,0:0:0:0:
244,79,118645,1,8,0:0:0:0:
244,79,118906,1,0,0:0:0:0:
244,79,119255,1,0,0:0:0:0:
244,79,119342,1,0,0:0:0:0:
244,79,119430,1,0,0:0:0:0:
246,78,119604,1,8,0:0:0:0:
244,79,119778,1,8,0:0:0:0:
240,87,119953,1,0,0:0:0:0:
244,79,120127,1,8,0:0:0:0:
244,79,120302,1,0,0:0:0:0:
244,79,120476,1,8,0:0:0:0:
244,79,120825,1,8,0:0:0:0:
244,79,120999,1,8,0:0:0:0:
244,79,121523,1,8,0:0:0:0:
246,78,121697,1,0,0:0:0:0:
244,79,122046,1,8,0:0:0:0:
244,79,122220,1,8,0:0:0:0:
244,79,122395,1,0,0:0:0:0:
246,78,122569,1,12,0:0:0:0:
234,90,123092,1,12,0:0:0:0:
234,90,123616,1,4,0:0:0:0:
234,90,124139,1,4,0:0:0:0:
234,90,124662,1,12,0:0:0:0:
234,90,125185,1,12,0:0:0:0:
234,90,125709,1,4,0:0:0:0:
234,90,126232,1,0,0:0:0:0:
234,90,126406,1,0,0:0:0:0:
234,90,126581,1,0,0:0:0:0:
234,90,126755,1,12,0:0:0:0:
234,90,127104,1,0,0:0:0:0:
234,90,127278,1,12,0:0:0:0:
227,90,127627,1,8,0:0:0:0:
227,90,127802,1,4,0:0:0:0:
227,90,128150,1,8,0:0:0:0:
227,90,128325,1,4,0:0:0:0:
227,90,128674,1,0,0:0:0:0:
227,90,128848,1,12,0:0:0:0:
227,90,129197,1,0,0:0:0:0:
227,90,129371,1,12,0:0:0:0:
227,90,129720,1,8,0:0:0:0:
227,90,129895,1,4,0:0:0:0:
227,90,130244,1,0,0:0:0:0:
227,90,130418,1,8,0:0:0:0:
227,90,130767,1,0,0:0:0:0:
227,90,130941,1,12,0:0:0:0:
227,90,131464,1,8,0:0:0:0:
227,90,131639,1,8,0:0:0:0:
227,90,131813,1,0,0:0:0:0:
227,90,131988,1,8,0:0:0:0:
234,95,132337,1,0,0:0:0:0:
234,95,132511,1,8,0:0:0:0:
234,95,132860,1,0,0:0:0:0:
234,95,133034,1,8,0:0:0:0:
234,95,133383,1,0,0:0:0:0:
234,95,133557,1,0,0:0:0:0:
234,95,133906,1,0,0:0:0:0:
234,95,134081,1,8,0:0:0:0:
234,95,134430,1,0,0:0:0:0:
234,95,134604,1,0,0:0:0:0:
234,95,135127,1,8,0:0:0:0:
234,95,135650,1,8,0:0:0:0:
234,95,135825,1,8,0:0:0:0:
234,95,135999,1,0,0:0:0:0:
234,95,136174,1,8,0:0:0:0:
234,95,136523,1,0,0:0:0:0:
234,95,136697,1,8,0:0:0:0:
234,95,137046,1,8,0:0:0:0:
234,95,137220,1,8,0:0:0:0:
234,95,137569,1,0,0:0:0:0:
234,95,137744,1,8,0:0:0:0:
234,95,138092,1,0,0:0:0:0:
234,95,138267,1,8,0:0:0:0:
234,95,138616,1,0,0:0:0:0:
234,95,138790,1,8,0:0:0:0:
234,95,138964,1,0,0:0:0:0:
234,95,139139,1,0,0:0:0:0:
234,95,139313,1,8,0:0:0:0:
234,95,139662,1,8,0:0:0:0:
234,95,139837,1,8,0:0:0:0:
234,95,140185,1,0,0:0:0:0:
234,95,140360,1,8,0:0:0:0:
234,95,140709,1,0,0:0:0:0:
234,95,140883,1,8,0:0:0:0:
234,95,141232,1,8,0:0:0:0:
233,89,141406,1,0,0:0:0:0:
233,89,141755,1,0,0:0:0:0:
233,89,141930,1,8,0:0:0:0:
233,89,142278,1,0,0:0:0:0:
233,89,142453,1,8,0:0:0:0:
233,89,142802,1,8,0:0:0:0:
233,89,142976,1,0,0:0:0:0:
233,89,143325,1,0,0:0:0:0:
233,89,143499,1,8,0:0:0:0:
233,89,143674,1,8,0:0:0:0:
233,89,143848,1,0,0:0:0:0:
233,89,144023,1,8,0:0:0:0:
233,89,144197,1,0,0:0:0:0:
233,89,144546,1,12,0:0:0:0:
233,89,145069,1,0,0:0:0:0:
233,89,145592,1,8,0:0:0:0:
233,89,145767,1,0,0:0:0:0:
233,89,145941,1,12,0:0:0:0:
268,187,155534,5,8,0:0:0:0:
268,187,155708,1,0,0:0:0:0:
268,187,155970,1,0,0:0:0:0:
268,187,156231,1,0,0:0:0:0:
268,187,156406,1,12,0:0:0:0:
250,183,159545,1,0,0:0:0:0:
243,156,159894,1,12,0:0:0:0:
253,144,160243,1,0,0:0:0:0:
253,144,160417,1,8,0:0:0:0:
253,144,160592,1,0,0:0:0:0:
253,144,160766,1,8,0:0:0:0:
253,144,161115,1,0,0:0:0:0:
253,144,161202,1,0,0:0:0:0:
253,144,161289,1,0,0:0:0:0:
253,144,161464,1,8,0:0:0:0:
253,144,161638,1,8,0:0:0:0:
253,144,161813,1,8,0:0:0:0:
253,144,161987,1,0,0:0:0:0:
253,144,162161,1,8,0:0:0:0:
253,144,162510,1,8,0:0:0:0:
253,144,162685,1,8,0:0:0:0:
253,144,162859,1,0,0:0:0:0:
248,125,162946,1,0,0:0:0:0:
253,144,163034,1,0,0:0:0:0:
253,144,163208,1,8,0:0:0:0:
253,144,163382,1,0,0:0:0:0:
253,144,163557,1,0,0:0:0:0:
254,120,163731,1,8,0:0:0:0:
254,120,164080,1,8,0:0:0:0:
254,120,164254,1,8,0:0:0:0:
254,120,164429,1,0,0:0:0:0:
254,120,164603,1,0,0:0:0:0:
254,120,164778,1,8,0:0:0:0:
254,120,164952,1,0,0:0:0:0:
254,120,165127,1,8,0:0:0:0:
254,120,165475,1,0,0:0:0:0:
254,120,165999,1,0,0:0:0:0:
254,120,166173,1,8,0:0:0:0:
254,120,166435,1,8,0:0:0:0:
254,120,166696,1,8,0:0:0:0:
254,120,166871,1,0,0:0:0:0:
254,120,167045,1,8,0:0:0:0:
254,120,167220,1,8,0:0:0:0:
254,120,167394,1,0,0:0:0:0:
256,95,167743,1,8,0:0:0:0:
256,95,167917,1,0,0:0:0:0:
256,95,168092,1,0,0:0:0:0:
256,95,168266,1,8,0:0:0:0:
256,95,168615,1,8,0:0:0:0:
256,95,168789,1,0,0:0:0:0:
256,95,168964,1,8,0:0:0:0:
256,95,169138,1,0,0:0:0:0:
256,95,169313,1,8,0:0:0:0:
241,116,169400,1,8,0:0:0:0:
256,95,169487,1,8,0:0:0:0:
256,95,169661,1,0,0:0:0:0:
256,95,170010,1,8,0:0:0:0:
256,95,170185,1,8,0:0:0:0:
256,95,170359,1,0,0:0:0:0:
256,95,170534,1,8,0:0:0:0:
256,95,170621,1,8,0:0:0:0:
256,95,170708,1,8,0:0:0:0:
256,95,170882,1,0,0:0:0:0:
256,95,171057,1,12,0:0:0:0:
228,67,171406,1,0,0:0:0:0:
228,67,171580,1,8,0:0:0:0:
260,87,171754,1,0,0:0:0:0:
260,87,171929,1,8,0:0:0:0:
260,87,172278,1,0,0:0:0:0:
260,87,172452,1,8,0:0:0:0:
260,87,172627,1,0,0:0:0:0:
260,87,172801,1,8,0:0:0:0:
254,88,172975,1,8,0:0:0:0:
260,87,173150,1,0,0:0:0:0:
254,79,173324,1,8,0:0:0:0:
254,79,173673,1,8,0:0:0:0:
254,79,173760,1,8,0:0:0:0:
254,79,173847,1,8,0:0:0:0:
254,79,174022,1,0,0:0:0:0:
254,79,174196,1,8,0:0:0:0:
254,79,174371,1,8,0:0:0:0:
254,79,174458,1,8,0:0:0:0:
254,79,174545,1,8,0:0:0:0:
254,79,174720,1,0,0:0:0:0:
254,79,174894,1,8,0:0:0:0:
254,79,175068,1,0,0:0:0:0:
254,79,175243,1,0,0:0:0:0:
254,79,175592,1,8,0:0:0:0:
254,79,175766,1,8,0:0:0:0:
254,79,175941,1,0,0:0:0:0:
254,79,176115,1,0,0:0:0:0:
254,79,176289,1,8,0:0:0:0:
254,79,176464,1,0,0:0:0:0:
254,79,176638,1,8,0:0:0:0:
246,78,177161,1,0,0:0:0:0:
244,79,177336,1,8,0:0:0:0:
244,79,177597,1,8,0:0:0:0:
244,79,177859,1,8,0:0:0:0:
244,79,178034,1,0,0:0:0:0:
246,78,178208,1,8,0:0:0:0:
244,79,178382,1,0,0:0:0:0:
244,79,178557,1,8,0:0:0:0:
244,79,178906,1,0,0:0:0:0:
244,79,178993,1,0,0:0:0:0:
244,79,179080,1,0,0:0:0:0:
246,78,179254,1,8,0:0:0:0:
244,79,179429,1,8,0:0:0:0:
240,87,179603,1,0,0:0:0:0:
244,79,179778,1,8,0:0:0:0:
244,79,179952,1,8,0:0:0:0:
244,79,180127,1,0,0:0:0:0:
246,78,180301,1,0,0:0:0:0:
244,79,180475,1,8,0:0:0:0:
244,79,180824,1,8,0:0:0:0:
244,79,180999,1,0,0:0:0:0:
244,79,181173,1,8,0:0:0:0:
246,78,181347,1,0,0:0:0:0:
244,79,181522,1,8,0:0:0:0:
244,79,181696,1,8,0:0:0:0:
267,98,181784,1,8,0:0:0:0:
244,79,181871,1,8,0:0:0:0:
244,79,182045,1,0,0:0:0:0:
246,78,182220,1,12,0:0:0:0:
241,95,182568,5,8,0:0:0:0:
241,95,182743,1,8,0:0:0:0:
241,95,183092,1,0,0:0:0:0:
241,95,183266,1,8,0:0:0:0:
220,61,183615,1,8,0:0:0:0:
242,72,183789,1,0,0:0:0:0:
242,72,183964,1,8,0:0:0:0:
242,72,184138,1,8,0:0:0:0:
242,72,184487,1,0,0:0:0:0:
242,72,184661,1,8,0:0:0:0:
242,72,185010,1,8,0:0:0:0:
242,72,185185,1,0,0:0:0:0:
242,72,185359,1,8,0:0:0:0:
242,72,185534,1,0,0:0:0:0:
242,72,185882,1,0,0:0:0:0:
242,72,186057,1,8,0:0:0:0:
242,72,186406,1,8,0:0:0:0:
242,72,186580,1,0,0:0:0:0:
242,72,186754,1,8,0:0:0:0:
242,72,186929,1,0,0:0:0:0:
242,72,187103,1,0,0:0:0:0:
242,72,187278,1,8,0:0:0:0:
242,72,187365,1,8,0:0:0:0:
242,72,187452,1,8,0:0:0:0:
242,72,187627,1,0,0:0:0:0:
231,75,187801,1,12,0:0:0:0:
243,77,188324,1,0,0:0:0:0:
243,77,188499,1,8,0:0:0:0:
239,78,188760,1,8,0:0:0:0:
243,77,189022,1,0,0:0:0:0:
243,77,189196,1,8,0:0:0:0:
243,77,189458,1,8,0:0:0:0:
239,78,189720,1,8,0:0:0:0:
243,77,189894,1,0,0:0:0:0:
243,77,190243,1,0,0:0:0:0:
239,78,190592,1,8,0:0:0:0:
239,78,190766,1,0,0:0:0:0:
243,77,190941,1,8,0:0:0:0:
243,77,191289,1,0,0:0:0:0:
243,77,191464,1,8,0:0:0:0:
239,78,191638,1,8,0:0:0:0:
239,78,191813,1,0,0:0:0:0:
243,77,191987,1,12,0:0:0:0:
243,77,192336,1,0,0:0:0:0:
243,77,192510,1,0,0:0:0:0:
239,78,192685,1,12,0:0:0:0:
243,77,193034,1,12,0:0:0:0:
243,77,193382,1,12,0:0:0:0:
234,146,193731,1,0,0:0:0:0:
234,146,193906,1,12,0:0:0:0:
248,162,194254,1,8,0:0:0:0:
248,162,194429,1,4,0:0:0:0:
248,162,194778,1,8,0:0:0:0:
248,162,194952,1,4,0:0:0:0:
248,162,195301,1,0,0:0:0:0:
248,162,195475,1,12,0:0:0:0:
248,162,195824,1,0,0:0:0:0:
248,162,195999,1,12,0:0:0:0:
242,151,196173,1,0,0:0:0:0:
248,162,196347,1,0,0:0:0:0:
248,162,196522,1,8,0:0:0:0:
231,138,196696,1,0,0:0:0:0:
231,138,197045,1,0,0:0:0:0:
231,138,197220,1,12,0:0:0:0:
