osu file format v14

[General]
AudioFilename: audio.mp3
AudioLeadIn: 0
PreviewTime: 45659
Countdown: 0
SampleSet: Normal
StackLeniency: 0.7
Mode: 1
LetterboxInBreaks: 0
WidescreenStoryboard: 1

[Editor]
Bookmarks: 187810
DistanceSpacing: 0.8
BeatDivisor: 4
GridSize: 32
TimelineZoom: 1.6

[Metadata]
Title:Outsider
TitleUnicode:アウトサイダー
Artist:Eve
ArtistUnicode:Eve
Creator:Quorum
Version:Futsuu
Source:
Tags:japanese 快晴P kaise-p 歌い手 nobuhito"UNA"tanahashi いぶ ibu otogi おとぎ utaite numa mah kaiseip 棚橋 una 信仁 jpop j-pop pop jrock j-rock rock Raphalge
BeatmapID:3013061
BeatmapSetID:1456280

[Difficulty]
HPDrainRate:7
CircleSize:5
OverallDifficulty:4
ApproachRate:5
SliderMultiplier:1.4
SliderTickRate:1

[Events]
//Background and Video events
0,0,"outsider.jpg",0,50
//Break Periods
2,146141,154334
//Storyboard Layer 0 (Background)
//Storyboard Layer 1 (Fail)
//Storyboard Layer 2 (Pass)
//Storyboard Layer 3 (Foreground)
//Storyboard Layer 4 (Overlay)
//Storyboard Sound Samples

[TimingPoints]
478,348.837209302326,4,1,0,85,1,0
45129,348.837209302326,4,1,0,85,1,8
46175,348.837209302326,4,1,0,85,1,1
46175,-100,4,1,0,85,0,1
68500,-100,4,1,0,85,0,0
99198,348.837209302326,4,1,0,85,1,8
100244,348.837209302326,4,1,0,85,1,1
100244,-100,4,1,0,85,0,1
122569,-100,6,1,0,85,0,0
144895,348.837209302326,4,1,0,85,1,8
145941,348.837209302326,4,1,0,85,1,0
159894,-100,4,1,0,85,0,1
182220,-100,4,1,0,85,0,0

[HitObjects]
248,187,478,5,12,0:0:0:0:
248,187,3268,1,12,0:0:0:0:
248,187,5710,1,0,0:0:0:0:
248,187,6059,1,12,0:0:0:0:
226,118,6408,1,8,0:0:0:0:
265,121,6757,1,0,0:0:0:0:
255,189,6931,1,0,0:0:0:0:
265,121,7105,1,8,0:0:0:0:
154,129,7629,1,0,0:0:0:0:
232,120,7978,1,8,0:0:0:0:
265,121,8152,1,0,0:0:0:0:
169,90,8501,1,0,0:0:0:0:
265,121,8850,1,8,0:0:0:0:
209,103,9024,1,0,0:0:0:0:
265,121,9198,1,8,0:0:0:0:
230,118,9547,1,0,0:0:0:0:
243,115,9722,1,0,0:0:0:0:
265,121,9896,1,8,0:0:0:0:
161,154,10419,1,0,0:0:0:0:
220,111,10768,1,0,0:0:0:0:
230,118,10943,1,8,0:0:0:0:
265,121,11640,1,0,0:0:0:0:
265,121,11989,1,8,0:0:0:0:
208,124,12338,1,0,0:0:0:0:
243,115,12512,1,0,0:0:0:0:
265,121,12687,1,8,0:0:0:0:
222,21,13210,1,0,0:0:0:0:
220,111,13559,1,8,0:0:0:0:
265,121,13733,1,0,0:0:0:0:
156,175,14082,1,0,0:0:0:0:
265,121,14431,1,8,0:0:0:0:
243,115,14605,1,0,0:0:0:0:
265,121,14780,1,8,0:0:0:0:
253,107,15129,1,0,0:0:0:0:
243,115,15303,1,0,0:0:0:0:
265,121,15478,1,8,0:0:0:0:
160,115,16001,1,0,0:0:0:0:
254,105,16350,1,0,0:0:0:0:
265,121,16524,1,8,0:0:0:0:
265,121,17222,1,12,0:0:0:0:
254,111,17571,1,0,0:0:0:0:
219,135,17919,1,8,0:0:0:0:
231,108,18617,1,8,0:0:0:0:
220,101,18966,1,8,0:0:0:0:
210,117,19140,1,0,0:0:0:0:
219,135,19315,1,8,0:0:0:0:
161,120,19838,1,0,0:0:0:0:
231,108,20012,1,8,0:0:0:0:
254,111,20361,1,0,0:0:0:0:
219,135,20710,1,8,0:0:0:0:
153,122,21233,1,0,0:0:0:0:
231,108,21408,1,8,0:0:0:0:
220,98,21757,1,0,0:0:0:0:
211,110,21931,1,8,0:0:0:0:
219,135,22105,1,8,0:0:0:0:
231,108,22803,1,8,0:0:0:0:
254,111,23152,1,8,0:0:0:0:
219,135,23501,1,0,0:0:0:0:
231,102,24198,1,0,0:0:0:0:
203,128,24373,1,0,0:0:0:0:
220,98,24547,1,0,0:0:0:0:
219,135,24896,1,8,0:0:0:0:
226,100,25594,1,0,0:0:0:0:
209,112,25768,1,8,0:0:0:0:
234,141,25943,1,8,0:0:0:0:
219,135,26291,1,8,0:0:0:0:
234,141,26640,1,0,0:0:0:0:
231,130,26815,1,0,0:0:0:0:
231,91,26989,1,8,0:0:0:0:
231,130,27338,1,0,0:0:0:0:
231,130,27687,1,8,0:0:0:0:
231,91,28036,1,0,0:0:0:0:
186,111,28210,1,0,0:0:0:0:
231,91,28384,1,12,0:0:0:0:
231,91,29082,1,8,0:0:0:0:
219,106,29431,1,8,0:0:0:0:
231,91,29780,1,0,0:0:0:0:
220,93,30129,1,8,0:0:0:0:
236,92,30303,1,8,0:0:0:0:
231,91,30478,1,8,0:0:0:0:
231,91,30826,1,0,0:0:0:0:
231,91,31175,1,8,0:0:0:0:
231,91,31873,1,8,0:0:0:0:
219,106,32222,1,0,0:0:0:0:
231,91,32571,1,8,0:0:0:0:
220,93,32919,1,0,0:0:0:0:
236,95,33094,1,0,0:0:0:0:
231,91,33268,1,8,0:0:0:0:
231,91,33617,1,0,0:0:0:0:
231,91,33966,1,8,0:0:0:0:
231,91,34664,1,8,0:0:0:0:
219,106,35012,1,8,0:0:0:0:
231,91,35361,1,0,0:0:0:0:
231,91,35710,1,0,0:0:0:0:
231,84,35884,1,0,0:0:0:0:
231,91,36059,1,8,0:0:0:0:
231,91,36408,1,0,0:0:0:0:
231,91,36757,1,8,0:0:0:0:
221,74,37105,1,8,0:0:0:0:
171,114,37280,1,8,0:0:0:0:
231,91,37454,1,0,0:0:0:0:
224,85,37803,1,8,0:0:0:0:
163,110,37978,1,0,0:0:0:0:
231,91,38152,1,8,0:0:0:0:
219,106,38850,1,0,0:0:0:0:
226,111,39198,1,8,0:0:0:0:
231,91,39547,1,12,0:0:0:0:
219,106,40071,1,0,0:0:0:0:
231,91,40594,1,4,0:0:0:0:
219,106,41117,1,0,0:0:0:0:
231,91,41640,1,12,0:0:0:0:
219,106,42164,1,0,0:0:0:0:
231,91,42687,1,4,0:0:0:0:
245,85,43210,1,12,0:0:0:0:
219,106,44082,1,8,0:0:0:0:
224,103,44431,1,0,0:0:0:0:
245,85,44780,1,8,0:0:0:0:
219,106,44954,1,0,0:0:0:0:
215,100,45303,1,8,0:0:0:0:
219,106,45477,1,0,0:0:0:0:
215,100,45826,1,0,0:0:0:0:
242,49,46001,1,0,0:0:0:0:
245,85,46175,1,12,0:0:0:0:
245,96,46523,1,0,0:0:0:0:
238,87,46698,1,8,0:0:0:0:
245,96,47047,1,8,0:0:0:0:
248,83,47395,1,0,0:0:0:0:
238,87,47570,1,0,0:0:0:0:
227,94,47919,1,0,0:0:0:0:
238,87,48093,1,8,0:0:0:0:
235,73,48442,1,0,0:0:0:0:
228,72,48791,1,0,0:0:0:0:
238,87,48965,1,8,0:0:0:0:
238,87,49314,1,8,0:0:0:0:
234,61,49488,1,0,0:0:0:0:
238,87,49663,1,0,0:0:0:0:
206,53,49837,1,0,0:0:0:0:
248,83,50012,1,8,0:0:0:0:
238,87,50361,1,0,0:0:0:0:
219,100,50709,1,0,0:0:0:0:
238,87,51058,1,8,0:0:0:0:
226,81,51233,1,0,0:0:0:0:
238,87,51407,1,8,0:0:0:0:
238,87,51756,1,0,0:0:0:0:
248,83,52454,1,8,0:0:0:0:
227,77,52802,1,0,0:0:0:0:
244,93,52977,1,8,0:0:0:0:
238,87,53326,1,8,0:0:0:0:
238,87,53675,1,0,0:0:0:0:
244,93,54023,1,0,0:0:0:0:
240,53,54198,1,0,0:0:0:0:
243,113,54372,1,0,0:0:0:0:
240,53,54547,1,8,0:0:0:0:
227,86,54895,1,8,0:0:0:0:
238,87,55244,1,0,0:0:0:0:
238,87,55593,1,0,0:0:0:0:
227,86,55768,1,0,0:0:0:0:
237,101,55942,1,8,0:0:0:0:
241,74,56291,1,8,0:0:0:0:
241,74,56465,1,0,0:0:0:0:
238,87,57337,1,12,0:0:0:0:
238,87,57686,1,0,0:0:0:0:
224,92,57861,1,8,0:0:0:0:
224,92,58209,1,0,0:0:0:0:
238,87,58558,1,0,0:0:0:0:
224,92,58733,1,8,0:0:0:0:
240,85,59081,1,0,0:0:0:0:
224,92,59256,1,8,0:0:0:0:
224,92,59605,1,0,0:0:0:0:
229,108,59954,1,0,0:0:0:0:
224,92,60128,1,8,0:0:0:0:
251,78,60477,1,8,0:0:0:0:
240,85,60651,1,8,0:0:0:0:
224,92,60826,1,0,0:0:0:0:
284,1,61000,1,0,0:0:0:0:
239,99,61175,1,8,0:0:0:0:
224,92,61523,1,0,0:0:0:0:
240,85,61872,1,0,0:0:0:0:
240,85,62047,1,0,0:0:0:0:
224,92,62221,1,8,0:0:0:0:
224,92,62570,1,8,0:0:0:0:
229,108,62744,1,0,0:0:0:0:
224,92,62919,1,0,0:0:0:0:
224,72,63616,1,0,0:0:0:0:
224,92,63965,1,8,0:0:0:0:
240,85,64140,1,0,0:0:0:0:
224,92,64488,1,0,0:0:0:0:
224,92,64837,1,8,0:0:0:0:
240,85,65186,1,0,0:0:0:0:
224,92,65361,1,0,0:0:0:0:
240,85,65535,1,0,0:0:0:0:
224,92,65709,1,8,0:0:0:0:
240,85,66058,1,8,0:0:0:0:
224,92,66407,1,0,0:0:0:0:
240,85,66756,1,0,0:0:0:0:
230,100,66930,1,0,0:0:0:0:
224,92,67105,1,8,0:0:0:0:
224,92,67454,1,0,0:0:0:0:
234,99,67628,1,0,0:0:0:0:
224,92,67802,1,8,0:0:0:0:
234,99,68151,1,0,0:0:0:0:
224,92,68500,1,12,0:0:0:0:
203,113,69023,1,0,0:0:0:0:
222,77,69547,1,4,0:0:0:0:
203,109,70070,1,0,0:0:0:0:
222,77,70593,1,12,0:0:0:0:
186,99,71291,1,12,0:0:0:0:
233,124,71640,1,0,0:0:0:0:
256,119,71988,1,8,0:0:0:0:
224,120,72512,1,0,0:0:0:0:
250,131,72686,1,0,0:0:0:0:
240,121,73035,1,8,0:0:0:0:
256,119,73384,1,0,0:0:0:0:
250,131,74081,1,0,0:0:0:0:
174,36,74430,1,0,0:0:0:0:
250,131,74779,1,8,0:0:0:0:
228,110,75302,1,0,0:0:0:0:
250,131,75477,1,8,0:0:0:0:
228,110,75826,1,0,0:0:0:0:
246,114,76175,1,8,0:0:0:0:
250,131,76698,1,0,0:0:0:0:
232,120,76872,1,12,0:0:0:0:
248,122,77570,1,8,0:0:0:0:
250,131,78268,1,8,0:0:0:0:
240,121,78616,1,0,0:0:0:0:
248,122,78965,1,8,0:0:0:0:
226,117,79488,1,0,0:0:0:0:
252,117,79663,1,8,0:0:0:0:
226,123,80012,1,0,0:0:0:0:
248,122,80361,1,8,0:0:0:0:
252,117,80884,1,0,0:0:0:0:
252,117,81058,1,8,0:0:0:0:
247,107,82105,1,0,0:0:0:0:
265,104,82454,1,12,0:0:0:0:
254,107,83500,1,0,0:0:0:0:
254,107,83849,1,8,0:0:0:0:
242,95,84198,1,8,0:0:0:0:
243,70,84372,1,0,0:0:0:0:
254,107,84547,1,0,0:0:0:0:
220,110,84895,1,8,0:0:0:0:
254,107,85244,1,0,0:0:0:0:
253,87,85593,1,8,0:0:0:0:
224,116,85768,1,0,0:0:0:0:
254,107,86291,1,8,0:0:0:0:
254,107,86640,1,8,0:0:0:0:
254,107,86988,1,0,0:0:0:0:
245,89,87337,1,8,0:0:0:0:
254,107,87512,1,0,0:0:0:0:
254,107,87686,1,8,0:0:0:0:
254,107,88035,1,0,0:0:0:0:
225,94,88384,1,8,0:0:0:0:
254,107,88558,1,0,0:0:0:0:
254,107,89081,1,8,0:0:0:0:
254,107,89430,1,0,0:0:0:0:
254,107,89779,1,0,0:0:0:0:
205,114,89954,1,0,0:0:0:0:
249,112,90128,1,8,0:0:0:0:
254,107,90477,1,8,0:0:0:0:
254,107,90826,1,0,0:0:0:0:
219,111,91175,1,8,0:0:0:0:
236,101,91349,1,0,0:0:0:0:
199,97,91523,1,8,0:0:0:0:
232,90,91872,1,0,0:0:0:0:
254,107,92221,1,8,0:0:0:0:
254,107,92919,1,8,0:0:0:0:
211,78,93268,1,0,0:0:0:0:
254,107,93616,1,12,0:0:0:0:
254,107,94140,1,0,0:0:0:0:
254,107,94663,1,4,0:0:0:0:
254,107,95186,1,0,0:0:0:0:
254,107,95709,1,12,0:0:0:0:
254,107,96233,1,0,0:0:0:0:
254,107,96756,1,4,0:0:0:0:
254,107,97279,1,12,0:0:0:0:
254,107,97802,1,8,0:0:0:0:
254,107,98151,1,8,0:0:0:0:
254,107,98500,1,0,0:0:0:0:
254,107,98849,1,8,0:0:0:0:
215,176,99721,1,0,0:0:0:0:
245,95,99895,1,0,0:0:0:0:
193,100,100070,1,0,0:0:0:0:
245,85,100244,1,12,0:0:0:0:
241,84,100592,1,0,0:0:0:0:
238,87,100767,1,8,0:0:0:0:
254,96,101116,1,0,0:0:0:0:
245,95,101464,1,0,0:0:0:0:
238,87,101639,1,8,0:0:0:0:
245,95,101988,1,0,0:0:0:0:
238,87,102162,1,8,0:0:0:0:
249,96,102511,1,0,0:0:0:0:
240,84,102860,1,8,0:0:0:0:
238,87,103034,1,8,0:0:0:0:
238,87,103383,1,0,0:0:0:0:
240,84,103557,1,8,0:0:0:0:
238,87,103732,1,8,0:0:0:0:
238,87,103906,1,0,0:0:0:0:
249,96,104081,1,8,0:0:0:0:
238,87,104430,1,8,0:0:0:0:
246,139,104778,1,0,0:0:0:0:
238,87,105127,1,8,0:0:0:0:
238,87,105476,1,0,0:0:0:0:
229,94,105650,1,0,0:0:0:0:
238,87,105825,1,0,0:0:0:0:
250,93,106523,1,8,0:0:0:0:
244,93,106871,1,8,0:0:0:0:
238,87,107220,1,0,0:0:0:0:
244,93,107569,1,0,0:0:0:0:
238,87,107744,1,8,0:0:0:0:
245,93,108092,1,0,0:0:0:0:
240,53,108441,1,8,0:0:0:0:
240,53,108616,1,8,0:0:0:0:
213,91,108964,1,8,0:0:0:0:
238,87,109313,1,0,0:0:0:0:
238,87,109662,1,0,0:0:0:0:
213,91,109837,1,0,0:0:0:0:
277,119,110011,1,8,0:0:0:0:
225,71,110360,1,8,0:0:0:0:
214,76,110534,1,0,0:0:0:0:
238,87,111406,1,12,0:0:0:0:
201,87,111755,1,0,0:0:0:0:
224,92,111930,1,8,0:0:0:0:
224,92,112278,1,0,0:0:0:0:
201,87,112627,1,0,0:0:0:0:
224,92,112802,1,8,0:0:0:0:
201,87,113150,1,8,0:0:0:0:
224,92,113325,1,8,0:0:0:0:
224,92,113674,1,0,0:0:0:0:
192,93,114023,1,0,0:0:0:0:
224,92,114197,1,8,0:0:0:0:
220,66,114546,1,8,0:0:0:0:
192,93,114720,1,0,0:0:0:0:
224,92,114895,1,0,0:0:0:0:
208,81,115069,1,8,0:0:0:0:
220,66,115244,1,8,0:0:0:0:
224,92,115592,1,8,0:0:0:0:
247,93,115941,1,0,0:0:0:0:
224,92,116290,1,8,0:0:0:0:
228,95,116639,1,8,0:0:0:0:
193,88,116813,1,0,0:0:0:0:
224,92,116988,1,0,0:0:0:0:
228,95,117685,1,8,0:0:0:0:
224,92,118209,1,8,0:0:0:0:
224,92,118383,1,0,0:0:0:0:
207,92,118732,1,0,0:0:0:0:
224,92,118906,1,8,0:0:0:0:
196,82,119255,1,0,0:0:0:0:
231,103,119430,1,0,0:0:0:0:
224,92,119604,1,0,0:0:0:0:
224,92,119778,1,8,0:0:0:0:
232,84,120127,1,8,0:0:0:0:
224,92,120476,1,8,0:0:0:0:
209,86,120825,1,0,0:0:0:0:
209,86,120999,1,0,0:0:0:0:
224,92,121174,1,8,0:0:0:0:
224,92,121523,1,0,0:0:0:0:
209,86,121697,1,8,0:0:0:0:
224,92,122046,1,0,0:0:0:0:
205,84,122220,1,0,0:0:0:0:
255,125,122569,1,12,0:0:0:0:
242,131,123092,1,0,0:0:0:0:
255,125,123616,1,4,0:0:0:0:
242,131,124139,1,0,0:0:0:0:
255,125,124662,1,12,0:0:0:0:
242,131,125185,1,0,0:0:0:0:
255,125,125709,1,4,0:0:0:0:
249,121,126232,1,0,0:0:0:0:
249,121,126755,1,8,0:0:0:0:
248,136,127104,1,0,0:0:0:0:
249,121,127278,1,12,0:0:0:0:
249,121,127802,1,8,0:0:0:0:
248,136,128150,1,0,0:0:0:0:
249,121,128325,1,12,0:0:0:0:
249,121,128848,1,8,0:0:0:0:
248,136,129197,1,0,0:0:0:0:
249,121,129371,1,12,0:0:0:0:
249,121,129895,1,8,0:0:0:0:
248,136,130244,1,0,0:0:0:0:
249,121,130418,1,12,0:0:0:0:
249,121,130941,1,8,0:0:0:0:
237,148,131464,1,8,0:0:0:0:
249,121,131988,1,0,0:0:0:0:
248,136,132511,1,8,0:0:0:0:
237,148,132860,1,0,0:0:0:0:
249,121,133034,1,8,0:0:0:0:
254,136,133557,1,8,0:0:0:0:
237,148,133906,1,0,0:0:0:0:
249,121,134081,1,8,0:0:0:0:
249,121,134604,1,0,0:0:0:0:
254,136,135650,1,8,0:0:0:0:
249,124,135999,1,0,0:0:0:0:
249,121,136174,1,8,0:0:0:0:
254,136,136697,1,8,0:0:0:0:
229,102,137046,1,0,0:0:0:0:
249,121,137220,1,8,0:0:0:0:
254,136,137744,1,8,0:0:0:0:
243,104,138092,1,0,0:0:0:0:
249,121,138267,1,8,0:0:0:0:
243,92,138616,1,8,0:0:0:0:
249,121,138790,1,8,0:0:0:0:
242,112,139662,1,8,0:0:0:0:
245,127,139837,1,8,0:0:0:0:
258,138,140185,1,0,0:0:0:0:
249,121,140360,1,8,0:0:0:0:
254,136,140883,1,0,0:0:0:0:
254,136,141232,1,8,0:0:0:0:
249,121,141406,1,8,0:0:0:0:
254,136,141930,1,0,0:0:0:0:
254,136,142278,1,8,0:0:0:0:
249,121,142453,1,8,0:0:0:0:
250,140,142976,1,8,0:0:0:0:
249,121,143499,1,8,0:0:0:0:
249,121,143848,1,0,0:0:0:0:
226,96,144023,1,0,0:0:0:0:
249,121,144197,1,0,0:0:0:0:
249,121,144546,1,12,0:0:0:0:
234,141,145069,1,8,0:0:0:0:
273,147,145592,1,0,0:0:0:0:
249,121,145941,1,12,0:0:0:0:
297,158,155534,5,8,0:0:0:0:
234,194,155708,5,0,0:0:0:0:
234,194,156406,1,12,0:0:0:0:
279,125,159545,1,0,0:0:0:0:
245,85,159894,1,12,0:0:0:0:
245,96,160243,1,0,0:0:0:0:
238,87,160417,1,8,0:0:0:0:
245,96,160766,1,8,0:0:0:0:
248,83,161115,1,0,0:0:0:0:
238,87,161289,1,0,0:0:0:0:
227,94,161638,1,0,0:0:0:0:
238,87,161813,1,8,0:0:0:0:
235,73,162161,1,0,0:0:0:0:
228,72,162510,1,0,0:0:0:0:
238,87,162685,1,8,0:0:0:0:
238,87,163034,1,8,0:0:0:0:
234,61,163208,1,0,0:0:0:0:
238,87,163382,1,0,0:0:0:0:
206,53,163557,1,0,0:0:0:0:
248,83,163731,1,8,0:0:0:0:
238,87,164080,1,0,0:0:0:0:
219,100,164429,1,0,0:0:0:0:
238,87,164778,1,8,0:0:0:0:
226,81,164952,1,0,0:0:0:0:
238,87,165127,1,8,0:0:0:0:
238,87,165475,1,0,0:0:0:0:
248,83,166173,1,8,0:0:0:0:
227,77,166522,1,0,0:0:0:0:
244,93,166696,1,8,0:0:0:0:
238,87,167045,1,8,0:0:0:0:
238,87,167394,1,0,0:0:0:0:
244,93,167743,1,0,0:0:0:0:
240,53,167917,1,0,0:0:0:0:
243,113,168092,1,0,0:0:0:0:
240,53,168266,1,8,0:0:0:0:
227,86,168615,1,8,0:0:0:0:
238,87,168964,1,0,0:0:0:0:
238,87,169313,1,0,0:0:0:0:
227,86,169487,1,0,0:0:0:0:
254,66,169661,1,8,0:0:0:0:
241,74,170010,1,8,0:0:0:0:
241,74,170185,1,0,0:0:0:0:
238,87,171057,1,12,0:0:0:0:
238,87,171406,1,0,0:0:0:0:
224,92,171580,1,8,0:0:0:0:
224,92,171929,1,0,0:0:0:0:
238,87,172278,1,0,0:0:0:0:
224,92,172452,1,8,0:0:0:0:
240,85,172801,1,0,0:0:0:0:
224,92,172975,1,8,0:0:0:0:
224,92,173324,1,0,0:0:0:0:
229,108,173673,1,0,0:0:0:0:
224,92,173847,1,8,0:0:0:0:
251,78,174196,1,8,0:0:0:0:
240,85,174371,1,8,0:0:0:0:
224,92,174545,1,0,0:0:0:0:
238,101,174720,1,0,0:0:0:0:
239,99,174894,1,8,0:0:0:0:
224,92,175243,1,0,0:0:0:0:
240,85,175592,1,0,0:0:0:0:
240,85,175766,1,0,0:0:0:0:
224,92,175941,1,8,0:0:0:0:
224,92,176289,1,8,0:0:0:0:
229,108,176464,1,0,0:0:0:0:
224,92,176638,1,0,0:0:0:0:
224,72,177336,1,0,0:0:0:0:
224,92,177685,1,8,0:0:0:0:
240,85,177859,1,0,0:0:0:0:
224,92,178208,1,0,0:0:0:0:
224,92,178557,1,8,0:0:0:0:
240,85,178906,1,0,0:0:0:0:
224,92,179080,1,0,0:0:0:0:
240,85,179254,1,0,0:0:0:0:
224,92,179429,1,8,0:0:0:0:
240,85,179778,1,8,0:0:0:0:
224,92,180127,1,0,0:0:0:0:
240,85,180475,1,0,0:0:0:0:
230,100,180650,1,0,0:0:0:0:
224,92,180824,1,8,0:0:0:0:
224,92,181173,5,0,0:0:0:0:
240,103,181347,1,0,0:0:0:0:
224,92,181522,1,8,0:0:0:0:
235,98,181871,1,0,0:0:0:0:
224,92,182220,5,12,0:0:0:0:
242,101,182568,1,0,0:0:0:0:
227,116,182743,5,0,0:0:0:0:
216,96,183092,1,0,0:0:0:0:
210,108,183266,5,8,0:0:0:0:
210,108,183615,1,8,0:0:0:0:
216,96,183964,1,8,0:0:0:0:
227,116,184138,1,0,0:0:0:0:
215,104,184661,1,8,0:0:0:0:
215,104,185010,1,8,0:0:0:0:
238,110,185359,1,0,0:0:0:0:
216,96,185534,1,0,0:0:0:0:
215,104,186057,1,8,0:0:0:0:
215,104,186406,1,0,0:0:0:0:
215,104,186754,1,8,0:0:0:0:
215,104,187103,1,0,0:0:0:0:
232,109,187278,1,0,0:0:0:0:
236,95,187452,1,0,0:0:0:0:
215,97,187801,1,8,0:0:0:0:
215,97,188499,1,8,0:0:0:0:
219,105,188847,1,0,0:0:0:0:
206,86,189022,1,0,0:0:0:0:
215,97,189196,1,0,0:0:0:0:
229,118,189545,1,0,0:0:0:0:
206,86,189720,1,8,0:0:0:0:
215,97,189894,1,0,0:0:0:0:
215,97,190592,1,8,0:0:0:0:
226,112,190941,1,0,0:0:0:0:
219,105,191289,1,0,0:0:0:0:
215,97,191638,1,8,0:0:0:0:
238,96,191813,1,0,0:0:0:0:
215,97,191987,1,12,0:0:0:0:
229,89,192336,1,0,0:0:0:0:
222,86,192685,1,8,0:0:0:0:
223,97,193034,1,0,0:0:0:0:
229,89,193208,1,0,0:0:0:0:
222,86,193382,1,12,0:0:0:0:
197,115,193906,1,0,0:0:0:0:
236,77,194429,1,4,0:0:0:0:
242,96,194952,1,0,0:0:0:0:
236,77,195475,1,12,0:0:0:0:
242,96,195999,1,0,0:0:0:0:
220,87,196173,1,8,0:0:0:0:
220,87,196347,1,8,0:0:0:0:
236,77,196522,1,0,0:0:0:0:
182,93,196696,1,0,0:0:0:0:
236,77,197220,1,12,0:0:0:0:
