osu file format v14

[General]
AudioFilename: audio.mp3
AudioLeadIn: 0
PreviewTime: 46558
Countdown: 0
SampleSet: Soft
StackLeniency: 0.4
Mode: 0
LetterboxInBreaks: 0
WidescreenStoryboard: 1

[Editor]
Bookmarks: 18255,29417,72324,83486,94649,101276,123601,127787,131974,145578,146973,156566,157438,160229,160578,160926,183252,188833,194415,198252,204182
DistanceSpacing: 1
BeatDivisor: 4
GridSize: 8
TimelineZoom: 1.8

[Metadata]
Title:Outsider
TitleUnicode:アウトサイダー
Artist:Eve
ArtistUnicode:Eve
Creator:AirinCat
Version:Normal
Source:
Tags:otogi おとぎ utaite numa mah KaiseiP 棚橋 UNA 信仁 japanese jpop j-pop
BeatmapID:1839204
BeatmapSetID:879429

[Difficulty]
HPDrainRate:3
CircleSize:3.4
OverallDifficulty:4
ApproachRate:5
SliderMultiplier:1
SliderTickRate:1

[Events]
//Background and Video events
Video,0,"outsider.mp4"
0,0,"harucute.jpg",0,0
//Break Periods
2,72286,81905
2,147144,155511
//Storyboard Layer 0 (Background)
//Storyboard Layer 1 (Fail)
//Storyboard Layer 2 (Pass)
//Storyboard Layer 3 (Foreground)
//Storyboard Layer 4 (Overlay)
//Storyboard Sound Samples

[TimingPoints]
1476,348.837209302326,4,2,1,80,1,0
1476,-125,4,2,1,80,0,0
1824,-125,4,2,1,5,0,0
2086,-125,4,2,1,20,0,0
4266,-125,4,2,1,80,0,0
4615,-125,4,2,1,5,0,0
4877,-125,4,2,1,20,0,0
6708,-100,4,2,1,80,0,0
7057,-100,4,2,1,60,0,0
18220,-100,4,2,1,42,0,0
29034,-100,4,2,1,60,0,0
29295,-100,4,2,1,5,0,0
29382,-100,4,2,1,62,0,0
40545,523.25584437534,2,2,1,70,1,0
40545,-66.6666666666667,3,2,1,70,0,0
44733,348.837209302326,3,2,1,70,1,0
45779,348.837209302326,4,2,1,50,1,0
45779,-100,4,2,1,50,0,0
47174,-100,4,2,1,80,0,1
69500,523.255816995673,2,2,1,65,1,0
69500,-66.6666666666667,4,2,1,65,0,0
71594,348.837209302326,4,2,1,65,1,0
72292,348.837209302326,4,2,1,50,1,0
72292,-66.6666666666667,4,2,1,50,0,0
73248,-100,4,2,2,50,0,0
73336,-100,4,2,1,50,0,0
73510,-100,4,2,2,50,0,0
73684,-100,4,2,1,50,0,0
74644,-100,4,2,2,50,0,0
74731,-100,4,2,1,50,0,0
74905,-100,4,2,2,50,0,0
75080,-100,4,2,1,50,0,0
76039,-100,4,2,2,50,0,0
76126,-100,4,2,1,50,0,0
76301,-100,4,2,2,50,0,0
76475,-100,4,2,1,50,0,0
77434,-100,4,2,2,50,0,0
77522,-100,4,2,1,50,0,0
77696,-100,4,2,2,50,0,0
77871,-100,4,2,1,50,0,0
78830,-100,4,2,2,50,0,0
78917,-100,4,2,1,50,0,0
79091,-100,4,2,2,50,0,0
79266,-100,4,2,1,50,0,0
80225,-100,4,2,2,50,0,0
80312,-100,4,2,1,50,0,0
80487,-100,4,2,2,50,0,0
80661,-100,4,2,1,50,0,0
83105,-100,4,2,1,60,0,0
83454,-100,4,2,1,62,0,0
88946,-100,4,2,1,5,0,0
89036,-100,4,2,1,62,0,0
94617,523.25584437534,2,2,1,70,1,0
94617,-66.6666666666667,4,2,1,70,0,0
98804,348.837209302326,3,2,1,70,1,0
99851,348.837209302326,4,2,1,70,1,0
100723,-100,4,2,1,50,0,0
101246,-100,4,2,1,80,0,1
123572,523.255814257707,2,2,1,65,1,0
123572,-66.6666666666667,4,2,1,65,0,0
140316,-66.6666666666667,4,2,1,65,0,0
144503,348.837209302326,3,2,1,65,1,0
145549,348.837209302326,4,2,1,65,1,0
145549,-111.111111111111,4,2,1,65,0,0
145897,-100,4,2,1,5,0,0
146072,-100,4,2,1,65,0,0
146246,-100,4,2,1,5,0,0
146595,-100,4,2,1,65,0,0
156711,-100,4,2,1,75,0,0
157496,-100,4,2,1,35,0,0
158804,-100,4,2,1,40,0,0
158979,-100,4,2,1,45,0,0
159153,-100,4,2,1,50,0,0
159328,-100,4,2,1,55,0,0
159502,-100,4,2,1,60,0,0
159676,-100,4,2,1,65,0,0
159851,-100,4,2,1,70,0,0
160025,-100,4,2,1,75,0,0
160200,-100,4,2,1,5,0,0
160549,-100,4,2,1,70,0,0
160897,-100,4,2,1,80,0,1
183223,-100,4,2,1,70,0,0
188804,-100,4,2,1,80,0,0
192990,-100,4,2,1,70,0,0
194391,523.255816995673,2,2,1,60,1,0
194391,-66.6666666666667,4,2,1,60,0,0
197532,348.837209302326,4,2,1,60,1,0
198229,348.837209302326,4,2,1,60,1,0
198577,-66.6666666666667,4,2,1,30,0,0
204246,-66.6666666666667,4,2,1,5,0,0

[Colours]
Combo1 : 228,208,139
Combo2 : 228,163,118
Combo3 : 240,117,117
Combo4 : 202,201,193
Combo5 : 129,188,182
Combo6 : 121,121,121

[HitObjects]
116,59,1476,6,0,L|109:210,1,140,6|0,1:0|0:0,0:0:0:0:
386,62,4266,38,0,L|395:205,1,140,6|0,1:1|0:0,0:0:0:0:
27,338,6708,69,8,0:0:0:0:
117,296,7057,22,0,L|231:305,1,100,2|10,1:2|0:0,0:0:0:0:
304,353,7755,2,0,L|411:338,1,100,2|10,0:0|0:0,0:0:0:0:
452,329,8278,1,2,3:2:0:0:
452,329,8452,2,0,P|451:264|472:223,1,100,0|8,1:2|0:0,0:0:0:0:
509,142,9150,1,2,0:0:0:0:
463,52,9499,1,8,0:0:0:0:
365,31,9848,70,0,P|309:34|268:59,1,100,2|10,1:2|0:0,0:0:0:0:
196,122,10545,2,0,L|92:114,1,100,2|10,0:0|0:0,0:0:0:0:
46,119,11069,1,2,3:2:0:0:
46,119,11243,2,0,P|75:165|79:220,1,100,0|8,1:2|0:0,0:0:0:0:
77,309,11941,2,0,L|134:321,1,50,2|0,1:2|0:0,0:0:0:0:
171,340,12289,2,0,L|240:333,1,50,10|10,0:0|0:0,0:0:0:0:
256,299,12638,70,0,P|245:248|268:198,1,100,2|10,1:2|0:0,0:0:0:0:
341,142,13336,2,0,L|451:139,1,100,2|10,0:0|0:0,0:0:0:0:
488,155,13859,1,2,3:2:0:0:
488,155,14034,2,0,P|509:199|505:264,1,100,0|8,1:0|0:0,0:0:0:0:
438,320,14731,2,0,P|384:324|336:303,1,100,2|8,0:0|0:0,0:0:0:0:
288,222,15429,6,0,P|229:221|183:250,1,100,2|10,1:2|0:0,0:0:0:0:
146,328,16127,2,0,L|43:310,1,100,2|10,0:0|0:0,0:0:0:0:
0,295,16650,1,2,3:2:0:0:
0,295,16824,2,0,P|12:244|-3:192,1,100,6|0,1:2|0:0,0:0:0:0:
39,106,17522,2,0,B|119:76|80:148|203:109,1,150,10|8,0:0|0:3,0:0:0:0:
225,87,18220,5,6,1:2:0:0:
298,154,18569,1,2,1:2:0:0:
306,253,18917,2,0,P|348:273|409:255,1,100,2|2,1:2|1:2,0:0:0:0:
477,200,19615,2,0,P|494:147|473:93,1,100,2|2,1:2|1:2,0:0:0:0:
447,70,20138,1,2,0:0:0:0:
447,70,20313,2,0,L|340:72,1,100,2|2,1:2|1:2,0:0:0:0:
248,56,21010,53,2,1:2:0:0:
150,31,21359,1,2,1:2:0:0:
76,98,21708,2,0,L|91:199,1,100,2|2,1:2|1:2,0:0:0:0:
103,245,22231,1,2,0:0:0:0:
103,245,22406,2,0,P|134:228|203:234,2,100,2|2|2,1:2|1:2|1:2,0:0:0:0:
163,324,23452,1,2,1:2:0:0:
262,315,23801,5,2,1:2:0:0:
301,223,24150,1,2,1:2:0:0:
249,137,24499,2,0,P|300:120|356:140,1,100,2|2,1:2|1:2,0:0:0:0:
443,129,25196,2,0,P|468:87|459:37,1,100,2|2,1:2|1:2,0:0:0:0:
419,9,25720,1,2,0:0:0:0:
419,9,25894,2,0,L|311:6,2,100,2|2|0,1:2|1:2|1:0,0:0:0:0:
364,93,26941,5,2,1:2:0:0:
267,116,27289,1,2,1:2:0:0:
206,36,27638,1,2,1:2:0:0:
135,107,27987,2,0,L|135:209,1,100,2|2,1:2|1:2,0:0:0:0:
234,221,28685,1,2,1:2:0:0:
255,318,29034,1,10,0:0:0:0:
172,364,29382,6,0,P|128:349|70:358,1,100,6|10,1:1|0:1,0:0:0:0:
27,370,29906,1,2,1:0:0:0:
27,370,30080,2,0,L|23:255,1,100,2|10,0:0|0:0,0:0:0:0:
58,234,30603,1,2,0:0:0:0:
58,234,30778,2,0,L|56:124,1,100,2|10,1:2|0:0,0:0:0:0:
91,40,31476,1,2,0:0:0:0:
190,28,31824,1,10,0:0:0:0:
282,65,32173,6,0,P|322:79|389:65,1,100,2|10,1:0|0:1,0:0:0:0:
427,65,32696,1,2,1:0:0:0:
427,65,32871,2,0,L|430:174,1,100,2|10,0:0|0:0,0:0:0:0:
467,197,33394,1,2,0:0:0:0:
467,197,33569,2,0,L|470:315,1,100,2|10,1:2|0:0,0:0:0:0:
402,371,34266,1,2,0:0:0:0:
302,364,34615,1,10,0:0:0:0:
231,292,34964,38,0,P|178:280|119:301,1,100,2|10,1:1|0:1,0:0:0:0:
88,309,35487,1,2,1:1:0:0:
88,309,35662,2,0,L|93:207,1,100,2|10,0:0|0:0,0:0:0:0:
67,165,36185,1,2,0:0:0:0:
67,165,36359,2,0,L|73:62,1,100,2|10,1:2|0:0,0:0:0:0:
153,7,37057,1,2,0:0:0:0:
243,49,37406,1,10,0:0:0:0:
247,148,37755,22,0,L|242:255,1,100,2|10,1:0|0:1,0:0:0:0:
306,324,38452,2,0,L|362:326,1,50,2|2,0:0|0:0,0:0:0:0:
396,295,38801,2,0,L|452:295,1,50,10|2,0:0|0:0,0:0:0:0:
486,265,39150,2,0,P|474:217|496:157,1,100,6|10,1:1|0:0,0:0:0:0:
456,73,39848,2,0,P|412:97|389:144,1,100,10|10,0:1|0:1,0:0:0:0:
363,236,40545,38,0,L|252:228,1,100,6|8,1:1|0:0,0:0:0:0:
213,222,41068,1,4,1:2:0:0:
166,310,41417,1,8,0:0:0:0:
166,310,41591,2,0,L|67:304,1,100,4|8,1:1|0:3,0:0:0:0:
16,299,42114,1,4,1:2:0:0:
59,208,42463,1,4,0:3:0:0:
59,208,42638,6,0,L|61:92,1,100,4|8,1:1|0:3,0:0:0:0:
65,57,43161,1,4,1:2:0:0:
164,66,43510,1,8,0:0:0:0:
164,66,43684,2,0,L|267:62,1,100,4|8,1:1|0:0,0:0:0:0:
309,42,44207,1,4,1:2:0:0:
482,81,44733,6,0,L|485:137,1,50,8|0,0:0|1:0,0:0:0:0:
451,168,45081,2,0,L|456:225,1,50,8|0,0:0|1:0,0:0:0:0:
428,259,45430,2,0,L|433:318,1,50,8|0,0:0|1:0,0:0:0:0:
409,353,45779,53,8,0:0:0:0:
271,292,46302,1,8,0:0:0:0:
309,147,46825,22,0,L|313:89,1,50,8|8,0:0|0:0,0:0:0:0:
290,52,47174,6,0,P|241:39|185:56,1,100,6|10,1:1|0:0,0:0:0:0:
150,75,47697,2,0,L|36:64,1,100,2|2,1:1|1:2,0:0:0:0:
1,56,48220,1,8,0:0:0:0:
24,153,48569,2,0,P|44:199|33:261,1,100,2|10,1:1|0:0,0:0:0:0:
27,296,49092,2,0,L|129:295,1,100,2|2,1:1|1:2,0:0:0:0:
177,297,49616,1,8,0:0:0:0:
251,230,49965,5,2,1:1:0:0:
166,175,50313,1,10,0:0:0:0:
182,76,50662,1,2,0:2:0:0:
276,42,51011,1,10,0:0:0:0:
356,100,51360,2,0,P|397:118|454:113,1,100,2|10,1:1|0:0,0:0:0:0:
501,113,51883,1,2,1:2:0:0:
501,113,52058,2,0,L|491:223,1,100,2|10,1:2|0:0,0:0:0:0:
482,312,52755,6,0,P|437:303|377:324,1,100,2|8,1:1|0:0,0:0:0:0:
351,354,53279,1,2,1:2:0:0:
351,354,53453,2,0,L|231:343,1,100,2|10,0:0|0:0,0:0:0:0:
171,283,54151,2,0,L|180:178,1,100,2|8,1:1|0:0,0:0:0:0:
149,143,54674,2,0,P|102:153|46:135,1,100,2|2,1:2|1:2,0:0:0:0:
16,104,55197,1,10,0:0:0:0:
101,52,55546,54,0,P|148:42|204:60,1,100,6|10,1:0|0:0,0:0:0:0:
237,90,56069,1,2,1:2:0:0:
237,90,56244,2,0,L|342:92,1,100,2|10,0:1|0:0,0:0:0:0:
376,60,56767,1,8,0:0:0:0:
376,60,56941,2,0,P|426:51|476:65,1,100,6|10,1:0|0:1,0:0:0:0:
503,158,57639,1,10,0:1:0:0:
414,205,57988,2,0,L|406:262,1,50,10|8,1:0|0:2,0:0:0:0:
403,304,58337,6,0,P|354:296|297:328,1,100,6|10,1:0|0:0,0:0:0:0:
262,335,58860,2,0,L|152:326,1,100,2|2,1:0|1:2,0:0:0:0:
112,317,59383,1,8,0:0:0:0:
32,256,59732,2,0,P|22:208|41:155,1,100,2|10,1:1|0:0,0:0:0:0:
82,137,60255,2,0,L|191:144,1,100,2|2,1:0|1:2,0:0:0:0:
231,149,60779,1,8,0:0:0:0:
243,247,61127,5,2,1:0:0:0:
303,326,61476,1,10,0:0:0:0:
400,304,61825,1,2,0:0:0:0:
432,209,62174,1,10,0:0:0:0:
353,147,62523,2,0,P|336:100|349:44,1,100,2|10,1:0|0:0,0:0:0:0:
364,5,63046,1,2,1:2:0:0:
364,5,63220,2,0,L|258:-1,1,100,2|10,1:2|0:0,0:0:0:0:
177,49,63918,54,0,P|185:97|168:144,1,100,2|8,1:0|0:0,0:0:0:0:
134,180,64441,1,2,1:2:0:0:
134,180,64616,2,0,L|27:170,1,100,2|10,0:0|0:0,0:0:0:0:
0,262,65313,2,0,L|107:272,1,100,2|8,1:0|0:0,0:0:0:0:
123,315,65837,2,0,P|160:337|228:324,1,100,2|2,1:2|1:2,0:0:0:0:
259,307,66360,1,10,0:0:0:0:
325,232,66709,6,0,P|373:222|422:238,1,100,6|10,1:0|0:0,0:0:0:0:
512,200,67406,2,0,P|489:156|448:128,1,100,2|10,0:1|0:0,0:0:0:0:
347,125,68104,1,6,1:0:0:0:
338,25,68453,1,10,0:1:0:0:
241,53,68802,2,0,P|192:60|142:22,1,100,10|10,0:1|1:1,0:0:0:0:
64,85,69500,54,0,P|85:129|82:189,1,100,4|8,1:2|0:0,0:0:0:0:
62,224,70023,1,4,1:2:0:0:
132,295,70372,1,8,0:0:0:0:
132,295,70546,2,0,L|240:293,1,100,4|0,1:2|0:0,0:0:0:0:
282,289,71069,1,4,1:2:0:0:
417,352,71594,69,4,1:2:0:0:
496,194,83105,5,8,0:3:0:0:
481,294,83454,6,0,P|431:290|388:314,1,100,6|8,1:1|0:0,0:0:0:0:
349,346,83978,2,0,L|226:339,1,100,2|2,1:0|0:0,0:0:0:0:
199,336,84501,1,10,0:0:0:0:
196,235,84850,2,0,P|200:193|176:137,1,100,2|10,1:1|0:0,0:0:0:0:
130,124,85373,1,2,1:2:0:0:
130,124,85547,2,0,L|27:123,1,100,2|10,0:0|0:0,0:0:0:0:
31,22,86245,6,0,L|134:23,1,100,2|8,1:1|0:0,0:0:0:0:
177,42,86768,2,0,L|293:42,1,100,2|2,1:0|0:0,0:0:0:0:
327,43,87292,1,10,0:0:0:0:
422,74,87640,2,0,P|454:109|463:171,1,100,2|10,1:1|0:0,0:0:0:0:
438,202,88164,1,2,1:2:0:0:
438,202,88338,2,0,P|384:220|353:261,1,100,2|10,0:0|0:0,0:0:0:0:
359,351,89036,38,0,P|307:341|269:295,1,100,2|8,1:0|0:0,0:0:0:0:
263,264,89559,2,0,L|265:156,1,100,2|2,1:0|0:0,0:0:0:0:
265,113,90082,1,10,0:0:0:0:
190,46,90431,2,0,P|145:33|82:54,1,100,2|10,1:1|0:0,0:0:0:0:
58,80,90954,1,2,1:2:0:0:
58,80,91129,2,0,L|58:184,1,100,2|10,0:0|0:0,0:0:0:0:
55,280,91826,21,2,1:0:0:0:
140,331,92175,1,10,0:0:0:0:
221,273,92524,1,2,0:0:0:0:
180,181,92873,2,0,L|193:124,1,50,10|2,0:0|0:0,0:0:0:0:
205,84,93222,2,0,P|249:87|312:58,1,100,6|10,1:1|0:0,0:0:0:0:
393,103,93919,2,0,P|362:142|318:165,1,100,10|10,0:1|0:1,0:0:0:0:
242,230,94617,38,0,P|300:244|333:284,1,100,6|8,1:1|0:2,0:0:0:0:
355,313,95140,1,4,1:2:0:0:
443,266,95489,1,8,0:2:0:0:
443,266,95663,2,0,L|438:157,1,100,4|8,1:1|0:3,0:0:0:0:
436,115,96186,1,4,1:2:0:0:
343,76,96535,1,4,0:3:0:0:
343,76,96710,6,0,P|290:92|234:68,1,100.000003814697,4|8,1:1|0:3,0:0:0:0:
201,64,97233,1,4,1:2:0:0:
103,84,97582,1,8,0:2:0:0:
103,84,97756,2,0,L|107:191,1,100,4|8,1:1|0:2,0:0:0:0:
80,226,98279,1,4,1:2:0:0:
197,314,98804,70,0,L|257:309,1,50,8|0,0:0|1:0,0:0:0:0:
281,273,99152,2,0,L|347:267,1,50,8|0,0:0|1:0,0:0:0:0:
360,228,99501,2,0,L|421:220,1,50,8|0,0:0|1:0,0:0:0:0:
444,185,99850,1,2,1:2:0:0:
151,334,100723,21,0,1:2:0:0:
151,334,100897,2,0,L|92:341,1,50,8|8,0:0|0:0,0:0:0:0:
55,333,101246,6,0,P|37:285|58:224,1,100,6|10,1:0|0:0,0:0:0:0:
81,202,101769,2,0,L|78:95,1,100,2|2,1:0|1:2,0:0:0:0:
78,51,102292,1,8,0:0:0:0:
177,63,102641,2,0,L|284:59,1,100,2|10,1:0|0:0,0:0:0:0:
320,34,103164,2,0,P|372:22|426:43,1,100,2|2,1:0|1:2,0:0:0:0:
455,66,103688,1,8,0:0:0:0:
370,119,104037,5,2,1:0:0:0:
423,203,104385,1,10,0:0:0:0:
362,282,104734,1,2,0:0:0:0:
268,246,105083,1,10,0:0:0:0:
264,146,105432,2,0,L|156:145,1,100,2|10,1:0|0:0,0:0:0:0:
113,147,105955,1,2,1:2:0:0:
113,147,106130,2,0,P|118:88|97:38,1,100,2|10,1:2|0:0,0:0:0:0:
19,103,106827,6,0,P|13:161|34:211,1,100,2|8,1:0|0:0,0:0:0:0:
68,227,107351,1,2,1:2:0:0:
68,227,107525,2,0,L|175:228,1,100,2|10,0:0|0:0,0:0:0:0:
248,168,108223,2,0,P|300:150|354:167,1,100,2|8,1:0|0:0,0:0:0:0:
386,184,108746,2,0,L|395:285,1,100,2|2,1:2|1:2,0:0:0:0:
398,333,109269,1,10,0:0:0:0:
301,306,109618,54,0,P|261:297|204:311,1,100,6|10,1:0|0:0,0:0:0:0:
167,344,110141,1,2,1:2:0:0:
167,344,110316,2,0,P|107:353|54:332,1,100,2|10,0:1|0:0,0:0:0:0:
34,306,110839,1,8,0:0:0:0:
34,306,111013,2,0,L|38:202,1,100,6|10,1:0|0:1,0:0:0:0:
9,109,111711,1,10,0:1:0:0:
93,56,112060,2,0,L|151:57,1,50,10|8,1:1|0:0,0:0:0:0:
183,86,112409,6,0,P|235:102|287:89,1,100,6|10,1:0|0:0,0:0:0:0:
327,83,112932,2,0,L|320:185,1,100,2|2,1:0|1:2,0:0:0:0:
314,232,113455,1,8,0:0:0:0:
377,309,113804,2,0,P|434:318|483:302,1,100,2|10,1:0|0:0,0:0:0:0:
501,264,114327,2,0,L|506:161,1,100,2|2,1:0|1:2,0:0:0:0:
507,113,114851,1,8,0:0:0:0:
429,49,115199,5,2,1:0:0:0:
337,9,115548,1,10,0:0:0:0:
256,68,115897,1,2,0:0:0:0:
299,158,116246,1,10,0:0:0:0:
397,174,116595,2,0,L|395:279,1,100,2|10,1:0|0:0,0:0:0:0:
379,321,117118,1,2,1:2:0:0:
379,321,117292,2,0,P|330:333|272:321,1,100,2|10,1:2|0:0,0:0:0:0:
201,265,117990,54,0,P|190:202|206:156,1,100,2|8,1:0|0:0,0:0:0:0:
237,134,118513,1,2,1:2:0:0:
237,134,118688,2,0,L|234:27,1,100,2|8,0:0|0:0,0:0:0:0:
134,43,119385,2,0,P|65:53|35:36,1,100,2|8,1:0|0:0,0:0:0:0:
0,30,119909,2,0,L|3:130,1,100,2|2,1:2|1:2,0:0:0:0:
4,179,120432,1,8,0:0:0:0:
69,254,120781,6,0,P|124:262|170:240,1,100,6|10,1:0|0:0,0:0:0:0:
207,221,121304,1,0,1:0:0:0:
207,221,121478,2,0,P|239:211|312:228,1,100,2|10,0:1|0:0,0:0:0:0:
350,240,122002,1,8,0:0:0:0:
350,240,122176,2,0,L|348:138,1,100,6|10,1:0|0:1,0:0:0:0:
403,56,122874,1,10,0:1:0:0:
482,116,123223,2,0,L|485:181,1,50,10|0,0:1|0:0,0:0:0:0:
454,205,123572,22,0,P|486:266|445:331,2,150,4|4|4,1:1|1:2|1:1,0:0:0:0:
355,91,125141,2,0,B|294:85|294:85|268:104|268:104|196:98,2,150,4|4|4,1:2|1:1|1:2,0:0:0:0:
242,190,126711,2,0,L|131:180,1,100,4|0,1:1|0:2,0:0:0:0:
110,142,127234,2,0,L|116:80,2,50,4|8|8,1:2|0:2|0:2,0:0:0:0:
63,159,127758,21,4,1:1:0:0:
9,243,128106,1,8,0:2:0:0:
9,243,128281,2,0,L|13:359,1,100,4|8,1:2|0:2,0:0:0:0:
53,371,128804,1,4,1:1:0:0:
141,323,129153,1,8,0:2:0:0:
141,323,129327,54,0,P|187:307|239:323,1,100.000003814697,4|8,1:2|0:2,0:0:0:0:
275,349,129851,1,4,1:1:0:0:
354,288,130199,1,8,0:2:0:0:
354,288,130374,2,0,L|350:175,1,100,4|8,1:2|0:2,0:0:0:0:
346,138,130897,1,4,1:1:0:0:
438,101,131246,1,8,0:2:0:0:
438,101,131420,2,0,L|434:45,2,50.0000019073487,4|8|8,1:2|0:2|0:0,0:0:0:0:
475,134,131944,22,0,P|503:166|500:235,1,100.000003814697,4|0,1:2|0:0,0:0:0:0:
483,266,132467,2,0,L|360:263,1,100,10|2,1:2|0:0,0:0:0:0:
354,304,132990,2,0,L|231:301,1,100,2|2,1:2|0:0,0:0:0:0:
218,336,133513,2,0,L|95:333,1,100,10|2,1:2|1:2,0:0:0:0:
70,350,134037,37,2,1:2:0:0:
45,252,134385,1,2,0:0:0:0:
45,252,134560,2,0,P|44:198|47:143,1,100,10|2,1:2|0:0,0:0:0:0:
28,105,135083,1,2,1:2:0:0:
114,51,135432,1,2,1:2:0:0:
114,51,135606,2,0,B|175:43|175:43|203:61|203:61|269:53,1,150,10|2,1:2|1:2,0:0:0:0:
181,184,136653,38,0,P|155:226|164:274,1,100,10|2,1:2|1:2,0:0:0:0:
201,307,137176,2,0,L|313:310,1,100,2|2,1:2|0:0,0:0:0:0:
341,339,137699,2,0,L|453:344,1,100,10|2,1:2|1:2,0:0:0:0:
486,326,138223,2,0,P|474:265|492:221,1,100,2|2,1:2|0:0,0:0:0:0:
507,185,138746,37,10,1:2:0:0:
422,110,139095,1,2,1:2:0:0:
422,110,139269,2,0,L|419:44,2,50,2|10|10,1:2|1:2|1:2,0:0:0:0:
401,155,139792,2,0,L|296:161,1,100,10|8,1:2|0:0,0:0:0:0:
249,163,140316,37,6,1:0:0:0:
197,79,140665,2,0,L|208:27,2,50,10|2|2,0:0|1:2|0:0,0:0:0:0:
99,103,141362,2,0,L|114:207,1,100,2|12,1:2|0:0,0:0:0:0:
83,242,141885,1,2,1:2:0:0:
83,242,142060,1,10,0:0:0:0:
82,342,142409,38,0,P|36:336|-2:292,2,100,6|10|2,1:0|1:2|1:2,0:0:0:0:
176,309,143455,2,0,L|291:318,1,100,10|2,1:2|1:2,0:0:0:0:
325,319,143978,1,14,0:1:0:0:
379,235,144327,1,0,1:0:0:0:
379,235,144503,2,0,L|485:239,2,100,8|8|8,0:0|0:0|0:3,0:0:0:0:
323,163,145549,6,0,B|328:113|328:113|313:76|313:76|319:26,2,134.999995880127,4|8|4,1:2|0:0|0:3,0:0:0:0:
243,224,146944,1,4,1:2:0:0:
81,189,156711,22,0,L|-3:173,2,75,12|8|12,1:3|0:3|0:3,0:0:0:0:
128,203,157409,1,4,1:2:0:0:
256,192,157583,12,0,160200,0:0:0:0:
49,303,160897,6,0,L|168:314,1,100,6|10,1:0|0:0,0:0:0:0:
191,285,161421,2,0,P|221:272|298:291,1,100,2|2,1:0|1:2,0:0:0:0:
329,307,161944,1,8,0:0:0:0:
420,266,162293,2,0,L|430:156,1,100,2|10,1:0|0:0,0:0:0:0:
424,116,162816,2,0,P|361:102|331:59,1,100,2|2,1:0|1:2,0:0:0:0:
312,34,163339,1,8,0:0:0:0:
212,19,163688,5,2,1:0:0:0:
120,59,164037,1,10,0:0:0:0:
179,139,164386,1,2,0:0:0:0:
102,203,164735,1,10,0:0:0:0:
165,279,165083,2,0,L|275:282,1,100,2|10,1:0|0:0,0:0:0:0:
308,307,165607,1,2,1:2:0:0:
308,307,165781,2,0,L|427:309,1,100,2|10,1:2|0:0,0:0:0:0:
478,237,166479,6,0,P|485:189|467:133,1,100,2|8,1:0|0:0,0:0:0:0:
428,112,167002,1,2,1:2:0:0:
428,112,167176,2,0,P|378:116|330:100,1,100,2|10,0:0|0:0,0:0:0:0:
247,45,167874,2,0,P|229:81|241:154,1,100,2|8,1:0|0:0,0:0:0:0:
264,178,168397,2,0,L|253:285,1,100,2|2,1:2|1:2,0:0:0:0:
243,326,168921,1,10,0:0:0:0:
155,277,169269,54,0,P|115:267|48:292,1,100,6|10,1:0|0:0,0:0:0:0:
11,299,169793,1,2,1:2:0:0:
11,299,169967,2,0,L|17:185,1,100,2|10,0:1|0:0,0:0:0:0:
54,167,170490,1,8,0:0:0:0:
54,167,170665,2,0,P|68:130|54:58,1,100,6|10,1:0|0:1,0:0:0:0:
131,0,171362,1,10,0:1:0:0:
214,55,171711,2,0,L|287:56,1,50,10|8,1:0|0:0,0:0:0:0:
314,57,172060,6,0,P|296:111|303:153,1,100,6|10,1:0|0:0,0:0:0:0:
344,180,172583,2,0,L|463:177,1,100,2|2,1:0|1:2,0:0:0:0:
494,175,173107,1,8,0:0:0:0:
476,273,173455,2,0,L|362:274,1,100,2|10,1:0|0:0,0:0:0:0:
325,275,173979,2,0,P|288:288|247:343,1,100,2|2,1:0|1:2,0:0:0:0:
227,378,174502,1,8,0:0:0:0:
128,363,174851,5,2,1:0:0:0:
37,319,175200,1,10,0:0:0:0:
111,252,175549,1,2,0:0:0:0:
34,184,175897,1,10,0:0:0:0:
99,108,176246,2,0,L|204:107,1,100,2|10,1:0|0:0,0:0:0:0:
238,75,176769,1,2,1:2:0:0:
238,75,176944,2,0,L|343:71,1,100,2|10,1:2|0:0,0:0:0:0:
412,4,177642,54,0,P|433:36|434:110,1,100,2|8,1:0|0:0,0:0:0:0:
418,142,178165,1,2,1:2:0:0:
418,142,178339,2,0,P|398:184|404:247,1,100,2|10,0:0|0:0,0:0:0:0:
432,331,179037,2,0,P|393:318|322:332,1,100,2|8,1:0|0:0,0:0:0:0:
289,344,179560,2,0,P|289:290|261:245,1,100,2|2,1:2|1:2,0:0:0:0:
230,216,180083,1,10,0:0:0:0:
143,267,180432,6,0,P|75:270|34:246,1,100,6|10,1:0|0:0,0:0:0:0:
102,173,181130,2,0,P|166:152|196:114,1,100,2|10,0:1|0:0,0:0:0:0:
105,72,181828,1,6,1:0:0:0:
15,116,182176,1,10,0:1:0:0:
18,215,182525,2,0,L|19:327,1,100,10|14,0:1|0:1,0:0:0:0:
114,345,183223,70,0,P|159:330|216:342,1,100,6|10,1:0|0:1,0:0:0:0:
258,352,183746,2,0,B|316:345|316:345|345:356|345:356|418:349,1,150,2|10,1:0|0:1,0:0:0:0:
367,257,184618,2,0,P|363:207|396:156,1,100,2|10,1:0|0:1,0:0:0:0:
412,121,185142,2,0,L|289:111,1,100,2|0,1:0|1:0,0:0:0:0:
262,106,185665,1,10,0:1:0:0:
163,54,186014,6,0,P|117:41|61:57,1,100,2|10,1:0|0:1,0:0:0:0:
30,87,186537,2,0,B|56:133|56:133|41:175|52:234,1,150,2|10,1:0|0:1,0:0:0:0:
116,305,187409,2,0,P|163:315|215:301,1,100,2|10,1:0|0:1,0:0:0:0:
267,218,188107,1,2,1:0:0:0:
364,238,188455,1,10,0:1:0:0:
415,323,188804,70,0,P|367:341|311:331,1,100,6|8,1:0|0:0,0:0:0:0:
227,294,189502,1,10,0:0:0:0:
134,331,189851,1,10,0:0:0:0:
62,260,190200,2,0,L|62:155,1,100,10|10,0:0|0:0,0:0:0:0:
112,73,190897,2,0,P|155:51|214:61,1,100,10|8,0:0|0:0,0:0:0:0:
251,77,191421,1,2,1:2:0:0:
251,77,191595,6,0,L|365:63,2,100,14|8|8,0:0|0:0|0:0,0:0:0:0:
179,147,192642,2,0,L|188:204,1,50,2|8,1:2|0:0,0:0:0:0:
198,244,192990,2,0,P|159:276|147:323,1,100,6|8,1:1|0:0,0:0:0:0:
246,334,193688,1,10,0:0:0:0:
302,251,194037,1,10,0:0:0:0:
283,147,194391,22,0,P|282:94|315:58,1,100,4|8,1:2|0:0,0:0:0:0:
361,43,194914,1,4,1:2:0:0:
453,80,195263,1,8,0:0:0:0:
453,80,195437,2,0,P|469:126|461:175,1,100,4|8,1:2|0:0,0:0:0:0:
438,220,195960,1,4,1:2:0:0:
350,268,196309,1,0,1:0:0:0:
350,268,196484,22,0,L|279:261,1,50,12|0,0:0|1:0,0:0:0:0:
212,217,197007,2,0,L|223:114,1,100,12|0,0:0|1:0,0:0:0:0:
197,74,197532,2,0,B|163:64|115:68|139:96|96:110|38:84,1,150.000005722046,8|0,0:0|1:0,0:0:0:0:
16,56,198229,1,12,1:2:0:0:
256,192,198577,12,0,204246,0:0:0:0:
