osu file format v14

[General]
AudioFilename: audio.mp3
AudioLeadIn: 0
PreviewTime: 46558
Countdown: 0
SampleSet: Soft
StackLeniency: 0.4
Mode: 0
LetterboxInBreaks: 0
WidescreenStoryboard: 1

[Editor]
Bookmarks: 18255,29417,72324,83486,94649,101276,123601,127787,131974,145578,146973,156566,157438,160229,160578,160926,183252,188833,194415,198252,204182
DistanceSpacing: 1.8
BeatDivisor: 4
GridSize: 8
TimelineZoom: 1.8

[Metadata]
Title:Outsider
TitleUnicode:アウトサイダー
Artist:Eve
ArtistUnicode:Eve
Creator:AirinCat
Version:Hard
Source:
Tags:otogi おとぎ utaite numa mah KaiseiP 棚橋 UNA 信仁 japanese jpop j-pop
BeatmapID:1839105
BeatmapSetID:879429

[Difficulty]
HPDrainRate:4
CircleSize:3.6
OverallDifficulty:6
ApproachRate:7.8
SliderMultiplier:1.3
SliderTickRate:1

[Events]
//Background and Video events
Video,0,"outsider.mp4"
0,0,"harucute.jpg",0,0
//Break Periods
2,147144,155758
//Storyboard Layer 0 (Background)
//Storyboard Layer 1 (Fail)
//Storyboard Layer 2 (Pass)
//Storyboard Layer 3 (Foreground)
//Storyboard Layer 4 (Overlay)
//Storyboard Sound Samples

[TimingPoints]
1476,348.837209302326,4,2,1,80,1,0
1476,-200.000000000001,4,2,1,80,0,0
1824,-200.000000000001,4,2,1,5,0,0
2086,-200.000000000001,4,2,1,20,0,0
4266,-200.000000000001,4,2,1,80,0,0
4615,-200.000000000001,4,2,1,5,0,0
4877,-200.000000000001,4,2,1,20,0,0
6708,-200.000000000001,4,2,1,80,0,0
7057,-100,4,2,1,60,0,0
18220,-111.111111111111,4,2,1,42,0,0
29034,-111.111111111111,4,2,1,60,0,0
29382,-99.9999999999999,4,2,1,62,0,0
39499,-86.9565217391304,4,2,1,62,0,0
40545,523.25584437534,2,2,1,70,1,0
40545,-66.6666666666667,3,2,1,70,0,0
44733,348.837209302326,3,2,1,70,1,0
45779,348.837209302326,4,2,1,50,1,0
45779,-100,4,2,1,50,0,0
47174,-86.9565217391304,4,2,1,80,0,1
52668,-86.9565217391304,4,2,1,5,0,1
52755,-86.9565217391304,4,2,1,80,0,1
69500,523.255816995673,2,2,1,65,1,0
69500,-66.6666666666667,4,2,1,65,0,0
71594,348.837209302326,4,2,1,65,1,0
72292,348.837209302326,4,2,1,50,1,0
72292,-125,4,2,1,50,0,0
73251,-125,4,2,2,50,0,0
73338,-125,4,2,1,50,0,0
73512,-125,4,2,2,50,0,0
73687,-125,4,2,1,50,0,0
74646,-125,4,2,2,50,0,0
74733,-125,4,2,1,50,0,0
74905,-125,4,2,2,50,0,0
75082,-125,4,2,1,50,0,0
76042,-125,4,2,2,50,0,0
76129,-125,4,2,1,50,0,0
76303,-125,4,2,2,50,0,0
76478,-125,4,2,1,50,0,0
77437,-125,4,2,2,50,0,0
77524,-125,4,2,1,50,0,0
77698,-125,4,2,2,50,0,0
77873,-125,4,2,1,50,0,0
78832,-125,4,2,2,50,0,0
78919,-125,4,2,1,50,0,0
79094,-125,4,2,2,50,0,0
79268,-125,4,2,1,50,0,0
80228,-125,4,2,2,50,0,0
80315,-125,4,2,1,50,0,0
80489,-125,4,2,2,50,0,0
80664,-125,4,2,1,50,0,0
83105,-125,4,2,1,60,0,0
83454,-105.263157894737,4,2,1,62,0,0
93571,-95.2380952380954,4,2,1,62,0,0
94617,523.25584437534,2,2,1,70,1,0
94617,-66.6666666666667,4,2,1,70,0,0
98804,348.837209302326,3,2,1,70,1,0
99851,348.837209302326,4,2,1,70,1,0
100723,-100,4,2,1,50,0,0
101246,-86.9565217391304,4,2,1,80,0,1
123484,-86.9565217391304,4,2,1,5,0,1
123572,523.255814257707,2,2,1,65,1,0
123572,-66.6666666666667,4,2,1,65,0,0
140316,-66.6666666666667,4,2,1,65,0,0
144503,348.837209302326,3,2,1,65,1,0
145549,348.837209302326,4,2,1,65,1,0
145549,-111.111111111111,4,2,1,65,0,0
145897,-100,4,2,1,5,0,0
146073,-100,4,2,1,65,0,0
146246,-100,4,2,1,5,0,0
146595,-100,4,2,1,65,0,0
156711,-100,4,2,1,75,0,0
157496,-100,4,2,1,35,0,0
158804,-100,4,2,1,40,0,0
158979,-100,4,2,1,45,0,0
159153,-100,4,2,1,50,0,0
159328,-100,4,2,1,55,0,0
159502,-100,4,2,1,60,0,0
159676,-100,4,2,1,65,0,0
159851,-100,4,2,1,70,0,0
160025,-100,4,2,1,75,0,0
160200,-100,4,2,1,5,0,0
160549,-100,4,2,1,70,0,0
160897,-83.3333333333333,4,2,1,80,0,1
166392,-83.3333333333333,4,2,1,5,0,1
166479,-83.3333333333333,4,2,1,80,0,1
183136,-83.3333333333333,4,2,1,5,0,1
183223,-90.9090909090909,4,2,1,70,0,0
188804,-90.9090909090909,4,2,1,80,0,0
192990,-90.9090909090909,4,2,1,70,0,0
194391,523.255816995673,2,2,1,60,1,0
194391,-66.6666666666667,4,2,1,60,0,0
197532,348.837209302326,4,2,1,60,1,0
198229,348.837209302326,4,2,1,60,1,0
198316,-66.6666666666667,4,2,1,30,0,0
204246,-66.6666666666667,4,2,1,5,0,0

[Colours]
Combo1 : 228,208,139
Combo2 : 228,163,118
Combo3 : 240,117,117
Combo4 : 202,201,193
Combo5 : 129,188,182
Combo6 : 121,121,121

[HitObjects]
45,270,1476,6,0,B|89:255|89:255|168:270,1,113.75,6|0,1:0|0:0,0:0:0:0:
457,264,4266,38,0,B|410:252|410:252|339:271,1,113.75,6|0,1:1|0:0,0:0:0:0:
461,168,6708,69,8,0:0:0:0:
461,168,7057,6,0,L|379:163,1,65,2|2,1:2|0:0,0:0:0:0:
326,116,7406,2,0,L|251:121,1,65,10|2,0:0|1:2,0:0:0:0:
196,182,7755,2,0,L|204:225,2,32.5,2|2|2,0:0|0:0|1:2,0:0:0:0:
125,118,8103,1,10,0:0:0:0:
57,181,8278,5,2,3:2:0:0:
57,181,8365,1,0,3:2:0:0:
57,181,8452,2,0,L|69:324,1,130,0|8,1:2|0:0,0:0:0:0:
157,339,8976,1,2,1:2:0:0:
221,283,9150,2,0,L|312:299,1,65,2|0,0:0|1:0,0:0:0:0:
355,346,9499,2,0,L|424:333,1,65,8|2,0:0|3:2,0:0:0:0:
436,319,9760,1,0,3:2:0:0:
443,302,9848,54,0,P|441:261|456:232,1,65,2|2,1:2|0:0,0:0:0:0:
416,152,10196,2,0,P|388:168|370:195,1,65,10|2,0:0|1:2,0:0:0:0:
274,196,10545,2,0,L|236:180,2,32.5,2|2|2,0:0|0:0|1:2,0:0:0:0:
318,276,10894,1,10,0:0:0:0:
271,348,11069,5,2,3:2:0:0:
189,350,11243,2,0,P|144:336|49:351,1,130,0|8,1:2|0:0,0:0:0:0:
11,283,11766,1,2,1:2:0:0:
74,232,11941,2,0,L|66:121,1,97.5,2|10,1:2|0:0,0:0:0:0:
43,120,12289,2,0,L|35:37,1,65,8|10,0:0|0:0,0:0:0:0:
50,37,12551,1,8,0:0:0:0:
61,24,12638,6,0,L|146:27,1,65,2|2,1:2|0:0,0:0:0:0:
191,87,12987,2,0,L|264:82,1,65,10|2,0:0|1:2,0:0:0:0:
340,39,13336,2,0,L|335:-1,2,32.5,2|2|2,0:0|0:0|1:2,0:0:0:0:
385,117,13685,1,10,0:0:0:0:
451,67,13859,53,2,3:2:0:0:
497,131,14034,2,0,L|493:276,1,130,0|8,1:0|0:0,0:0:0:0:
413,286,14557,1,2,1:2:0:0:
360,217,14731,2,0,L|284:225,1,65,2|0,0:0|1:0,0:0:0:0:
220,264,15080,2,0,L|148:252,1,65,8|2,0:0|0:0,0:0:0:0:
70,328,15429,6,0,L|160:341,1,65,2|2,1:2|0:0,0:0:0:0:
214,370,15778,2,0,L|289:357,1,65,10|2,0:0|1:2,0:0:0:0:
353,302,16127,2,0,L|340:264,2,32.5,2|2|2,0:0|0:0|1:2,0:0:0:0:
408,371,16476,1,10,0:0:0:0:
470,300,16650,5,2,3:2:0:0:
470,300,16737,1,8,0:0:0:0:
470,300,16824,2,0,L|436:184,2,97.5,6|8|0,1:2|0:0|1:0,0:0:0:0:
408,371,17522,2,0,B|365:363|365:363|325:378|325:378|260:372,1,130,10|8,0:0|0:0,0:0:0:0:
229,301,18045,1,8,0:3:0:0:
134,366,18220,54,0,L|64:354,1,58.4999982147217,6|0,1:2|0:0,0:0:0:0:
137,279,18569,2,0,L|33:263,1,87.7499973220826,2|2,1:2|0:0,0:0:0:0:
26,257,18917,2,0,L|35:196,1,58.4999982147217,2|0,1:2|0:0,0:0:0:0:
0,119,19266,2,0,L|13:50,1,58.4999982147217,2|2,1:2|0:0,0:0:0:0:
120,43,19615,6,0,P|113:93|103:147,1,87.7499973220826,2|2,1:2|0:0,0:0:0:0:
120,150,19964,2,0,L|188:157,1,58.4999982147217,2|2,1:2|0:0,0:0:0:0:
194,143,20226,1,2,0:0:0:0:
211,129,20313,2,0,L|275:134,1,58.4999982147217,2|0,1:2|0:0,0:0:0:0:
327,60,20662,2,0,L|322:1,1,58.4999982147217,2|2,1:2|0:0,0:0:0:0:
400,103,21010,6,0,L|466:96,1,58.4999982147217,2|0,1:2|0:0,0:0:0:0:
399,193,21359,2,0,L|495:181,1,87.7499973220826,2|2,1:2|0:0,0:0:0:0:
506,184,21708,2,0,L|513:244,1,58.4999982147217,2|0,1:2|0:0,0:0:0:0:
453,312,22057,1,2,1:2:0:0:
453,312,22231,1,2,0:0:0:0:
373,371,22406,54,0,L|314:374,1,58.4999982147217,2|2,1:2|0:0,0:0:0:0:
256,310,22755,2,0,L|197:313,1,58.4999982147217,2|2,1:2|0:0,0:0:0:0:
132,260,23103,2,0,L|73:263,1,58.4999982147217,2|2,1:2|0:0,0:0:0:0:
21,185,23452,1,2,1:2:0:0:
21,185,23801,6,0,L|17:119,1,58.4999982147217,2|0,1:2|0:0,0:0:0:0:
105,152,24150,2,0,L|102:82,1,58.4999982147217,2|0,1:2|0:0,0:0:0:0:
191,55,24499,2,0,L|193:157,1,87.7499973220826,2|2,1:2|0:0,0:0:0:0:
212,160,24848,2,0,L|278:156,1,58.4999982147217,2|2,1:2|0:0,0:0:0:0:
351,213,25196,5,2,1:2:0:0:
351,213,25371,1,2,0:0:0:0:
421,156,25545,2,0,P|462:140|501:158,1,87.7499973220826,2|2,1:2|0:0,0:0:0:0:
509,178,25894,2,0,L|510:256,1,58.4999982147217,2|0,1:2|0:0,0:0:0:0:
450,323,26243,2,0,P|397:302|342:321,1,116.999996429443,2|0,1:2|1:0,0:0:0:0:
246,354,26766,53,2,0:0:0:0:
191,283,26941,2,0,P|197:254|195:225,1,58.4999982147217,2|2,1:2|0:0,0:0:0:0:
280,196,27289,2,0,P|270:169|247:146,1,58.4999982147217,2|2,1:2|0:0,0:0:0:0:
313,77,27638,2,0,P|288:61|259:56,1,58.4999982147217,2|2,1:2|0:0,0:0:0:0:
152,67,27987,6,0,P|93:67|49:17,2,116.999996429443,2|2|2,1:2|1:2|1:2,0:0:0:0:
152,163,28859,1,2,0:0:0:0:
76,206,29034,1,10,0:0:0:0:
76,206,29382,22,0,P|132:194|188:239,1,130,6|10,1:1|0:1,0:0:0:0:
243,307,29906,1,2,1:0:0:0:
311,240,30080,2,0,P|318:208|312:176,1,65,2|0,0:0|0:0,0:0:0:0:
242,110,30429,2,0,P|237:78|247:47,1,65,10|2,0:0|0:0,0:0:0:0:
337,87,30778,6,0,P|399:98|455:67,1,130,2|10,1:2|0:0,0:0:0:0:
512,0,31301,1,2,1:2:0:0:
455,67,31476,2,0,L|467:179,1,97.5,2|2,0:0|0:0,0:0:0:0:
448,185,31824,2,0,L|456:260,1,65,8|2,0:0|0:0,0:0:0:0:
460,350,32173,38,0,B|403:338|403:338|383:346|383:346|333:337,1,130,2|10,1:0|0:1,0:0:0:0:
247,374,32696,1,2,1:0:0:0:
187,313,32871,2,0,P|188:268|202:242,1,65,2|0,0:0|0:0,0:0:0:0:
263,193,33220,2,0,P|267:148|259:114,1,65,10|2,0:0|0:0,0:0:0:0:
185,82,33569,22,0,P|125:104|67:76,1,130,2|10,1:2|0:0,0:0:0:0:
22,8,34092,1,2,1:2:0:0:
69,79,34266,2,0,L|58:188,1,97.5,2|2,0:0|0:0,0:0:0:0:
76,196,34615,2,0,L|67:268,1,65,8|2,0:0|0:0,0:0:0:0:
128,337,34964,6,0,P|178:304|243:326,1,130,2|10,1:1|0:1,0:0:0:0:
320,368,35487,1,2,1:1:0:0:
408,344,35662,2,0,P|420:315|419:283,1,65,2|0,0:0|0:0,0:0:0:0:
380,202,36010,2,0,L|383:126,1,65,10|2,0:0|0:0,0:0:0:0:
453,82,36359,38,0,L|313:86,1,130,2|10,1:2|0:0,0:0:0:0:
278,12,36882,1,2,1:2:0:0:
190,38,37057,2,0,L|185:151,1,97.5,2|2,0:0|0:0,0:0:0:0:
169,150,37406,2,0,L|103:142,1,65,8|2,0:0|0:0,0:0:0:0:
23,198,37755,21,2,1:0:0:0:
77,268,37929,1,2,0:1:0:0:
77,268,38103,2,0,L|68:353,1,65,10|2,0:1|1:0,0:0:0:0:
162,355,38452,1,2,0:0:0:0:
207,276,38627,1,2,0:0:0:0:
300,270,38801,2,0,L|383:284,1,65,10|2,0:0|0:0,0:0:0:0:
444,221,39150,6,0,P|460:185|438:114,1,97.5,6|0,1:1|1:0,0:0:0:0:
435,114,39499,2,0,L|347:108,1,74.7500014257431,10|8,0:0|0:0,0:0:0:0:
291,14,39848,2,0,L|367:18,1,74.7500014257431,10|0,0:1|1:0,0:0:0:0:
251,103,40196,1,10,0:1:0:0:
251,103,40545,22,0,L|243:189,1,65.0000024795533,6|0,1:1|0:0,0:0:0:0:
168,218,40893,1,8,0:0:0:0:
168,218,41068,2,0,L|172:305,1,65.0000024795533,4|0,1:2|0:0,0:0:0:0:
260,360,41417,1,8,0:0:0:0:
260,360,41591,6,0,L|124:371,1,130,4|8,1:1|0:3,0:0:0:0:
52,316,42114,2,0,P|77:258|46:203,1,130.000004959107,4|4,1:2|0:3,0:0:0:0:
12,113,42638,2,0,B|59:102|59:102|94:123|94:123|161:107,1,130.000004959107,4|8,1:1|0:3,0:0:0:0:
202,42,43161,6,0,L|287:44,1,65,4|0,1:2|0:0,0:0:0:0:
351,88,43510,1,8,0:0:0:0:
351,88,43684,2,0,L|345:164,1,65,4|0,1:1|0:0,0:0:0:0:
426,211,44033,1,8,0:0:0:0:
426,211,44207,54,0,P|463:262|436:323,1,130,4|0,1:2|1:0,0:0:0:0:
357,348,44733,2,0,L|279:342,1,65,8|0,0:0|1:0,0:0:0:0:
280,258,45081,2,0,L|211:255,1,65,8|0,0:0|1:0,0:0:0:0:
142,181,45430,1,8,0:0:0:0:
73,245,45605,1,0,1:0:0:0:
29,159,45779,6,0,L|35:104,1,32.5,8|8,0:0|0:0,0:0:0:0:
187,49,46302,70,0,L|193:-6,1,32.5,8|8,0:0|0:0,0:0:0:0:
307,195,46825,22,0,L|303:235,3,32.5,8|8|8|8,0:0|0:0|0:0|0:0,0:0:0:0:
317,255,47174,6,0,L|404:252,1,74.7500014257431,6|2,1:1|0:0,0:0:0:0:
489,238,47523,1,10,0:0:0:0:
452,150,47697,2,0,P|441:114|449:78,1,74.7500014257431,2|0,1:1|0:0,0:0:0:0:
371,32,48046,2,0,B|281:37,1,74.7500014257431,2|8,1:2|0:0,0:0:0:0:
218,91,48395,1,2,0:0:0:0:
168,12,48569,5,2,1:1:0:0:
64,27,48744,1,2,0:0:0:0:
58,121,48918,1,10,0:0:0:0:
140,163,49092,2,0,L|150:244,1,74.7500014257431,2|0,1:1|0:0,0:0:0:0:
100,314,49441,2,0,P|133:329|170:328,1,74.7500014257431,2|8,1:2|0:0,0:0:0:0:
241,266,49790,5,2,3:2:0:0:
241,266,49877,1,0,3:0:0:0:
241,266,49965,2,0,L|325:265,1,74.7500014257431,2|2,1:1|0:0,0:0:0:0:
389,323,50313,2,0,L|473:318,1,74.7500014257431,10|2,0:0|1:2,0:0:0:0:
512,239,50662,2,0,P|513:202|496:169,1,74.7500014257431,2|2,0:2|1:2,0:0:0:0:
420,114,51011,1,10,0:0:0:0:
330,147,51185,1,2,0:0:0:0:
264,90,51360,54,0,L|175:88,1,74.7500014257431,2|2,1:1|0:0,0:0:0:0:
168,100,51622,1,0,1:0:0:0:
151,114,51709,2,0,L|58:104,1,74.7500014257431,10|2,0:0|1:2,0:0:0:0:
18,186,52058,2,0,L|98:196,1,74.7500014257431,2|2,1:2|0:0,0:0:0:0:
176,243,52406,2,0,P|206:284|187:339,1,112.125002138615,10|0,0:0|0:0,0:0:0:0:
166,346,52755,6,0,B|254:326|213:387|329:363,1,149.500002851486,2|8,1:1|0:0,0:0:0:0:
348,292,53279,1,2,1:2:0:0:
278,234,53453,2,0,P|269:169|333:125,1,149.500002851486,2|10,0:0|0:0,0:0:0:0:
422,120,53976,6,0,L|410:200,1,74.7500014257431,2|0,0:1|1:0,0:0:0:0:
512,269,54325,2,0,P|504:225|513:190,1,74.7500014257431,2|8,0:0|0:0,0:0:0:0:
432,309,54674,2,0,P|358:297|287:318,1,149.500002851486,2|2,1:2|1:2,0:0:0:0:
224,379,55197,1,10,0:0:0:0:
224,379,55372,1,2,0:0:0:0:
161,307,55546,54,0,P|125:296|70:304,1,74.7500014257431,6|0,1:0|0:0,0:0:0:0:
9,255,55895,2,0,P|40:226|81:214,1,74.7500014257431,10|2,0:0|1:2,0:0:0:0:
132,151,56244,2,0,P|96:132|38:132,1,74.7500014257431,2|0,0:1|1:0,0:0:0:0:
15,51,56592,1,10,0:0:0:0:
114,29,56767,5,8,0:0:0:0:
114,29,56854,1,8,0:0:0:0:
114,29,56941,2,0,L|236:29,1,112.125002138615,6|0,1:0|1:0,0:0:0:0:
243,43,57290,2,0,B|210:68|210:68|211:100,1,74.7500014257431,10|0,0:1|1:2,0:0:0:0:
261,174,57639,1,10,0:1:0:0:
332,117,57813,1,8,0:0:0:0:
332,117,57901,1,8,0:0:0:0:
332,117,57988,2,0,L|367:132,3,37.3750007128716,10|8|8|8,1:0|0:2|0:0|0:2,0:0:0:0:
392,150,58337,6,0,L|390:232,1,74.7500014257431,6|2,1:0|0:0,0:0:0:0:
442,297,58685,1,10,0:0:0:0:
372,355,58860,2,0,P|329:362|270:349,1,74.7500014257431,2|0,1:0|0:0,0:0:0:0:
225,309,59209,2,0,P|188:300|152:306,1,74.7500014257431,2|8,1:2|0:0,0:0:0:0:
77,362,59558,1,2,3:2:0:0:
29,294,59732,54,0,P|39:258|35:221,1,74.7500014257431,2|2,1:1|0:0,0:0:0:0:
0,134,60081,1,10,0:0:0:0:
99,150,60255,2,0,L|180:147,1,74.7500014257431,2|0,1:0|0:0,0:0:0:0:
246,72,60604,2,0,P|268:102|277:139,1,74.7500014257431,2|8,1:2|0:0,0:0:0:0:
275,245,60953,5,2,3:2:0:0:
275,245,61040,1,0,3:2:0:0:
275,245,61127,2,0,L|376:240,1,74.7500014257431,2|2,1:0|0:0,0:0:0:0:
382,161,61476,2,0,L|483:156,1,74.7500014257431,10|2,0:0|1:2,0:0:0:0:
503,72,61825,2,0,L|417:75,1,74.7500014257431,2|2,0:0|1:2,0:0:0:0:
358,30,62174,1,10,0:0:0:0:
269,29,62348,1,2,0:0:0:0:
202,85,62523,6,0,L|114:75,1,74.7500014257431,2|2,1:0|0:0,0:0:0:0:
109,93,62784,1,0,1:0:0:0:
92,107,62872,2,0,L|14:99,1,74.7500014257431,10|2,0:0|1:2,0:0:0:0:
11,197,63220,2,0,L|91:207,1,74.7500014257431,2|2,1:2|0:0,0:0:0:0:
166,169,63569,1,10,0:0:0:0:
166,169,63744,1,2,0:0:0:0:
223,238,63918,54,0,P|275:261|352:205,1,149.500002851486,2|8,1:0|0:0,0:0:0:0:
380,128,64441,1,2,1:2:0:0:
458,166,64616,2,0,P|487:205|493:251,1,74.7500014257431,2|0,0:0|1:0,0:0:0:0:
478,320,64965,2,0,P|444:335|393:331,1,74.7500014257431,10|2,0:0|0:0,0:0:0:0:
306,274,65313,6,0,P|268:272|212:295,1,74.7500014257431,2|2,1:0|0:0,0:0:0:0:
167,336,65662,1,8,0:0:0:0:
86,315,65837,2,0,P|57:241|68:162,1,149.500002851486,2|2,1:2|1:2,0:0:0:0:
112,93,66360,1,10,0:0:0:0:
112,93,66534,1,2,0:0:0:0:
213,117,66709,6,0,P|257:117|296:102,1,74.7500014257431,6|0,1:0|0:0,0:0:0:0:
366,145,67058,2,0,P|342:172|308:188,1,74.7500014257431,10|0,0:0|1:0,0:0:0:0:
245,248,67406,2,0,P|274:270|311:277,1,74.7500014257431,2|0,0:1|1:0,0:0:0:0:
362,349,67755,2,0,P|326:362|289:360,1,74.7500014257431,10|8,0:0|0:0,0:0:0:0:
265,353,68017,1,8,0:0:0:0:
241,346,68104,54,0,L|111:354,1,112.125002138615,6|0,1:0|1:0,0:0:0:0:
104,348,68453,2,0,P|113:311|102:275,1,74.7500014257431,10|0,0:1|1:0,0:0:0:0:
28,211,68802,2,0,P|21:173|34:138,1,74.7500014257431,10|8,0:1|0:0,0:0:0:0:
95,61,69151,2,0,L|141:63,3,37.3750007128716,10|8|8|8,1:1|0:0|0:0|0:0,0:0:0:0:
158,74,69500,70,0,L|246:61,1,65,4|0,1:2|0:0,0:0:0:0:
305,92,69848,1,8,0:0:0:0:
305,92,70023,2,0,L|299:166,1,65,4|0,1:2|0:0,0:0:0:0:
370,207,70372,1,8,0:0:0:0:
370,207,70546,70,0,L|240:211,1,130,4|0,1:2|0:0,0:0:0:0:
186,295,71069,2,0,L|315:291,1,130,4|0,1:2|0:0,0:0:0:0:
353,367,71594,2,0,L|223:371,1,130,4|0,1:2|0:0,0:0:0:0:
49,214,72292,6,0,L|40:161,1,52,4|0,1:0|0:0,0:0:0:0:
138,160,72640,2,0,L|131:217,1,52,2|0,1:2|0:0,0:0:0:0:
101,297,72989,2,0,L|191:301,1,78,2|8,1:2|0:0,0:0:0:0:
198,280,73338,2,0,L|257:282,1,52,2|10,1:2|0:0,0:0:0:0:
315,225,73687,54,0,P|308:199|308:173,1,52,2|2,1:2|0:0,0:0:0:0:
372,120,74036,2,0,P|379:94|379:68,1,52,2|2,1:2|0:0,0:0:0:0:
299,31,74385,2,0,L|210:36,1,78,2|8,1:2|0:0,0:0:0:0:
199,19,74733,2,0,L|136:25,1,52,2|10,1:2|0:0,0:0:0:0:
72,74,75082,22,0,P|75:123|81:185,1,104,2|0,1:2|1:2,0:0:0:0:
146,242,75605,1,2,0:0:0:0:
146,242,75780,2,0,L|225:234,1,78,2|10,1:2|0:0,0:0:0:0:
243,211,76129,2,0,L|304:205,1,52,2|10,1:2|0:0,0:0:0:0:
382,266,76478,54,0,P|382:215|421:182,1,104,2|2,1:2|1:2,0:0:0:0:
449,354,77175,2,0,P|416:374|378:376,2,78,2|10|10,1:2|0:0|0:0,0:0:0:0:
511,263,77873,22,0,L|505:197,1,52,6|0,1:2|0:0,0:0:0:0:
426,131,78222,2,0,L|421:182,1,52,2|0,1:2|0:0,0:0:0:0:
341,232,78571,2,0,P|299:236|259:214,1,78,2|8,1:2|0:0,0:0:0:0:
243,201,78919,2,0,L|175:206,1,52,2|10,1:2|0:0,0:0:0:0:
107,246,79268,54,0,L|112:309,1,52,2|2,1:2|0:0,0:0:0:0:
185,354,79617,2,0,L|277:344,1,78,2|2,1:2|0:0,0:0:0:0:
279,325,79966,2,0,L|368:315,1,78,2|10,1:2|0:0,0:0:0:0:
387,318,80315,2,0,L|384:265,1,52,2|10,1:2|0:0,0:0:0:0:
428,191,80664,22,0,P|382:212|332:202,1,104,2|0,1:2|1:0,0:0:0:0:
269,139,81187,1,2,0:0:0:0:
269,139,81361,2,0,L|269:57,1,78,2|10,1:2|0:0,0:0:0:0:
255,39,81710,2,0,L|204:41,1,52,0|2,1:0|0:0,0:0:0:0:
110,40,82059,53,10,0:0:0:0:
183,296,83105,1,8,0:3:0:0:
119,163,83454,38,0,P|156:143|241:160,1,123.499996702194,6|8,1:1|0:0,0:0:0:0:
296,208,83978,2,0,L|424:203,1,123.499996702194,2|2,1:0|0:0,0:0:0:0:
495,237,84501,2,0,P|506:284|503:311,1,61.7499983510972,10|2,0:0|0:0,0:0:0:0:
449,373,84850,6,0,P|411:353|310:368,1,123.499996702194,2|10,1:1|0:0,0:0:0:0:
252,373,85373,1,2,1:2:0:0:
193,315,85547,2,0,L|197:241,1,61.7499983510972,2|0,0:0|0:0,0:0:0:0:
258,198,85896,2,0,L|262:122,1,61.7499983510972,10|2,0:0|0:0,0:0:0:0:
311,72,86245,38,0,P|252:97|192:65,1,123.499996702194,2|8,1:1|0:0,0:0:0:0:
127,31,86768,2,0,L|-3:39,1,123.499996702194,2|2,1:0|0:0,0:0:0:0:
29,126,87292,1,10,0:0:0:0:
29,126,87466,1,2,0:0:0:0:
110,156,87640,22,0,P|149:191|153:270,1,123.499996702194,2|10,1:1|0:0,0:0:0:0:
67,242,88164,1,2,1:2:0:0:
157,258,88338,2,0,L|233:265,1,61.7499983510972,2|2,0:0|0:0,0:0:0:0:
261,339,88687,2,0,L|346:332,1,61.7499983510972,10|2,0:0|0:0,0:0:0:0:
414,316,89036,6,0,P|401:267|453:204,1,123.499996702194,2|8,1:0|0:0,0:0:0:0:
487,131,89559,2,0,L|364:123,1,123.499996702194,2|2,1:0|0:0,0:0:0:0:
287,76,90082,2,0,L|202:80,1,61.7499983510972,10|0,0:0|0:0,0:0:0:0:
139,55,90431,38,0,P|86:23|28:41,1,123.499996702194,2|10,1:1|0:0,0:0:0:0:
75,116,90954,1,2,1:2:0:0:
158,142,91129,2,0,L|144:241,1,92.6249975266457,2|2,0:0|0:0,0:0:0:0:
126,251,91478,2,0,L|134:320,1,61.7499983510972,8|2,0:0|0:0,0:0:0:0:
236,372,91826,22,0,L|223:302,1,61.7499983510972,2|2,1:0|0:0,0:0:0:0:
276,239,92175,2,0,L|295:161,1,61.7499983510972,10|2,0:0|1:0,0:0:0:0:
253,88,92524,1,2,0:0:0:0:
332,47,92698,1,2,0:0:0:0:
373,126,92873,2,0,L|448:129,1,61.7499983510972,10|2,0:0|0:0,0:0:0:0:
503,206,93222,6,0,P|470:236|467:282,1,92.6249975266457,6|0,1:1|0:0,0:0:0:0:
472,304,93571,2,0,L|385:303,1,68.2499979171754,10|8,0:0|0:0,0:0:0:0:
297,291,93919,2,0,L|306:222,1,68.2499979171754,10|0,0:1|1:0,0:0:0:0:
203,198,94268,1,10,0:1:0:0:
203,198,94617,22,0,L|196:128,1,65,6|0,1:1|0:0,0:0:0:0:
123,87,94965,1,8,0:2:0:0:
123,87,95140,2,0,L|55:92,1,65,4|0,1:2|0:0,0:0:0:0:
3,156,95489,1,8,0:2:0:0:
3,156,95663,6,0,L|9:301,1,130,4|8,1:1|0:3,0:0:0:0:
78,354,96186,2,0,P|117:307|205:322,1,130,4|4,1:2|0:3,0:0:0:0:
267,342,96710,2,0,P|324:367|381:340,1,130.000004959107,4|8,1:1|0:3,0:0:0:0:
447,276,97233,6,0,L|446:196,1,65,4|0,1:2|0:0,0:0:0:0:
384,148,97582,1,8,0:2:0:0:
384,148,97756,2,0,L|304:147,1,65,4|0,1:1|0:0,0:0:0:0:
262,218,98105,1,8,0:2:0:0:
262,218,98279,54,0,P|203:196|144:227,1,130.000004959107,4|0,1:2|1:0,0:0:0:0:
58,231,98804,2,0,L|49:151,1,65,8|0,0:0|1:0,0:0:0:0:
117,112,99152,2,0,L|123:47,1,65,8|0,0:0|1:0,0:0:0:0:
199,4,99501,1,8,0:0:0:0:
266,53,99676,1,0,1:0:0:0:
350,28,99850,5,2,1:2:0:0:
350,28,100723,5,0,1:0:0:0:
420,76,100897,2,0,L|457:69,3,32.5,8|8|8|8,0:0|0:0|0:0|0:0,0:0:0:0:
476,82,101246,6,0,L|469:162,1,74.7500014257431,6|2,1:0|0:0,0:0:0:0:
512,241,101595,1,10,0:0:0:0:
413,244,101769,2,0,P|376:245|344:266,1,74.7500014257431,2|0,1:0|0:0,0:0:0:0:
293,337,102118,2,0,P|260:352|223:346,1,74.7500014257431,2|8,1:2|0:0,0:0:0:0:
141,315,102467,1,2,0:0:0:0:
53,342,102641,5,2,1:0:0:0:
0,278,102816,1,2,0:0:0:0:
51,201,102990,1,10,0:0:0:0:
139,225,103164,2,0,L|219:219,1,74.7500014257431,2|0,1:0|0:0,0:0:0:0:
304,244,103513,2,0,P|335:219|346:184,1,74.7500014257431,2|8,1:2|0:0,0:0:0:0:
339,100,103862,5,2,3:2:0:0:
339,100,103949,1,0,3:0:0:0:
339,100,104037,2,0,L|338:21,1,74.7500014257431,2|2,1:0|0:0,0:0:0:0:
240,0,104385,2,0,L|241:79,1,74.7500014257431,10|2,0:0|1:2,0:0:0:0:
146,110,104734,2,0,L|145:31,1,74.7500014257431,2|2,0:0|1:2,0:0:0:0:
49,15,105083,1,10,0:0:0:0:
0,87,105257,1,2,0:0:0:0:
61,166,105432,54,0,L|59:257,1,74.7500014257431,2|2,1:0|0:0,0:0:0:0:
72,258,105694,1,0,1:0:0:0:
88,274,105781,2,0,L|180:281,1,74.7500014257431,10|2,0:0|1:2,0:0:0:0:
240,234,106130,2,0,P|276:227|313:241,1,74.7500014257431,2|0,1:2|0:0,0:0:0:0:
388,301,106478,1,10,0:0:0:0:
388,301,106653,1,2,0:0:0:0:
463,237,106827,6,0,P|476:165|431:109,1,149.500002851486,2|8,1:0|0:0,0:0:0:0:
335,88,107351,1,2,1:2:0:0:
273,160,107525,2,0,P|199:143|117:132,1,149.500002851486,2|10,0:0|0:0,0:0:0:0:
79,59,108048,1,2,0:0:0:0:
22,136,108223,6,0,L|40:223,1,74.7500014257431,2|0,1:0|0:0,0:0:0:0:
100,265,108571,1,10,0:0:0:0:
46,331,108746,2,0,P|110:299|178:338,1,149.500002851486,2|2,1:2|1:2,0:0:0:0:
254,373,109269,2,0,L|338:363,1,74.7500014257431,10|2,0:0|0:0,0:0:0:0:
376,287,109618,54,0,P|407:266|444:258,1,74.7500014257431,6|0,1:0|0:0,0:0:0:0:
509,204,109967,2,0,P|478:179|441:175,1,74.7500014257431,10|2,0:0|1:2,0:0:0:0:
380,122,110316,2,0,P|411:99|448:93,1,74.7500014257431,2|0,0:1|1:0,0:0:0:0:
512,44,110664,2,0,P|483:17|447:9,1,74.7500014257431,10|8,0:0|0:0,0:0:0:0:
423,11,110926,1,8,0:0:0:0:
398,22,111013,6,0,L|275:21,1,112.125002138615,6|0,1:0|1:0,0:0:0:0:
268,38,111362,2,0,B|296:65|296:65|293:101,1,74.7500014257431,10|0,0:1|1:0,0:0:0:0:
237,174,111711,1,10,0:1:0:0:
171,111,111885,1,8,0:0:0:0:
171,111,111973,1,8,0:0:0:0:
171,111,112060,2,0,L|131:121,3,37.3750007128716,10|8|8|8,1:0|0:0|0:0|0:0,0:0:0:0:
119,143,112409,6,0,L|131:222,1,74.7500014257431,6|2,1:0|0:0,0:0:0:0:
216,260,112757,1,10,0:0:0:0:
185,343,112932,2,0,P|152:360|115:359,1,74.7500014257431,2|0,1:0|0:0,0:0:0:0:
36,320,113281,2,0,B|26:237,1,74.7500014257431,2|8,1:2|0:0,0:0:0:0:
22,155,113630,1,2,3:2:0:0:
86,84,113804,54,0,L|175:85,1,74.7500014257431,2|2,1:0|0:0,0:0:0:0:
230,32,114153,1,10,0:0:0:0:
301,81,114327,2,0,L|380:83,1,74.7500014257431,2|0,1:0|0:0,0:0:0:0:
452,35,114676,2,0,P|465:69|464:106,1,74.7500014257431,2|8,1:2|0:0,0:0:0:0:
435,197,115025,5,2,3:2:0:0:
435,197,115112,1,0,3:2:0:0:
435,197,115199,2,0,L|354:192,1,74.7500014257431,2|2,1:0|0:0,0:0:0:0:
328,280,115548,2,0,L|247:275,1,74.7500014257431,10|2,0:0|1:2,0:0:0:0:
209,203,115897,2,0,L|128:198,1,74.7500014257431,2|2,0:0|1:2,0:0:0:0:
63,271,116246,1,10,0:0:0:0:
0,195,116420,1,2,0:0:0:0:
70,131,116595,6,0,P|72:83|56:38,1,74.7500014257431,2|2,1:0|0:0,0:0:0:0:
75,39,116856,1,0,1:0:0:0:
85,23,116944,2,0,L|173:23,1,74.7500014257431,10|2,0:0|1:2,0:0:0:0:
198,100,117292,2,0,L|283:103,1,74.7500014257431,2|2,1:2|0:0,0:0:0:0:
331,30,117641,1,10,0:0:0:0:
331,30,117816,1,2,0:0:0:0:
410,68,117990,54,0,P|458:112|463:212,1,149.500002851486,2|8,1:0|0:0,0:0:0:0:
440,274,118513,1,2,1:2:0:0:
352,258,118688,2,0,P|277:272|238:355,1,149.500002851486,2|8,0:0|0:0,0:0:0:0:
330,348,119211,1,2,0:0:0:0:
239,330,119385,6,0,L|134:331,1,74.7500014257431,2|0,1:0|0:0,0:0:0:0:
68,320,119734,1,10,0:0:0:0:
118,243,119909,2,0,P|137:198|96:109,1,149.500002851486,2|2,1:2|1:2,0:0:0:0:
43,48,120432,2,0,P|78:30|114:30,1,74.7500014257431,8|2,0:0|0:0,0:0:0:0:
204,77,120781,6,0,P|233:99|270:104,1,74.7500014257431,6|0,1:0|0:0,0:0:0:0:
336,161,121130,2,0,P|306:185|270:193,1,74.7500014257431,10|0,0:0|1:0,0:0:0:0:
199,250,121478,2,0,P|228:272|264:282,1,74.7500014257431,2|0,0:1|1:0,0:0:0:0:
338,339,121827,2,0,P|309:361|273:371,1,74.7500014257431,10|8,0:0|0:0,0:0:0:0:
247,373,122089,1,8,0:0:0:0:
226,367,122176,54,0,L|109:374,1,112.125002138615,6|0,1:0|1:0,0:0:0:0:
86,373,122525,2,0,L|80:289,1,74.7500014257431,10|0,0:1|1:0,0:0:0:0:
121,221,122874,2,0,L|119:144,1,74.7500014257431,10|0,0:1|1:0,0:0:0:0:
48,103,123223,2,0,P|102:106|146:73,1,112.125002138615,10|0,0:1|0:0,0:0:0:0:
165,49,123572,70,0,L|302:61,1,130,4|0,1:1|0:2,0:0:0:0:
386,140,124095,2,0,L|249:152,1,130,4|0,1:2|0:2,0:0:0:0:
177,229,124618,2,0,L|314:241,1,130,4|0,1:1|0:2,0:0:0:0:
381,320,125141,2,0,L|244:332,1,130,4|0,1:2|0:2,0:0:0:0:
130,345,125665,54,0,P|131:294|71:228,1,130,4|0,1:1|0:2,0:0:0:0:
9,206,126188,2,0,P|60:207|126:147,1,130,4|0,1:2|0:2,0:0:0:0:
152,84,126711,2,0,P|151:135|210:198,1,130.000004959107,4|0,1:1|0:2,0:0:0:0:
297,203,127234,2,0,L|373:196,2,65.0000024795533,4|8|8,1:2|0:2|0:2,0:0:0:0:
229,282,127758,22,0,L|237:357,1,65.0000024795533,4|0,1:1|0:0,0:0:0:0:
328,384,128106,1,8,0:2:0:0:
328,384,128281,2,0,L|401:374,1,65.0000024795533,4|0,1:2|0:0,0:0:0:0:
456,313,128630,1,8,0:2:0:0:
456,313,128804,2,0,L|445:242,1,65.0000024795533,4|0,1:1|0:0,0:0:0:0:
490,165,129153,1,8,0:2:0:0:
490,165,129327,2,0,L|476:90,1,65.0000024795533,4|0,1:2|0:0,0:0:0:0:
409,49,129676,1,8,0:2:0:0:
409,49,129851,54,0,B|374:41|374:41|334:55,1,65.0000024795533,4|0,1:1|0:0,0:0:0:0:
265,83,130199,1,8,0:2:0:0:
265,83,130374,2,0,B|230:93|230:93|189:85,1,65.0000024795533,4|0,1:2|0:0,0:0:0:0:
119,109,130723,1,8,0:2:0:0:
119,109,130897,2,0,L|135:181,1,65.0000024795533,4|0,1:1|0:0,0:0:0:0:
47,203,131246,1,8,0:2:0:0:
47,203,131420,2,0,L|26:127,2,65.0000024795533,4|8|8,1:2|0:2|0:2,0:0:0:0:
110,299,131944,22,0,P|168:269|235:292,1,130,4|0,1:2|0:0,0:0:0:0:
296,228,132467,2,0,L|281:159,2,65,10|2|2,1:2|0:0|0:0,0:0:0:0:
378,286,132990,2,0,L|398:356,2,65,2|2|2,1:2|0:0|0:0,0:0:0:0:
426,197,133513,2,0,L|406:127,2,65,10|2|2,1:2|0:0|1:2,0:0:0:0:
505,134,134037,38,0,L|486:69,1,65,2|0,1:2|0:0,0:0:0:0:
410,24,134385,1,2,0:0:0:0:
335,60,134560,2,0,P|268:58|206:52,1,130,10|2,1:2|0:0,0:0:0:0:
107,121,135083,2,0,L|195:131,1,65,2|0,1:2|0:0,0:0:0:0:
255,146,135432,1,2,1:2:0:0:
275,230,135606,2,0,P|262:298|265:371,1,130,10|0,1:2|0:0,0:0:0:0:
172,351,136130,38,0,P|124:340|36:374,1,130,2|0,1:2|0:0,0:0:0:0:
0,291,136653,2,0,L|13:210,1,65,10|0,1:2|0:0,0:0:0:0:
30,136,137002,1,2,1:2:0:0:
109,188,137176,2,0,P|168:214|231:172,1,130.000004959107,2|2,1:2|0:0,0:0:0:0:
295,138,137699,2,0,L|380:144,1,65,10|0,1:2|0:0,0:0:0:0:
450,108,138048,1,2,1:2:0:0:
496,191,138223,38,0,L|486:271,2,65.0000024795533,2|2|2,1:2|0:0|0:0,0:0:0:0:
450,108,138746,2,0,L|459:43,1,65.0000024795533,10|0,1:2|0:0,0:0:0:0:
364,16,139095,1,2,1:2:0:0:
288,80,139269,1,2,1:2:0:0:
288,80,139444,2,0,L|214:71,1,65,10|10,1:2|1:2,0:0:0:0:
140,25,139792,1,10,1:2:0:0:
81,98,139967,2,0,L|86:146,3,32.5000012397767,8|8|8|8,0:0|0:0|0:0|0:0,0:0:0:0:
73,159,140316,38,0,L|80:251,1,65,6|2,1:0|0:0,0:0:0:0:
112,310,140665,1,10,0:0:0:0:
200,275,140839,2,0,L|274:279,1,65.0000024795533,2|2,1:2|0:0,0:0:0:0:
348,324,141188,1,12,0:0:0:0:
348,324,141362,2,0,P|387:356|459:322,1,130.000004959107,2|10,1:2|0:0,0:0:0:0:
491,248,141885,1,2,1:2:0:0:
491,248,142060,2,0,L|487:176,1,65.0000024795533,10|10,0:2|0:0,0:0:0:0:
467,172,142322,1,8,0:0:0:0:
447,161,142409,38,0,L|449:28,2,130,6|10|2,1:0|1:2|1:2,0:0:0:0:
369,195,143281,1,2,0:0:0:0:
300,136,143455,2,0,L|234:146,1,65,10|0,1:2|0:0,0:0:0:0:
190,69,143804,1,2,1:2:0:0:
100,86,143978,38,0,L|117:237,1,130,14|0,0:1|1:0,0:0:0:0:
71,299,144502,1,8,0:0:0:0:
154,333,144677,1,0,1:0:0:0:
218,274,144851,1,8,0:0:0:0:
286,327,145026,2,0,L|286:373,4,32.5,8|8|8|8|12,0:0|0:0|0:3|0:3|0:3,0:0:0:0:
369,297,145549,54,0,B|414:283|425:236|425:236|436:283|491:294,2,175.499994644165,4|8|4,1:2|0:0|0:3,0:0:0:0:
127,342,146944,21,4,1:2:0:0:
147,172,156537,85,8,0:3:0:0:
147,172,156624,1,8,0:3:0:0:
147,172,156711,2,0,L|148:68,2,97.5,12|8|12,1:3|0:3|0:3,0:0:0:0:
143,265,157409,53,4,1:2:0:0:
256,192,157583,12,0,160200,0:0:0:0:
26,286,160549,5,10,0:0:0:0:
26,286,160897,22,0,L|18:194,1,77.999997619629,6|2,1:0|0:0,0:0:0:0:
13,106,161246,1,10,0:0:0:0:
101,147,161421,2,0,P|143:150|189:132,1,77.999997619629,2|0,1:0|0:0,0:0:0:0:
249,76,161769,2,0,P|289:66|334:79,1,77.999997619629,2|8,1:2|0:0,0:0:0:0:
398,117,162118,1,2,0:0:0:0:
407,203,162293,5,2,1:0:0:0:
495,207,162467,1,2,0:0:0:0:
503,305,162642,1,10,0:0:0:0:
420,330,162816,2,0,L|341:321,1,77.999997619629,2|0,1:0|0:0,0:0:0:0:
264,270,163165,2,0,P|225:263|189:276,1,77.999997619629,2|8,1:2|0:0,0:0:0:0:
124,343,163514,5,2,3:2:0:0:
124,343,163601,1,0,3:0:0:0:
124,343,163688,2,0,L|35:340,1,77.999997619629,2|2,1:0|0:0,0:0:0:0:
1,253,164037,2,0,L|86:257,1,77.999997619629,10|2,0:0|1:2,0:0:0:0:
138,174,164386,2,0,L|51:167,1,77.999997619629,2|2,0:0|1:2,0:0:0:0:
30,82,164735,1,10,0:0:0:0:
98,26,164909,1,2,0:0:0:0:
171,78,165083,54,0,L|268:84,1,77.999997619629,2|2,1:0|0:0,0:0:0:0:
270,73,165345,1,0,1:0:0:0:
287,60,165432,2,0,L|373:68,1,77.999997619629,10|2,0:0|1:2,0:0:0:0:
441,159,165781,2,0,L|357:164,1,77.999997619629,2|2,1:2|0:0,0:0:0:0:
281,238,166130,2,0,P|324:260|320:322,1,116.999996429443,10|0,0:0|0:0,0:0:0:0:
299,340,166479,6,0,P|363:313|454:355,1,155.999995239258,2|8,1:0|0:0,0:0:0:0:
512,299,167002,1,2,1:2:0:0:
458,227,167176,2,0,P|463:148|466:66,1,155.999995239258,2|10,0:0|0:0,0:0:0:0:
387,17,167700,6,0,L|298:5,1,77.999997619629,2|0,0:1|1:0,0:0:0:0:
234,118,168049,2,0,L|311:107,1,77.999997619629,2|8,0:0|0:0,0:0:0:0:
197,43,168397,2,0,P|146:98|165:170,1,155.999995239258,2|2,1:2|1:2,0:0:0:0:
171,282,168921,1,10,0:0:0:0:
171,282,169095,1,2,0:0:0:0:
56,308,169269,54,0,P|26:283|8:237,1,77.999997619629,6|0,1:0|0:0,0:0:0:0:
81,149,169618,2,0,P|77:187|91:223,1,77.999997619629,10|2,0:0|1:2,0:0:0:0:
165,170,169967,2,0,P|171:132|194:101,1,77.999997619629,2|0,0:1|1:0,0:0:0:0:
309,118,170316,2,0,P|274:135|250:165,1,77.999997619629,10|8,0:0|0:0,0:0:0:0:
248,190,170578,1,8,0:0:0:0:
247,213,170665,6,0,L|251:349,1,116.999996429443,6|0,1:0|1:0,0:0:0:0:
253,353,171014,2,0,B|288:329|288:329|323:333,1,77.999997619629,10|0,0:1|1:0,0:0:0:0:
406,365,171362,1,10,0:1:0:0:
461,293,171537,1,8,0:0:0:0:
461,293,171624,1,8,0:0:0:0:
461,293,171711,2,0,L|454:251,3,38.9999988098145,10|8|8|8,1:0|0:0|0:0|0:0,0:0:0:0:
426,234,172060,6,0,L|438:144,1,77.999997619629,6|2,1:0|0:0,0:0:0:0:
459,68,172409,1,10,0:0:0:0:
374,34,172583,2,0,P|335:32|299:48,1,77.999997619629,2|0,1:0|0:0,0:0:0:0:
270,134,172932,2,0,P|295:162|305:202,1,77.999997619629,2|8,1:2|0:0,0:0:0:0:
298,291,173281,1,2,3:2:0:0:
212,320,173455,54,0,P|173:306|135:309,1,77.999997619629,2|2,1:0|0:0,0:0:0:0:
51,327,173804,1,10,0:0:0:0:
6,249,173979,2,0,P|4:200|2:164,1,77.999997619629,2|0,1:0|0:0,0:0:0:0:
57,93,174328,2,0,P|92:79|134:88,1,77.999997619629,2|8,1:2|0:0,0:0:0:0:
222,144,174676,5,2,3:2:0:0:
222,144,174764,1,0,3:2:0:0:
222,144,174851,2,0,L|308:148,1,77.999997619629,2|2,1:0|0:0,0:0:0:0:
372,204,175200,2,0,L|458:208,1,77.999997619629,10|2,0:0|1:2,0:0:0:0:
507,305,175549,2,0,L|421:301,1,77.999997619629,2|2,0:0|1:2,0:0:0:0:
349,356,175897,1,10,0:0:0:0:
256,349,176072,1,2,0:0:0:0:
197,269,176246,6,0,L|200:180,1,77.999997619629,2|2,1:0|0:0,0:0:0:0:
186,170,176508,1,0,1:0:0:0:
169,151,176595,2,0,L|174:65,1,77.999997619629,10|2,0:0|1:2,0:0:0:0:
67,73,176944,2,0,L|62:159,1,77.999997619629,2|2,1:2|0:0,0:0:0:0:
18,241,177293,1,10,0:0:0:0:
18,241,177467,1,2,0:0:0:0:
92,292,177642,54,0,P|137:267|248:278,1,155.999995239258,2|8,1:0|0:0,0:0:0:0:
315,323,178165,1,2,1:2:0:0:
387,272,178339,2,0,P|394:228|381:177,1,77.999997619629,2|0,0:0|1:0,0:0:0:0:
337,123,178688,2,0,P|330:65|343:35,1,77.999997619629,10|2,0:0|0:0,0:0:0:0:
256,8,179037,6,0,P|220:28|173:30,1,77.999997619629,2|2,1:0|0:0,0:0:0:0:
91,22,179386,1,8,0:0:0:0:
23,86,179560,2,0,B|10:176|59:144|35:254,1,155.999995239258,2|2,1:2|1:2,0:0:0:0:
103,314,180083,1,10,0:0:0:0:
103,314,180258,1,2,0:0:0:0:
183,280,180432,6,0,P|216:275|264:291,1,77.999997619629,6|0,1:0|0:0,0:0:0:0:
340,260,180781,2,0,P|321:231|278:204,1,77.999997619629,10|0,0:0|1:0,0:0:0:0:
221,151,181130,2,0,P|248:130|297:120,1,77.999997619629,2|0,0:1|1:0,0:0:0:0:
346,55,181479,2,0,P|315:39|265:37,1,77.999997619629,10|8,0:0|0:0,0:0:0:0:
244,40,181740,1,8,0:0:0:0:
219,49,181828,54,0,B|170:40|170:40|144:56|144:56|108:48,1,116.999996429443,6|0,1:0|1:0,0:0:0:0:
87,54,182176,2,0,L|84:138,1,77.999997619629,10|0,0:1|1:0,0:0:0:0:
156,203,182525,2,0,L|152:282,1,77.999997619629,10|0,0:1|1:0,0:0:0:0:
225,352,182874,2,0,P|265:318|347:343,1,116.999996429443,14|0,0:1|0:0,0:0:0:0:
367,330,183223,6,0,L|357:248,1,71.5000021820069,6|2,1:0|0:1,0:0:0:0:
339,167,183572,1,10,0:1:0:0:
424,186,183746,2,0,P|493:160|513:90,1,143.000004364014,2|0,1:0|1:0,0:0:0:0:
474,13,184269,1,10,0:1:0:0:
403,75,184444,69,2,3:1:0:0:
403,75,184531,1,0,3:1:0:0:
403,75,184618,2,0,L|314:67,1,71.5000021820069,2|2,1:0|0:1,0:0:0:0:
251,23,184967,1,10,0:1:0:0:
208,99,185142,2,0,P|140:129|73:82,1,143.000004364014,2|0,1:0|1:0,0:0:0:0:
9,55,185665,2,0,P|34:101|20:152,1,107.25000327301,10|0,0:1|3:0,0:0:0:0:
5,182,186014,6,0,L|10:265,1,71.5000021820069,2|0,1:0|0:0,0:0:0:0:
29,348,186362,1,10,0:1:0:0:
106,283,186537,2,0,P|156:264|253:287,1,143.000004364014,2|0,1:0|1:0,0:0:0:0:
319,344,187060,2,0,P|371:357|425:334,1,107.25000327301,10|0,0:1|0:0,0:0:0:0:
445,313,187409,70,0,L|432:236,1,71.5000021820069,2|0,1:0|0:0,0:0:0:0:
351,213,187758,1,10,0:1:0:0:
351,213,187932,1,0,1:0:0:0:
354,123,188107,2,0,P|389:98|436:95,1,71.5000021820069,2|0,1:0|0:0,0:0:0:0:
346,24,188455,1,10,0:1:0:0:
346,24,188804,6,0,L|203:12,1,143.000004364014,6|8,1:0|0:0,0:0:0:0:
122,26,189328,1,2,1:2:0:0:
172,104,189502,2,0,L|161:182,1,71.5000021820069,10|0,0:0|1:0,0:0:0:0:
65,206,189851,1,10,0:0:0:0:
97,294,190025,1,2,1:2:0:0:
193,276,190200,70,0,P|224:273|269:283,1,71.5000021820069,10|0,0:0|1:0,0:0:0:0:
354,335,190549,1,10,0:0:0:0:
420,266,190723,1,2,1:2:0:0:
337,193,190897,2,0,P|336:149|352:112,1,71.5000021820069,10|0,0:0|1:0,0:0:0:0:
294,42,191246,2,0,P|268:66|252:98,1,71.5000021820069,8|2,0:0|1:2,0:0:0:0:
192,203,191595,5,14,0:0:0:0:
151,123,191769,2,0,P|150:82|166:45,2,71.5000021820069,2|8|0,1:2|0:0|1:0,0:0:0:0:
77,185,192293,2,0,P|48:212|33:263,1,71.5000021820069,8|2,0:0|1:2,0:0:0:0:
65,336,192642,1,2,1:2:0:0:
160,304,192816,69,8,0:0:0:0:
160,304,192903,1,8,0:0:0:0:
160,304,192990,2,0,L|287:314,1,107.25000327301,6|0,1:1|1:0,0:0:0:0:
292,310,193339,2,0,P|287:268|303:237,1,71.5000021820069,8|2,0:0|1:2,0:0:0:0:
350,174,193688,2,0,P|361:139|351:105,1,71.5000021820069,10|0,0:0|1:0,0:0:0:0:
294,41,194037,2,0,P|323:21|359:18,1,71.5000021820069,10|2,0:0|0:0,0:0:0:0:
461,50,194391,38,0,L|469:117,1,65.0000024795533,4|0,1:2|0:0,0:0:0:0:
436,199,194739,1,8,0:0:0:0:
436,199,194914,2,0,L|445:277,1,65.0000024795533,4|0,1:2|0:0,0:0:0:0:
382,336,195263,1,8,0:0:0:0:
382,336,195437,2,0,L|307:329,1,65.0000024795533,4|0,1:2|0:0,0:0:0:0:
227,304,195786,1,8,0:0:0:0:
227,304,195960,2,0,L|86:324,1,130.000004959107,4|0,1:2|1:0,0:0:0:0:
16,270,196484,6,0,L|-3:198,1,65.0000024795533,12|0,0:0|1:0,0:0:0:0:
12,113,196832,1,0,1:0:0:0:
91,151,197007,1,12,0:0:0:0:
164,86,197181,2,0,L|162:42,2,32.5000012397767,8|8|0,0:0|0:0|1:0,0:0:0:0:
234,157,197530,5,8,0:0:0:0:
234,157,197706,2,0,B|272:153|299:150|299:150|329:158|329:158|372:152,1,130.000004959107,0|0,1:0|1:0,0:0:0:0:
374,166,198142,1,0,1:0:0:0:
385,179,198229,1,12,1:2:0:0:
256,192,198316,12,0,204246,0:0:0:0:
