osu file format v14

[General]
AudioFilename: audio.mp3
AudioLeadIn: 0
PreviewTime: 46558
Countdown: 0
SampleSet: Soft
StackLeniency: 0.5
Mode: 0
LetterboxInBreaks: 0
WidescreenStoryboard: 1

[Editor]
Bookmarks: 18255,29417,72324,83486,94649,101276,123601,127787,131974,145578,146973,156566,157438,160229,160578,160926,183252,188833,194415,198252,204182
DistanceSpacing: 0.6
BeatDivisor: 6
GridSize: 8
TimelineZoom: 1.7

[Metadata]
Title:Outsider
TitleUnicode:アウトサイダー
Artist:Eve
ArtistUnicode:Eve
Creator:AirinCat
Version:Extra
Source:
Tags:otogi おとぎ utaite numa mah KaiseiP 棚橋 UNA 信仁 japanese jpop j-pop
BeatmapID:2206972
BeatmapSetID:879429

[Difficulty]
HPDrainRate:5.5
CircleSize:4
OverallDifficulty:8.8
ApproachRate:9
SliderMultiplier:1.7
SliderTickRate:1

[Events]
//Background and Video events
Video,0,"outsider.mp4"
0,0,"harucute.jpg",0,0
//Break Periods
2,147144,155937
//Storyboard Layer 0 (Background)
//Storyboard Layer 1 (Fail)
//Storyboard Layer 2 (Pass)
//Storyboard Layer 3 (Foreground)
//Storyboard Layer 4 (Overlay)
//Storyboard Sound Samples

[TimingPoints]
1476,348.837209302326,4,2,1,80,1,0
1476,-222.222222222222,4,2,1,80,0,0
1824,-222.222222222222,4,2,1,5,0,0
2086,-222.222222222222,4,2,1,20,0,0
4266,-222.222222222222,4,2,1,80,0,0
4615,-222.222222222222,4,2,1,5,0,0
4877,-222.222222222222,4,2,1,20,0,0
6708,-222.222222222222,4,2,1,80,0,0
7057,-100,4,2,1,60,0,0
18220,-117.647058823529,4,2,1,42,0,0
29034,-200,4,2,1,60,0,0
29295,-125,4,2,1,5,0,0
29382,-105.263157894737,4,2,1,62,0,0
39499,-86.9565217391304,4,2,1,62,0,0
39848,-105.263157894737,4,2,1,62,0,0
40196,-100,4,2,1,62,0,0
40545,523.25584437534,2,2,1,70,1,0
40545,-66.6666666666667,3,2,1,70,0,0
40807,-66.6666666666667,3,2,1,5,0,0
40894,-66.6666666666667,3,2,1,70,0,0
41330,-66.6666666666667,3,2,1,5,0,0
41417,-66.6666666666667,3,2,1,70,0,0
41853,-66.6666666666667,3,2,1,5,0,0
41941,-66.6666666666667,3,2,1,70,0,0
42377,-66.6666666666667,3,2,1,5,0,0
42464,-66.6666666666667,3,2,1,70,0,0
42900,-66.6666666666667,3,2,1,5,0,0
42987,-66.6666666666667,3,2,1,70,0,0
43162,-66.6666666666667,3,2,1,70,0,0
43423,-66.6666666666667,3,2,1,5,0,0
43510,-66.6666666666667,3,2,1,70,0,0
43946,-66.6666666666667,3,2,1,5,0,0
44034,-66.6666666666667,3,2,1,70,0,0
44207,-71.4285714285714,3,2,1,70,0,0
44733,348.837209302326,3,2,1,70,1,0
44733,-100,3,2,1,70,0,0
45779,348.837209302326,4,2,1,50,1,0
45779,-100,3,2,1,50,0,0
47174,-86.9565217391304,4,2,1,80,0,1
47959,-86.9565217391304,4,2,1,5,0,1
48046,-86.9565217391304,4,2,1,80,0,1
49354,-86.9565217391304,4,2,1,5,0,1
49442,-86.9565217391304,4,2,1,80,0,1
49964,-86.9565217391304,4,2,1,80,0,1
52667,-86.9565217391304,4,2,1,5,0,1
52754,-86.9565217391304,4,2,1,80,0,1
54934,-86.9565217391304,4,2,1,5,0,1
55022,-86.9565217391304,4,2,1,80,0,1
59122,-86.9565217391304,4,2,1,5,0,1
59209,-86.9565217391304,4,2,1,80,0,1
60517,-86.9565217391304,4,2,1,5,0,1
60604,-86.9565217391304,4,2,1,80,0,1
66969,-86.9565217391304,4,2,1,5,0,1
67057,-86.9565217391304,4,2,1,80,0,1
69500,523.255816995673,2,2,1,65,1,0
69500,-66.6666666666667,4,2,1,65,0,0
69761,-66.6666666666667,4,2,1,5,0,0
69849,-66.6666666666667,4,2,1,65,0,0
70285,-66.6666666666667,4,2,1,5,0,0
70372,-66.6666666666667,4,2,1,65,0,0
71594,348.837209302326,4,2,1,65,1,0
71594,-100,4,2,1,65,0,0
72292,348.837209302326,4,2,1,50,1,0
72292,-133.333333333333,4,2,1,50,0,0
73251,-133.333333333333,4,2,2,50,0,0
73338,-133.333333333333,4,2,1,50,0,0
73512,-133.333333333333,4,2,2,50,0,0
73687,-133.333333333333,4,2,1,50,0,0
74646,-133.333333333333,4,2,2,50,0,0
74733,-133.333333333333,4,2,1,50,0,0
74908,-133.333333333333,4,2,2,50,0,0
75082,-133.333333333333,4,2,1,50,0,0
76042,-133.333333333333,4,2,2,50,0,0
76129,-133.333333333333,4,2,1,50,0,0
76303,-133.333333333333,4,2,2,50,0,0
76478,-133.333333333333,4,2,1,50,0,0
77437,-133.333333333333,4,2,2,50,0,0
77524,-133.333333333333,4,2,1,50,0,0
77698,-133.333333333333,4,2,2,50,0,0
77873,-133.333333333333,4,2,1,50,0,0
78832,-133.333333333333,4,2,2,50,0,0
78919,-133.333333333333,4,2,1,50,0,0
79094,-133.333333333333,4,2,2,50,0,0
79268,-133.333333333333,4,2,1,50,0,0
80228,-133.333333333333,4,2,2,50,0,0
80315,-133.333333333333,4,2,1,50,0,0
80489,-133.333333333333,4,2,2,50,0,0
80664,-133.333333333333,4,2,1,50,0,0
83105,-133.333333333333,4,2,1,60,0,0
83454,-100,4,2,1,62,0,0
94617,523.25584437534,2,2,1,70,1,0
94617,-66.6666666666667,4,2,1,70,0,0
94878,-66.6666666666667,4,2,1,5,0,0
94964,-66.6666666666667,4,2,1,70,0,0
95402,-66.6666666666667,4,2,1,5,0,0
95489,-66.6666666666667,4,2,1,70,0,0
95925,-66.6666666666667,4,2,1,5,0,0
96013,-66.6666666666667,4,2,1,70,0,0
96449,-66.6666666666667,4,2,1,5,0,0
96536,-66.6666666666667,4,2,1,70,0,0
96973,-66.6666666666667,4,2,1,5,0,0
97060,-66.6666666666667,4,2,1,70,0,0
97496,-66.6666666666667,4,2,1,5,0,0
97583,-66.6666666666667,4,2,1,70,0,0
98020,-66.6666666666667,4,2,1,5,0,0
98107,-66.6666666666667,4,2,1,70,0,0
98279,-71.4285714285714,4,2,1,70,0,0
98804,348.837209302326,3,2,1,70,1,0
98804,-100,3,2,1,70,0,0
99851,348.837209302326,4,2,1,70,1,0
99851,-100,4,2,1,70,0,0
100723,-100,4,2,1,50,0,0
101246,-86.9565217391304,4,2,1,80,0,1
102031,-86.9565217391304,4,2,1,5,0,1
102118,-86.9565217391304,4,2,1,80,0,1
103426,-86.9565217391304,4,2,1,5,0,1
103513,-86.9565217391304,4,2,1,80,0,1
106391,-86.9565217391304,4,2,1,5,0,1
106478,-86.9565217391304,4,2,1,80,0,1
109007,-86.9565217391304,4,2,1,5,0,1
109095,-86.9565217391304,4,2,1,80,0,1
113194,-86.9565217391304,4,2,1,5,0,1
113281,-86.9565217391304,4,2,1,80,0,1
114589,-86.9565217391304,4,2,1,5,0,1
114676,-86.9565217391304,4,2,1,80,0,1
120170,-86.9565217391304,4,2,1,5,0,1
120257,-86.9565217391304,4,2,1,80,0,1
121042,-86.9565217391304,4,2,1,5,0,1
121130,-86.9565217391304,4,2,1,80,0,1
122525,-83.3333333333333,4,2,1,80,0,1
123223,-133.333333333333,4,2,1,80,0,1
123484,-133.333333333333,4,2,1,5,0,1
123572,523.255814257707,2,2,1,65,1,0
123572,-74.0740740740741,4,2,1,65,0,0
127758,-74.0740740740741,4,2,1,65,0,0
128019,-74.0740740740741,4,2,1,5,0,0
128106,-74.0740740740741,4,2,1,65,0,0
128542,-74.0740740740741,4,2,1,5,0,0
128630,-74.0740740740741,4,2,1,65,0,0
129066,-74.0740740740741,4,2,1,5,0,0
129153,-74.0740740740741,4,2,1,65,0,0
129589,-74.0740740740741,4,2,1,5,0,0
129676,-74.0740740740741,4,2,1,65,0,0
130112,-74.0740740740741,4,2,1,5,0,0
130199,-74.0740740740741,4,2,1,65,0,0
130635,-74.0740740740741,4,2,1,5,0,0
130723,-74.0740740740741,4,2,1,65,0,0
131159,-74.0740740740741,4,2,1,5,0,0
131246,-74.0740740740741,4,2,1,65,0,0
131944,-74.0740740740741,4,2,1,65,0,0
134298,-74.0740740740741,4,2,1,5,0,0
134385,-74.0740740740741,4,2,1,65,0,0
134822,-74.0740740740741,4,2,1,5,0,0
134909,-74.0740740740741,4,2,1,65,0,0
135345,-74.0740740740741,4,2,1,5,0,0
135432,-74.0740740740741,4,2,1,65,0,0
136915,-74.0740740740741,4,2,1,5,0,0
137002,-74.0740740740741,4,2,1,65,0,0
137438,-74.0740740740741,4,2,1,5,0,0
137525,-74.0740740740741,4,2,1,65,0,0
137961,-74.0740740740741,4,2,1,5,0,0
138048,-74.0740740740741,4,2,1,65,0,0
139008,-74.0740740740741,4,2,1,5,0,0
139095,-74.0740740740741,4,2,1,65,0,0
140316,-74.0740740740741,4,2,1,65,0,0
144503,348.837209302326,3,2,1,65,1,0
144503,-100,3,2,1,65,0,0
145549,348.837209302326,4,2,1,65,1,0
145549,-125,4,2,1,65,0,0
145897,-125,4,2,1,5,0,0
146072,-125,4,2,1,65,0,0
156711,-100,4,2,1,75,0,0
157496,-100,4,2,1,35,0,0
158804,-100,4,2,1,40,0,0
158979,-100,4,2,1,45,0,0
159153,-100,4,2,1,50,0,0
159328,-100,4,2,1,55,0,0
159502,-100,4,2,1,60,0,0
159676,-100,4,2,1,65,0,0
159851,-100,4,2,1,70,0,0
160025,-100,4,2,1,75,0,0
160200,-100,4,2,1,5,0,0
160549,-111.111111111111,4,2,1,70,0,0
160897,-86.9565217391303,4,2,1,80,0,1
161682,-86.9565217391303,4,2,1,5,0,1
161769,-86.9565217391303,4,2,1,80,0,1
163078,-86.9565217391303,4,2,1,5,0,1
163165,-86.9565217391303,4,2,1,80,0,1
166392,-86.9565217391303,4,2,1,5,0,1
166479,-86.9565217391303,4,2,1,80,0,1
168659,-86.9565217391303,4,2,1,5,0,1
168746,-86.9565217391303,4,2,1,80,0,1
172845,-86.9565217391303,4,2,1,5,0,1
172932,-86.9565217391303,4,2,1,80,0,1
174240,-86.9565217391303,4,2,1,5,0,1
174328,-86.9565217391303,4,2,1,80,0,1
180694,-86.9565217391303,4,2,1,5,0,1
180781,-86.9565217391303,4,2,1,80,0,1
183136,-86.9565217391303,4,2,1,5,0,1
183223,-100,4,2,1,70,0,0
188804,-100,4,2,1,80,0,0
192990,-100,4,2,1,70,0,0
194391,523.255816995673,2,2,1,60,1,0
194391,-66.6666666666667,4,2,1,60,0,0
194652,-66.6666666666667,4,2,1,5,0,0
194740,-66.6666666666667,4,2,1,60,0,0
195176,-66.6666666666667,4,2,1,5,0,0
195263,-66.6666666666667,4,2,1,60,0,0
195699,-66.6666666666667,4,2,1,5,0,0
195787,-66.6666666666667,4,2,1,60,0,0
196223,-66.6666666666667,4,2,1,5,0,0
196310,-66.6666666666667,4,2,1,60,0,0
197532,348.837209302326,4,2,1,60,1,0
197532,-100,4,2,1,60,0,0
198229,348.837209302326,4,2,1,60,1,0
198229,-100,4,2,1,60,0,0
198316,-66.6666666666667,4,2,1,30,0,0
204246,-66.6666666666667,4,2,1,5,0,0

[Colours]
Combo1 : 228,208,139
Combo2 : 228,163,118
Combo3 : 240,117,117
Combo4 : 202,201,193
Combo5 : 129,188,182
Combo6 : 121,121,121

[HitObjects]
26,170,1476,6,0,L|37:306,1,133.874995914459,6|0,1:0|0:0,0:0:0:0:
486,170,4266,38,0,L|473:306,1,133.874995914459,6|0,1:1|0:0,0:0:0:0:
371,26,6708,69,8,0:0:0:0:
371,26,7057,5,2,1:2:0:0:
447,134,7231,1,2,0:0:0:0:
318,232,7406,2,0,P|360:236|402:243,1,85,10|2,0:0|1:2,0:0:0:0:
284,100,7755,1,2,0:0:0:0:
284,100,7842,1,2,0:0:0:0:
284,100,7929,1,2,1:2:0:0:
183,210,8103,1,10,0:0:0:0:
80,45,8278,5,2,3:2:0:0:
80,45,8365,1,0,3:2:0:0:
80,45,8452,2,0,P|140:33|182:78,1,127.5,0|0,1:2|0:0,0:0:0:0:
172,94,8801,1,8,0:0:0:0:
22,155,8976,1,2,1:2:0:0:
106,274,9150,2,0,P|62:275|19:281,1,85,2|0,0:0|1:0,0:0:0:0:
24,302,9412,1,2,0:0:0:0:
24,302,9499,1,8,0:0:0:0:
119,162,9673,1,2,3:2:0:0:
119,162,9760,1,0,3:2:0:0:
119,162,9848,53,2,1:2:0:0:
213,261,10022,1,2,0:0:0:0:
270,127,10196,2,0,P|263:85|257:42,1,85,10|2,0:0|1:2,0:0:0:0:
403,123,10545,1,2,0:0:0:0:
403,123,10632,1,2,0:0:0:0:
403,123,10720,1,2,1:2:0:0:
309,227,10894,1,10,0:0:0:0:
439,336,11069,5,2,3:2:0:0:
512,221,11243,2,0,P|455:196|406:239,1,127.5,0|0,1:2|1:0,0:0:0:0:
412,254,11592,1,8,0:0:0:0:
307,136,11766,1,2,1:2:0:0:
209,313,11941,2,0,P|207:267|204:229,1,85,2|0,1:2|0:0,0:0:0:0:
220,217,12202,1,10,0:0:0:0:
220,217,12289,1,8,0:0:0:0:
107,326,12464,1,10,0:0:0:0:
107,326,12551,1,8,0:0:0:0:
107,326,12638,5,2,1:2:0:0:
18,229,12813,1,2,0:0:0:0:
109,142,12987,2,0,P|67:135|24:126,1,85,10|2,0:0|1:2,0:0:0:0:
157,35,13336,1,2,0:0:0:0:
157,35,13423,1,2,0:0:0:0:
157,35,13510,1,2,1:2:0:0:
214,172,13685,1,10,0:0:0:0:
386,70,13859,53,2,3:2:0:0:
277,5,14034,2,0,P|288:57|303:135,1,127.5,0|0,1:0|0:0,0:0:0:0:
321,141,14382,1,10,0:0:0:0:
229,248,14557,1,2,1:2:0:0:
401,353,14731,2,0,P|418:312|411:269,1,85,2|0,0:0|1:0,0:0:0:0:
400,250,14993,1,2,0:0:0:0:
400,250,15080,2,0,P|442:244|484:241,1,85,8|2,0:0|0:0,0:0:0:0:
321,141,15429,5,2,1:2:0:0:
229,248,15603,1,2,0:0:0:0:
144,130,15778,2,0,P|149:88|151:45,1,85,10|2,0:0|1:2,0:0:0:0:
3,151,16127,1,2,0:0:0:0:
3,151,16214,1,2,0:0:0:0:
3,151,16301,1,2,1:2:0:0:
134,238,16476,1,10,0:0:0:0:
24,362,16650,1,2,3:0:0:0:
14,346,16737,1,8,0:0:0:0:
7,334,16824,5,6,1:2:0:0:
166,152,17086,1,8,0:0:0:0:
350,342,17348,1,0,1:0:0:0:
350,342,17435,1,0,3:0:0:0:
350,342,17522,2,0,B|332:273|385:289|371:221,1,127.5,10|0,0:0|0:0,0:0:0:0:
366,201,17871,1,8,0:0:0:0:
444,163,18045,1,8,0:3:0:0:
306,16,18220,54,0,L|303:89,1,72.2500013780594,6|0,1:2|0:0,0:0:0:0:
223,8,18569,2,0,L|218:81,1,72.2500013780594,2|0,1:2|0:0,0:0:0:0:
210,93,18830,1,2,0:0:0:0:
204,106,18917,2,0,P|157:81|107:98,1,108.375002067089,2|2,1:2|0:0,0:0:0:0:
84,99,19266,2,0,L|87:19,1,72.2500013780594,2|2,1:2|0:0,0:0:0:0:
149,184,19615,21,2,1:2:0:0:
68,245,19789,1,2,0:0:0:0:
68,245,19877,1,2,0:0:0:0:
68,245,19964,1,2,1:2:0:0:
145,320,20138,1,2,0:0:0:0:
145,320,20226,1,2,0:0:0:0:
145,320,20313,2,0,L|260:307,1,108.375002067089,2|2,1:2|0:0,0:0:0:0:
267,299,20662,2,0,L|260:378,1,72.2500013780594,2|2,1:2|0:0,0:0:0:0:
249,184,21010,70,0,L|240:111,1,72.2500013780594,2|0,1:2|0:0,0:0:0:0:
336,172,21359,2,0,L|327:99,1,72.2500013780594,2|0,1:2|0:0,0:0:0:0:
337,84,21621,1,2,0:0:0:0:
348,71,21708,2,0,P|409:84|456:49,1,108.375002067089,2|2,1:2|0:0,0:0:0:0:
454,46,22057,2,0,L|470:126,1,72.2500013780594,2|2,1:2|0:0,0:0:0:0:
240,111,22406,6,0,P|253:78|251:42,1,72.2500013780594,2|2,1:2|0:0,0:0:0:0:
99,174,22755,2,0,P|87:141|88:105,1,72.2500013780594,2|2,1:2|0:0,0:0:0:0:
254,279,23103,2,0,P|266:246|265:210,1,72.2500013780594,2|2,1:2|0:0,0:0:0:0:
94,356,23452,1,2,1:2:0:0:
94,356,23801,54,0,L|166:360,1,72.2500013780594,2|0,1:2|0:0,0:0:0:0:
97,272,24150,2,0,L|169:276,1,72.2500013780594,2|0,1:2|0:0,0:0:0:0:
114,94,24499,2,0,P|67:118|57:169,1,108.375002067089,2|2,1:2|0:0,0:0:0:0:
72,189,24848,2,0,L|-2:187,1,72.2500013780594,2|2,1:2|0:0,0:0:0:0:
188,39,25196,5,2,1:2:0:0:
188,39,25371,1,2,0:0:0:0:
252,113,25545,2,0,P|288:111|324:109,1,72.2500013780594,2|2,1:2|0:0,0:0:0:0:
340,100,25807,1,2,0:0:0:0:
354,85,25894,2,0,L|359:193,1,108.375002067089,2|2,1:2|0:0,0:0:0:0:
370,212,26243,2,0,P|405:208|448:206,2,72.2500013780594,2|2|0,1:2|0:0|1:0,0:0:0:0:
241,175,26766,5,2,0:0:0:0:
190,261,26941,2,0,L|112:263,1,72.2500013780594,2|2,1:2|0:0,0:0:0:0:
34,209,27289,1,2,1:2:0:0:
34,209,27464,1,2,0:0:0:0:
73,109,27638,1,2,1:2:0:0:
73,109,27813,1,2,0:0:0:0:
220,93,27987,54,0,P|232:60|233:24,1,72.2500013780594,2|0,1:2|0:0,0:0:0:0:
382,170,28336,2,0,P|370:137|368:101,1,72.2500013780594,2|0,1:2|0:0,0:0:0:0:
243,275,28685,2,0,P|256:241|256:205,1,72.2500013780594,2|2,1:2|0:0,0:0:0:0:
379,360,29034,6,0,L|443:348,1,63.75,10|0,0:0|0:0,0:0:0:0:
459,351,29382,22,0,P|503:294|455:223,1,161.499995687485,6|10,1:1|0:1,0:0:0:0:
358,157,29906,1,2,1:0:0:0:
241,303,30080,2,0,P|202:296|159:290,1,80.7499978437424,2|0,0:0|0:0,0:0:0:0:
260,155,30429,1,10,0:0:0:0:
367,274,30603,1,2,0:0:0:0:
473,125,30778,6,0,P|479:82|484:41,1,80.7499978437424,2|0,1:2|0:0,0:0:0:0:
286,50,31127,1,10,0:0:0:0:
358,157,31301,1,2,1:2:0:0:
260,242,31476,2,0,P|220:232|139:219,1,121.124996765614,2|2,0:0|0:0,0:0:0:0:
122,234,31824,2,0,L|139:149,1,80.7499978437424,8|2,0:0|0:0,0:0:0:0:
0,42,32173,37,2,1:0:0:0:
0,42,32348,1,2,0:1:0:0:
43,158,32522,1,10,0:1:0:0:
132,50,32696,1,2,1:0:0:0:
250,120,32871,2,0,L|330:109,1,80.7499978437424,2|0,0:0|0:0,0:0:0:0:
244,239,33220,1,10,0:0:0:0:
144,132,33394,1,2,0:0:0:0:
14,305,33569,22,0,L|0:225,1,80.7499978437424,2|0,1:2|0:0,0:0:0:0:
158,206,33917,1,10,0:0:0:0:
125,330,34092,1,2,1:2:0:0:
274,359,34266,2,0,P|330:341|341:284,1,121.124996765614,2|2,0:0|0:0,0:0:0:0:
331,272,34615,2,0,P|321:310|338:346,1,80.7499978437424,8|2,0:0|0:0,0:0:0:0:
489,229,34964,6,0,B|433:223|433:223|401:187|401:187|341:178,1,161.499995687485,2|10,1:1|0:1,0:0:0:0:
158,204,35487,1,2,1:1:0:0:
235,55,35662,2,0,L|248:143,1,80.7499978437424,2|0,0:0|0:0,0:0:0:0:
149,300,36010,1,10,0:0:0:0:
84,160,36185,1,2,0:0:0:0:
256,278,36359,38,0,P|305:270|346:265,1,80.7499978437424,2|0,1:2|0:0,0:0:0:0:
482,121,36708,1,10,0:0:0:0:
369,175,36882,1,2,1:2:0:0:
477,324,37057,2,0,P|490:290|484:243,1,80.7499978437424,2|0,0:0|0:0,0:0:0:0:
472,228,37319,1,2,0:0:0:0:
472,228,37406,1,8,0:0:0:0:
353,349,37580,1,2,0:0:0:0:
254,196,37755,21,2,1:0:0:0:
149,360,37929,1,2,0:1:0:0:
65,189,38103,1,10,0:1:0:0:
146,338,38278,1,2,1:0:0:0:
154,149,38452,1,2,0:0:0:0:
45,303,38627,1,2,0:0:0:0:
243,310,38801,1,10,0:0:0:0:
47,280,38976,1,2,0:0:0:0:
221,60,39150,6,0,P|274:81|286:138,1,121.124996765614,6|0,1:1|1:0,0:0:0:0:
271,162,39499,1,10,0:0:0:0:
418,55,39673,1,8,0:0:0:0:
504,258,39848,2,0,P|506:213|514:172,1,80.7499978437424,10|0,0:1|1:0,0:0:0:0:
304,285,40196,1,10,0:1:0:0:
304,285,40545,22,0,L|447:269,1,127.5,6|0,1:1|0:0,0:0:0:0:
504,258,40893,1,8,0:0:0:0:
305,202,41068,2,0,L|448:186,1,127.5,4|0,1:2|0:0,0:0:0:0:
505,175,41417,1,8,0:0:0:0:
339,95,41591,6,0,P|297:141|305:202,1,127.5,4|0,1:1|0:0,0:0:0:0:
344,270,41940,1,8,0:3:0:0:
189,188,42114,2,0,P|208:246|265:271,1,127.5,4|0,1:2|0:0,0:0:0:0:
344,270,42463,1,4,0:3:0:0:
189,345,42638,6,0,B|141:329|141:329|113:339|113:339|54:320,1,127.500004863739,4|0,1:1|0:0,0:0:0:0:
0,295,42986,1,8,0:3:0:0:
103,124,43161,2,0,B|91:175|91:175|101:198|101:198|89:247,1,127.5,4|0,1:2|0:0,0:0:0:0:
68,324,43510,1,8,0:0:0:0:
288,277,43684,2,0,B|237:265|237:265|214:275|214:275|165:263,1,127.5,4|0,1:1|0:0,0:0:0:0:
89,246,44033,1,8,0:0:0:0:
284,133,44207,54,0,P|362:114|449:95,1,158.666661824544,4|0,1:2|1:0,0:0:0:0:
360,351,44731,1,8,0:0:0:0:
261,216,44907,1,0,1:0:0:0:
79,347,45081,1,8,0:0:0:0:
237,355,45256,1,0,1:0:0:0:
157,43,45430,1,8,0:0:0:0:
49,241,45605,1,0,1:0:0:0:
363,63,45779,6,0,L|360:9,1,42.5,8|8,0:0|0:0,0:0:0:0:
243,123,46040,1,0,1:0:0:0:
509,132,46302,70,0,L|505:84,1,42.5,8|8,0:0|0:0,0:0:0:0:
380,178,46563,1,0,1:0:0:0:
295,373,46825,21,8,0:0:0:0:
276,344,46912,1,8,0:0:0:0:
272,310,46999,1,8,0:0:0:0:
287,279,47087,1,8,0:0:0:0:
317,262,47174,6,0,P|367:263|430:262,1,97.7500018644333,6|2,1:1|0:0,0:0:0:0:
279,62,47523,1,10,0:0:0:0:
131,267,47697,2,0,P|85:214|113:150,1,146.62500279665,2|0,1:1|0:0,0:0:0:0:
129,133,48046,2,0,P|73:128|14:121,1,97.7500018644333,2|8,1:2|0:0,0:0:0:0:
129,293,48395,1,2,0:0:0:0:
298,53,48569,5,2,1:1:0:0:
409,271,48744,1,2,0:0:0:0:
182,201,48918,1,10,0:0:0:0:
426,18,49092,2,0,P|422:77|428:171,1,146.62500279665,2|0,1:1|0:0,0:0:0:0:
413,183,49441,2,0,P|465:171|509:164,1,97.7500018644333,2|8,1:2|0:0,0:0:0:0:
299,23,49790,5,2,3:2:0:0:
299,23,49877,1,0,3:0:0:0:
299,23,49965,1,2,1:1:0:0:
183,202,50139,1,2,0:0:0:0:
86,3,50313,1,10,0:0:0:0:
397,62,50488,1,2,1:2:0:0:
317,241,50662,1,2,0:2:0:0:
185,115,50837,1,2,1:2:0:0:
87,325,51011,2,0,L|72:224,1,97.7500018644333,10|2,0:0|0:0,0:0:0:0:
12,17,51360,54,0,L|-4:118,1,97.7500018644333,2|2,1:1|0:0,0:0:0:0:
13,137,51622,1,0,1:0:0:0:
13,137,51709,1,10,0:0:0:0:
164,23,51883,1,2,1:2:0:0:
214,204,52058,2,0,P|265:198|316:197,1,97.7500018644333,2|2,1:2|0:0,0:0:0:0:
512,55,52406,2,0,P|444:61|438:129,1,146.62500279665,10|0,0:0|0:0,0:0:0:0:
459,138,52755,6,0,P|433:48|344:48,1,195.500003728867,2|8,1:1|0:0,0:0:0:0:
214,204,53279,1,2,1:2:0:0:
53,41,53453,2,0,P|103:34|167:19,1,97.7500018644333,2|2,0:0|1:2,0:0:0:0:
0,214,53802,1,10,0:0:0:0:
139,331,53976,6,0,P|130:279|123:227,1,97.7500018644333,2|0,0:1|1:0,0:0:0:0:
271,26,54325,2,0,P|267:78|266:129,1,97.7500018644333,2|8,0:0|0:0,0:0:0:0:
459,297,54674,2,0,P|465:227|406:189,1,146.62500279665,2|0,1:2|0:0,0:0:0:0:
382,188,55023,1,2,1:2:0:0:
364,10,55197,1,10,0:0:0:0:
499,90,55372,1,2,0:0:0:0:
169,139,55546,54,0,P|216:129|321:115,1,146.62500279665,6|0,1:0|0:0,0:0:0:0:
328,128,55895,1,10,0:0:0:0:
193,8,56069,1,2,1:2:0:0:
53,201,56244,2,0,P|46:149|38:104,1,97.7500018644333,2|0,0:1|1:0,0:0:0:0:
259,202,56592,1,10,0:0:0:0:
0,353,56767,5,8,0:0:0:0:
0,353,56854,1,8,0:0:0:0:
0,353,56941,2,0,B|57:342|57:342|81:361|81:361|144:349,1,146.62500279665,6|0,1:0|1:0,0:0:0:0:
161,352,57290,2,0,B|137:306|137:306|158:262,1,97.7500018644333,10|0,0:1|1:2,0:0:0:0:
279,114,57639,1,10,0:1:0:0:
398,292,57813,1,8,0:2:0:0:
426,311,57901,1,8,0:2:0:0:
459,314,57988,1,10,1:0:0:0:
490,301,58075,1,8,0:2:0:0:
512,275,58162,1,8,0:2:0:0:
511,240,58249,1,8,0:2:0:0:
500,207,58337,6,0,P|504:155|506:108,1,97.7500018644333,6|2,1:0|0:0,0:0:0:0:
326,250,58685,1,10,0:0:0:0:
188,101,58860,2,0,P|125:70|65:106,1,146.62500279665,2|0,1:0|0:0,0:0:0:0:
46,122,59209,2,0,L|36:23,1,97.7500018644333,2|8,1:2|0:0,0:0:0:0:
143,262,59558,53,2,3:2:0:0:
143,262,59645,1,0,3:2:0:0:
143,262,59732,2,0,P|96:251|48:264,1,97.7500018644333,2|2,1:1|0:0,0:0:0:0:
188,101,60081,1,10,0:0:0:0:
346,263,60255,2,0,B|436:275|388:217|487:232,1,146.62500279665,2|0,1:0|0:0,0:0:0:0:
503,240,60604,2,0,P|506:191|509:142,1,97.7500018644333,2|8,1:2|0:0,0:0:0:0:
257,28,60953,5,2,3:2:0:0:
257,28,61040,1,0,3:2:0:0:
257,28,61127,1,2,1:0:0:0:
279,213,61302,1,2,0:0:0:0:
400,40,61476,1,10,0:0:0:0:
153,170,61651,1,2,1:2:0:0:
36,18,61825,1,2,0:0:0:0:
164,151,61999,1,2,1:2:0:0:
24,320,62174,2,0,P|17:271|11:223,1,97.7500018644333,10|2,0:0|0:0,0:0:0:0:
265,125,62523,6,0,P|258:173|252:221,1,97.7500018644333,2|2,1:0|0:0,0:0:0:0:
263,247,62784,1,0,1:0:0:0:
263,247,62872,1,10,0:0:0:0:
386,125,63046,1,2,1:2:0:0:
440,309,63220,1,2,1:2:0:0:
358,230,63395,1,2,0:0:0:0:
512,118,63569,1,10,0:0:0:0:
422,19,63744,1,2,0:0:0:0:
212,168,63918,54,0,P|120:155|132:52,1,195.500003728867,2|8,1:0|0:0,0:0:0:0:
262,13,64441,1,2,1:2:0:0:
358,230,64616,2,0,P|364:179|370:130,1,97.7500018644333,2|0,0:0|1:0,0:0:0:0:
382,121,64877,1,2,0:0:0:0:
396,110,64965,2,0,P|348:105|296:98,1,97.7500018644333,10|2,0:0|0:0,0:0:0:0:
431,359,65313,5,2,1:0:0:0:
470,205,65488,1,2,0:0:0:0:
273,348,65662,1,8,0:0:0:0:
136,224,65837,2,0,B|175:196|175:196|224:206|224:206|266:197|266:197|239:229|240:263,1,195.500003728867,2|2,1:2|1:2,0:0:0:0:
90,377,66360,1,10,0:0:0:0:
19,230,66534,1,2,0:0:0:0:
273,348,66709,6,0,P|332:339|431:332,1,146.62500279665,6|0,1:0|0:0,0:0:0:0:
438,340,67058,2,0,P|430:291|425:243,1,97.7500018644333,10|0,0:0|1:0,0:0:0:0:
228,170,67406,2,0,P|276:163|332:160,1,97.7500018644333,2|0,0:1|1:0,0:0:0:0:
280,0,67755,1,10,0:0:0:0:
48,258,67930,53,8,0:0:0:0:
48,258,68017,1,8,0:0:0:0:
48,258,68104,2,0,B|37:207|37:207|55:179|55:179|41:115,1,146.62500279665,6|0,1:0|1:0,0:0:0:0:
42,96,68453,2,0,B|84:67|84:67|133:84,1,97.7500018644333,10|0,0:1|1:0,0:0:0:0:
272,304,68802,1,10,0:1:0:0:
418,99,68976,1,8,0:0:0:0:
401,69,69063,1,8,0:0:0:0:
374,48,69151,1,10,1:1:0:0:
340,41,69238,1,8,0:0:0:0:
307,48,69325,1,8,0:0:0:0:
283,72,69412,1,8,0:0:0:0:
269,101,69500,70,0,L|273:244,1,127.5,4|0,1:2|0:0,0:0:0:0:
272,304,69848,1,8,0:0:0:0:
170,105,70023,2,0,L|174:248,1,127.5,4|0,1:2|0:0,0:0:0:0:
173,308,70372,1,8,0:0:0:0:
382,174,70546,70,0,P|447:128|512:175,1,170,4|0,1:2|0:0,0:0:0:0:
382,174,71069,2,0,P|309:139|318:60,1,170,4|0,1:2|0:0,0:0:0:0:
382,174,71594,2,0,P|388:253|315:286,1,170,4|0,1:2|0:0,0:0:0:0:
315,286,72292,6,0,L|322:349,1,63.7500024318696,4|0,1:0|0:0,0:0:0:0:
230,293,72640,2,0,P|237:239|278:210,1,95.6250036478044,2|0,1:2|0:0,0:0:0:0:
272,195,72989,2,0,P|240:189|209:182,1,63.7500024318696,2|2,1:2|0:0,0:0:0:0:
199,166,73251,1,8,0:0:0:0:
199,166,73338,1,2,1:2:0:0:
128,224,73512,1,10,0:0:0:0:
70,139,73687,54,0,L|85:78,1,63.7500024318696,2|2,1:2|0:0,0:0:0:0:
0,197,74036,2,0,L|18:264,1,63.7500024318696,2|2,1:2|0:0,0:0:0:0:
0,363,74385,2,0,P|49:345|106:330,1,95.6250036478044,2|8,1:2|0:0,0:0:0:0:
103,317,74733,1,2,1:2:0:0:
157,383,74908,1,10,0:0:0:0:
244,327,75082,22,0,P|230:298|229:266,1,63.7500024318696,2|2,1:2|0:0,0:0:0:0:
243,249,75344,1,2,0:0:0:0:
243,249,75431,1,0,1:0:0:0:
331,264,75605,1,2,0:0:0:0:
385,189,75780,2,0,P|394:152|389:124,1,63.7500024318696,2|2,1:2|0:0,0:0:0:0:
383,109,76042,1,10,0:0:0:0:
383,109,76129,1,0,1:0:0:0:
285,150,76303,1,10,0:0:0:0:
182,64,76478,54,0,L|244:53,1,63.7500024318696,2|0,1:2|0:0,0:0:0:0:
170,170,76826,2,0,L|107:159,1,63.7500024318696,2|2,1:2|0:0,0:0:0:0:
18,116,77175,2,0,P|23:164|30:214,2,95.6250036478044,2|10|10,1:2|0:0|0:0,0:0:0:0:
113,0,77873,22,0,L|105:64,1,63.7500024318696,6|0,1:2|0:0,0:0:0:0:
182,132,78222,2,0,P|213:126|244:119,1,63.7500024318696,2|0,1:2|0:0,0:0:0:0:
297,40,78571,2,0,L|376:54,1,63.7500024318696,2|2,1:2|0:0,0:0:0:0:
378,70,78832,1,8,0:0:0:0:
378,70,78919,1,2,1:2:0:0:
449,22,79094,1,10,0:0:0:0:
506,162,79268,54,0,L|513:97,1,63.7500024318696,2|2,1:2|0:0,0:0:0:0:
391,155,79617,1,2,1:2:0:0:
447,245,79792,1,2,0:0:0:0:
447,245,79879,1,2,0:0:0:0:
447,245,79966,2,0,L|437:356,1,95.6250036478044,2|10,1:2|0:0,0:0:0:0:
426,353,80315,2,0,P|461:347|498:343,1,63.7500024318696,2|10,1:2|0:0,0:0:0:0:
334,300,80664,22,0,L|267:311,1,63.7500024318696,2|2,1:2|0:0,0:0:0:0:
258,294,80925,1,2,0:0:0:0:
258,294,81012,1,0,1:0:0:0:
167,332,81187,1,2,0:0:0:0:
99,227,81361,2,0,L|166:238,1,63.7500024318696,2|2,1:2|0:0,0:0:0:0:
188,234,81623,1,10,0:0:0:0:
188,234,81710,2,0,L|200:170,1,63.7500024318696,0|2,1:0|0:0,0:0:0:0:
33,39,82059,53,10,0:0:0:0:
24,58,83105,1,8,0:3:0:0:
18,75,83454,38,0,P|61:67|106:59,1,85,6|0,1:1|0:0,0:0:0:0:
222,105,83803,1,8,0:0:0:0:
124,242,83978,2,0,L|108:151,1,85,2|0,1:0|0:0,0:0:0:0:
229,20,84326,1,2,0:0:0:0:
229,20,84501,2,0,L|221:115,1,85,10|2,0:0|0:0,0:0:0:0:
361,198,84850,6,0,P|409:175|403:99,1,127.5,2|2,1:1|0:0,0:0:0:0:
390,96,85198,2,0,L|485:86,1,85,10|2,0:0|1:2,0:0:0:0:
353,224,85547,2,0,P|308:218|265:214,1,85,2|0,0:0|0:0,0:0:0:0:
253,203,85809,1,2,0:0:0:0:
240,195,85896,2,0,P|232:236|223:278,1,85,8|2,0:0|0:0,0:0:0:0:
27,374,86245,38,0,P|19:336|10:288,1,85,2|0,1:1|0:0,0:0:0:0:
7,153,86594,1,8,0:0:0:0:
158,221,86768,2,0,P|111:228|64:240,1,85,2|0,1:0|0:0,0:0:0:0:
0,63,87117,1,2,0:0:0:0:
0,63,87292,2,0,P|46:70|94:82,1,85,10|2,0:0|0:0,0:0:0:0:
289,0,87640,22,0,P|214:13|210:80,1,127.5,2|0,1:1|0:0,0:0:0:0:
212,78,87989,1,10,0:0:0:0:
303,162,88164,1,2,1:2:0:0:
399,53,88338,2,0,P|402:93|410:138,1,85,2|2,0:0|0:0,0:0:0:0:
291,246,88687,2,0,P|298:204|303:156,1,85,10|2,0:0|0:0,0:0:0:0:
429,350,89036,6,0,P|473:340|525:334,1,85,2|0,1:0|0:0,0:0:0:0:
385,247,89385,1,8,0:0:0:0:
299,357,89559,2,0,P|254:346|211:339,1,85,2|0,1:0|0:0,0:0:0:0:
70,376,89908,1,2,0:0:0:0:
69,376,90082,2,0,L|92:279,1,85,10|0,0:0|0:0,0:0:0:0:
2,78,90431,38,0,P|19:140|29:203,1,127.5,2|2,1:1|0:0,0:0:0:0:
17,221,90780,2,0,P|61:205|111:197,1,85,10|2,0:0|1:2,0:0:0:0:
244,88,91129,2,0,P|195:82|160:71,1,85,2|0,0:0|0:0,0:0:0:0:
154,55,91390,1,2,0:0:0:0:
154,55,91478,1,8,0:0:0:0:
217,206,91652,1,2,0:0:0:0:
333,28,91826,21,2,1:0:0:0:
444,173,92001,1,2,0:0:0:0:
304,142,92175,1,10,0:0:0:0:
470,63,92350,1,2,1:0:0:0:
297,163,92524,1,2,0:0:0:0:
443,266,92698,1,2,0:0:0:0:
283,318,92873,1,10,0:0:0:0:
464,266,93047,1,2,0:0:0:0:
261,78,93222,6,0,P|210:112|206:174,1,127.5,6|0,1:1|0:0,0:0:0:0:
221,190,93571,1,10,0:0:0:0:
100,61,93745,1,8,0:0:0:0:
12,235,93919,2,0,P|5:185|-1:137,1,85,10|0,0:1|1:0,0:0:0:0:
202,299,94268,1,10,0:1:0:0:
202,299,94617,22,0,L|75:316,1,127.5,6|0,1:1|0:2,0:2:0:0:
2,330,94965,1,8,0:2:0:0:
213,208,95140,2,0,B|159:216|159:216|146:215|146:215|86:224,1,127.5,4|0,1:2|0:2,0:2:0:0:
12,235,95489,1,8,0:2:0:0:
220,124,95663,2,0,B|167:131|167:131|155:127|155:127|87:138,1,127.5,4|0,1:1|0:2,0:2:0:0:
22,146,96012,1,8,0:3:0:0:
229,36,96186,2,0,B|174:43|174:43|157:35|157:35|85:45,1,127.5,4|0,1:2|0:2,0:2:0:0:
30,53,96535,1,4,0:3:0:0:
220,124,96710,6,0,B|269:115|269:115|292:96|292:96|356:88,1,127.5,4|0,1:1|0:2,0:2:0:0:
414,76,97058,1,8,0:3:0:0:
496,234,97233,2,0,B|443:224|443:224|434:213|434:213|360:198,1,127.5,4|0,1:2|0:2,0:2:0:0:
302,186,97582,1,8,0:2:0:0:
257,357,97756,2,0,B|315:339|315:339|324:339|324:339|391:321,1,127.5,4|0,1:1|0:2,0:2:0:0:
452,304,98105,1,8,0:2:0:0:
205,279,98279,6,0,P|141:311|178:391,1,158.666661824544,4|0,1:2|1:0,0:0:0:0:
379,324,98803,1,8,0:0:0:0:
260,200,98978,1,0,1:0:0:0:
442,33,99152,1,8,0:0:0:0:
410,209,99327,1,0,1:0:0:0:
218,68,99501,1,8,0:0:0:0:
495,135,99676,1,0,1:0:0:0:
280,347,99850,69,2,1:2:0:0:
280,347,100723,5,0,1:0:0:0:
196,217,100897,1,8,0:0:0:0:
189,245,100984,1,8,0:0:0:0:
183,274,101071,1,8,0:0:0:0:
177,303,101159,1,8,0:0:0:0:
172,332,101246,6,0,P|123:324|65:317,1,97.7500018644333,6|2,1:0|0:0,0:0:0:0:
214,112,101595,1,10,0:0:0:0:
378,309,101769,2,0,P|423:255|399:186,1,146.62500279665,2|0,1:0|0:0,0:0:0:0:
380,175,102118,2,0,L|487:160,1,97.7500018644333,2|8,1:2|0:0,0:0:0:0:
378,27,102467,1,2,0:0:0:0:
217,275,102641,5,2,1:0:0:0:
142,48,102816,1,2,0:0:0:0:
380,175,102990,1,10,0:0:0:0:
121,355,103164,2,0,P|110:280|98:204,1,146.62500279665,2|0,1:0|0:0,0:0:0:0:
104,191,103513,2,0,P|56:201|7:206,1,97.7500018644333,2|8,1:2|0:0,0:0:0:0:
241,49,103862,5,2,3:2:0:0:
241,49,103949,1,0,3:0:0:0:
241,49,104037,1,2,1:0:0:0:
316,226,104211,1,2,0:0:0:0:
431,35,104385,1,10,0:0:0:0:
137,6,104560,1,2,1:2:0:0:
321,118,104734,1,2,0:0:0:0:
208,258,104909,1,2,1:2:0:0:
352,371,105083,2,0,P|404:360|451:351,1,97.7500018644333,10|2,0:0|0:0,0:0:0:0:
179,161,105432,54,0,P|129:156|81:152,1,97.7500018644333,2|2,1:0|0:0,0:0:0:0:
75,176,105694,1,0,1:0:0:0:
75,176,105781,1,10,0:0:0:0:
178,336,105955,1,2,1:2:0:0:
295,187,106130,2,0,P|360:189|385:262,1,146.62500279665,2|0,1:2|0:0,0:0:0:0:
377,277,106478,1,10,0:0:0:0:
494,187,106653,1,2,0:0:0:0:
405,370,106827,6,0,B|332:372|332:372|291:341|291:341|213:345,1,195.500003728867,2|8,1:0|0:0,0:0:0:0:
73,173,107351,1,2,1:2:0:0:
100,384,107525,2,0,P|108:335|117:287,1,97.7500018644333,2|0,0:0|1:0,0:0:0:0:
129,277,107787,1,2,0:0:0:0:
145,268,107874,2,0,L|39:251,1,97.7500018644333,10|2,0:0|0:0,0:0:0:0:
239,91,108223,6,0,P|170:98|154:165,1,146.62500279665,2|2,1:0|0:0,0:0:0:0:
162,188,108571,1,8,0:0:0:0:
352,183,108746,2,0,P|346:130|337:14,1,146.62500279665,2|0,1:2|0:0,0:0:0:0:
355,21,109095,1,2,1:2:0:0:
239,91,109269,1,10,0:0:0:0:
442,155,109444,1,2,0:0:0:0:
202,305,109618,54,0,P|129:291|57:284,1,146.62500279665,6|0,1:0|0:0,0:0:0:0:
45,299,109967,1,10,0:0:0:0:
171,154,110141,1,2,1:2:0:0:
294,344,110316,2,0,P|300:291|306:244,1,97.7500018644333,2|0,0:1|1:0,0:0:0:0:
81,190,110664,1,10,0:0:0:0:
428,113,110839,5,8,0:0:0:0:
428,113,110926,1,8,0:0:0:0:
428,113,111013,2,0,B|372:104|372:104|337:122|337:122|282:113,1,146.62500279665,6|0,1:0|1:0,0:0:0:0:
262,115,111362,2,0,B|284:69|284:69|260:28,1,97.7500018644333,10|0,0:1|1:0,0:0:0:0:
29,140,111711,1,10,0:1:0:0:
190,328,111885,1,8,0:0:0:0:
213,309,111973,1,8,0:0:0:0:
224,282,112060,1,10,1:0:0:0:
223,252,112147,1,8,0:0:0:0:
211,225,112234,1,8,0:2:0:0:
189,205,112321,1,8,0:0:0:0:
165,196,112409,6,0,L|68:201,1,97.7500018644333,6|2,1:0|0:0,0:0:0:0:
254,32,112757,1,10,0:0:0:0:
380,185,112932,2,0,P|455:196|491:137,1,146.62500279665,2|0,1:0|0:0,0:0:0:0:
500,123,113281,2,0,P|506:162|516:228,1,97.7500018644333,2|8,1:2|0:0,0:0:0:0:
354,15,113630,53,2,3:2:0:0:
354,15,113717,1,0,3:0:0:0:
354,15,113804,2,0,P|406:8|452:2,1,97.7500018644333,2|2,1:0|0:0,0:0:0:0:
354,186,114153,1,10,0:0:0:0:
185,61,114327,2,0,P|135:89|131:172,1,146.62500279665,2|0,1:0|0:0,0:0:0:0:
127,195,114676,2,0,P|79:185|30:180,1,97.7500018644333,2|8,1:2|0:0,0:0:0:0:
279,349,115025,5,2,3:2:0:0:
279,349,115112,1,0,3:2:0:0:
279,349,115199,1,2,1:0:0:0:
359,202,115374,1,2,0:0:0:0:
120,340,115548,1,10,0:0:0:0:
30,180,115723,1,2,1:2:0:0:
239,107,115897,1,2,0:0:0:0:
161,228,116071,1,2,1:2:0:0:
50,38,116246,1,10,0:0:0:0:
140,239,116420,1,2,0:0:0:0:
296,20,116595,6,0,P|247:15|198:9,1,97.7500018644333,2|2,1:0|0:0,0:0:0:0:
184,29,116856,1,0,1:0:0:0:
184,29,116944,1,10,0:0:0:0:
284,187,117118,1,2,1:2:0:0:
390,1,117292,1,2,1:2:0:0:
512,92,117467,1,2,0:0:0:0:
383,200,117641,1,10,0:0:0:0:
476,261,117816,1,2,0:0:0:0:
280,358,117990,54,0,P|367:375|393:290,1,195.500003728867,2|8,1:0|0:0,0:0:0:0:
277,174,118513,1,2,1:2:0:0:
94,384,118688,2,0,P|86:335|52:185,1,195.500003728867,2|8,0:0|0:0,0:0:0:0:
161,23,119211,1,2,0:0:0:0:
277,174,119385,6,0,P|224:164|179:159,1,97.7500018644333,2|0,1:0|0:0,0:0:0:0:
177,146,119647,1,2,0:0:0:0:
175,136,119734,1,8,0:0:0:0:
319,8,119909,2,0,P|384:30|387:108,1,146.62500279665,2|0,1:2|0:0,0:0:0:0:
381,125,120257,2,0,P|431:117|479:114,1,97.7500018644333,2|8,1:2|0:0,0:0:0:0:
436,285,120606,1,2,0:0:0:0:
180,159,120781,6,0,P|172:231|167:305,1,146.62500279665,6|0,1:0|0:0,0:0:0:0:
152,325,121130,1,10,0:0:0:0:
50,190,121304,1,0,1:0:0:0:
286,212,121478,2,0,P|281:273|280:315,1,97.7500018644333,2|0,0:1|1:0,0:0:0:0:
51,92,121827,1,10,0:0:0:0:
322,47,122002,53,8,0:0:0:0:
322,47,122089,1,8,0:0:0:0:
322,47,122176,2,0,B|375:39|375:39|414:63|414:63|472:52,1,146.62500279665,6|0,1:0|1:0,0:0:0:0:
471,69,122525,2,0,B|434:107|434:107|444:160,1,101.999996887207,10|0,0:1|1:0,0:0:0:0:
339,384,122874,2,0,B|324:338|324:338|272:321,1,101.999996887207,10|0,0:1|1:0,0:0:0:0:
87,114,123223,38,0,B|135:124|135:124|170:92,1,95.6250036478044,10|0,0:1|0:0,0:0:0:0:
179,73,123572,22,0,P|184:150|191:238,1,152.999995330811,4|0,1:1|0:2,0:2:0:0:
94,378,124095,2,0,P|67:309|111:251,1,152.999995330811,4|0,1:2|0:2,0:2:0:0:
302,299,124618,2,0,B|249:299|249:299|213:325|213:325|157:322,1,152.999995330811,4|0,1:1|0:2,0:2:0:0:
293,210,125141,54,0,L|281:39,1,152.999995330811,4|0,1:2|0:2,0:2:0:0:
503,51,125665,2,0,P|439:14|375:54,1,152.999995330811,4|0,1:1|0:2,0:2:0:0:
409,192,126188,2,0,B|444:218|444:218|438:104,1,152.999995330811,4|0,1:2|0:2,0:2:0:0:
282,57,126711,2,0,B|236:47|236:47|191:75|191:75|138:65,1,152.999995330811,4|0,1:1|0:2,0:2:0:0:
24,55,127234,1,4,1:2:0:0:
90,236,127409,1,8,0:2:0:0:
32,72,127583,1,8,0:2:0:0:
97,255,127758,22,0,L|122:140,1,114.749996498108,4|0,1:1|0:2,0:2:0:0:
138,65,128106,1,8,0:2:0:0:
311,183,128281,2,0,L|196:158,1,114.749996498108,4|0,1:2|0:2,0:2:0:0:
121,142,128630,1,8,0:2:0:0:
157,348,128804,2,0,L|182:233,1,114.749996498108,4|0,1:1|0:2,0:2:0:0:
198,158,129153,1,8,0:2:0:0:
371,276,129327,2,0,L|256:251,1,114.749996498108,4|0,1:2|0:2,0:2:0:0:
181,235,129676,1,8,0:2:0:0:
381,360,129851,54,0,P|431:335|448:282,1,114.749996498108,4|0,1:1|0:2,0:2:0:0:
453,205,130199,1,8,0:2:0:0:
283,221,130374,2,0,P|329:251|384:240,1,114.749996498108,4|0,1:2|0:2,0:2:0:0:
453,205,130723,1,8,0:2:0:0:
355,66,130897,2,0,P|351:121|388:163,1,114.749996498108,4|0,1:1|0:2,0:2:0:0:
453,205,131246,1,8,0:2:0:0:
462,83,131420,1,4,1:2:0:0:
252,123,131595,1,8,0:2:0:0:
461,66,131769,1,8,0:2:0:0:
239,104,131944,22,0,P|178:96|74:82,1,152.999995330811,4|0,1:2|0:0,0:0:0:0:
35,278,132467,1,10,1:2:0:0:
0,160,132641,1,2,0:0:0:0:
35,278,132816,1,2,0:0:0:0:
174,176,132990,1,2,1:2:0:0:
122,289,133165,1,2,0:0:0:0:
174,176,133339,1,2,0:0:0:0:
194,344,133513,1,10,1:2:0:0:
287,258,133688,1,2,0:0:0:0:
194,344,133862,1,2,1:2:0:0:
287,258,134037,38,0,P|342:242|392:266,1,114.749996498108,2|0,1:2|0:0,0:0:0:0:
454,315,134385,1,2,0:0:0:0:
506,192,134560,2,0,P|497:135|493:78,1,114.749996498108,10|0,1:2|0:0,0:0:0:0:
486,5,134909,1,2,0:0:0:0:
369,97,135083,2,0,P|316:116|266:92,1,114.749996498108,2|0,1:2|0:0,0:0:0:0:
209,41,135432,1,2,1:2:0:0:
120,204,135606,2,0,B|174:185|174:185|216:200|216:200|285:180,1,152.999995330811,10|0,1:2|0:0,0:0:0:0:
51,64,136130,38,0,P|45:114|28:237,1,152.999995330811,2|0,1:2|0:0,0:0:0:0:
192,353,136653,2,0,P|208:299|178:250,1,114.749996498108,10|0,1:2|0:0,0:0:0:0:
120,204,137002,1,2,1:2:0:0:
286,217,137176,2,0,P|248:175|190:176,1,114.749996498108,2|0,1:2|0:0,0:0:0:0:
120,204,137525,1,2,0:0:0:0:
215,67,137699,2,0,P|160:79|132:129,1,114.749996498108,10|0,1:2|0:0,0:0:0:0:
120,204,138048,1,2,1:2:0:0:
296,111,138223,37,2,1:2:0:0:
296,111,138397,1,2,0:0:0:0:
398,196,138572,1,2,0:0:0:0:
482,26,138746,2,0,L|497:148,1,114.749996498108,10|0,1:2|0:0,0:0:0:0:
512,212,139095,1,2,1:2:0:0:
390,112,139269,1,2,1:2:0:0:
278,215,139444,1,10,1:2:0:0:
147,131,139618,1,10,1:2:0:0:
280,236,139792,1,10,1:2:0:0:
126,291,139967,5,8,0:0:0:0:
121,280,140054,1,8,0:0:0:0:
116,269,140141,1,8,0:0:0:0:
110,259,140228,1,8,0:0:0:0:
104,248,140316,22,0,L|196:246,1,76.4999976654053,6|2,1:0|0:0,0:0:0:0:
260,130,140665,1,10,0:0:0:0:
140,54,140839,2,0,L|147:140,1,76.5000002918244,2|2,1:2|0:0,0:0:0:0:
263,25,141188,1,12,0:0:0:0:
376,136,141362,2,0,L|387:58,1,76.4999976654053,2|2,1:2|0:0,0:0:0:0:
486,124,141711,1,12,0:0:0:0:
391,242,141885,1,2,1:2:0:0:
507,349,142060,2,0,L|496:261,1,76.5000002918244,10|8,0:0|0:0,0:0:0:0:
504,257,142322,1,8,0:0:0:0:
512,243,142409,38,0,P|451:203|390:243,1,152.999995330811,6|10,1:0|1:2,0:0:0:0:
318,323,142932,2,0,P|279:315|229:306,1,76.4999976654053,2|2,0:0|1:2,0:0:0:0:
107,282,143281,1,2,0:0:0:0:
198,152,143455,2,0,L|186:227,1,76.4999976654053,10|0,1:2|0:0,0:0:0:0:
152,366,143804,1,2,1:2:0:0:
3,151,143978,38,0,B|15:205|15:205|2:238|2:238|18:304,1,152.999995330811,14|0,0:1|1:0,0:0:0:0:
198,152,144503,2,0,P|156:159|115:168,1,85,8|0,0:0|1:0,0:0:0:0:
273,337,144851,1,8,0:0:0:0:
392,252,145026,1,8,0:0:0:0:
387,228,145113,1,8,0:0:0:0:
376,207,145200,1,8,0:3:0:0:
359,191,145287,1,8,0:3:0:0:
339,179,145375,1,12,0:3:0:0:
512,61,145549,54,0,P|494:126|487:194,1,136,4|0,1:2|0:0,0:0:0:0:
480,360,146072,1,8,0:0:0:0:
480,360,146595,1,4,0:3:0:0:
229,155,146944,21,4,1:2:0:0:
32,108,156537,85,8,0:3:0:0:
32,108,156624,1,8,0:3:0:0:
32,108,156711,1,12,1:3:0:0:
112,259,156973,1,8,0:3:0:0:
218,110,157235,1,12,0:3:0:0:
120,156,157409,53,4,1:2:0:0:
256,192,157496,12,0,160200,0:0:0:0:
409,172,160549,6,0,P|416:126|425:81,1,76.4999976654053,8|0,0:0|0:0,0:0:0:0:
147,157,160897,21,6,1:0:0:0:
362,266,161072,1,2,0:0:0:0:
142,179,161246,1,10,0:0:0:0:
349,22,161421,2,0,P|334:94|323:166,1,146.62500279665,2|0,1:0|0:0,0:0:0:0:
313,188,161769,2,0,P|364:178|410:172,1,97.7500018644333,2|8,1:2|0:0,0:0:0:0:
232,31,162118,1,2,0:0:0:0:
153,280,162293,5,2,1:0:0:0:
58,63,162467,1,2,0:0:0:0:
132,288,162642,1,10,0:0:0:0:
323,94,162816,2,0,P|251:110|180:128,1,146.62500279665,2|0,1:0|0:0,0:0:0:0:
168,148,163165,2,0,P|154:98|141:44,1,97.7500018644333,2|8,1:2|0:0,0:0:0:0:
431,76,163514,5,2,3:2:0:0:
431,76,163601,1,0,3:0:0:0:
431,76,163688,1,2,1:0:0:0:
320,246,163862,1,2,0:0:0:0:
512,186,164037,1,10,0:0:0:0:
279,66,164211,1,2,1:2:0:0:
252,332,164386,1,2,0:0:0:0:
143,188,164560,1,2,1:2:0:0:
276,50,164735,1,10,0:0:0:0:
126,182,164909,1,2,0:0:0:0:
376,321,165083,54,0,P|425:313|473:310,1,97.7500018644333,2|2,1:0|0:0,0:0:0:0:
500,322,165345,1,0,1:0:0:0:
500,322,165432,1,10,0:0:0:0:
394,167,165607,1,2,1:2:0:0:
252,332,165781,2,0,P|202:324|153:319,1,97.7500018644333,2|2,1:2|0:0,0:0:0:0:
0,124,166130,2,0,P|66:134|68:202,1,146.62500279665,10|0,0:0|0:0,0:0:0:0:
53,215,166479,6,0,P|63:126|151:131,1,195.500003728867,2|8,1:0|0:0,0:0:0:0:
307,248,167002,1,2,1:2:0:0:
439,73,167176,2,0,P|391:75|341:78,1,97.7500018644333,2|2,0:0|1:2,0:0:0:0:
512,188,167525,1,10,0:0:0:0:
413,366,167700,6,0,P|418:317|424:265,1,97.7500018644333,2|0,0:1|1:0,0:0:0:0:
227,63,168049,2,0,P|230:118|233:163,1,97.7500018644333,2|8,0:0|0:0,0:0:0:0:
63,360,168397,2,0,P|45:282|27:203,1,146.62500279665,2|0,1:2|0:0,0:0:0:0:
14,191,168746,1,2,1:2:0:0:
148,100,168921,1,10,0:0:0:0:
12,20,169095,1,2,0:0:0:0:
186,237,169269,54,0,P|255:251|309:204,1,146.62500279665,6|0,1:0|0:0,0:0:0:0:
317,176,169618,1,10,0:0:0:0:
437,335,169793,1,2,1:2:0:0:
512,158,169967,2,0,P|442:170|410:177,1,97.7500018644333,2|0,0:1|1:0,0:0:0:0:
274,343,170316,1,10,0:0:0:0:
165,101,170490,5,8,0:0:0:0:
165,101,170578,1,8,0:0:0:0:
165,101,170665,2,0,B|167:152|167:152|189:172|189:172|190:239,1,146.62500279665,6|0,1:0|1:0,0:0:0:0:
176,259,171014,2,0,B|135:282|135:282|85:261,1,97.7500018644333,10|0,0:1|1:0,0:0:0:0:
134,20,171362,1,10,0:1:0:0:
321,153,171537,1,8,0:0:0:0:
349,157,171624,1,8,0:0:0:0:
378,151,171711,1,10,1:0:0:0:
401,134,171799,1,8,0:0:0:0:
415,108,171886,1,8,0:0:0:0:
414,78,171973,1,8,0:0:0:0:
405,53,172060,6,0,L|501:44,1,97.7500018644333,6|2,1:0|0:0,0:0:0:0:
346,244,172409,1,10,0:0:0:0:
165,101,172583,2,0,P|110:144|122:212,1,146.62500279665,2|0,1:0|0:0,0:0:0:0:
140,235,172932,2,0,L|43:220,1,97.7500018644333,2|8,1:2|0:0,0:0:0:0:
324,162,173281,53,2,3:2:0:0:
324,162,173368,1,0,3:2:0:0:
324,162,173455,2,0,P|329:104|337:63,1,97.7500018644333,2|2,1:0|0:0,0:0:0:0:
184,174,173804,1,10,0:0:0:0:
326,310,173979,2,0,B|412:320|377:264|469:279,1,146.62500279665,2|0,1:0|0:0,0:0:0:0:
484,295,174328,2,0,P|482:247|476:195,1,97.7500018644333,2|8,1:2|0:0,0:0:0:0:
207,320,174676,5,2,3:2:0:0:
207,320,174764,1,0,3:2:0:0:
207,320,174851,1,2,1:0:0:0:
158,131,175025,1,2,0:0:0:0:
362,209,175200,1,10,0:0:0:0:
83,279,175374,1,2,1:2:0:0:
259,101,175549,1,2,0:0:0:0:
53,50,175723,1,2,1:2:0:0:
89,262,175897,1,10,0:0:0:0:
42,63,176072,1,2,0:0:0:0:
260,192,176246,6,0,P|208:184|154:174,1,97.7500018644333,2|2,1:0|0:0,0:0:0:0:
153,160,176508,1,0,1:0:0:0:
153,160,176595,1,10,0:0:0:0:
252,38,176769,1,2,1:2:0:0:
370,222,176944,1,2,1:2:0:0:
380,104,177118,1,2,0:0:0:0:
260,192,177293,1,10,0:0:0:0:
353,317,177467,1,2,0:0:0:0:
160,347,177642,54,0,P|232:338|356:317,1,195.500003728867,2|8,1:0|0:0,0:0:0:0:
488,129,178165,1,2,1:2:0:0:
460,351,178339,2,0,L|439:254,1,97.7500018644333,2|0,0:0|1:0,0:0:0:0:
423,243,178601,1,2,0:0:0:0:
412,234,178688,2,0,L|509:217,1,97.7500018644333,10|2,0:0|0:0,0:0:0:0:
360,9,179037,5,2,1:0:0:0:
320,183,179211,1,2,0:0:0:0:
488,129,179386,1,8,0:0:0:0:
292,68,179560,2,0,B|258:67|231:63|231:63|196:100|196:100|151:114|118:85,1,195.500003728867,2|2,1:2|1:2,0:0:0:0:
43,310,180083,1,10,0:0:0:0:
105,115,180258,1,2,0:0:0:0:
32,325,180432,6,0,P|25:271|3:180,1,146.62500279665,6|0,1:0|0:0,0:0:0:0:
0,159,180781,2,0,L|95:140,1,97.7500018644333,10|0,0:0|1:0,0:0:0:0:
270,294,181130,2,0,P|262:245|250:198,1,97.7500018644333,2|0,0:1|1:0,0:0:0:0:
320,11,181479,1,10,0:0:0:0:
512,179,181653,53,8,0:0:0:0:
512,179,181740,1,8,0:0:0:0:
512,179,181828,2,0,B|454:192|454:192|420:172|420:172|372:178,1,146.62500279665,6|0,1:0|1:0,0:0:0:0:
346,185,182176,2,0,B|362:138|362:138|338:97,1,97.7500018644333,10|0,0:1|1:0,0:0:0:0:
9,128,182525,2,0,B|-8:174|-8:174|16:215,1,97.7500018644333,10|0,0:1|1:0,0:0:0:0:
191,384,182874,2,0,L|181:237,1,146.62500279665,14|0,0:1|0:0,0:0:0:0:
184,214,183223,5,6,1:0:0:0:
354,342,183397,1,2,0:1:0:0:
440,173,183572,1,10,0:1:0:0:
306,250,183746,2,0,B|400:219|381:290|468:265,1,170,2|0,1:0|1:0,0:0:0:0:
434,80,184269,1,10,0:1:0:0:
253,172,184444,69,2,3:1:0:0:
253,172,184531,1,0,3:1:0:0:
253,172,184618,1,2,1:0:0:0:
156,101,184793,1,2,0:1:0:0:
335,92,184967,1,10,0:1:0:0:
288,256,185142,2,0,B|184:241|235:307|129:289,1,170,2|0,1:0|1:0,0:0:0:0:
35,125,185665,2,0,P|101:118|130:172,1,127.5,10|0,0:1|3:0,0:0:0:0:
138,184,186014,6,0,P|147:142|157:101,1,85,2|0,1:0|0:0,0:0:0:0:
297,257,186362,1,10,0:1:0:0:
155,359,186537,2,0,P|75:348|58:270,1,170,2|0,1:0|1:0,0:0:0:0:
271,352,187060,2,0,P|314:345|356:340,1,85,10|0,0:1|0:0,0:0:0:0:
430,154,187409,70,0,L|438:245,1,85,2|0,1:0|0:0,0:0:0:0:
432,255,187671,1,0,1:0:0:0:
428,269,187758,2,0,L|524:256,1,85,10|0,0:1|1:0,0:0:0:0:
343,113,188107,2,0,L|247:128,1,85,2|0,1:0|0:0,0:0:0:0:
204,298,188455,2,0,L|304:283,1,85,10|0,0:1|0:0,0:0:0:0:
20,168,188804,6,0,B|26:112|26:112|0:43|0:43|55:59,1,170,6|8,1:0|0:0,0:0:0:0:
191,127,189328,1,2,1:2:0:0:
84,277,189502,2,0,L|-14:288,1,85,10|0,0:0|1:0,0:0:0:0:
107,95,189851,1,10,0:0:0:0:
219,253,190025,1,2,1:2:0:0:
345,83,190200,70,0,P|337:41|331:0,1,85,10|0,0:0|1:0,0:0:0:0:
512,111,190549,1,10,0:0:0:0:
296,219,190723,1,2,1:2:0:0:
488,379,190897,2,0,P|501:308|514:193,1,170,10|8,0:0|0:0,0:0:0:0:
345,83,191421,1,2,1:2:0:0:
215,350,191595,5,14,0:0:0:0:
75,253,191769,1,2,1:2:0:0:
425,160,191944,1,8,0:0:0:0:
348,328,192118,1,0,1:0:0:0:
143,63,192293,1,8,0:0:0:0:
363,234,192467,1,2,1:2:0:0:
48,172,192642,1,2,1:2:0:0:
277,1,192816,69,8,0:0:0:0:
277,1,192903,1,8,0:0:0:0:
277,1,192990,2,0,P|263:63|255:126,1,127.5,6|0,1:1|1:0,0:0:0:0:
267,148,193339,1,8,0:0:0:0:
127,53,193514,1,2,1:2:0:0:
51,200,193688,2,0,P|106:192|152:190,1,85,10|0,0:0|1:0,0:0:0:0:
190,309,194037,1,10,0:0:0:0:
190,309,194211,1,2,0:0:0:0:
356,228,194391,38,0,L|337:78,1,127.5,4|0,1:2|0:0,0:0:0:0:
324,26,194739,1,8,0:0:0:0:
442,215,194914,2,0,L|423:65,1,127.5,4|0,1:2|0:0,0:0:0:0:
410,13,195263,1,8,0:0:0:0:
263,145,195437,2,0,P|201:144|167:92,1,127.5,4|0,1:2|0:0,0:0:0:0:
137,24,195786,1,8,0:0:0:0:
87,192,195960,2,0,P|57:138|84:83,1,127.5,4|0,1:2|0:0,0:0:0:0:
137,24,196309,1,0,1:0:0:0:
262,239,196484,5,12,0:0:0:0:
131,339,196658,1,0,1:0:0:0:
87,192,196832,1,0,1:0:0:0:
248,346,197007,5,12,0:0:0:0:
41,323,197181,1,8,0:0:0:0:
41,323,197268,1,8,0:0:0:0:
41,323,197356,1,0,1:0:0:0:
185,153,197530,1,8,0:0:0:0:
262,239,197706,54,0,B|316:229|316:229|361:236|361:236|391:220|439:228,1,170,0|0,1:0|1:0,0:0:0:0:
446,242,198142,1,0,1:0:0:0:
446,242,198229,1,12,1:2:0:0:
256,192,198316,12,0,204246,0:0:0:0:
