osu file format v14

[General]
AudioFilename: audio.mp3
AudioLeadIn: 0
PreviewTime: 121078
Countdown: 1
SampleSet: Drum
StackLeniency: 0.7
Mode: 0
LetterboxInBreaks: 0
WidescreenStoryboard: 0

[Editor]
Bookmarks: 12297,23206,34115,45024,54569,76388,79061,89970,100879,111788,121334
DistanceSpacing: 0.5
BeatDivisor: 4
GridSize: 16
TimelineZoom: 2.6

[Metadata]
Title:Last Dance
TitleUnicode:ラストダンス
Artist:Eve
ArtistUnicode:Eve
Creator:Timu
Version:Otogi
Source:
Tags:Rock
BeatmapID:2138143
BeatmapSetID:1021938

[Difficulty]
HPDrainRate:5
CircleSize:3.7
OverallDifficulty:9
ApproachRate:9.5
SliderMultiplier:1.8
SliderTickRate:2

[Events]
//Background and Video events
0,0,"Last_Dance_Eve.png",0,0
//Break Periods
//Storyboard Layer 0 (Background)
//Storyboard Layer 1 (Fail)
//Storyboard Layer 2 (Pass)
//Storyboard Layer 3 (Foreground)
//Storyboard Layer 4 (Overlay)
//Storyboard Sound Samples

[TimingPoints]
1388,340.909090909091,4,3,0,60,1,0
1388,-200,4,3,0,40,0,0
4797,-133.333333333333,4,3,0,40,0,0
11956,-222.222222222221,4,3,0,40,0,0
12297,-80,4,3,0,65,0,0
22524,-133.333333333333,4,3,0,65,0,0
23206,-133.333333333333,4,3,0,60,0,0
28660,-133.333333333333,4,3,0,75,0,0
31388,-133.333333333333,4,3,0,75,0,0
33774,-333.333333333333,4,3,0,75,0,0
34030,-333.333333333333,4,3,0,5,0,0
34115,-80,4,3,0,60,0,0
45024,-133.333333333333,4,3,0,60,0,0
45280,-133.333333333333,4,3,0,5,0,0
45365,-133.333333333333,4,3,0,60,0,0
51160,-100,4,3,0,60,0,0
51842,-100,4,3,0,60,0,0
54569,-100,4,3,0,80,0,1
54910,-80,4,3,0,80,0,1
59001,-57.1428571428571,4,3,0,80,0,1
59342,-80,4,3,0,80,0,1
60024,-100,4,3,0,80,0,0
60365,-66.6666666666667,4,3,0,80,0,0
61047,-100,4,3,0,80,0,0
61388,-66.6666666666667,4,3,0,80,0,0
62751,-133.333333333333,4,3,0,80,0,0
64967,-100,4,3,0,80,0,0
65478,-80,4,3,0,80,0,1
70933,-66.6666666666667,4,3,0,80,0,0
76388,-133.333333333333,4,3,0,60,0,0

[Colours]
Combo1 : 255,128,64
Combo2 : 128,128,128

[HitObjects]
123,123,1388,6,0,L|173:92,1,45
244,137,1728,1,2,0:0:0:0:
244,137,1814,1,0,0:0:0:0:
244,137,1899,1,0,0:0:0:0:
346,83,2069,1,0,0:0:0:0:
252,49,2240,1,0,0:0:0:0:
258,262,2410,1,2,0:0:0:0:
340,219,2581,1,0,0:0:0:0:
423,271,2751,6,0,L|377:301,1,45
372,186,3092,2,0,L|430:168,1,45,2|0,0:0|0:0,0:0:0:0:
512,244,3433,2,0,L|468:248,1,45
387,80,3774,5,2,0:0:0:0:
387,80,3859,1,0,0:0:0:0:
387,80,3944,1,0,0:0:0:0:
215,171,4115,6,0,L|223:218,1,45
199,299,4456,1,2,0:0:0:0:
128,232,4626,1,0,0:0:0:0:
304,238,4797,2,0,L|347:229,1,33.7500012874604
414,216,4967,2,0,L|472:206,2,33.7500012874604,0|0|2,0:0|0:0|0:0,0:0:0:0:
212,41,5308,6,0,L|198:85,2,33.7500012874604
62,60,5649,2,0,L|65:106,2,33.7500012874604,0|0|2,0:0|0:0|0:0,0:0:0:0:
337,27,5990,6,0,L|381:19,1,33.7500012874604
194,172,6160,2,0,L|198:212,1,33.7500012874604
339,66,6331,2,0,L|387:66,1,33.7500012874604
157,205,6501,2,0,L|156:250,1,33.7500012874604,2|0,0:0|0:0,0:0:0:0:
441,171,6842,6,0,P|410:191|356:214,1,67.5000025749208
344,211,7098,1,0,0:0:0:0:
352,126,7183,2,0,L|355:195,1,67.5000025749208,2|0,0:0|0:0,0:0:0:0:
289,323,7524,5,0,0:0:0:0:
230,219,7694,1,0,0:0:0:0:
96,295,7865,2,0,L|179:290,1,67.5000025749208,2|0,0:0|0:0,0:0:0:0:
113,103,8206,6,0,L|125:172,1,67.5000025749208
181,16,8547,2,0,P|230:6|258:21,1,67.5000025749208,2|0,0:0|0:0,0:0:0:0:
286,126,8888,2,0,P|249:125|221:96,1,67.5000025749208
364,9,9228,5,2,0:0:0:0:
364,9,9314,1,0,0:0:0:0:
364,9,9399,1,0,0:0:0:0:
460,93,9569,6,0,L|448:172,1,67.5000025749208
369,95,9910,1,2,0:0:0:0:
464,12,10081,1,0,0:0:0:0:
444,272,10251,6,0,L|445:321,1,33.7500012874604
364,272,10422,2,0,L|365:321,2,33.7500012874604
212,132,10763,6,0,L|227:221,1,67.5000025749208
71,204,11103,1,0,0:0:0:0:
115,62,11274,2,0,L|123:151,1,67.5000025749208,2|0,0:0|0:0,0:0:0:0:
122,279,11615,5,0,0:0:0:0:
71,204,11785,1,0,0:0:0:0:
212,132,11956,2,0,L|223:197,1,60.7499981460572,2|0,0:0|0:0,0:0:0:0:
356,85,12297,6,0,B|414:95|414:95|443:166,1,112.5
436,153,12552,1,2,0:0:0:0:
290,27,12638,2,0,B|258:42|258:42|161:17,1,112.5,8|0,0:0|0:0,0:0:0:0:
251,307,12978,2,0,P|311:295|366:298,1,112.5
77,260,13319,6,0,P|69:220|86:159,1,56.25,10|0,0:0|0:0,0:0:0:0:
88,184,13490,2,0,P|87:143|115:87,1,56.25,2|0,0:0|0:0,0:0:0:0:
69,34,13660,6,0,P|109:26|177:115,1,112.5
168,74,13916,1,2,0:0:0:0:
247,0,14001,2,0,B|306:-6|306:-6|359:20,1,112.5,8|0,0:0|0:0,0:0:0:0:
389,248,14342,2,0,L|269:241,1,112.5
447,53,14683,2,0,L|466:167,1,112.5,8|0,0:0|0:0,0:0:0:0:
459,317,15024,5,2,0:0:0:0:
459,317,15109,1,0,0:0:0:0:
459,317,15194,1,0,0:0:0:0:
308,333,15365,1,8,0:0:0:0:
366,198,15535,1,0,0:0:0:0:
163,384,15706,6,0,P|149:358|140:304,1,56.25,2|0,0:0|0:0,0:0:0:0:
147,307,15876,2,0,P|145:275|152:246,1,56.25,2|0,0:0|0:0,0:0:0:0:
272,106,16047,6,0,B|267:149|267:149|190:129,1,112.5,8|0,0:0|0:0,0:0:0:0:
193,127,16302,1,2,0:0:0:0:
352,70,16388,2,0,L|343:204,1,112.5
344,193,16643,1,2,0:0:0:0:
193,127,16728,2,0,L|317:111,1,112.5,8|0,0:0|0:0,0:0:0:0:
437,96,16984,1,2,0:0:0:0:
438,108,17069,6,0,L|436:196,1,56.25,2|0,0:0|0:0,0:0:0:0:
434,211,17240,2,0,L|435:267,1,56.25,2|0,0:0|0:0,0:0:0:0:
384,336,17410,5,10,0:0:0:0:
355,336,17495,1,2,0:0:0:0:
326,336,17580,1,2,0:0:0:0:
297,336,17665,1,2,0:0:0:0:
214,319,17751,6,0,B|163:301|163:301|90:319,1,112.5
43,253,18092,1,8,0:0:0:0:
43,253,18263,1,0,0:0:0:0:
131,187,18433,6,0,B|187:173|187:173|238:191,1,112.5
46,17,18774,2,0,P|33:45|32:76,1,56.25,10|0,0:0|0:0,0:0:0:0:
46,100,18944,2,0,P|49:140|60:161,1,56.25,2|0,0:0|0:0,0:0:0:0:
150,337,19115,6,0,B|139:313|139:313|32:357,1,112.5
152,234,19370,1,2,0:0:0:0:
168,238,19456,2,0,L|281:249,1,112.5,8|0,0:0|0:0,0:0:0:0:
454,149,19797,2,0,L|335:152,1,112.5
405,19,20138,6,0,P|433:42|441:74,1,56.25,10|0,0:0|0:0,0:0:0:0:
463,95,20308,2,0,P|464:122|445:159,1,56.25,2|0,0:0|0:0,0:0:0:0:
361,309,20478,6,0,B|341:268|341:268|243:305,1,112.5
421,362,20734,1,2,0:0:0:0:
437,355,20819,2,0,B|499:317|499:317|498:269,1,112.5,8|0,0:0|0:0,0:0:0:0:
289,192,21160,5,0,0:0:0:0:
289,192,21331,1,0,0:0:0:0:
163,349,21501,5,10,0:0:0:0:
263,326,21672,5,10,0:0:0:0:
278,335,22013,5,10,0:0:0:0:
294,342,22353,5,10,0:0:0:0:
370,333,22524,2,0,P|333:274|314:268,1,67.5000025749208,2|0,0:0|0:0,0:0:0:0:
253,260,22865,2,0,P|204:271|179:298,1,67.5000025749208,2|0,0:0|0:0,0:0:0:0:
222,366,23206,6,0,B|289:346|289:346|360:367,1,135.000005149842,0|2,0:0|0:0,0:0:0:0:
431,364,23717,1,0,0:0:0:0:
431,364,23888,1,0,0:0:0:0:
383,281,24058,1,0,0:0:0:0:
477,280,24228,1,2,0:0:0:0:
420,192,24399,1,0,0:0:0:0:
168,104,24569,6,0,L|212:94,1,33.7500012874604,2|0,0:0|0:0,0:0:0:0:
257,95,24740,2,0,L|289:103,2,33.7500012874604,2|0|0,0:0|0:0|0:0,0:0:0:0:
344,280,25081,6,0,L|300:290,1,33.7500012874604,2|0,0:0|0:0,0:0:0:0:
255,289,25252,2,0,L|223:281,2,33.7500012874604,2|0|0,0:0|0:0|0:0,0:0:0:0:
134,217,25592,1,2,0:0:0:0:
256,192,25763,1,0,0:0:0:0:
134,310,25933,6,0,L|51:355,1,67.5000025749208
59,261,26274,1,2,0:0:0:0:
215,316,26444,1,0,0:0:0:0:
121,373,26615,1,0,0:0:0:0:
119,175,26785,1,0,0:0:0:0:
306,253,26956,5,2,0:0:0:0:
129,280,27126,1,0,0:0:0:0:
263,84,27297,1,0,0:0:0:0:
246,326,27467,5,2,0:0:0:0:
268,326,27552,1,0,0:0:0:0:
258,328,27638,1,0,0:0:0:0:
418,231,27808,5,2,0:0:0:0:
396,225,27893,1,0,0:0:0:0:
406,225,27979,1,0,0:0:0:0:
186,127,28149,5,2,0:0:0:0:
186,127,28234,1,0,0:0:0:0:
186,127,28319,1,2,0:0:0:0:
245,32,28490,1,0,0:0:0:0:
312,124,28660,6,0,P|382:98|442:133,1,135.000005149842,4|0,0:0|0:0,0:0:0:0:
372,233,29172,2,0,L|372:73,1,135.000005149842,4|0,0:0|0:0,0:0:0:0:
116,266,29683,1,0,0:0:0:0:
177,322,29853,1,0,0:0:0:0:
164,78,30024,6,0,P|103:53|42:84,1,135.000005149842,4|0,0:0|0:0,0:0:0:0:
164,78,30535,6,0,P|224:52|283:81,1,135.000005149842,4|0,0:0|0:0,0:0:0:0:
480,185,31047,1,2,0:0:0:0:
480,185,31217,1,0,0:0:0:0:
425,96,31388,5,0,0:0:0:0:
450,272,31558,1,0,0:0:0:0:
178,69,31728,5,0,0:0:0:0:
208,271,31899,1,2,0:0:0:0:
341,50,32069,2,0,L|265:49,1,67.5000025749208
306,288,32410,2,0,L|400:288,1,67.5000025749208,2|0,0:0|0:0,0:0:0:0:
420,83,32752,5,6,0:0:0:0:
66,66,33774,6,2,P|64:95|67:115,1,40.4999987640381
94,232,34115,6,0,L|196:222,1,56.25,2|0,0:0|0:0,0:0:0:0:
250,175,34285,2,0,L|238:111,1,56.25,2|0,0:0|0:0,0:0:0:0:
230,325,34456,1,8,0:0:0:0:
148,142,34626,1,0,0:0:0:0:
117,325,34797,6,0,L|236:325,1,112.5,2|0,0:0|0:0,0:0:0:0:
37,236,35138,2,0,L|152:226,1,112.5,10|0,0:0|0:0,0:0:0:0:
414,155,35478,6,0,L|401:100,1,56.25
250,175,35649,2,0,L|241:119,1,56.25,2|0,0:0|0:0,0:0:0:0:
207,103,35819,6,0,L|213:47,1,56.25,10|0,0:0|0:0,0:0:0:0:
423,76,35990,2,0,L|429:21,1,56.25
400,274,36160,1,2,0:0:0:0:
387,63,36331,1,0,0:0:0:0:
304,284,36501,1,10,0:0:0:0:
292,62,36672,1,0,0:0:0:0:
500,239,36842,1,2,0:0:0:0:
497,261,36927,1,2,0:0:0:0:
495,281,37012,1,2,0:0:0:0:
365,141,37183,6,0,P|306:139|236:152,1,112.5,8|0,0:0|0:0,0:0:0:0:
290,233,37439,1,2,0:0:0:0:
298,245,37524,6,0,B|321:249|321:249|393:231|393:231|420:231,1,112.5,2|0,0:0|0:0,0:0:0:0:
185,384,37865,2,0,L|178:268,1,112.5,2|0,0:0|0:0,0:0:0:0:
175,78,38206,5,2,0:0:0:0:
414,33,38376,1,2,0:0:0:0:
216,170,38547,5,2,0:0:0:0:
460,120,38717,1,2,0:0:0:0:
231,23,38888,5,2,0:0:0:0:
192,262,39058,1,2,0:0:0:0:
131,30,39229,5,2,0:0:0:0:
94,276,39399,1,2,0:0:0:0:
20,125,39569,6,0,B|-4:189|-4:189|12:261,1,112.5
15,250,39825,1,2,0:0:0:0:
99,126,39910,6,0,P|75:59|23:45,1,112.5,10|0,0:0|0:0,0:0:0:0:
117,286,40251,1,2,0:0:0:0:
117,286,40422,1,0,0:0:0:0:
207,313,40592,1,10,0:0:0:0:
207,313,40763,1,0,0:0:0:0:
201,12,40933,6,0,L|166:121,1,112.5
161,138,41189,1,2,0:0:0:0:
242,106,41274,2,0,P|290:95|354:110,1,112.5,10|0,0:0|0:0,0:0:0:0:
456,80,41615,2,0,L|527:81,2,56.25
416,160,41956,1,8,0:0:0:0:
512,208,42126,1,0,0:0:0:0:
371,53,42297,6,0,B|319:31|319:31|235:59,1,112.5
175,85,42552,1,2,0:0:0:0:
156,95,42638,2,0,B|88:112|88:112|73:60,1,112.5,8|0,0:0|0:0,0:0:0:0:
3,197,42978,6,0,L|19:331,1,112.5
131,283,43319,1,8,0:0:0:0:
241,256,43490,1,0,0:0:0:0:
352,230,43660,5,0,0:0:0:0:
187,138,43831,1,0,0:0:0:0:
264,334,44001,1,8,0:0:0:0:
312,58,44172,1,0,0:0:0:0:
409,302,44342,6,0,L|410:189,1,112.5
332,132,44683,1,0,0:0:0:0:
504,140,44853,5,0,0:0:0:0:
512,159,44939,1,0,0:0:0:0:
498,229,45024,6,0,P|472:289|413:298,1,101.250003862381,4|0,0:0|0:0,0:0:0:0:
361,288,45365,2,0,B|330:304|330:304|268:298,1,67.5000025749208
404,374,45706,1,0,0:0:0:0:
404,374,45876,1,0,0:0:0:0:
220,363,46047,6,0,P|200:331|204:273,1,67.5000025749208
80,368,46388,2,0,P|100:336|77:234,1,135.000005149842,4|0,0:0|0:0,0:0:0:0:
126,159,46899,5,0,0:0:0:0:
126,159,47069,1,0,0:0:0:0:
46,103,47240,1,0,0:0:0:0:
46,103,47410,1,0,0:0:0:0:
33,203,47581,1,0,0:0:0:0:
121,39,47751,6,0,B|188:57|188:57|243:38,1,101.250003862381,4|0,0:0|0:0,0:0:0:0:
255,30,48092,2,0,P|311:28|334:55,1,67.5000025749208
252,154,48433,2,0,P|283:165|315:156,1,67.5000025749208
480,0,48774,2,0,L|458:94,1,67.5000025749208
512,146,49115,6,0,P|524:223|466:279,1,135.000005149842,4|0,0:0|0:0,0:0:0:0:
277,254,49626,2,0,L|414:260,1,135.000005149842,4|0,0:0|0:0,0:0:0:0:
270,123,50138,2,0,B|290:220|290:220|271:265,1,135.000005149842,4|0,0:0|0:0,0:0:0:0:
131,220,50649,6,0,L|170:83,1,135.000005149842,4|0,0:0|0:0,0:0:0:0:
215,320,51160,2,0,P|178:309|109:319,1,90,4|0,0:0|0:0,0:0:0:0:
82,331,51501,2,0,L|-8:371,1,90,4|0,0:0|0:0,0:0:0:0:
40,104,51842,5,2,0:0:0:0:
40,104,51927,1,2,0:0:0:0:
40,104,52013,1,2,0:0:0:0:
269,233,52183,5,8,0:0:0:0:
145,28,52353,5,2,0:0:0:0:
145,28,52439,1,2,0:0:0:0:
145,28,52524,1,2,0:0:0:0:
178,293,52694,5,8,0:0:0:0:
290,51,52865,5,2,0:0:0:0:
290,51,52950,1,2,0:0:0:0:
290,51,53035,1,2,0:0:0:0:
286,338,53206,5,8,0:0:0:0:
377,45,53376,1,8,0:0:0:0:
446,331,53547,5,10,0:0:0:0:
436,287,53632,1,2,0:0:0:0:
426,243,53717,1,2,0:0:0:0:
416,199,53802,1,2,0:0:0:0:
406,155,53887,1,10,0:0:0:0:
4,349,54058,6,0,L|66:372,1,45,10|0,0:0|0:0,0:0:0:0:
87,271,54569,5,2,0:0:0:0:
43,258,54654,1,0,0:0:0:0:
0,246,54739,1,0,0:0:0:0:
457,155,54910,6,0,L|535:171,1,56.25
333,40,55081,2,0,P|296:31|243:93,1,112.5
467,381,55422,6,0,B|469:361|469:361|498:300|498:300|496:253,1,112.5,0|2,0:0|0:0,0:0:0:0:
495,268,55677,1,0,0:0:0:0:
493,287,55763,2,0,P|463:314|392:300,1,112.5,0|2,0:0|0:0,0:0:0:0:
158,120,56103,6,2,L|171:94,2,28.125,2|0|2,0:0|0:0|0:0,0:0:0:0:
200,196,56274,1,0,0:0:0:0:
12,60,56444,5,0,0:0:0:0:
253,30,56615,2,0,L|266:143,1,112.5,2|0,0:0|0:0,0:0:0:0:
401,10,56956,2,0,L|416:130,1,112.5,2|0,0:0|0:0,0:0:0:0:
307,343,57297,5,2,0:0:0:0:
307,343,57467,1,0,0:0:0:0:
511,136,57638,6,0,P|518:209|510:256,1,112.5,2|0,0:0|0:0,0:0:0:0:
253,30,57978,5,2,0:0:0:0:
282,229,58149,1,0,0:0:0:0:
495,46,58319,6,0,P|513:135|502:210,1,112.5,2|0,0:0|0:0,0:0:0:0:
57,309,58660,6,0,P|116:248|201:248,1,168.75,2|0,0:0|0:0,0:0:0:0:
195,245,59001,6,0,P|135:200|117:93,1,157.500001502037,2|0,0:0|0:0,0:0:0:0:
122,363,59342,6,2,L|147:350,2,28.125
246,353,59513,1,0,0:0:0:0:
18,134,59683,5,2,0:0:0:0:
46,384,59853,1,2,0:0:0:0:
73,36,60024,6,0,L|224:73,1,135,2|0,0:0|0:0,0:0:0:0:
204,68,60365,6,0,L|73:36,1,135,2|0,0:0|0:0,0:0:0:0:
291,15,60706,1,2,0:0:0:0:
233,285,60876,1,0,0:0:0:0:
437,57,61047,6,0,L|456:191,1,135.000005149842,2|0,0:0|0:0,0:0:0:0:
455,190,61388,6,0,L|431:49,1,135.000005149842,2|0,0:0|0:0,0:0:0:0:
402,282,61728,1,2,0:0:0:0:
354,13,61899,1,0,0:0:0:0:
243,243,62069,5,2,0:0:0:0:
455,190,62240,1,0,0:0:0:0:
204,68,62410,5,2,0:0:0:0:
243,243,62581,1,0,0:0:0:0:
291,7,62751,6,0,L|289:135,1,101.250003862381,2|0,0:0|0:0,0:0:0:0:
341,222,63092,2,0,P|361:217|383:225,1,33.7500012874604,2|0,0:0|0:0,0:0:0:0:
396,135,63263,5,4,0:0:0:0:
447,17,63603,5,4,0:0:0:0:
421,140,63944,5,4,0:0:0:0:
478,20,64285,5,4,0:0:0:0:
510,242,64456,1,6,0:0:0:0:
367,269,64626,5,6,0:0:0:0:
350,20,64797,1,6,0:0:0:0:
505,355,64967,5,10,0:0:0:0:
460,354,65052,1,2,0:0:0:0:
415,353,65137,1,2,0:0:0:0:
370,352,65222,1,2,0:0:0:0:
325,351,65307,1,2,0:0:0:0:
43,233,65478,5,0,0:0:0:0:
34,288,65563,1,0,0:0:0:0:
25,344,65648,1,0,0:0:0:0:
181,93,65819,6,0,P|142:136|146:143,1,56.25
206,349,65990,2,0,B|201:334|201:334|240:264|240:264|205:235,1,112.5
333,12,66331,6,0,P|298:62|306:110,1,112.5
