osu file format v14

[General]
AudioFilename: audio.mp3
AudioLeadIn: 0
PreviewTime: 53442
Countdown: 0
SampleSet: Normal
StackLeniency: 0.7
Mode: 1
LetterboxInBreaks: 0
WidescreenStoryboard: 0

[Editor]
DistanceSpacing: 0.3
BeatDivisor: 4
GridSize: 32
TimelineZoom: 3.299999

[Metadata]
Title:Last Dance
TitleUnicode:ラストダンス
Artist:Eve
ArtistUnicode:Eve
Creator:Skull Kid
Version:Kantan
Source:
Tags:otogi Numa Rock Japanese eae HiroK Hivie Capu
BeatmapID:2749707
BeatmapSetID:1079752

[Difficulty]
HPDrainRate:8
CircleSize:4
OverallDifficulty:3
ApproachRate:9
SliderMultiplier:1.4
SliderTickRate:1

[Events]
//Background and Video events
0,0,"BG.jpg",0,110
//Break Periods
2,169750,179860
//Storyboard Layer 0 (Background)
//Storyboard Layer 1 (Fail)
//Storyboard Layer 2 (Pass)
//Storyboard Layer 3 (Foreground)
//Storyboard Layer 4 (Overlay)
//Storyboard Sound Samples

[TimingPoints]
460,340.909090909091,4,1,0,30,1,0
460,-100,4,1,0,30,0,0
11198,-100,4,1,0,70,0,0
22107,-100,4,1,0,60,0,0
33016,-100,4,1,0,70,0,0
53556,-100,4,1,0,80,0,0
53641,-100,4,1,0,80,0,1
75460,-100,4,1,0,80,0,0
78016,-100,4,1,0,70,0,0
88925,-100,4,1,0,60,0,0
110871,-100,4,1,0,70,0,0
120374,-100,4,1,0,80,0,0
120460,-100,4,1,0,80,0,1
142278,-100,4,1,0,80,0,0
142448,-100,4,1,0,70,0,0
146369,-100,4,1,0,50,0,0
150119,-100,4,1,0,70,0,0
151823,-100,4,1,0,50,0,0
155744,-100,4,1,0,70,0,0
169891,-100,4,1,0,60,0,0
191326,-100,4,1,0,80,0,0
191369,-100,4,1,0,80,0,1
213187,-100,4,1,0,80,0,0
214550,340.909090909091,6,1,0,80,1,0
216425,-100,6,1,0,70,0,0
216595,340.909090909091,4,1,0,70,1,0
227333,-100,4,1,0,60,0,0
237049,-100,4,1,0,40,0,0

[HitObjects]
256,192,460,5,8,0:0:0:0:
256,192,1653,1,8,0:0:0:0:
256,192,3187,1,8,0:0:0:0:
256,192,4380,1,0,0:0:0:0:
256,192,5232,1,8,0:0:0:0:
256,192,5914,1,8,0:0:0:0:
256,192,7107,1,8,0:0:0:0:
256,192,8641,1,8,0:0:0:0:
256,192,9835,1,0,0:0:0:0:
256,192,11369,1,4,0:0:0:0:
256,192,11710,1,0,0:0:0:0:
256,192,12050,1,8,0:0:0:0:
256,192,12562,1,8,0:0:0:0:
256,192,13244,1,8,0:0:0:0:
256,192,13755,1,0,0:0:0:0:
256,192,14096,1,8,0:0:0:0:
256,192,14778,1,8,0:0:0:0:
256,192,15289,1,0,0:0:0:0:
256,192,16482,1,8,0:0:0:0:
256,192,16823,1,4,0:0:0:0:
256,192,17164,1,0,0:0:0:0:
256,192,17505,1,8,0:0:0:0:
256,192,18016,1,8,0:0:0:0:
256,192,18698,1,8,0:0:0:0:
256,192,19210,1,0,0:0:0:0:
256,192,19550,1,8,0:0:0:0:
256,192,20232,1,8,0:0:0:0:
256,192,20744,1,4,0:0:0:0:
256,192,22278,1,4,0:0:0:0:
256,192,25005,1,0,0:0:0:0:
256,192,27732,1,0,0:0:0:0:
256,192,28244,1,0,0:0:0:0:
256,192,29096,1,0,0:0:0:0:
256,192,29607,1,0,0:0:0:0:
256,192,29948,1,8,0:0:0:0:
256,192,30460,1,0,0:0:0:0:
256,192,30971,1,0,0:0:0:0:
256,192,31823,1,0,0:0:0:0:
256,192,32846,1,12,0:0:0:0:
256,192,33187,1,4,0:0:0:0:
256,192,33869,1,8,0:0:0:0:
256,192,34550,1,0,0:0:0:0:
256,192,34891,1,8,0:0:0:0:
256,192,35232,1,8,0:0:0:0:
256,192,35914,1,0,0:0:0:0:
256,192,36255,1,8,0:0:0:0:
256,192,36596,1,0,0:0:0:0:
256,192,37278,1,8,0:0:0:0:
256,192,38300,1,8,0:0:0:0:
256,192,38641,1,0,0:0:0:0:
256,192,39323,1,8,0:0:0:0:
256,192,40005,1,0,0:0:0:0:
256,192,40346,1,8,0:0:0:0:
256,192,40687,1,8,0:0:0:0:
256,192,41369,1,0,0:0:0:0:
256,192,42050,1,8,0:0:0:0:
256,192,42391,1,8,0:0:0:0:
256,192,42732,1,0,0:0:0:0:
256,192,44096,1,4,0:0:0:0:
256,192,44607,1,0,0:0:0:0:
256,192,45460,1,8,0:0:0:0:
256,192,45971,1,0,0:0:0:0:
256,192,46823,1,8,0:0:0:0:
256,192,47335,1,8,0:0:0:0:
256,192,47846,1,8,0:0:0:0:
256,192,48187,1,4,0:0:0:0:
256,192,49210,1,4,0:0:0:0:
256,192,50232,1,4,0:0:0:0:
256,192,50914,1,12,0:0:0:0:
256,192,51937,1,12,0:0:0:0:
256,192,52960,1,12,0:0:0:0:
256,192,53641,1,4,0:0:0:0:
256,192,54153,1,8,0:0:0:0:
256,192,54664,1,0,0:0:0:0:
256,192,55005,1,0,0:0:0:0:
256,192,55516,1,8,0:0:0:0:
256,192,56369,1,8,0:0:0:0:
256,192,56880,1,8,0:0:0:0:
256,192,57391,1,0,0:0:0:0:
256,192,57732,1,8,0:0:0:0:
256,192,58414,1,0,0:0:0:0:
256,192,58755,1,8,0:0:0:0:
256,192,59096,1,4,0:0:0:0:
256,192,60119,1,8,0:0:0:0:
256,192,60460,1,0,0:0:0:0:
256,192,61141,1,8,0:0:0:0:
256,192,61482,1,8,0:0:0:0:
256,192,61823,1,0,0:0:0:0:
256,192,62335,1,12,0:0:0:0:
256,192,63016,1,12,0:0:0:0:
256,192,64210,1,8,0:0:0:0:
256,192,64550,1,4,0:0:0:0:
256,192,65062,1,8,0:0:0:0:
256,192,65573,1,0,0:0:0:0:
256,192,65914,1,0,0:0:0:0:
256,192,66425,1,8,0:0:0:0:
256,192,67278,1,0,0:0:0:0:
256,192,67789,1,8,0:0:0:0:
256,192,68130,1,8,0:0:0:0:
256,192,68641,1,0,0:0:0:0:
256,192,69323,1,8,0:0:0:0:
256,192,69664,1,8,0:0:0:0:
256,192,70005,1,4,0:0:0:0:
256,192,71028,1,8,0:0:0:0:
256,192,71369,1,0,0:0:0:0:
256,192,72050,1,8,0:0:0:0:
256,192,72391,1,8,0:0:0:0:
256,192,72732,1,0,0:0:0:0:
256,192,73414,1,0,0:0:0:0:
256,192,74096,1,12,0:0:0:0:
256,192,75119,1,8,0:0:0:0:
256,192,75460,1,4,0:0:0:0:
256,192,76823,1,4,0:0:0:0:
256,192,77846,1,8,0:0:0:0:
256,192,78187,1,4,0:0:0:0:
256,192,78528,1,0,0:0:0:0:
256,192,78869,1,8,0:0:0:0:
256,192,79380,1,8,0:0:0:0:
256,192,80062,1,8,0:0:0:0:
256,192,80573,1,0,0:0:0:0:
256,192,80914,1,8,0:0:0:0:
256,192,81596,1,8,0:0:0:0:
256,192,82107,1,0,0:0:0:0:
256,192,83300,1,8,0:0:0:0:
256,192,83641,1,4,0:0:0:0:
256,192,83982,1,0,0:0:0:0:
256,192,84323,1,8,0:0:0:0:
256,192,84835,1,8,0:0:0:0:
256,192,85516,1,8,0:0:0:0:
256,192,86028,1,0,0:0:0:0:
256,192,86369,1,8,0:0:0:0:
256,192,87050,1,8,0:0:0:0:
256,192,87562,1,0,0:0:0:0:
256,192,89096,1,4,0:0:0:0:
256,192,89607,1,4,0:0:0:0:
256,192,90800,1,12,0:0:0:0:
256,192,91823,1,4,0:0:0:0:
256,192,92335,1,4,0:0:0:0:
256,192,93698,1,12,0:0:0:0:
256,192,94550,1,4,0:0:0:0:
256,192,95062,1,4,0:0:0:0:
256,192,96255,1,12,0:0:0:0:
256,192,97278,1,4,0:0:0:0:
256,192,97789,1,4,0:0:0:0:
256,192,98641,1,4,0:0:0:0:
256,192,98982,1,0,0:0:0:0:
256,192,99323,1,8,0:0:0:0:
256,192,99664,1,8,0:0:0:0:
256,192,100005,1,4,0:0:0:0:
256,192,100687,1,8,0:0:0:0:
256,192,101369,1,0,0:0:0:0:
256,192,102050,1,8,0:0:0:0:
256,192,102391,1,8,0:0:0:0:
256,192,102732,1,4,0:0:0:0:
256,192,103414,1,8,0:0:0:0:
256,192,104096,1,0,0:0:0:0:
256,192,104778,1,8,0:0:0:0:
256,192,105119,1,0,0:0:0:0:
256,192,105460,1,4,0:0:0:0:
256,192,106141,1,8,0:0:0:0:
256,192,106823,1,0,0:0:0:0:
256,192,107505,1,8,0:0:0:0:
256,192,107846,1,8,0:0:0:0:
256,192,108187,1,4,0:0:0:0:
256,192,108869,1,8,0:0:0:0:
256,192,109550,1,0,0:0:0:0:
256,192,109891,1,0,0:0:0:0:
256,192,110232,1,8,0:0:0:0:
256,192,110573,1,8,0:0:0:0:
256,192,110914,1,4,0:0:0:0:
256,192,111425,1,0,0:0:0:0:
256,192,112278,1,8,0:0:0:0:
256,192,112789,1,0,0:0:0:0:
256,192,113641,1,8,0:0:0:0:
256,192,114153,1,8,0:0:0:0:
256,192,114664,1,8,0:0:0:0:
256,192,115005,1,4,0:0:0:0:
256,192,116028,1,4,0:0:0:0:
256,192,117050,1,4,0:0:0:0:
256,192,117732,1,12,0:0:0:0:
256,192,118755,1,12,0:0:0:0:
256,192,119778,1,12,0:0:0:0:
256,192,120460,1,4,0:0:0:0:
256,192,120971,1,8,0:0:0:0:
256,192,121482,1,0,0:0:0:0:
256,192,121823,1,0,0:0:0:0:
256,192,122335,1,8,0:0:0:0:
256,192,123187,1,8,0:0:0:0:
256,192,123869,1,0,0:0:0:0:
256,192,124210,1,8,0:0:0:0:
256,192,124550,1,8,0:0:0:0:
256,192,125232,1,0,0:0:0:0:
256,192,125573,1,8,0:0:0:0:
256,192,125914,1,4,0:0:0:0:
256,192,126937,1,8,0:0:0:0:
256,192,127278,1,0,0:0:0:0:
256,192,127960,1,8,0:0:0:0:
256,192,128300,1,8,0:0:0:0:
256,192,128641,1,0,0:0:0:0:
256,192,129153,1,0,0:0:0:0:
256,192,129835,1,12,0:0:0:0:
256,192,131028,1,8,0:0:0:0:
256,192,131369,1,4,0:0:0:0:
256,192,131880,1,8,0:0:0:0:
256,192,132391,1,0,0:0:0:0:
256,192,132732,1,0,0:0:0:0:
256,192,133244,1,8,0:0:0:0:
256,192,134096,1,0,0:0:0:0:
256,192,134607,1,8,0:0:0:0:
256,192,134948,1,8,0:0:0:0:
256,192,135460,1,0,0:0:0:0:
256,192,136141,1,8,0:0:0:0:
256,192,136482,1,8,0:0:0:0:
256,192,136823,1,4,0:0:0:0:
256,192,137846,1,8,0:0:0:0:
256,192,138187,1,0,0:0:0:0:
256,192,138869,1,8,0:0:0:0:
256,192,139210,1,8,0:0:0:0:
256,192,139550,1,0,0:0:0:0:
256,192,140232,1,0,0:0:0:0:
256,192,140914,1,12,0:0:0:0:
256,192,141937,1,8,0:0:0:0:
256,192,142278,1,4,0:0:0:0:
256,192,142960,1,8,0:0:0:0:
256,192,143641,1,4,0:0:0:0:
256,192,144323,1,8,0:0:0:0:
256,192,145005,1,4,0:0:0:0:
256,192,145516,1,4,0:0:0:0:
256,192,146028,1,12,0:0:0:0:
256,192,147050,1,8,0:0:0:0:
256,192,148414,1,8,0:0:0:0:
256,192,149778,1,8,0:0:0:0:
256,192,150460,1,4,0:0:0:0:
256,192,150971,1,4,0:0:0:0:
256,192,151482,1,12,0:0:0:0:
256,192,152505,1,8,0:0:0:0:
256,192,153869,1,8,0:0:0:0:
256,192,154550,1,8,0:0:0:0:
256,192,154891,1,8,0:0:0:0:
256,192,155573,1,8,0:0:0:0:
256,192,155914,1,4,0:0:0:0:
256,192,156425,1,0,0:0:0:0:
256,192,156937,1,8,0:0:0:0:
256,192,157619,1,0,0:0:0:0:
256,192,157960,1,8,0:0:0:0:
256,192,158641,1,0,0:0:0:0:
256,192,159323,1,8,0:0:0:0:
256,192,160005,1,0,0:0:0:0:
256,192,160687,1,8,0:0:0:0:
256,192,161369,1,4,0:0:0:0:
256,192,161880,1,0,0:0:0:0:
256,192,162391,1,8,0:0:0:0:
256,192,163414,1,8,0:0:0:0:
256,192,164096,1,4,0:0:0:0:
256,192,164607,1,8,0:0:0:0:
256,192,165119,1,12,0:0:0:0:
256,192,166141,1,8,0:0:0:0:
256,192,166823,1,0,0:0:0:0:
256,192,167505,1,8,0:0:0:0:
256,192,168187,1,0,0:0:0:0:
256,192,168528,1,8,0:0:0:0:
256,192,168869,1,8,0:0:0:0:
256,192,169210,1,8,0:0:0:0:
256,192,169550,1,0,0:0:0:0:
256,192,180460,5,4,0:0:0:0:
256,192,181823,1,4,0:0:0:0:
256,192,183187,1,4,0:0:0:0:
256,192,184550,1,4,0:0:0:0:
256,192,185914,1,4,0:0:0:0:
256,192,186596,1,0,0:0:0:0:
256,192,187278,1,0,0:0:0:0:
256,192,187960,1,0,0:0:0:0:
256,192,188641,1,0,0:0:0:0:
256,192,188982,1,0,0:0:0:0:
256,192,189323,1,0,0:0:0:0:
256,192,189664,1,0,0:0:0:0:
256,192,191369,1,4,0:0:0:0:
256,192,191880,1,8,0:0:0:0:
256,192,192391,1,0,0:0:0:0:
256,192,192732,1,0,0:0:0:0:
256,192,193244,1,8,0:0:0:0:
256,192,194096,1,8,0:0:0:0:
256,192,194607,1,8,0:0:0:0:
256,192,195119,1,0,0:0:0:0:
256,192,195460,1,8,0:0:0:0:
256,192,196141,1,0,0:0:0:0:
256,192,196482,1,8,0:0:0:0:
256,192,196823,1,4,0:0:0:0:
256,192,197846,1,8,0:0:0:0:
256,192,198187,1,0,0:0:0:0:
256,192,198869,1,8,0:0:0:0:
256,192,199210,1,8,0:0:0:0:
256,192,199550,1,0,0:0:0:0:
256,192,200062,1,12,0:0:0:0:
256,192,200744,1,12,0:0:0:0:
256,192,201937,1,8,0:0:0:0:
256,192,202278,1,4,0:0:0:0:
256,192,202789,1,8,0:0:0:0:
256,192,203300,1,0,0:0:0:0:
256,192,203641,1,0,0:0:0:0:
256,192,204153,1,8,0:0:0:0:
256,192,205005,1,0,0:0:0:0:
256,192,205516,1,8,0:0:0:0:
256,192,205857,1,8,0:0:0:0:
256,192,206369,1,0,0:0:0:0:
256,192,207050,1,8,0:0:0:0:
256,192,207391,1,8,0:0:0:0:
256,192,207732,1,4,0:0:0:0:
256,192,208755,1,8,0:0:0:0:
256,192,209096,1,0,0:0:0:0:
256,192,209778,1,8,0:0:0:0:
256,192,210119,1,8,0:0:0:0:
256,192,210460,1,0,0:0:0:0:
256,192,211141,1,0,0:0:0:0:
256,192,211823,1,12,0:0:0:0:
256,192,212846,1,8,0:0:0:0:
256,192,213187,1,4,0:0:0:0:
256,192,214550,1,4,0:0:0:0:
256,192,215572,1,8,0:0:0:0:
256,192,215913,1,0,0:0:0:0:
256,192,216595,1,4,0:0:0:0:
256,192,216935,1,0,0:0:0:0:
256,192,217276,1,8,0:0:0:0:
256,192,217788,1,8,0:0:0:0:
256,192,218470,1,8,0:0:0:0:
256,192,218981,1,0,0:0:0:0:
256,192,219322,1,8,0:0:0:0:
256,192,220004,1,8,0:0:0:0:
256,192,220515,1,0,0:0:0:0:
256,192,221708,1,8,0:0:0:0:
256,192,222049,1,4,0:0:0:0:
256,192,222390,1,0,0:0:0:0:
256,192,222731,1,8,0:0:0:0:
256,192,223242,1,8,0:0:0:0:
256,192,223924,1,8,0:0:0:0:
256,192,224435,1,0,0:0:0:0:
256,192,224776,1,8,0:0:0:0:
256,192,225458,1,8,0:0:0:0:
256,192,225970,1,4,0:0:0:0:
256,192,227504,1,4,0:0:0:0:
256,192,228015,1,0,0:0:0:0:
256,192,228356,1,8,0:0:0:0:
256,192,228867,1,0,0:0:0:0:
256,192,229379,1,0,0:0:0:0:
256,192,230231,1,0,0:0:0:0:
256,192,230742,1,0,0:0:0:0:
256,192,231083,1,8,0:0:0:0:
256,192,231595,1,0,0:0:0:0:
256,192,232958,1,0,0:0:0:0:
256,192,233470,1,0,0:0:0:0:
256,192,234322,1,0,0:0:0:0:
256,192,234833,1,0,0:0:0:0:
256,192,235685,1,0,0:0:0:0:
256,192,236197,1,0,0:0:0:0:
256,192,236879,1,0,0:0:0:0:
256,192,237731,1,8,0:0:0:0:
256,192,238072,1,0,0:0:0:0:
