osu file format v14

[General]
AudioFilename: audio.mp3
AudioLeadIn: 0
PreviewTime: 53442
Countdown: 0
SampleSet: Normal
StackLeniency: 0.7
Mode: 1
LetterboxInBreaks: 0
WidescreenStoryboard: 0

[Editor]
Bookmarks: 131596
DistanceSpacing: 0.3
BeatDivisor: 4
GridSize: 32
TimelineZoom: 2.4

[Metadata]
Title:Last Dance
TitleUnicode:ラストダンス
Artist:Eve
ArtistUnicode:Eve
Creator:Skull Kid
Version:Capu's Muzukashii
Source:
Tags:otogi Numa Rock Japanese eae HiroK Hivie Capu
BeatmapID:2828812
BeatmapSetID:1079752

[Difficulty]
HPDrainRate:6
CircleSize:2
OverallDifficulty:5
ApproachRate:10
SliderMultiplier:1.4
SliderTickRate:1

[Events]
//Background and Video events
0,0,"BG.jpg",0,110
//Break Periods
2,169580,180010
//Storyboard Layer 0 (Background)
//Storyboard Layer 1 (Fail)
//Storyboard Layer 2 (Pass)
//Storyboard Layer 3 (Foreground)
//Storyboard Layer 4 (Overlay)
//Storyboard Sound Samples

[TimingPoints]
460,340.909090909091,4,1,0,30,1,0
460,-125,4,1,0,30,0,0
11283,-100,4,1,0,70,0,0
22192,-111.111111111111,4,1,0,70,0,0
33102,-100,4,1,0,70,0,0
53641,-90.9090909090909,4,1,0,85,0,1
63869,-90.9090909090909,4,1,0,85,0,0
64550,-90.9090909090909,4,1,0,85,0,1
75460,-90.9090909090909,4,1,0,85,0,0
76738,-100,4,1,0,70,0,0
77761,-111.111111111111,4,1,0,70,0,0
78102,-100,4,1,0,70,0,0
88991,-117.647058823529,4,1,0,70,0,0
98962,-117.647058823529,4,1,0,70,0,0
99133,-114.308184008742,4,1,0,70,0,0
99303,-111.153720037125,4,1,0,70,0,0
99474,-108.168565565835,4,1,0,70,0,0
99644,-105.339667758688,4,1,0,70,0,0
99815,-102.654859989036,4,1,0,70,0,0
99985,-100.103507026265,4,1,0,70,0,0
100431,-111.23891226142,4,1,0,70,0,0
105033,-107.181136120043,4,1,0,70,0,0
105204,-103.51966873706,4,1,0,70,0,0
105374,-100,4,1,0,70,0,0
105886,-111.111111111111,4,1,0,70,0,0
109530,-111.111111111111,4,1,0,70,0,0
109701,-109.596847994652,4,1,0,70,0,0
110042,-106.688744124117,4,1,0,70,0,0
110212,-105.29186378181,4,1,0,70,0,0
110383,-103.931089530398,4,1,0,70,0,0
110553,-102.605039343902,4,1,0,70,0,0
110894,-100.051826846306,4,1,0,70,0,0
120460,-90.951920995523,4,1,0,85,0,1
130687,-90.951920995523,4,1,0,85,0,0
131369,-90.951920995523,4,1,0,85,0,1
142278,-90.951920995523,4,1,0,85,0,0
142704,-100,4,1,0,70,0,0
143556,-102.040816326531,4,1,0,70,0,0
143897,-104.166666666667,4,1,0,70,0,0
144238,-106.382978723404,4,1,0,70,0,0
144408,-108.695652173913,4,1,0,70,0,0
144579,-111.111111111111,4,1,0,70,0,0
144920,-125,4,1,0,70,0,0
155829,-100,4,1,0,70,0,0
169465,-105.263157894737,4,1,0,40,0,0
170829,-111.111111111111,4,1,0,40,0,0
172192,-117.647058823529,4,1,0,40,0,0
173556,-125,4,1,0,40,0,0
180374,-125,4,1,0,60,0,0
185894,-125,4,1,0,60,0,0
186235,-122.345111089361,4,1,0,61,0,0
186576,-119.800651715545,4,1,0,61,0,0
186917,-117.359872312459,4,1,0,62,0,0
187258,-115.016694673232,4,1,0,62,0,0
187428,-113.879781669683,4,1,0,63,0,0
187599,-112.765124904291,4,1,0,64,0,0
187940,-110.600016147602,4,1,0,64,0,0
188110,-109.548343136084,4,1,0,65,0,0
188280,-108.516482025873,4,1,0,65,0,0
188451,-107.503878202406,4,1,0,66,0,0
188621,-106.509997560921,4,1,0,66,0,0
188962,-104.576366368659,4,1,0,67,0,0
189133,-103.635641955439,4,1,0,68,0,0
189303,-102.711691363693,4,1,0,68,0,0
189474,-101.804173563899,4,1,0,69,0,0
189644,-100.912450376303,4,1,0,69,0,0
189815,-100.036213109146,4,1,0,70,0,0
191369,-90.939018113234,4,1,0,85,0,1
201596,-90.939018113234,4,1,0,85,0,0
202278,-90.939018113234,4,1,0,85,0,1
213187,-90.939018113234,4,1,0,85,0,0
214464,-100,4,1,0,70,0,0
214550,340.909090909091,6,1,0,70,1,0
216595,340.909090909091,4,1,0,80,1,0
227418,-111.111111111111,4,1,0,70,0,0

[HitObjects]
256,192,460,5,8,0:0:0:0:
256,192,800,1,0,0:0:0:0:
256,192,1141,1,8,0:0:0:0:
256,192,1312,1,0,0:0:0:0:
256,192,1653,1,8,0:0:0:0:
256,192,1994,1,8,0:0:0:0:
256,192,2164,1,0,0:0:0:0:
256,192,2335,1,8,0:0:0:0:
256,192,2675,1,8,0:0:0:0:
256,192,2846,1,0,0:0:0:0:
256,192,3016,1,0,0:0:0:0:
256,192,3187,1,8,0:0:0:0:
256,192,3528,1,0,0:0:0:0:
256,192,3869,1,8,0:0:0:0:
256,192,4039,1,0,0:0:0:0:
256,192,4380,1,8,0:0:0:0:
256,192,4721,1,8,0:0:0:0:
256,192,5062,1,0,0:0:0:0:
256,192,5232,1,8,0:0:0:0:
256,192,5914,1,8,0:0:0:0:
256,192,6254,1,0,0:0:0:0:
256,192,6595,1,8,0:0:0:0:
256,192,6766,1,0,0:0:0:0:
256,192,7107,1,8,0:0:0:0:
256,192,7448,1,8,0:0:0:0:
256,192,7618,1,0,0:0:0:0:
256,192,7789,1,8,0:0:0:0:
256,192,8129,1,8,0:0:0:0:
256,192,8300,1,0,0:0:0:0:
256,192,8470,1,0,0:0:0:0:
256,192,8641,1,8,0:0:0:0:
256,192,8982,1,0,0:0:0:0:
256,192,9323,1,8,0:0:0:0:
256,192,9493,1,0,0:0:0:0:
256,192,9834,1,8,0:0:0:0:
256,192,10175,1,8,0:0:0:0:
256,192,10516,1,0,0:0:0:0:
256,192,10686,1,8,0:0:0:0:
256,192,11369,1,12,0:0:0:0:
256,192,11624,1,0,0:0:0:0:
256,192,11710,1,8,0:0:0:0:
256,192,11880,1,0,0:0:0:0:
256,192,12221,1,0,0:0:0:0:
256,192,12391,1,8,0:0:0:0:
256,192,12732,1,8,0:0:0:0:
256,192,12988,1,8,0:0:0:0:
256,192,13073,1,0,0:0:0:0:
256,192,13244,1,8,0:0:0:0:
256,192,13414,1,0,0:0:0:0:
256,192,13585,1,0,0:0:0:0:
256,192,13755,1,8,0:0:0:0:
256,192,14096,1,8,0:0:0:0:
256,192,14352,1,0,0:0:0:0:
256,192,14437,1,8,0:0:0:0:
256,192,14607,1,0,0:0:0:0:
256,192,14948,1,0,0:0:0:0:
256,192,15119,1,8,0:0:0:0:
256,192,15460,1,0,0:0:0:0:
256,192,15715,1,8,0:0:0:0:
256,192,15800,1,0,0:0:0:0:
256,192,15971,1,0,0:0:0:0:
256,192,16141,1,8,0:0:0:0:
256,192,16312,1,8,0:0:0:0:
256,192,16397,1,8,0:0:0:0:
256,192,16482,1,8,0:0:0:0:
256,192,16653,1,8,0:0:0:0:
256,192,16823,1,4,0:0:0:0:
256,192,17335,1,4,0:0:0:0:
256,192,17846,1,8,0:0:0:0:
256,192,18102,1,8,0:0:0:0:
256,192,18187,1,0,0:0:0:0:
256,192,18442,1,0,0:0:0:0:
256,192,18528,1,8,0:0:0:0:
256,192,18698,1,8,0:0:0:0:
256,192,18869,1,0,0:0:0:0:
256,192,19039,1,0,0:0:0:0:
256,192,19210,1,8,0:0:0:0:
256,192,19550,1,8,0:0:0:0:
256,192,19806,1,0,0:0:0:0:
256,192,19891,1,8,0:0:0:0:
256,192,20062,1,0,0:0:0:0:
256,192,20403,1,0,0:0:0:0:
256,192,20573,1,8,0:0:0:0:
256,192,20744,1,4,0:0:0:0:
256,192,21085,1,4,0:0:0:0:
256,192,21425,1,8,0:0:0:0:
256,192,21596,1,0,0:0:0:0:
256,192,21766,1,8,0:0:0:0:
256,192,21852,1,8,0:0:0:0:
256,192,21937,1,8,0:0:0:0:
256,192,22278,1,4,0:0:0:0:
256,192,22619,1,8,0:0:0:0:
256,192,22789,1,0,0:0:0:0:
256,192,23300,1,8,0:0:0:0:
256,192,23641,1,0,0:0:0:0:
256,192,23982,1,8,0:0:0:0:
256,192,24153,1,0,0:0:0:0:
256,192,24494,1,8,0:0:0:0:
256,192,24664,1,8,0:0:0:0:
256,192,25005,1,0,0:0:0:0:
256,192,25346,1,8,0:0:0:0:
256,192,25516,1,0,0:0:0:0:
256,192,26028,1,8,0:0:0:0:
256,192,26369,1,0,0:0:0:0:
256,192,26710,1,8,0:0:0:0:
256,192,26880,1,0,0:0:0:0:
256,192,27221,1,0,0:0:0:0:
256,192,27391,1,8,0:0:0:0:
256,192,27732,1,0,0:0:0:0:
256,192,27903,1,0,0:0:0:0:
256,192,28073,1,8,0:0:0:0:
256,192,28244,1,0,0:0:0:0:
256,192,28755,1,8,0:0:0:0:
256,192,29096,1,0,0:0:0:0:
256,192,29266,1,8,0:0:0:0:
256,192,29437,1,8,0:0:0:0:
256,192,29607,1,8,0:0:0:0:
256,192,29948,1,8,0:0:0:0:
256,192,30119,1,0,0:0:0:0:
256,192,30460,1,0,0:0:0:0:
256,192,30630,1,8,0:0:0:0:
256,192,30800,1,0,0:0:0:0:
256,192,30971,1,8,0:0:0:0:
256,192,31312,1,0,0:0:0:0:
256,192,31482,1,8,0:0:0:0:
256,192,31823,1,0,0:0:0:0:
256,192,32846,1,8,0:0:0:0:
256,192,33187,1,4,0:0:0:0:
256,192,33357,1,8,0:0:0:0:
256,192,33442,1,0,0:0:0:0:
256,192,33698,1,0,0:0:0:0:
256,192,33869,1,8,0:0:0:0:
256,192,34039,1,8,0:0:0:0:
256,192,34380,1,8,0:0:0:0:
256,192,34550,1,0,0:0:0:0:
256,192,34721,1,8,0:0:0:0:
256,192,34891,1,8,0:0:0:0:
256,192,35062,1,0,0:0:0:0:
256,192,35232,1,8,0:0:0:0:
256,192,35744,1,0,0:0:0:0:
256,192,35914,1,8,0:0:0:0:
256,192,36085,1,0,0:0:0:0:
256,192,36255,1,8,0:0:0:0:
256,192,36425,1,0,0:0:0:0:
256,192,36596,1,8,0:0:0:0:
256,192,36766,1,8,0:0:0:0:
256,192,36937,1,0,0:0:0:0:
256,192,37107,1,8,0:0:0:0:
256,192,37278,1,0,0:0:0:0:
256,192,37448,1,0,0:0:0:0:
256,192,37619,1,8,0:0:0:0:
256,192,37789,1,0,0:0:0:0:
256,192,37960,1,8,0:0:0:0:
256,192,38130,1,8,0:0:0:0:
256,192,38300,1,0,0:0:0:0:
256,192,38471,1,0,0:0:0:0:
256,192,38641,1,8,0:0:0:0:
256,192,38982,1,8,0:0:0:0:
256,192,39323,1,0,0:0:0:0:
256,192,39494,1,8,0:0:0:0:
256,192,39579,1,0,0:0:0:0:
256,192,39835,1,0,0:0:0:0:
256,192,40005,1,8,0:0:0:0:
256,192,40346,1,8,0:0:0:0:
256,192,40516,1,8,0:0:0:0:
256,192,40687,1,0,0:0:0:0:
256,192,40942,1,8,0:0:0:0:
256,192,41198,1,0,0:0:0:0:
256,192,41539,1,0,0:0:0:0:
256,192,41710,1,8,0:0:0:0:
256,192,41880,1,8,0:0:0:0:
256,192,42050,1,0,0:0:0:0:
256,192,42221,1,0,0:0:0:0:
256,192,42391,1,8,0:0:0:0:
256,192,42732,1,0,0:0:0:0:
256,192,42988,1,8,0:0:0:0:
256,192,43073,1,0,0:0:0:0:
256,192,43244,1,0,0:0:0:0:
256,192,43414,1,8,0:0:0:0:
256,192,44096,1,12,0:0:0:0:
256,192,44437,1,0,0:0:0:0:
256,192,44607,1,8,0:0:0:0:
256,192,44948,1,8,0:0:0:0:
256,192,45119,1,8,0:0:0:0:
256,192,45289,1,8,0:0:0:0:
256,192,45460,1,0,0:0:0:0:
256,192,45800,1,0,0:0:0:0:
256,192,45971,1,8,0:0:0:0:
256,192,46312,1,8,0:0:0:0:
256,192,46482,1,0,0:0:0:0:
256,192,46653,1,0,0:0:0:0:
256,192,46823,1,8,0:0:0:0:
256,192,47164,1,0,0:0:0:0:
256,192,47505,1,8,0:0:0:0:
256,192,47675,1,0,0:0:0:0:
256,192,48016,1,0,0:0:0:0:
256,192,48187,1,8,0:0:0:0:
256,192,48528,1,8,0:0:0:0:
256,192,48698,1,0,0:0:0:0:
256,192,49039,1,8,0:0:0:0:
256,192,49210,1,8,0:0:0:0:
256,192,49550,1,0,0:0:0:0:
256,192,49721,1,8,0:0:0:0:
256,192,50062,1,8,0:0:0:0:
256,192,50232,1,8,0:0:0:0:
256,192,50573,1,8,0:0:0:0:
256,192,50744,1,0,0:0:0:0:
256,192,50914,1,12,0:0:0:0:
256,192,51255,1,0,0:0:0:0:
256,192,51425,1,12,0:0:0:0:
256,192,51766,1,0,0:0:0:0:
256,192,51937,1,12,0:0:0:0:
256,192,52278,1,0,0:0:0:0:
256,192,52448,1,12,0:0:0:0:
256,192,52619,1,0,0:0:0:0:
256,192,52704,1,0,0:0:0:0:
256,192,52789,1,0,0:0:0:0:
256,192,52960,1,12,0:0:0:0:
256,192,53130,1,12,0:0:0:0:
256,192,53641,1,12,0:0:0:0:
256,192,53812,1,0,0:0:0:0:
256,192,53982,1,0,0:0:0:0:
256,192,54153,1,8,0:0:0:0:
256,192,54494,1,0,0:0:0:0:
256,192,54664,1,8,0:0:0:0:
256,192,55005,1,0,0:0:0:0:
256,192,55261,1,8,0:0:0:0:
256,192,55346,1,0,0:0:0:0:
256,192,55516,1,8,0:0:0:0:
256,192,55687,1,0,0:0:0:0:
256,192,55772,1,0,0:0:0:0:
256,192,55857,1,0,0:0:0:0:
256,192,56028,1,8,0:0:0:0:
256,192,56369,1,0,0:0:0:0:
256,192,56539,1,8,0:0:0:0:
256,192,56710,1,8,0:0:0:0:
256,192,56880,1,0,0:0:0:0:
256,192,57221,1,0,0:0:0:0:
256,192,57391,1,8,0:0:0:0:
256,192,57562,1,0,0:0:0:0:
256,192,57732,1,8,0:0:0:0:
256,192,57988,1,0,0:0:0:0:
256,192,58073,1,8,0:0:0:0:
256,192,58244,1,8,0:0:0:0:
256,192,58414,1,0,0:0:0:0:
256,192,58499,1,0,0:0:0:0:
256,192,58585,1,0,0:0:0:0:
256,192,58755,1,8,0:0:0:0:
256,192,58925,1,8,0:0:0:0:
256,192,59096,1,0,0:0:0:0:
256,192,59437,1,8,0:0:0:0:
256,192,59778,1,0,0:0:0:0:
256,192,59948,1,0,0:0:0:0:
256,192,60119,1,8,0:0:0:0:
256,192,60800,1,8,0:0:0:0:
256,192,61141,1,8,0:0:0:0:
256,192,61312,1,0,0:0:0:0:
256,192,61482,1,8,0:0:0:0:
256,192,61653,1,8,0:0:0:0:
256,192,61823,1,0,0:0:0:0:
256,192,62164,1,8,0:0:0:0:
256,192,62335,1,4,0:0:0:0:
256,192,62675,1,0,0:0:0:0:
256,192,63016,1,12,0:0:0:0:
256,192,63357,1,0,0:0:0:0:
256,192,63528,1,8,0:0:0:0:
256,192,63698,1,0,0:0:0:0:
256,192,63869,1,8,0:0:0:0:
256,192,63954,1,8,0:0:0:0:
256,192,64039,1,8,0:0:0:0:
256,192,64210,1,0,0:0:0:0:
256,192,64295,1,0,0:0:0:0:
256,192,64380,1,0,0:0:0:0:
256,192,64550,1,12,0:0:0:0:
256,192,64891,1,8,0:0:0:0:
256,192,65062,1,0,0:0:0:0:
256,192,65573,1,8,0:0:0:0:
256,192,65914,1,0,0:0:0:0:
256,192,66170,1,0,0:0:0:0:
256,192,66255,1,8,0:0:0:0:
256,192,66425,1,0,0:0:0:0:
256,192,66596,1,8,0:0:0:0:
256,192,66681,1,8,0:0:0:0:
256,192,66766,1,8,0:0:0:0:
256,192,66937,1,0,0:0:0:0:
256,192,67278,1,8,0:0:0:0:
256,192,67448,1,8,0:0:0:0:
256,192,67619,1,0,0:0:0:0:
256,192,67789,1,8,0:0:0:0:
256,192,68130,1,8,0:0:0:0:
256,192,68471,1,0,0:0:0:0:
256,192,68641,1,8,0:0:0:0:
256,192,68897,1,8,0:0:0:0:
256,192,68982,1,0,0:0:0:0:
256,192,69153,1,0,0:0:0:0:
256,192,69323,1,8,0:0:0:0:
256,192,69494,1,0,0:0:0:0:
256,192,69664,1,8,0:0:0:0:
256,192,69835,1,8,0:0:0:0:
256,192,70005,1,4,0:0:0:0:
256,192,70516,1,8,0:0:0:0:
256,192,70687,1,8,0:0:0:0:
256,192,70857,1,0,0:0:0:0:
256,192,71028,1,8,0:0:0:0:
256,192,71198,1,0,0:0:0:0:
256,192,71369,1,8,0:0:0:0:
256,192,71539,1,8,0:0:0:0:
256,192,71710,1,0,0:0:0:0:
256,192,71880,1,8,0:0:0:0:
256,192,72050,1,0,0:0:0:0:
256,192,72391,1,8,0:0:0:0:
256,192,72562,1,0,0:0:0:0:
256,192,72903,1,8,0:0:0:0:
256,192,73414,1,8,0:0:0:0:
256,192,73585,1,0,0:0:0:0:
256,192,73755,1,8,0:0:0:0:
256,192,73925,1,8,0:0:0:0:
256,192,74096,1,0,0:0:0:0:
256,192,74266,1,8,0:0:0:0:
256,192,74437,1,8,0:0:0:0:
256,192,74607,1,8,0:0:0:0:
256,192,74692,1,8,0:0:0:0:
256,192,74778,1,8,0:0:0:0:
256,192,74948,1,0,0:0:0:0:
256,192,75119,1,0,0:0:0:0:
256,192,75289,1,0,0:0:0:0:
256,192,75460,1,12,0:0:0:0:
256,192,76823,1,4,0:0:0:0:
256,192,77846,1,8,0:0:0:0:
256,192,78187,1,12,0:0:0:0:
256,192,78442,1,0,0:0:0:0:
256,192,78528,1,8,0:0:0:0:
256,192,78698,1,0,0:0:0:0:
256,192,79039,1,0,0:0:0:0:
256,192,79209,1,8,0:0:0:0:
256,192,79550,1,8,0:0:0:0:
256,192,79806,1,8,0:0:0:0:
256,192,79891,1,0,0:0:0:0:
256,192,80062,1,8,0:0:0:0:
256,192,80232,1,0,0:0:0:0:
256,192,80403,1,0,0:0:0:0:
256,192,80573,1,8,0:0:0:0:
256,192,80914,1,8,0:0:0:0:
256,192,81170,1,0,0:0:0:0:
256,192,81255,1,8,0:0:0:0:
256,192,81425,1,0,0:0:0:0:
256,192,81766,1,0,0:0:0:0:
256,192,81937,1,8,0:0:0:0:
256,192,82278,1,0,0:0:0:0:
256,192,82533,1,8,0:0:0:0:
256,192,82618,1,0,0:0:0:0:
256,192,82789,1,0,0:0:0:0:
256,192,83130,1,8,0:0:0:0:
256,192,83300,1,8,0:0:0:0:
256,192,83471,1,8,0:0:0:0:
256,192,83641,1,4,0:0:0:0:
256,192,83982,1,8,0:0:0:0:
256,192,84153,1,0,0:0:0:0:
256,192,84664,1,8,0:0:0:0:
256,192,85005,1,0,0:0:0:0:
256,192,85260,1,0,0:0:0:0:
256,192,85346,1,8,0:0:0:0:
256,192,85516,1,8,0:0:0:0:
256,192,85687,1,0,0:0:0:0:
256,192,85857,1,0,0:0:0:0:
256,192,86028,1,8,0:0:0:0:
256,192,86368,1,8,0:0:0:0:
256,192,86710,1,8,0:0:0:0:
256,192,87050,1,8,0:0:0:0:
256,192,87221,1,0,0:0:0:0:
256,192,87391,1,8,0:0:0:0:
256,192,87562,1,4,0:0:0:0:
256,192,87903,1,0,0:0:0:0:
256,192,88244,1,0,0:0:0:0:
256,192,88414,1,0,0:0:0:0:
256,192,89096,1,4,0:0:0:0:
256,192,89607,1,4,0:0:0:0:
256,192,90800,1,8,0:0:0:0:
256,192,91653,1,0,0:0:0:0:
256,192,91823,1,4,0:0:0:0:
256,192,92335,1,4,0:0:0:0:
256,192,93698,1,8,0:0:0:0:
256,192,94380,1,0,0:0:0:0:
256,192,94550,1,4,0:0:0:0:
256,192,95062,1,4,0:0:0:0:
256,192,96255,1,8,0:0:0:0:
256,192,96766,1,8,0:0:0:0:
256,192,96937,1,0,0:0:0:0:
256,192,97278,1,4,0:0:0:0:
256,192,97789,1,4,0:0:0:0:
256,192,98641,1,4,0:0:0:0:
256,192,98982,5,0,0:0:0:0:
256,192,99153,1,8,0:0:0:0:
256,192,99323,1,8,0:0:0:0:
256,192,99494,1,8,0:0:0:0:
256,192,99664,1,0,0:0:0:0:
256,192,99835,1,0,0:0:0:0:
256,192,100005,1,12,0:0:0:0:
256,192,100516,1,0,0:0:0:0:
256,192,100687,1,8,0:0:0:0:
256,192,101198,1,0,0:0:0:0:
256,192,101880,1,0,0:0:0:0:
256,192,102050,1,8,0:0:0:0:
256,192,102391,1,8,0:0:0:0:
256,192,102732,1,0,0:0:0:0:
256,192,103244,1,0,0:0:0:0:
256,192,103414,1,8,0:0:0:0:
256,192,103925,1,0,0:0:0:0:
256,192,104266,1,0,0:0:0:0:
256,192,104778,1,8,0:0:0:0:
256,192,105119,1,0,0:0:0:0:
256,192,105289,1,0,0:0:0:0:
256,192,105460,1,12,0:0:0:0:
256,192,105971,1,0,0:0:0:0:
256,192,106141,1,8,0:0:0:0:
256,192,106653,1,0,0:0:0:0:
256,192,107335,1,0,0:0:0:0:
256,192,107505,1,8,0:0:0:0:
256,192,107846,1,8,0:0:0:0:
256,192,108016,1,8,0:0:0:0:
256,192,108187,1,0,0:0:0:0:
256,192,108698,1,8,0:0:0:0:
256,192,108869,1,0,0:0:0:0:
256,192,109039,1,0,0:0:0:0:
256,192,109210,1,8,0:0:0:0:
256,192,109550,5,0,0:0:0:0:
256,192,109721,1,8,0:0:0:0:
256,192,110062,1,0,0:0:0:0:
256,192,110232,1,8,0:0:0:0:
256,192,110403,1,8,0:0:0:0:
256,192,110573,1,8,0:0:0:0:
256,192,110914,1,4,0:0:0:0:
256,192,111255,1,8,0:0:0:0:
256,192,111425,1,0,0:0:0:0:
256,192,111937,1,8,0:0:0:0:
256,192,112278,1,0,0:0:0:0:
256,192,112619,1,8,0:0:0:0:
256,192,112789,1,0,0:0:0:0:
256,192,113130,1,0,0:0:0:0:
256,192,113300,1,8,0:0:0:0:
256,192,113471,1,8,0:0:0:0:
256,192,113641,1,0,0:0:0:0:
256,192,113982,1,8,0:0:0:0:
256,192,114153,1,0,0:0:0:0:
256,192,114494,1,8,0:0:0:0:
256,192,114835,1,0,0:0:0:0:
256,192,115006,1,8,0:0:0:0:
256,192,115347,1,8,0:0:0:0:
256,192,115517,1,0,0:0:0:0:
256,192,115858,1,8,0:0:0:0:
256,192,116029,1,8,0:0:0:0:
256,192,116369,1,0,0:0:0:0:
256,192,116540,1,8,0:0:0:0:
256,192,116881,1,8,0:0:0:0:
256,192,117051,1,8,0:0:0:0:
256,192,117392,1,8,0:0:0:0:
256,192,117563,1,0,0:0:0:0:
256,192,117733,1,12,0:0:0:0:
256,192,118074,1,0,0:0:0:0:
256,192,118244,1,12,0:0:0:0:
256,192,118585,1,0,0:0:0:0:
256,192,118756,1,12,0:0:0:0:
256,192,119097,1,0,0:0:0:0:
256,192,119267,1,12,0:0:0:0:
256,192,119438,1,0,0:0:0:0:
256,192,119523,1,0,0:0:0:0:
256,192,119608,1,0,0:0:0:0:
256,192,119779,1,12,0:0:0:0:
256,192,119949,1,12,0:0:0:0:
256,192,120460,1,12,0:0:0:0:
256,192,120800,1,0,0:0:0:0:
256,192,120971,1,8,0:0:0:0:
256,192,121312,1,8,0:0:0:0:
256,192,121482,1,0,0:0:0:0:
256,192,121653,1,0,0:0:0:0:
256,192,121823,1,8,0:0:0:0:
256,192,121994,1,0,0:0:0:0:
256,192,122079,1,0,0:0:0:0:
256,192,122164,1,8,0:0:0:0:
256,192,122335,1,0,0:0:0:0:
256,192,122675,1,0,0:0:0:0:
256,192,122846,1,8,0:0:0:0:
256,192,123187,1,8,0:0:0:0:
256,192,123357,1,8,0:0:0:0:
256,192,123528,1,0,0:0:0:0:
256,192,123698,1,8,0:0:0:0:
256,192,123869,1,0,0:0:0:0:
256,192,124039,1,8,0:0:0:0:
256,192,124210,1,0,0:0:0:0:
256,192,124380,1,0,0:0:0:0:
256,192,124550,1,8,0:0:0:0:
256,192,124891,1,8,0:0:0:0:
256,192,125062,1,0,0:0:0:0:
256,192,125232,1,8,0:0:0:0:
256,192,125403,1,8,0:0:0:0:
256,192,125573,1,0,0:0:0:0:
256,192,125744,1,8,0:0:0:0:
256,192,125914,1,0,0:0:0:0:
256,192,126255,1,8,0:0:0:0:
256,192,126425,1,0,0:0:0:0:
256,192,126596,1,8,0:0:0:0:
256,192,126937,1,0,0:0:0:0:
256,192,127619,1,8,0:0:0:0:
256,192,127960,1,0,0:0:0:0:
256,192,128300,1,8,0:0:0:0:
256,192,128471,1,0,0:0:0:0:
256,192,128641,1,8,0:0:0:0:
256,192,128982,1,8,0:0:0:0:
256,192,129153,1,8,0:0:0:0:
256,192,129494,1,0,0:0:0:0:
256,192,129835,1,8,0:0:0:0:
256,192,130175,1,8,0:0:0:0:
256,192,130346,1,8,0:0:0:0:
256,192,130516,1,0,0:0:0:0:
256,192,130602,1,0,0:0:0:0:
256,192,130687,1,0,0:0:0:0:
256,192,130857,1,8,0:0:0:0:
256,192,130942,1,8,0:0:0:0:
256,192,131028,1,8,0:0:0:0:
256,192,131198,1,0,0:0:0:0:
256,192,131369,1,12,0:0:0:0:
256,192,131880,1,12,0:0:0:0:
256,192,132221,1,0,0:0:0:0:
256,192,132391,1,8,0:0:0:0:
256,192,132732,1,8,0:0:0:0:
256,192,132903,1,0,0:0:0:0:
256,192,132988,1,0,0:0:0:0:
256,192,133073,1,8,0:0:0:0:
256,192,133244,1,0,0:0:0:0:
256,192,133585,1,0,0:0:0:0:
256,192,133925,1,8,0:0:0:0:
256,192,134096,1,0,0:0:0:0:
256,192,134266,1,0,0:0:0:0:
256,192,134437,1,8,0:0:0:0:
256,192,134607,1,8,0:0:0:0:
256,192,134948,1,0,0:0:0:0:
256,192,135289,1,8,0:0:0:0:
256,192,135460,1,0,0:0:0:0:
256,192,135715,1,8,0:0:0:0:
256,192,135800,1,0,0:0:0:0:
256,192,135971,1,8,0:0:0:0:
256,192,136141,1,8,0:0:0:0:
256,192,136482,1,0,0:0:0:0:
256,192,136823,1,12,0:0:0:0:
256,192,137335,1,0,0:0:0:0:
256,192,137505,1,8,0:0:0:0:
256,192,137675,1,8,0:0:0:0:
256,192,137846,1,0,0:0:0:0:
256,192,138187,1,8,0:0:0:0:
256,192,138357,1,8,0:0:0:0:
256,192,138528,1,0,0:0:0:0:
256,192,138698,1,8,0:0:0:0:
256,192,138869,1,0,0:0:0:0:
256,192,139210,1,8,0:0:0:0:
256,192,139380,1,8,0:0:0:0:
256,192,139721,1,0,0:0:0:0:
256,192,139891,1,8,0:0:0:0:
256,192,140062,1,0,0:0:0:0:
256,192,140232,1,8,0:0:0:0:
256,192,140403,1,8,0:0:0:0:
256,192,140573,1,0,0:0:0:0:
256,192,140744,1,0,0:0:0:0:
256,192,140914,1,8,0:0:0:0:
256,192,141085,1,0,0:0:0:0:
256,192,141255,1,8,0:0:0:0:
256,192,141425,1,0,0:0:0:0:
256,192,141511,1,0,0:0:0:0:
256,192,141596,1,8,0:0:0:0:
256,192,141766,1,0,0:0:0:0:
256,192,141937,1,8,0:0:0:0:
256,192,142107,1,8,0:0:0:0:
256,192,142278,1,4,0:0:0:0:
256,192,142789,1,0,0:0:0:0:
256,192,142960,1,8,0:0:0:0:
256,192,143300,1,0,0:0:0:0:
256,192,143641,1,12,0:0:0:0:
256,192,143982,1,0,0:0:0:0:
256,192,144323,1,8,0:0:0:0:
256,192,144494,1,8,0:0:0:0:
256,192,144664,1,0,0:0:0:0:
256,192,145005,1,4,0:0:0:0:
256,192,145516,1,4,0:0:0:0:
256,192,146028,1,12,0:0:0:0:
256,192,147050,1,8,0:0:0:0:
256,192,148414,1,8,0:0:0:0:
256,192,149778,1,8,0:0:0:0:
256,192,150460,1,4,0:0:0:0:
256,192,150971,1,4,0:0:0:0:
256,192,151482,1,12,0:0:0:0:
256,192,152505,1,8,0:0:0:0:
256,192,153869,1,8,0:0:0:0:
256,192,154550,1,8,0:0:0:0:
256,192,154891,1,8,0:0:0:0:
256,192,155403,1,0,0:0:0:0:
256,192,155573,1,8,0:0:0:0:
256,192,155914,1,8,0:0:0:0:
256,192,156255,1,8,0:0:0:0:
256,192,156425,1,0,0:0:0:0:
256,192,156596,1,8,0:0:0:0:
256,192,156766,1,0,0:0:0:0:
256,192,156937,1,8,0:0:0:0:
256,192,157278,1,8,0:0:0:0:
256,192,157448,1,0,0:0:0:0:
256,192,157619,1,8,0:0:0:0:
256,192,157789,1,8,0:0:0:0:
256,192,157960,1,0,0:0:0:0:
256,192,158130,1,0,0:0:0:0:
256,192,158300,1,8,0:0:0:0:
256,192,158641,1,8,0:0:0:0:
256,192,158982,1,8,0:0:0:0:
256,192,159153,1,0,0:0:0:0:
256,192,159323,1,8,0:0:0:0:
256,192,159494,1,0,0:0:0:0:
256,192,159664,1,8,0:0:0:0:
256,192,160005,1,8,0:0:0:0:
256,192,160175,1,8,0:0:0:0:
256,192,160346,1,0,0:0:0:0:
256,192,160516,1,8,0:0:0:0:
256,192,160687,1,8,0:0:0:0:
256,192,160857,1,0,0:0:0:0:
256,192,161028,1,8,0:0:0:0:
256,192,161369,1,8,0:0:0:0:
256,192,161710,1,8,0:0:0:0:
256,192,161880,1,0,0:0:0:0:
256,192,162050,1,8,0:0:0:0:
256,192,162221,1,0,0:0:0:0:
256,192,162391,1,8,0:0:0:0:
256,192,162732,1,8,0:0:0:0:
256,192,162903,1,8,0:0:0:0:
256,192,163073,1,0,0:0:0:0:
256,192,163414,1,8,0:0:0:0:
256,192,164096,1,8,0:0:0:0:
256,192,164437,1,8,0:0:0:0:
256,192,164607,1,0,0:0:0:0:
256,192,164778,1,8,0:0:0:0:
256,192,165119,1,8,0:0:0:0:
256,192,165460,1,8,0:0:0:0:
256,192,165630,1,8,0:0:0:0:
256,192,165800,1,0,0:0:0:0:
256,192,165971,1,0,0:0:0:0:
256,192,166141,1,8,0:0:0:0:
256,192,166482,1,0,0:0:0:0:
256,192,166823,1,8,0:0:0:0:
256,192,166994,1,0,0:0:0:0:
256,192,167164,1,0,0:0:0:0:
256,192,167335,1,8,0:0:0:0:
256,192,167505,1,8,0:0:0:0:
256,192,167675,1,0,0:0:0:0:
256,192,167846,1,8,0:0:0:0:
256,192,168016,1,0,0:0:0:0:
256,192,168187,1,8,0:0:0:0:
256,192,168272,1,8,0:0:0:0:
256,192,168357,1,8,0:0:0:0:
256,192,168528,1,0,0:0:0:0:
256,192,168613,1,0,0:0:0:0:
256,192,168698,1,0,0:0:0:0:
256,192,168869,1,8,0:0:0:0:
256,192,169039,1,8,0:0:0:0:
256,192,169210,1,8,0:0:0:0:
256,192,169380,1,8,0:0:0:0:
256,192,180460,5,4,0:0:0:0:
256,192,181823,1,4,0:0:0:0:
256,192,183187,1,4,0:0:0:0:
256,192,184550,1,4,0:0:0:0:
256,192,185914,5,4,0:0:0:0:
256,192,186255,1,0,0:0:0:0:
256,192,186596,1,8,0:0:0:0:
256,192,186937,1,8,0:0:0:0:
256,192,187278,1,0,0:0:0:0:
256,192,187448,1,0,0:0:0:0:
256,192,187619,1,0,0:0:0:0:
256,192,187960,1,8,0:0:0:0:
256,192,188130,1,8,0:0:0:0:
256,192,188300,1,0,0:0:0:0:
256,192,188471,1,0,0:0:0:0:
256,192,188641,1,8,0:0:0:0:
256,192,188982,1,8,0:0:0:0:
256,192,189153,1,0,0:0:0:0:
256,192,189323,1,8,0:0:0:0:
256,192,189494,1,8,0:0:0:0:
256,192,189664,1,0,0:0:0:0:
256,192,189835,1,0,0:0:0:0:
256,192,190857,1,8,0:0:0:0:
256,192,190942,1,8,0:0:0:0:
256,192,191028,1,8,0:0:0:0:
256,192,191113,1,8,0:0:0:0:
256,192,191198,1,8,0:0:0:0:
256,192,191369,1,4,0:0:0:0:
256,192,191710,1,8,0:0:0:0:
256,192,191880,1,0,0:0:0:0:
256,192,192221,1,0,0:0:0:0:
256,192,192391,1,8,0:0:0:0:
256,192,192562,1,8,0:0:0:0:
256,192,192732,1,0,0:0:0:0:
256,192,192903,1,0,0:0:0:0:
256,192,192988,1,0,0:0:0:0:
256,192,193073,1,8,0:0:0:0:
256,192,193244,1,8,0:0:0:0:
256,192,193585,1,0,0:0:0:0:
256,192,193755,1,8,0:0:0:0:
256,192,193925,1,8,0:0:0:0:
256,192,194096,1,0,0:0:0:0:
256,192,194266,1,8,0:0:0:0:
256,192,194437,1,0,0:0:0:0:
256,192,194607,1,0,0:0:0:0:
256,192,194948,1,8,0:0:0:0:
256,192,195119,1,0,0:0:0:0:
256,192,195289,1,0,0:0:0:0:
256,192,195460,1,8,0:0:0:0:
256,192,195715,1,0,0:0:0:0:
256,192,195800,1,8,0:0:0:0:
256,192,195971,1,0,0:0:0:0:
256,192,196141,1,8,0:0:0:0:
256,192,196312,1,8,0:0:0:0:
256,192,196482,1,0,0:0:0:0:
256,192,196653,1,0,0:0:0:0:
256,192,196823,1,12,0:0:0:0:
256,192,197164,1,8,0:0:0:0:
256,192,197505,1,0,0:0:0:0:
256,192,197675,1,0,0:0:0:0:
256,192,197846,1,8,0:0:0:0:
256,192,198187,1,0,0:0:0:0:
256,192,198442,1,0,0:0:0:0:
256,192,198528,1,8,0:0:0:0:
256,192,198698,1,0,0:0:0:0:
256,192,198869,1,8,0:0:0:0:
256,192,199039,1,8,0:0:0:0:
256,192,199210,1,0,0:0:0:0:
256,192,199550,1,8,0:0:0:0:
256,192,199891,1,0,0:0:0:0:
256,192,200062,1,12,0:0:0:0:
256,192,200403,1,8,0:0:0:0:
256,192,200744,1,4,0:0:0:0:
256,192,201085,1,8,0:0:0:0:
256,192,201255,1,8,0:0:0:0:
256,192,201425,1,0,0:0:0:0:
256,192,201511,1,0,0:0:0:0:
256,192,201596,1,0,0:0:0:0:
256,192,201766,1,8,0:0:0:0:
256,192,201852,1,8,0:0:0:0:
256,192,201937,1,8,0:0:0:0:
256,192,202107,1,0,0:0:0:0:
256,192,202278,1,12,0:0:0:0:
256,192,202789,1,8,0:0:0:0:
256,192,203130,1,8,0:0:0:0:
256,192,203300,1,0,0:0:0:0:
256,192,203471,1,8,0:0:0:0:
256,192,203556,1,8,0:0:0:0:
256,192,203641,1,0,0:0:0:0:
256,192,203897,1,0,0:0:0:0:
256,192,203982,1,8,0:0:0:0:
256,192,204153,1,8,0:0:0:0:
256,192,204323,1,0,0:0:0:0:
256,192,204408,1,0,0:0:0:0:
256,192,204494,1,0,0:0:0:0:
256,192,204664,1,8,0:0:0:0:
256,192,205005,1,8,0:0:0:0:
256,192,205175,1,0,0:0:0:0:
256,192,205346,1,8,0:0:0:0:
256,192,205516,1,8,0:0:0:0:
256,192,205857,1,8,0:0:0:0:
256,192,206198,1,0,0:0:0:0:
256,192,206369,1,8,0:0:0:0:
256,192,206624,1,0,0:0:0:0:
256,192,206710,1,8,0:0:0:0:
256,192,206880,1,0,0:0:0:0:
256,192,207050,1,8,0:0:0:0:
256,192,207136,1,8,0:0:0:0:
256,192,207221,1,0,0:0:0:0:
256,192,207391,1,8,0:0:0:0:
256,192,207732,1,4,0:0:0:0:
256,192,208244,1,8,0:0:0:0:
256,192,208414,1,0,0:0:0:0:
256,192,208585,1,0,0:0:0:0:
256,192,208755,1,8,0:0:0:0:
256,192,208925,1,0,0:0:0:0:
256,192,209096,1,8,0:0:0:0:
256,192,209266,1,8,0:0:0:0:
256,192,209437,1,0,0:0:0:0:
256,192,209607,1,8,0:0:0:0:
256,192,209778,1,0,0:0:0:0:
256,192,209948,1,0,0:0:0:0:
256,192,210119,1,8,0:0:0:0:
256,192,210289,1,8,0:0:0:0:
256,192,210630,1,8,0:0:0:0:
256,192,210971,1,0,0:0:0:0:
256,192,211141,1,8,0:0:0:0:
256,192,211312,1,8,0:0:0:0:
256,192,211482,1,0,0:0:0:0:
256,192,211653,1,8,0:0:0:0:
256,192,211823,1,0,0:0:0:0:
256,192,211994,1,8,0:0:0:0:
256,192,212164,1,0,0:0:0:0:
256,192,212335,1,8,0:0:0:0:
256,192,212420,1,8,0:0:0:0:
256,192,212505,1,8,0:0:0:0:
256,192,212675,1,8,0:0:0:0:
256,192,212846,1,0,0:0:0:0:
256,192,213187,1,12,0:0:0:0:
256,192,214550,1,4,0:0:0:0:
256,192,215572,1,8,0:0:0:0:
256,192,216595,1,12,0:0:0:0:
256,192,216850,1,0,0:0:0:0:
256,192,216936,1,8,0:0:0:0:
256,192,217106,1,0,0:0:0:0:
256,192,217276,1,8,0:0:0:0:
256,192,217447,1,0,0:0:0:0:
256,192,217617,1,8,0:0:0:0:
256,192,217958,1,8,0:0:0:0:
256,192,218214,1,8,0:0:0:0:
256,192,218299,1,0,0:0:0:0:
256,192,218470,1,8,0:0:0:0:
256,192,218640,1,0,0:0:0:0:
256,192,218811,1,0,0:0:0:0:
256,192,218981,1,8,0:0:0:0:
256,192,219322,1,8,0:0:0:0:
256,192,219578,1,0,0:0:0:0:
256,192,219663,1,8,0:0:0:0:
256,192,219833,1,0,0:0:0:0:
256,192,220004,1,8,0:0:0:0:
256,192,220174,1,0,0:0:0:0:
256,192,220345,1,8,0:0:0:0:
256,192,220686,1,0,0:0:0:0:
256,192,220941,1,8,0:0:0:0:
256,192,221026,1,0,0:0:0:0:
256,192,221197,1,0,0:0:0:0:
256,192,221367,1,8,0:0:0:0:
256,192,221538,1,8,0:0:0:0:
256,192,221623,1,8,0:0:0:0:
256,192,221708,1,8,0:0:0:0:
256,192,221879,1,8,0:0:0:0:
256,192,222049,1,4,0:0:0:0:
256,192,222390,1,8,0:0:0:0:
256,192,222561,1,4,0:0:0:0:
256,192,223072,1,8,0:0:0:0:
256,192,223328,1,8,0:0:0:0:
256,192,223413,1,0,0:0:0:0:
256,192,223668,1,0,0:0:0:0:
256,192,223754,1,8,0:0:0:0:
256,192,223924,1,8,0:0:0:0:
256,192,224095,1,0,0:0:0:0:
256,192,224265,1,0,0:0:0:0:
256,192,224436,1,8,0:0:0:0:
256,192,224776,1,8,0:0:0:0:
256,192,225032,1,0,0:0:0:0:
256,192,225117,1,8,0:0:0:0:
256,192,225288,1,0,0:0:0:0:
256,192,225458,1,8,0:0:0:0:
256,192,225629,1,8,0:0:0:0:
256,192,225799,1,8,0:0:0:0:
256,192,225970,1,4,0:0:0:0:
256,192,226311,1,4,0:0:0:0:
256,192,226651,1,4,0:0:0:0:
256,192,226822,1,8,0:0:0:0:
256,192,226992,1,0,0:0:0:0:
256,192,227163,1,8,0:0:0:0:
256,192,227504,1,12,0:0:0:0:
256,192,228015,1,0,0:0:0:0:
256,192,228356,1,0,0:0:0:0:
256,192,228867,1,0,0:0:0:0:
256,192,229379,1,0,0:0:0:0:
256,192,229720,1,0,0:0:0:0:
256,192,230231,1,0,0:0:0:0:
256,192,230742,1,0,0:0:0:0:
256,192,231083,1,0,0:0:0:0:
256,192,231595,1,0,0:0:0:0:
256,192,232106,1,0,0:0:0:0:
256,192,232958,1,0,0:0:0:0:
256,192,233470,1,0,0:0:0:0:
256,192,234322,1,0,0:0:0:0:
256,192,234833,1,0,0:0:0:0:
256,192,235685,1,0,0:0:0:0:
256,192,236197,1,0,0:0:0:0:
256,192,236879,1,8,0:0:0:0:
256,192,237220,1,8,0:0:0:0:
256,192,237560,1,8,0:0:0:0:
256,192,237731,1,8,0:0:0:0:
256,192,238072,1,0,0:0:0:0:
