osu file format v14

[General]
AudioFilename: audio.mp3
AudioLeadIn: 0
PreviewTime: 53534
Countdown: 0
SampleSet: Soft
StackLeniency: 0.7
Mode: 0
LetterboxInBreaks: 0
WidescreenStoryboard: 1

[Editor]
Bookmarks: 11432,22341,33250,44159,53534,78932,89841
DistanceSpacing: 1
BeatDivisor: 4
GridSize: 32
TimelineZoom: 2.3

[Metadata]
Title:Last Dance (Cut Ver.)
TitleUnicode:ラストダンス (Cut Ver.)
Artist:Eve
ArtistUnicode:Eve
Creator:DMK7
Version:Insane
Source:
Tags:Otogi japanese pop jpop j-pop rock j-rock jrock Numa ItsCactus
BeatmapID:3909572
BeatmapSetID:1893612

[Difficulty]
HPDrainRate:5
CircleSize:3.8
OverallDifficulty:8
ApproachRate:8.7
SliderMultiplier:1.75
SliderTickRate:1

[Events]
//Background and Video events
0,0,"last_dance_eve.jpg",0,0
//Break Periods
2,23022,27113
//Storyboard Layer 0 (Background)
//Storyboard Layer 1 (Fail)
//Storyboard Layer 2 (Pass)
//Storyboard Layer 3 (Foreground)
//Storyboard Layer 4 (Overlay)
//Storyboard Sound Samples

[TimingPoints]
533,340.909090909091,4,2,1,50,1,0
533,-142.857142857143,4,2,1,50,0,0
2663,-142.857142857143,4,2,1,5,0,0
2748,-142.857142857143,4,2,1,50,0,0
3601,322.58064516129,4,2,1,50,1,0
3923,352.941176470588,4,2,1,50,1,0
3923,-142.857142857143,4,2,1,50,0,0
4452,342.857142857143,4,2,1,50,1,0
4452,-142.857142857143,4,2,1,50,0,0
5137,337.078651685393,4,2,1,50,1,0
5305,-142.857142857143,4,2,1,50,0,0
5558,-142.857142857143,4,2,1,5,0,0
5642,348.837209302326,4,2,1,50,1,0
5990,340.909090909091,4,2,1,50,1,0
5990,-142.857142857143,4,2,1,50,0,0
7183,344.827586206897,4,2,1,50,1,0
7183,-142.857142857143,4,2,1,50,0,0
7872,333.333333333333,4,2,1,50,1,0
7872,-142.857142857143,4,2,1,50,0,0
8122,-142.857142857143,4,2,1,5,0,0
8205,-142.857142857143,4,2,1,50,0,0
8538,350.877192982456,4,2,1,50,1,0
8714,340.909090909091,4,2,1,50,1,0
8714,-142.857142857143,4,2,1,50,0,0
9054,327.868852459016,4,2,1,50,1,0
9381,346.820809248555,4,2,1,50,1,0
9381,-142.857142857143,4,2,1,50,0,0
9901,340.909090909091,4,2,1,50,1,0
10753,338.983050847458,4,2,1,50,1,0
10753,-142.857142857143,4,2,1,50,0,0
11432,340.909090909091,4,2,1,65,1,0
11687,-100,4,2,1,5,0,0
11772,-100,4,2,1,65,0,0
13562,-100,4,2,1,5,0,0
13647,-100,4,2,1,65,0,0
14414,-100,4,2,1,5,0,0
14500,-100,4,2,1,65,0,0
17141,-100,4,2,1,5,0,0
17227,-100,4,2,1,65,0,0
17652,-100,4,2,1,5,0,0
17738,-100,4,2,1,65,0,0
19017,-100,4,2,1,5,0,0
19101,-100,4,2,1,65,0,0
19868,-100,4,2,1,5,0,0
19954,-100,4,2,1,65,0,0
22255,-100,4,2,1,5,0,0
22341,-100,4,2,1,40,0,0
27795,-142.857142857143,4,2,1,40,0,0
28051,-142.857142857143,4,2,1,5,0,0
28135,-142.857142857143,4,2,1,40,0,0
33164,-142.857142857143,4,2,1,5,0,0
33250,-117.647058823529,4,2,1,60,0,0
38959,-117.647058823529,4,2,1,5,0,0
39045,-117.647058823529,4,2,1,60,0,0
39300,-117.647058823529,4,2,1,5,0,0
39386,-117.647058823529,4,2,1,60,0,0
44159,-111.111111111111,4,2,1,60,0,0
44415,-111.111111111111,4,2,1,5,0,0
44499,-111.111111111111,4,2,1,60,0,0
44926,-111.111111111111,4,2,1,5,0,0
45010,-111.111111111111,4,2,1,60,0,0
45693,-111.111111111111,4,2,1,5,0,0
45778,-111.111111111111,4,2,1,60,0,0
46289,-111.111111111111,4,2,1,5,0,0
46375,-111.111111111111,4,2,1,60,0,0
47142,-111.111111111111,4,2,1,5,0,0
47226,-111.111111111111,4,2,1,60,0,0
47652,-111.111111111111,4,2,1,5,0,0
47738,-111.111111111111,4,2,1,60,0,0
48250,-105.263157894737,4,2,1,60,0,0
48505,-105.263157894737,4,2,1,5,0,0
48590,-105.263157894737,4,2,1,60,0,0
49017,-105.263157894737,4,2,1,5,0,0
49101,-105.263157894737,4,2,1,60,0,0
49528,-105.263157894737,4,2,1,5,0,0
49612,-105.263157894737,4,2,1,60,0,0
50040,-105.263157894737,4,2,1,5,0,0
50124,-105.263157894737,4,2,1,60,0,0
50977,-100,4,2,1,60,0,0
53704,-90.9090909090909,4,2,1,75,0,1
57198,-90.9090909090909,4,2,1,5,0,1
57284,-90.9090909090909,4,2,1,75,0,1
57966,-90.9090909090909,4,2,1,5,0,1
58050,-90.9090909090909,4,2,1,75,0,1
59414,-90.9090909090909,4,2,1,5,0,1
59500,-90.9090909090909,4,2,1,75,0,1
60692,-90.9090909090909,4,2,1,5,0,1
60778,-90.9090909090909,4,2,1,75,0,1
61886,-83.3333333333333,4,2,1,75,0,1
62142,-83.3333333333333,4,2,1,5,0,1
62226,-83.3333333333333,4,2,1,75,0,1
62652,-83.3333333333333,4,2,1,5,0,1
62738,-83.3333333333333,4,2,1,75,0,1
62993,-83.3333333333333,4,2,1,5,0,1
63079,-83.3333333333333,4,2,1,75,0,1
63335,-83.3333333333333,4,2,1,5,0,1
63419,-83.3333333333333,4,2,1,75,0,1
64613,-90.9090909090909,4,2,1,75,0,1
68107,-90.9090909090909,4,2,1,5,0,1
68193,-90.9090909090909,4,2,1,75,0,1
68704,-83.3333333333333,4,2,1,75,0,1
70068,-90.9090909090909,4,2,1,75,0,1
70323,-90.9090909090909,4,2,1,5,0,1
70409,-90.9090909090909,4,2,1,75,0,1
72368,-90.9090909090909,4,2,1,5,0,1
72454,-90.9090909090909,4,2,1,75,0,1
73050,-90.9090909090909,4,2,1,5,0,1
73136,-90.9090909090909,4,2,1,75,0,1
74159,-83.3333333333333,4,2,1,75,0,1
75522,-83.3333333333333,4,2,1,75,0,0
77909,-166.666666666667,4,2,1,75,0,0
78164,-166.666666666667,4,2,1,5,0,0
78250,-166.666666666667,4,2,1,75,0,0
78932,340.909090909091,4,2,1,75,1,0
79187,-100,4,2,1,5,0,0
79272,-100,4,2,1,75,0,0
81062,-100,4,2,1,5,0,0
81147,-100,4,2,1,75,0,0
81914,-100,4,2,1,5,0,0
82000,-100,4,2,1,75,0,0
84641,-100,4,2,1,5,0,0
84727,-100,4,2,1,75,0,0
85152,-100,4,2,1,5,0,0
85238,-100,4,2,1,75,0,0
86517,-100,4,2,1,5,0,0
86601,-100,4,2,1,75,0,0
87368,-100,4,2,1,5,0,0
87454,-100,4,2,1,75,0,0
89755,-100,4,2,1,5,0,0
89841,-100,4,2,1,40,0,0
90522,-153.846153846154,4,2,1,40,0,0
99216,357.142857142857,4,2,1,40,1,0
99573,340.909090909091,4,2,1,40,1,0
100084,-153.846153846154,4,2,1,40,0,0
100339,-153.846153846154,4,2,1,5,0,0
100425,-285.714285714287,4,2,1,40,0,0
100765,-285.714285714287,4,2,1,5,0,0

[Colours]
Combo1 : 104,90,81
Combo2 : 217,80,50
Combo3 : 210,182,161
Combo4 : 166,62,38

[HitObjects]
65,319,533,6,0,P|77:262|93:185,1,122.5,2|2,2:0|2:0,2:0:0:0:
178,133,1044,1,2,2:0:0:0:
178,133,1129,1,2,2:0:0:0:
178,133,1214,2,0,P|187:178|193:202,1,61.2499999999999,2|2,2:0|2:0,2:0:0:0:
156,283,1555,1,0,2:0:0:0:
156,283,1726,6,0,P|188:291|223:303,1,61.2499999999999,2|0,2:0|2:0,2:0:0:0:
272,366,2067,2,0,P|301:356|330:349,1,61.2499999999999,2|0,2:0|2:0,2:0:0:0:
382,203,2408,2,0,P|331:236|331:289,1,91.8749999999999,2|0,2:0|2:0,2:0:0:0:
405,287,2748,2,0,P|416:316|426:345,2,61.2499999999999,2|2|2,2:0|2:0|2:0,2:0:0:0:
481,228,3260,6,0,P|489:185|503:105,1,122.859333333333,2|2,2:0|2:0,2:0:0:0:
386,45,3762,1,2,2:0:0:0:
386,45,3923,2,0,P|351:60|309:72,1,61.2499999999999,2|2,2:0|2:0,2:0:0:0:
251,148,4275,1,0,2:0:0:0:
251,148,4452,6,0,P|280:157|308:170,1,61.2499999999999,2|0,2:0|2:0,2:0:0:0:
410,191,4794,2,0,P|396:154|383:111,1,61.2499999999999,2|0,2:0|2:0,2:0:0:0:
233,45,5137,1,2,2:0:0:0:
233,45,5305,2,0,P|179:60|149:135,1,122.5,2|2,2:0|2:0,2:0:0:0:
229,224,5990,6,0,P|170:241|108:262,1,122.5,2|2,2:0|2:0,2:0:0:0:
6,321,6501,1,2,2:0:0:0:
6,321,6586,1,2,2:0:0:0:
6,321,6671,2,0,P|17:280|26:245,1,61.2499999999999,2|2,2:0|2:0,2:0:0:0:
75,125,7012,1,0,2:0:0:0:
75,125,7183,6,0,P|82:154|90:184,1,61.2499999999999,2|0,2:0|2:0,2:0:0:0:
176,183,7527,2,0,P|168:153|160:123,1,61.2499999999999,2|0,2:0|2:0,2:0:0:0:
84,30,7872,2,0,P|133:38|194:48,1,91.8749999999999,2|0,2:0|2:0,2:0:0:0:
253,45,8205,2,0,P|283:37|317:28,2,61.2499981307984,2|2|2,2:0|2:0|2:0,2:0:0:0:
160,123,8714,6,0,P|192:162|273:155,1,122.5,2|2,2:0|2:0,2:0:0:0:
331,133,9217,1,2,2:0:0:0:
331,133,9381,2,0,P|362:148|401:164,1,61.2499999999999,2|2,2:0|2:0,2:0:0:0:
462,117,9727,1,0,2:0:0:0:
491,248,9901,5,2,2:0:0:0:
501,276,10241,5,2,2:0:0:0:
512,300,10582,5,2,2:0:0:0:
512,300,10753,2,0,P|469:315|396:347,1,122.5,2|0,2:0|2:0,2:0:0:0:
398,345,11432,6,0,P|335:369|281:336,1,131.25,6|0,3:2|2:0,2:0:0:0:
259,314,11772,2,0,P|217:296|166:321,1,87.5,10|0,2:0|3:2,2:0:0:0:
42,364,12113,1,2,2:0:0:0:
81,200,12284,1,2,3:2:0:0:
81,200,12369,1,0,3:2:0:0:
81,200,12454,2,0,P|95:248|109:296,1,87.5,8|2,2:0|3:2,2:0:0:0:
160,138,12795,6,0,P|121:91|47:89,1,131.25,0|0,3:2|3:2,2:0:0:0:
29,101,13136,1,8,2:0:0:0:
81,200,13307,2,0,P|165:178|271:155,1,175,2|2,3:2|3:2,2:0:0:0:
300,76,13818,1,10,2:0:0:0:
353,223,13988,1,2,3:2:0:0:
215,58,14159,6,0,P|271:45|354:25,1,131.25,2|0,3:2|2:0,2:0:0:0:
378,21,14500,2,0,P|422:37|436:77,1,87.5,10|0,2:0|3:2,2:0:0:0:
353,223,14841,1,2,2:0:0:0:
509,170,15011,1,2,3:2:0:0:
509,170,15096,1,0,3:2:0:0:
509,170,15182,2,0,P|439:155|404:148,1,87.5,8|2,2:0|3:2,2:0:0:0:
354,316,15522,6,0,P|405:307|432:269,1,87.5,0|2,3:2|2:0,2:0:0:0:
443,260,15778,1,0,3:2:0:0:
443,260,15863,1,8,2:0:0:0:
248,175,16034,1,2,3:2:0:0:
298,384,16204,1,10,2:0:0:0:
360,229,16375,5,8,2:0:0:0:
360,229,16460,1,8,2:0:0:0:
360,229,16545,2,0,L|303:244,1,43.75,8|8,2:0|2:0,2:0:0:0:
238,300,16716,2,0,L|187:282,1,43.75,8|8,2:0|2:0,2:0:0:0:
55,196,16886,6,0,P|89:157|167:179,1,131.25,6|0,3:2|3:2,2:0:0:0:
174,196,17227,1,10,2:0:0:0:
36,291,17397,6,0,P|25:231|5:141,1,131.25,4|0,2:3|2:0,2:0:0:0:
3,132,17738,1,2,3:2:0:0:
192,58,17909,1,8,2:0:0:0:
114,0,18079,1,2,3:2:0:0:
114,0,18164,1,8,2:0:0:0:
114,0,18250,6,0,P|99:46|85:91,1,87.5,0|2,3:2|2:0,2:0:0:0:
85,111,18505,1,0,3:2:0:0:
85,111,18591,1,8,2:0:0:0:
192,58,18761,2,0,B|254:77|254:77|281:115|281:115|320:117|349:140,1,175,2|2,3:2|3:2,2:0:0:0:
409,201,19272,1,10,2:0:0:0:
340,40,19443,1,2,3:2:0:0:
292,201,19613,6,0,P|235:213|185:150,1,131.25,2|0,3:2|2:0,2:0:0:0:
175,132,19954,2,0,P|124:109|84:125,1,87.5,10|0,2:0|3:2,2:0:0:0:
0,208,20295,1,2,2:0:0:0:
44,48,20466,1,2,3:2:0:0:
44,48,20551,1,0,3:2:0:0:
44,48,20636,1,8,2:0:0:0:
112,216,20807,5,6,3:2:0:0:
119,227,21147,5,2,3:2:0:0:
126,242,21488,5,2,3:2:0:0:
1,356,21659,2,0,P|12:304|23:254,1,87.5,2|0,2:0|3:2,2:0:0:0:
192,154,22000,2,0,P|206:205|227:286,1,131.25,8|0,2:0|2:0,2:0:0:0:
233,310,22341,5,6,3:2:0:0:
177,323,27795,6,0,P|129:320|86:257,1,122.5,2|2,3:2|2:0,2:0:0:0:
65,193,28307,1,2,3:2:0:0:
65,193,28477,2,0,P|52:143|44:114,2,61.2499999999999,2|2|2,2:0|3:2|2:0,2:0:0:0:
170,237,28988,1,2,2:0:0:0:
170,237,29159,6,0,P|218:248|243:254,1,61.2499999999999,2|2,3:2|2:0,2:0:0:0:
388,282,29500,1,2,2:0:0:0:
388,282,29670,2,0,P|331:267|316:189,1,122.5,2|2,3:2|3:2,2:0:0:0:
326,136,30182,1,2,2:0:0:0:
392,200,30352,1,2,2:0:0:0:
392,200,30522,6,0,P|400:158|407:126,1,61.2499999999999,2|2,3:2|2:0,2:0:0:0:
474,64,30863,1,2,2:0:0:0:
474,64,31034,2,0,P|437:54|394:40,1,61.2499999999999,2|2,3:2|2:0,2:0:0:0:
309,19,31375,1,2,3:2:0:0:
309,19,31545,1,2,2:0:0:0:
193,99,31716,1,2,2:0:0:0:
213,9,31886,6,0,P|224:53|245:141,1,122.5,4|0,3:0|2:0,2:0:0:0:
251,159,32738,5,4,2:3:0:0:
107,76,32909,2,0,P|55:80|34:136,1,91.8749999999999,10|0,2:0|2:0,2:0:0:0:
39,148,33250,6,0,P|51:191|60:231,1,74.3750000000003,6|2,3:2|2:0,2:0:0:0:
127,297,33505,1,2,3:2:0:0:
127,297,33591,2,0,P|91:328|49:327,1,74.3750000000003,8|2,2:0|3:2,2:0:0:0:
192,232,33932,2,0,P|232:241|288:257,1,74.3750000000003,2|2,2:0|3:2,2:0:0:0:
286,258,34187,1,2,3:2:0:0:
286,258,34272,1,8,2:0:0:0:
351,352,34443,1,2,2:0:0:0:
393,243,34613,6,0,P|434:231|467:222,1,74.3750000000003,2|2,3:2|2:0,2:0:0:0:
497,219,34869,1,2,3:2:0:0:
497,219,34954,1,10,2:0:0:0:
383,40,35125,1,2,3:2:0:0:
383,40,35210,1,2,3:2:0:0:
383,40,35295,2,0,P|397:90|407:128,1,74.3750000000003,2|2,3:2|3:2,2:0:0:0:
413,152,35551,1,2,3:2:0:0:
413,152,35636,2,0,P|373:167|328:134,1,74.3750000000003,10|2,2:0|2:0,2:0:0:0:
198,50,35977,5,2,3:2:0:0:
176,157,36147,1,2,2:0:0:0:
286,72,36318,1,10,2:0:0:0:
264,179,36488,1,2,3:2:0:0:
198,36,36659,1,2,3:2:0:0:
163,165,36829,1,2,3:2:0:0:
298,58,37000,1,10,2:0:0:0:
274,198,37170,1,2,3:2:0:0:
274,198,37255,1,0,3:2:0:0:
274,198,37341,6,0,P|335:183|361:177,1,74.3750000000003,2|2,3:2|2:0,2:0:0:0:
380,173,37596,1,0,3:2:0:0:
380,173,37682,2,0,P|424:161|450:111,1,74.3750000000003,10|2,2:0|3:2,2:0:0:0:
483,43,38022,1,2,2:0:0:0:
366,90,38193,1,2,3:2:0:0:
512,179,38363,1,10,2:0:0:0:
381,259,38534,1,2,2:0:0:0:
496,307,38704,6,0,B|461:287|434:327|453:311|420:359|381:336,1,111.5625,2|0,3:2|2:0,2:0:0:0:
373,343,39045,2,0,P|324:334|252:326,1,111.5625,10|0,2:0|2:0,2:0:0:0:
233,323,39386,1,2,2:0:0:0:
149,233,39557,1,2,3:2:0:0:
149,233,39642,1,2,3:2:0:0:
149,233,39727,1,8,2:0:0:0:
119,360,39897,1,2,2:0:0:0:
64,215,40068,6,0,P|118:198|201:172,1,111.5625,2|0,3:2|3:2,2:0:0:0:
206,165,40409,2,0,P|224:125|201:78,1,74.3750000000003,10|2,2:0|3:2,2:0:0:0:
36,78,40750,1,2,2:0:0:0:
114,27,40920,1,2,3:2:0:0:
114,27,41005,1,2,2:0:0:0:
114,27,41091,2,0,P|125:66|141:126,1,74.3750000000003,8|6,2:0|2:3,2:0:0:0:
64,212,41432,6,0,P|53:270|43:315,1,74.3750000000003,0|2,3:2|2:0,2:0:0:0:
48,315,41687,1,0,3:2:0:0:
48,315,41772,1,10,2:0:0:0:
211,276,41943,1,2,3:2:0:0:
141,187,42113,1,2,2:0:0:0:
185,381,42284,1,2,3:2:0:0:
48,315,42454,2,0,P|91:303|132:293,1,74.3750000000003,10|0,2:0|2:0,2:0:0:0:
243,194,42795,6,0,P|303:205|362:220,1,111.5625,2|0,3:2|3:2,2:0:0:0:
382,226,43136,5,8,2:0:0:0:
449,339,43307,1,0,3:2:0:0:
457,162,43477,5,8,2:0:0:0:
363,312,43647,1,0,3:2:0:0:
368,119,43818,5,8,2:0:0:0:
471,256,43988,1,8,2:0:0:0:
471,256,44074,1,8,2:0:0:0:
471,256,44159,6,0,P|480:206|503:93,1,157.5,6|10,3:2|2:0,2:0:0:0:
417,31,44670,2,0,P|346:12|283:90,1,157.5,2|2,3:2|3:2,2:0:0:0:
250,195,45182,1,8,2:0:0:0:
372,126,45352,1,2,2:0:0:0:
372,126,45437,1,2,2:0:0:0:
372,126,45522,6,0,P|314:115|204:97,1,157.5,2|8,3:2|2:0,2:0:0:0:
119,11,46034,2,0,B|129:49|129:49|121:79|121:79|138:150,1,118.125,0|0,3:2|2:0,2:0:0:0:
137,148,46375,1,2,3:2:0:0:
0,234,46545,1,10,2:0:0:0:
145,286,46716,1,2,2:0:0:0:
45,157,46886,6,0,P|30:237|15:325,1,157.5,2|10,3:2|2:0,2:0:0:0:
115,362,47397,2,0,P|172:370|221:313,1,118.125,2|0,3:2|2:0,2:0:0:0:
239,304,47738,2,0,P|282:283|339:301,1,78.7500000000001,2|8,3:2|2:0,2:0:0:0:
416,384,48079,1,2,2:0:0:0:
416,384,48164,1,2,2:0:0:0:
416,384,48250,6,0,P|430:295|445:214,1,166.25,2|8,3:2|2:0,2:0:0:0:
506,154,48761,2,0,P|447:187|369:128,1,166.25,2|8,3:2|2:0,2:0:0:0:
346,14,49272,2,0,P|408:15|432:126,1,166.25,2|0,3:2|3:2,2:0:0:0:
327,207,49784,2,0,B|275:224|275:224|249:262|249:262|179:283,1,166.25,10|0,2:0|3:2,2:0:0:0:
172,110,50295,2,0,P|187:159|202:206,1,83.1249999999999,10|0,2:0|2:0,2:0:0:0:
103,280,50636,1,2,3:2:0:0:
245,342,50807,1,8,2:0:0:0:
116,193,50977,6,0,B|70:185|70:185|34:229,1,87.5,6|2,3:2|2:0,2:0:0:0:
0,322,51318,1,10,3:2:0:0:
129,363,51488,2,0,P|113:315|100:273,2,87.5,6|2|2,3:2|2:0|3:2,2:0:0:0:
291,257,52000,6,0,P|280:293|264:346,1,87.5,14|2,3:2|2:0,2:0:0:0:
231,182,52341,1,2,3:2:0:0:
388,284,52511,1,14,3:2:0:0:
336,120,52682,1,10,3:2:0:0:
336,120,52767,1,8,3:2:0:0:
336,120,52852,2,0,L|319:176,1,43.75,10|8,3:2|3:2,2:0:0:0:
291,257,53022,1,10,3:2:0:0:
219,99,53193,5,10,3:2:0:0:
219,99,53534,1,2,2:0:0:0:
398,20,53704,6,0,P|413:66|431:123,1,96.25,6|2,3:2|2:0,2:0:0:0:
364,241,54045,1,10,2:0:0:0:
507,136,54216,2,0,P|490:190|474:247,1,96.25,2|0,3:2|2:0,2:0:0:0:
313,323,54557,1,2,3:2:0:0:
477,379,54727,1,8,2:0:0:0:
372,247,54897,1,2,2:0:0:0:
372,247,54983,1,0,3:2:0:0:
372,247,55068,6,0,P|301:234|217:218,1,144.375,0|0,3:2|3:2,2:0:0:0:
202,216,55409,1,8,2:0:0:0:
117,319,55579,2,0,P|173:360|218:341,1,96.25,2|0,3:2|2:0,2:0:0:0:
48,209,55920,2,0,P|30:264|13:323,1,96.25,2|8,3:2|2:0,2:0:0:0:
202,216,56261,1,2,2:0:0:0:
57,81,56432,5,2,3:2:0:0:
41,70,56602,1,2,2:0:0:0:
220,185,56772,1,10,2:0:0:0:
165,4,56943,2,0,P|151:66|133:157,1,144.375,2|0,3:2|2:0,2:0:0:0:
129,172,57284,1,2,3:2:0:0:
268,84,57454,1,10,2:0:0:0:
284,72,57625,1,2,2:0:0:0:
170,251,57795,6,0,P|226:210|315:248,1,144.375,2|0,3:2|3:2,2:0:0:0:
321,252,58136,2,0,P|349:281|416:265,1,96.25,10|2,2:0|3:2,2:0:0:0:
481,185,58477,1,2,2:0:0:0:
486,168,58647,1,2,3:2:0:0:
429,367,58818,1,10,2:0:0:0:
372,198,58988,1,2,2:0:0:0:
493,314,59159,6,0,P|442:326|341:347,1,144.375,6|0,3:2|2:0,2:0:0:0:
328,352,59500,1,10,2:0:0:0:
203,297,59670,1,0,3:2:0:0:
203,297,59755,1,0,3:2:0:0:
203,297,59841,2,0,P|239:252|303:247,1,96.25,2|2,3:2|3:2,2:0:0:0:
465,176,60182,2,0,P|406:206|363:191,1,96.25,10|0,2:0|2:0,2:0:0:0:
362,4,60522,6,0,P|375:42|397:109,1,96.25,0|0,3:2|2:0,2:0:0:0:
404,122,60778,1,0,3:2:0:0:
404,122,60863,1,10,2:0:0:0:
274,242,61034,1,0,3:2:0:0:
274,242,61119,1,0,3:2:0:0:
274,242,61204,2,0,P|288:192|301:144,1,96.25,2|0,3:2|3:2,2:0:0:0:
152,39,61545,1,10,2:0:0:0:
220,144,61716,1,2,2:0:0:0:
252,26,61886,6,0,B|227:55|180:58|180:58|150:93|150:93|98:94|63:134,1,210,2|2,3:2|3:2,2:0:0:0:
0,199,62397,2,0,P|52:271|128:235,1,157.5,14|0,2:0|2:0,2:0:0:0:
137,179,62738,2,0,P|154:258|170:338,1,157.5,2|0,3:2|2:0,2:0:0:0:
156,359,63079,6,0,B|256:340|256:340|261:345|261:345|363:326,1,210,14|2,2:0|3:2,2:0:0:0:
471,192,63591,1,10,2:0:0:0:
317,249,63761,1,2,3:2:0:0:
491,342,63932,1,10,2:0:0:0:
347,166,64102,5,8,2:0:0:0:
320,160,64187,1,8,2:0:0:0:
293,155,64272,1,10,2:0:0:0:
266,149,64358,1,8,2:0:0:0:
243,145,64443,2,0,L|190:133,1,52.5,8|8,2:0|2:0,2:0:0:0:
39,79,64613,6,0,P|91:62|139:46,1,96.25,6|2,3:2|2:0,2:0:0:0:
0,186,64954,1,10,2:0:0:0:
146,241,65125,2,0,P|128:188|114:142,1,96.25,2|0,3:2|2:0,2:0:0:0:
5,348,65466,1,2,3:2:0:0:
60,246,65636,1,8,2:0:0:0:
138,365,65807,1,2,2:0:0:0:
138,365,65892,1,0,3:2:0:0:
138,365,65977,6,0,P|202:345|292:324,1,144.375,0|0,3:2|3:2,2:0:0:0:
304,319,66318,1,8,2:0:0:0:
300,184,66488,2,0,B|252:206|252:206|245:258,1,96.25,2|0,3:2|2:0,2:0:0:0:
420,356,66829,2,0,P|402:303|388:257,1,96.25,2|8,3:2|2:0,2:0:0:0:
338,107,67170,1,2,2:0:0:0:
457,188,67341,5,2,3:2:0:0:
465,206,67511,1,2,2:0:0:0:
399,41,67682,1,10,2:0:0:0:
300,184,67852,2,0,P|228:167|146:150,1,144.375,2|0,3:2|2:0,2:0:0:0:
135,144,68193,1,2,3:2:0:0:
240,82,68363,1,8,2:0:0:0:
200,247,68534,1,0,3:2:0:0:
200,247,68619,1,0,3:2:0:0:
200,247,68704,6,0,P|127:267|46:289,1,157.5,2|0,3:2|3:2,2:0:0:0:
24,297,69045,1,10,2:0:0:0:
28,103,69216,1,0,3:2:0:0:
28,103,69301,1,0,3:2:0:0:
28,103,69386,2,0,P|46:165|64:220,1,105,2|0,2:0|3:2,2:0:0:0:
110,361,69727,1,10,2:0:0:0:
144,177,69897,1,2,2:0:0:0:
202,340,70068,6,0,P|260:354|323:300,1,144.375,4|0,3:2|2:0,2:0:0:0:
334,277,70409,1,8,2:0:0:0:
471,368,70579,1,2,3:2:0:0:
471,368,70664,1,0,3:2:0:0:
471,368,70750,2,0,P|451:308|440:265,1,96.25,2|2,3:2|3:2,2:0:0:0:
368,196,71091,2,0,P|413:196|450:158,1,96.25,10|2,2:0|2:0,2:0:0:0:
412,0,71432,6,0,P|397:47|377:105,1,96.25,2|2,3:2|2:0,2:0:0:0:
382,119,71687,1,0,3:2:0:0:
382,119,71772,1,10,2:0:0:0:
481,34,71943,1,2,3:2:0:0:
291,50,72113,2,0,B|248:69|248:69|224:108|224:108|160:132,1,144.375,2|0,2:0|2:0,2:0:0:0:
149,139,72454,1,10,2:0:0:0:
275,204,72625,1,2,2:0:0:0:
151,43,72795,6,0,P|70:70|56:157,1,144.375,0|0,3:2|2:0,2:0:0:0:
50,148,73136,2,0,P|65:201|78:245,1,96.25,8|2,2:0|3:2,2:0:0:0:
183,327,73477,1,2,2:0:0:0:
197,332,73647,1,2,3:2:0:0:
11,300,73818,1,10,2:0:0:0:
163,210,73988,1,2,2:0:0:0:
77,384,74159,6,0,P|141:366|195:352,1,105,4|8,3:2|2:0,2:0:0:0:
396,289,74500,1,10,2:0:0:0:
288,207,74670,1,10,2:0:0:0:
288,207,74755,1,8,2:0:0:0:
288,207,74841,2,0,P|273:265|257:321,1,105,10|10,2:0|3:0,2:0:0:0:
414,193,75182,1,10,3:0:0:0:
222,112,75352,1,10,3:0:0:0:
432,25,75522,5,6,3:2:0:0:
344,84,76886,5,6,3:2:0:0:
464,108,77909,6,0,P|453:146|443:184,1,78.7499999999998,2|0,3:2|2:0,2:0:0:0:
435,215,78250,1,2,2:0:0:0:
435,215,78932,6,0,P|464:263|424:331,1,131.25,6|0,3:2|2:0,2:0:0:0:
407,339,79272,2,0,P|357:328|295:317,1,87.5,10|0,2:0|3:2,2:0:0:0:
146,214,79613,1,2,2:0:0:0:
224,359,79784,1,2,3:2:0:0:
224,359,79869,1,0,3:2:0:0:
224,359,79954,2,0,P|237:305|249:262,1,87.5,8|2,2:0|3:2,2:0:0:0:
321,100,80295,6,0,P|275:154|203:137,1,131.25,0|0,3:2|3:2,2:0:0:0:
196,138,80636,1,8,2:0:0:0:
7,16,80807,2,0,P|27:97|50:193,1,175,2|2,3:2|3:2,2:0:0:0:
128,282,81318,1,10,2:0:0:0:
2,365,81488,1,2,3:2:0:0:
153,267,81659,6,0,P|227:264|280:325,1,131.25,2|0,3:2|2:0,2:0:0:0:
285,331,82000,2,0,P|330:347|373:315,1,87.5,10|0,2:0|3:2,2:0:0:0:
506,212,82341,1,2,2:0:0:0:
452,346,82511,1,2,3:2:0:0:
452,346,82596,1,0,3:2:0:0:
452,346,82682,2,0,P|437:292|423:248,1,87.5,8|2,2:0|3:2,2:0:0:0:
266,137,83022,6,0,P|255:186|244:231,1,87.5,0|2,3:2|2:0,2:0:0:0:
244,247,83278,1,0,3:2:0:0:
244,247,83363,1,8,2:0:0:0:
372,184,83534,1,2,3:2:0:0:
173,105,83704,1,10,2:0:0:0:
355,33,83875,5,8,2:0:0:0:
355,33,83960,1,8,2:0:0:0:
355,33,84045,2,0,L|369:85,1,43.75,8|8,2:0|2:0,2:0:0:0:
470,147,84216,2,0,L|458:104,1,43.75,8|8,2:0|2:0,2:0:0:0:
253,0,84386,6,0,P|272:59|293:127,1,131.25,6|0,3:2|3:2,2:0:0:0:
300,154,84727,1,10,2:0:0:0:
448,261,84897,6,0,P|409:229|324:254,1,131.25,4|0,2:3|2:0,2:0:0:0:
317,264,85238,1,2,3:2:0:0:
385,147,85409,1,8,2:0:0:0:
356,363,85579,1,2,3:2:0:0:
356,363,85664,1,8,2:0:0:0:
356,363,85750,6,0,P|308:375|258:344,1,87.5,0|2,3:2|2:0,2:0:0:0:
257,353,86005,1,0,3:2:0:0:
257,353,86091,1,8,2:0:0:0:
114,173,86261,2,0,B|131:242|131:242|119:275|119:275|149:360,1,175,2|2,3:2|3:2,2:0:0:0:
223,267,86772,1,10,2:0:0:0:
28,215,86943,1,2,3:2:0:0:
87,75,87113,6,0,P|145:70|209:127,1,131.25,2|0,3:2|2:0,2:0:0:0:
231,139,87454,2,0,P|276:146|310:109,1,87.5,10|0,2:0|3:2,2:0:0:0:
397,0,87795,1,2,2:0:0:0:
266,47,87966,1,2,3:2:0:0:
266,47,88051,1,0,3:2:0:0:
266,47,88136,1,8,2:0:0:0:
439,140,88307,5,6,3:2:0:0:
447,151,88647,5,2,3:2:0:0:
456,164,88988,5,2,3:2:0:0:
330,243,89159,2,0,P|341:187|347:154,1,87.5,10|0,2:0|3:2,2:0:0:0:
434,297,89500,2,0,P|412:336|322:350,1,131.25,8|0,2:0|2:0,2:0:0:0:
301,351,89841,5,6,3:2:0:0:
189,260,90352,1,2,3:2:0:0:
189,260,90522,2,0,P|229:248|264:235,2,56.8749999999999,2|2|2,2:0|3:2|2:0,2:0:0:0:
89,314,91204,6,0,P|49:302|13:291,2,56.8749999999999,2|2|2,3:2|2:0|2:0,2:0:0:0:
184,349,91716,2,0,P|168:292|149:223,1,113.75,2|2,3:2|3:2,2:0:0:0:
131,162,92227,1,2,2:0:0:0:
131,162,92568,6,0,P|65:154|40:104,1,113.75,2|2,3:2|2:0,2:0:0:0:
97,30,93079,1,2,3:2:0:0:
97,30,93250,2,0,P|109:75|116:100,2,56.8749999999999,2|2|2,2:0|3:2|2:0,2:0:0:0:
230,109,93761,5,2,2:0:0:0:
230,109,93932,2,0,P|271:117|355:136,1,113.75,0|2,3:2|2:0,2:0:0:0:
418,152,94443,1,2,3:2:0:0:
361,51,94784,6,0,P|328:45|297:39,2,56.8749999999999,2|2|2,3:2|2:0|2:0,2:0:0:0:
418,152,95295,6,0,P|429:193|436:221,1,56.8749999999999,2|2,3:2|2:0,2:0:0:0:
462,289,95636,1,2,2:0:0:0:
462,289,95807,2,0,P|413:253|355:280,1,113.75,2|2,3:2|3:2,2:0:0:0:
321,366,96318,2,0,P|350:358|383:348,1,56.8749999999999,2|2,2:0|2:0,2:0:0:0:
278,262,96659,6,0,P|250:253|223:246,1,56.8749999999999,2|2,3:2|2:0,2:0:0:0:
170,335,97000,1,2,2:0:0:0:
170,335,97170,2,0,P|118:344|79:293,1,113.75,2|2,3:2|3:2,2:0:0:0:
55,206,97852,1,2,2:0:0:0:
55,206,98022,6,0,P|20:197|-15:189,2,56.8749999999999,2|2|2,3:2|2:0|2:0,2:0:0:0:
145,149,98534,1,2,3:2:0:0:
145,149,98704,2,0,P|180:140|215:132,2,56.8749999999999,2|2|2,2:0|3:2|2:0,2:0:0:0:
48,69,99216,5,2,3:2:0:0:
70,54,99573,5,2,2:0:0:0:
97,40,99913,5,2,2:0:0:0:
97,40,100084,2,0,P|133:55|187:21,1,85.3124999999999,2|0,2:0|2:0,2:0:0:0:
206,24,100425,6,0,P|217:55|232:94,1,61.2499999999997,2|0,2:0|2:0,2:0:0:0:
