osu file format v14

[General]
AudioFilename: audio.mp3
AudioLeadIn: 0
PreviewTime: 53534
Countdown: 0
SampleSet: Soft
StackLeniency: 0.7
Mode: 0
LetterboxInBreaks: 0
WidescreenStoryboard: 1

[Editor]
Bookmarks: 22341,44159,53534,78932,89841
DistanceSpacing: 1.5
BeatDivisor: 4
GridSize: 32
TimelineZoom: 3.799999

[Metadata]
Title:Last Dance (Cut Ver.)
TitleUnicode:ラストダンス (Cut Ver.)
Artist:Eve
ArtistUnicode:Eve
Creator:DMK7
Version:Finale
Source:
Tags:Otogi japanese pop jpop j-pop rock j-rock jrock Numa ItsCactus
BeatmapID:3903284
BeatmapSetID:1893612

[Difficulty]
HPDrainRate:6
CircleSize:4.2
OverallDifficulty:9
ApproachRate:9.2
SliderMultiplier:1.85
SliderTickRate:1

[Events]
//Background and Video events
0,0,"last_dance_eve.jpg",0,0
//Break Periods
2,22682,27113
//Storyboard Layer 0 (Background)
//Storyboard Layer 1 (Fail)
//Storyboard Layer 2 (Pass)
//Storyboard Layer 3 (Foreground)
//Storyboard Layer 4 (Overlay)
//Storyboard Sound Samples

[TimingPoints]
533,340.909090909091,4,2,1,50,1,0
533,-142.857142857143,4,2,1,50,0,0
2663,-142.857142857143,4,2,1,5,0,0
2748,-142.857142857143,4,2,1,50,0,0
3601,322.58064516129,4,2,1,50,1,0
3923,352.941176470588,4,2,1,50,1,0
3923,-142.857142857143,4,2,1,50,0,0
4452,342.857142857143,4,2,1,50,1,0
4452,-142.857142857143,4,2,1,50,0,0
5137,337.078651685393,4,2,1,50,1,0
5305,-142.857142857143,4,2,1,50,0,0
5557,-142.857142857143,4,2,1,5,0,0
5642,348.837209302326,4,2,1,50,1,0
5990,340.909090909091,4,2,1,50,1,0
5990,-142.857142857143,4,2,1,50,0,0
7183,344.827586206897,4,2,1,50,1,0
7183,-142.857142857143,4,2,1,50,0,0
7872,333.333333333333,4,2,1,50,1,0
7872,-142.857142857143,4,2,1,50,0,0
8122,-142.857142857143,4,2,1,5,0,0
8205,-142.857142857143,4,2,1,50,0,0
8538,350.877192982456,4,2,1,50,1,0
8714,340.909090909091,4,2,1,50,1,0
8714,-142.857142857143,4,2,1,50,0,0
9054,327.868852459016,4,2,1,50,1,0
9381,346.820809248555,4,2,1,50,1,0
9381,-142.857142857143,4,2,1,50,0,0
9901,340.909090909091,4,2,1,50,1,0
10753,338.983050847458,4,2,1,50,1,0
10753,-142.857142857143,4,2,1,50,0,0
11432,340.909090909091,4,2,1,65,1,0
11687,-100,4,2,1,5,0,0
11772,-100,4,2,1,65,0,0
13562,-100,4,2,1,5,0,0
13647,-100,4,2,1,65,0,0
14414,-100,4,2,1,5,0,0
14500,-100,4,2,1,65,0,0
17056,-100,4,2,1,5,0,0
17142,-100,4,2,1,65,0,0
17652,-100,4,2,1,5,0,0
17738,-100,4,2,1,65,0,0
19016,-100,4,2,1,5,0,0
19102,-100,4,2,1,65,0,0
19868,-100,4,2,1,5,0,0
19954,-100,4,2,1,65,0,0
22255,-100,4,2,1,5,0,0
22341,-100,4,2,1,40,0,0
27795,-142.857142857143,4,2,1,40,0,0
28050,-142.857142857143,4,2,1,5,0,0
28136,-142.857142857143,4,2,1,40,0,0
32823,-142.857142857143,4,2,1,5,0,0
32909,-142.857142857143,4,2,1,40,0,0
33164,-142.857142857143,4,2,1,5,0,0
33250,-117.647058823529,4,2,1,60,0,0
36062,-117.647058823529,4,2,1,5,0,0
36147,-117.647058823529,4,2,1,60,0,0
36232,-117.647058823529,4,2,1,5,0,0
36318,-117.647058823529,4,2,1,60,0,0
36914,-117.647058823529,4,2,1,5,0,0
37000,-117.647058823529,4,2,1,60,0,0
38959,-117.647058823529,4,2,1,5,0,0
39045,-117.647058823529,4,2,1,60,0,0
39300,-117.647058823529,4,2,1,5,0,0
39386,-117.647058823529,4,2,1,60,0,0
44159,-111.111111111111,4,2,1,60,0,0
44414,-111.111111111111,4,2,1,5,0,0
44500,-111.111111111111,4,2,1,60,0,0
44925,-111.111111111111,4,2,1,5,0,0
45011,-111.111111111111,4,2,1,60,0,0
45692,-111.111111111111,4,2,1,5,0,0
45778,-111.111111111111,4,2,1,60,0,0
46289,-111.111111111111,4,2,1,5,0,0
46375,-111.111111111111,4,2,1,60,0,0
47141,-111.111111111111,4,2,1,5,0,0
47227,-111.111111111111,4,2,1,60,0,0
47652,-111.111111111111,4,2,1,5,0,0
47738,-111.111111111111,4,2,1,60,0,0
48250,-105.263157894737,4,2,1,60,0,0
48505,-105.263157894737,4,2,1,5,0,0
48591,-105.263157894737,4,2,1,60,0,0
48676,-105.263157894737,4,2,1,5,0,0
48761,-105.263157894737,4,2,1,60,0,0
49016,-105.263157894737,4,2,1,5,0,0
49102,-105.263157894737,4,2,1,60,0,0
49187,-105.263157894737,4,2,1,5,0,0
49272,-105.263157894737,4,2,1,60,0,0
49527,-105.263157894737,4,2,1,5,0,0
49613,-105.263157894737,4,2,1,60,0,0
49698,-105.263157894737,4,2,1,5,0,0
49784,-105.263157894737,4,2,1,60,0,0
50039,-105.263157894737,4,2,1,5,0,0
50125,-105.263157894737,4,2,1,60,0,0
50210,-105.263157894737,4,2,1,5,0,0
50295,-105.263157894737,4,2,1,60,0,0
50550,-105.263157894737,4,2,1,5,0,0
50636,-105.263157894737,4,2,1,60,0,0
53022,-100,4,2,1,60,0,0
53704,-100,4,2,1,75,0,1
54216,-90.9090909090909,4,2,1,75,0,1
57198,-90.9090909090909,4,2,1,5,0,1
57284,-90.9090909090909,4,2,1,75,0,1
57965,-90.9090909090909,4,2,1,5,0,1
58051,-90.9090909090909,4,2,1,75,0,1
59414,-90.9090909090909,4,2,1,5,0,1
59500,-90.9090909090909,4,2,1,75,0,1
60692,-90.9090909090909,4,2,1,5,0,1
60778,-90.9090909090909,4,2,1,75,0,1
61886,-83.3333333333333,4,2,1,75,0,1
62141,-83.3333333333333,4,2,1,5,0,1
62227,-83.3333333333333,4,2,1,75,0,1
62312,-83.3333333333333,4,2,1,5,0,1
62397,-83.3333333333333,4,2,1,75,0,1
62652,-83.3333333333333,4,2,1,5,0,1
62738,-83.3333333333333,4,2,1,75,0,1
62993,-83.3333333333333,4,2,1,5,0,1
63079,-83.3333333333333,4,2,1,75,0,1
63334,-83.3333333333333,4,2,1,5,0,1
63420,-83.3333333333333,4,2,1,75,0,1
64613,-90.9090909090909,4,2,1,75,0,1
68107,-90.9090909090909,4,2,1,5,0,1
68193,-90.9090909090909,4,2,1,75,0,1
68704,-83.3333333333333,4,2,1,75,0,1
70068,-90.9090909090909,4,2,1,75,0,1
70323,-90.9090909090909,4,2,1,5,0,1
70409,-90.9090909090909,4,2,1,75,0,1
72368,-90.9090909090909,4,2,1,5,0,1
72454,-90.9090909090909,4,2,1,75,0,1
73050,-90.9090909090909,4,2,1,5,0,1
73136,-90.9090909090909,4,2,1,75,0,1
74159,-83.3333333333333,4,2,1,75,0,1
75522,-83.3333333333333,4,2,1,75,0,0
76204,-166.666666666667,4,2,1,75,0,0
78164,-166.666666666667,4,2,1,5,0,0
78250,-166.666666666667,4,2,1,75,0,0
78932,340.909090909091,4,2,1,75,1,0
79187,-100,4,2,1,5,0,0
79272,-100,4,2,1,75,0,0
81062,-100,4,2,1,5,0,0
81147,-100,4,2,1,75,0,0
81914,-100,4,2,1,5,0,0
82000,-100,4,2,1,75,0,0
84556,-100,4,2,1,5,0,0
84642,-100,4,2,1,75,0,0
85152,-100,4,2,1,5,0,0
85238,-100,4,2,1,75,0,0
86516,-100,4,2,1,5,0,0
86602,-100,4,2,1,75,0,0
87368,-100,4,2,1,5,0,0
87454,-100,4,2,1,75,0,0
89755,-100,4,2,1,5,0,0
89841,-100,4,2,1,40,0,0
90863,-153.846153846154,4,2,1,40,0,0
99216,357.142857142857,4,2,1,40,1,0
99573,340.909090909091,4,2,1,40,1,0
100084,-153.846153846154,4,2,1,40,0,0
100339,-153.846153846154,4,2,1,5,0,0
100425,-285.714285714287,4,2,1,40,0,0
100765,-285.714285714287,4,2,1,5,0,0

[Colours]
Combo1 : 104,90,81
Combo2 : 217,80,50
Combo3 : 210,182,161
Combo4 : 166,62,38

[HitObjects]
251,322,533,6,0,P|192:304|108:284,1,129.5,2|2,2:0|2:0,2:0:0:0:
25,232,1044,1,2,2:0:0:0:
25,232,1129,1,2,2:0:0:0:
25,232,1214,2,0,P|59:224|96:192,1,64.7499999999999,2|2,2:0|2:0,2:0:0:0:
212,137,1555,1,0,2:0:0:0:
105,76,1726,6,0,P|67:68|25:55,1,64.7499999999999,2|0,2:0|2:0,2:0:0:0:
212,137,2067,2,0,P|174:145|131:157,1,64.7499999999999,2|0,2:0|2:0,2:0:0:0:
257,58,2408,2,0,P|301:69|360:86,1,97.1249999999999,2|0,2:0|2:0,2:0:0:0:
374,93,2748,1,2,2:0:0:0:
469,22,2919,1,2,2:0:0:0:
469,22,3089,1,2,2:0:0:0:
446,160,3260,6,0,P|410:198|328:183,1,129.879866666667,2|2,2:0|2:0,2:0:0:0:
214,213,3762,1,2,2:0:0:0:
214,213,3923,2,0,P|260:237|269:272,1,64.7499999999999,2|2,2:0|2:0,2:0:0:0:
288,339,4275,1,0,2:0:0:0:
351,281,4452,6,0,P|381:292|412:300,1,64.7499999999999,2|0,2:0|2:0,2:0:0:0:
227,359,4794,2,0,P|257:348|288:339,1,64.7499999999999,2|0,2:0|2:0,2:0:0:0:
62,277,5137,1,2,2:0:0:0:
160,234,5305,2,0,P|150:274|133:337,1,97.1249999999999,2|0,2:0|2:0,2:0:0:0:
129,354,5642,1,2,2:0:0:0:
38,190,5990,6,0,P|25:140|88:81,1,129.5,2|2,2:0|2:0,2:0:0:0:
172,8,6501,1,2,2:0:0:0:
172,8,6586,1,2,2:0:0:0:
172,8,6671,2,0,P|159:47|145:86,1,64.7499999999999,2|2,2:0|2:0,2:0:0:0:
120,161,7012,1,0,2:0:0:0:
302,104,7183,6,0,P|270:110|239:118,1,64.7499999999999,2|0,2:0|2:0,2:0:0:0:
416,53,7527,2,0,P|371:43|336:34,1,64.7499999999999,2|0,2:0|2:0,2:0:0:0:
237,196,7872,2,0,P|292:184|360:171,1,97.1249999999999,2|0,2:0|2:0,2:0:0:0:
361,171,8205,1,2,2:0:0:0:
317,289,8372,1,2,2:0:0:0:
317,289,8538,1,2,2:0:0:0:
455,163,8714,6,0,P|444:204|419:303,1,129.5,2|2,2:0|2:0,2:0:0:0:
255,308,9217,1,2,2:0:0:0:
255,308,9381,2,0,P|287:299|335:284,1,64.7499999999999,2|2,2:0|2:0,2:0:0:0:
398,357,9727,1,0,2:0:0:0:
338,198,9901,5,2,2:0:0:0:
328,165,10241,5,2,2:0:0:0:
320,139,10582,5,2,2:0:0:0:
320,139,10753,2,0,P|390:121|398:59,1,129.5,2|0,2:0|2:0,2:0:0:0:
300,42,11432,6,0,P|233:63|157:91,1,138.75,6|0,3:2|2:0,2:0:0:0:
100,118,11772,2,0,P|97:176|155:203,1,92.5,10|0,2:0|3:2,2:0:0:0:
188,239,12028,1,0,3:2:0:0:
188,239,12113,1,2,3:2:0:0:
15,222,12284,1,2,3:2:0:0:
179,137,12454,1,8,2:0:0:0:
47,322,12625,1,2,3:2:0:0:
47,322,12710,1,0,3:2:0:0:
47,322,12795,6,0,P|98:311|149:300,1,92.5,0|2,3:2|2:0,2:0:0:0:
213,327,13051,1,0,3:2:0:0:
213,327,13136,1,8,2:0:0:0:
292,167,13307,2,0,P|305:226|325:318,1,138.75,2|0,3:2|2:0,2:0:0:0:
339,375,13647,1,2,3:2:0:0:
200,209,13818,1,10,2:0:0:0:
414,292,13988,1,2,3:2:0:0:
414,292,14074,1,0,3:2:0:0:
414,292,14159,6,0,P|454:250|436:170,1,138.75,2|0,3:2|2:0,2:0:0:0:
403,112,14500,1,10,2:0:0:0:
512,41,14670,1,0,3:2:0:0:
503,75,14755,1,0,3:2:0:0:
494,110,14841,1,2,3:2:0:0:
320,12,15011,1,2,3:2:0:0:
346,221,15182,1,8,2:0:0:0:
415,81,15352,1,2,3:2:0:0:
415,81,15437,1,0,3:0:0:0:
415,81,15522,6,0,P|364:94|298:111,1,92.5,0|2,3:2|2:0,2:0:0:0:
266,151,15778,1,0,3:2:0:0:
266,151,15863,1,8,2:0:0:0:
25,95,16034,1,2,3:2:0:0:
165,27,16204,1,10,2:0:0:0:
39,224,16375,1,8,2:0:0:0:
33,264,16460,1,8,2:0:0:0:
47,302,16545,1,8,2:0:0:0:
79,328,16630,1,8,2:0:0:0:
119,336,16716,1,8,2:0:0:0:
159,323,16801,1,8,2:0:0:0:
191,306,16886,6,0,P|239:289|281:315,1,92.5,6|0,3:2|2:0,2:0:0:0:
324,365,17142,1,0,3:2:0:0:
324,365,17227,1,10,2:0:0:0:
117,241,17397,6,0,P|131:174|146:100,1,138.75,4|0,2:3|2:0,2:0:0:0:
28,23,17738,1,2,3:2:0:0:
22,61,17824,1,0,3:2:0:0:
46,92,17909,1,8,2:0:0:0:
232,184,18079,2,0,L|221:136,1,46.25,2|8,3:2|2:0,2:0:0:0:
183,9,18250,6,0,P|233:23|280:38,1,92.5,0|2,3:2|2:0,2:0:0:0:
347,69,18505,1,0,3:2:0:0:
347,69,18591,1,8,2:0:0:0:
486,162,18761,2,0,B|437:179|437:179|415:209|415:209|379:212|356:240,1,138.75,2|0,3:2|2:0,2:0:0:0:
308,267,19102,1,2,3:2:0:0:
477,321,19272,1,10,2:0:0:0:
333,162,19443,1,2,3:2:0:0:
333,162,19528,1,0,3:2:0:0:
333,162,19613,6,0,P|348:220|373:319,1,138.75,2|0,3:2|2:0,2:0:0:0:
386,366,19954,1,10,2:0:0:0:
197,239,20125,1,0,3:2:0:0:
227,226,20210,1,0,3:2:0:0:
259,212,20295,1,2,3:2:0:0:
136,369,20466,1,2,3:2:0:0:
225,125,20636,1,8,2:0:0:0:
290,355,20807,5,6,3:2:0:0:
262,344,21147,5,2,3:2:0:0:
232,332,21488,5,2,3:2:0:0:
64,278,21659,1,2,2:0:0:0:
173,189,21829,1,0,3:2:0:0:
136,369,22000,2,0,P|120:309|95:219,1,138.75,8|0,2:0|2:0,2:0:0:0:
80,163,22341,5,6,3:2:0:0:
72,78,27795,6,0,P|128:80|160:115,1,97.1249999999999,2|0,3:2|2:0,2:0:0:0:
175,140,28136,1,2,2:0:0:0:
175,140,28307,1,2,3:2:0:0:
69,231,28477,2,0,P|78:196|87:163,2,64.7499999999999,2|2|2,2:0|3:2|2:0,2:0:0:0:
37,326,28988,1,2,2:0:0:0:
150,269,29159,5,2,3:2:0:0:
230,300,29329,1,2,2:0:0:0:
215,201,29500,1,2,2:0:0:0:
167,364,29670,2,0,P|222:347|307:322,1,129.5,2|2,3:2|3:2,2:0:0:0:
374,305,30182,1,2,2:0:0:0:
374,305,30352,1,2,2:0:0:0:
314,182,30522,6,0,P|307:217|298:254,1,64.7499999999999,2|2,3:2|2:0,2:0:0:0:
477,335,30863,2,0,P|469:303|463:271,1,64.7499999999999,2|2,2:0|3:2,2:0:0:0:
494,153,31204,1,2,2:0:0:0:
494,153,31375,1,2,3:2:0:0:
388,201,31545,1,2,2:0:0:0:
410,91,31716,1,2,2:0:0:0:
454,260,31886,6,0,P|391:243|329:225,1,129.5,4|0,3:0|2:0,2:0:0:0:
257,206,32738,6,0,L|265:159,1,32.375,4|0,2:3|2:0,2:0:0:0:
300,22,32909,6,0,P|334:58|320:129,1,97.1249999999999,10|0,2:0|2:0,2:0:0:0:
260,90,33250,6,0,P|209:79|152:70,1,78.6250000000003,6|2,3:2|2:0,2:0:0:0:
109,56,33505,1,2,3:2:0:0:
109,56,33591,2,0,L|120:2,1,39.3125000000001,8|0,2:0|2:0,2:0:0:0:
169,181,33761,1,2,3:2:0:0:
40,117,33932,2,0,P|26:167|14:204,1,78.6250000000003,2|2,2:0|3:2,2:0:0:0:
30,266,34187,1,2,3:2:0:0:
30,266,34272,1,8,2:0:0:0:
124,374,34443,1,2,2:0:0:0:
123,251,34613,6,0,P|177:263|207:271,1,78.6250000000003,2|2,3:2|2:0,2:0:0:0:
273,293,34869,1,2,3:2:0:0:
273,293,34954,1,10,2:0:0:0:
402,362,35125,1,2,3:2:0:0:
393,335,35210,1,2,3:2:0:0:
384,308,35295,2,0,P|373:269|358:219,1,78.6250000000003,2|2,3:2|3:2,2:0:0:0:
459,131,35551,1,2,3:2:0:0:
459,131,35636,2,0,P|462:189|425:219,1,78.6250000000003,10|2,2:0|2:0,2:0:0:0:
325,123,35977,6,0,L|381:136,1,39.3125000000001,2|0,3:2|2:0,2:0:0:0:
374,145,36147,2,0,L|335:136,1,39.3125000000001,2|0,2:0|2:0,2:0:0:0:
191,236,36318,1,10,2:0:0:0:
213,34,36488,1,2,3:2:0:0:
222,64,36574,1,0,3:2:0:0:
231,94,36659,2,0,L|242:131,1,39.3125000000001,2|0,3:2|2:0,2:0:0:0:
276,234,36829,2,0,L|287:197,1,39.3125000000001,2|0,3:2|2:0,2:0:0:0:
336,31,37000,5,10,2:0:0:0:
151,140,37170,1,2,3:2:0:0:
151,140,37255,1,0,3:2:0:0:
151,140,37341,6,0,P|99:134|80:100,1,78.6250000000003,2|2,3:2|2:0,2:0:0:0:
60,43,37596,1,0,3:2:0:0:
60,43,37682,1,10,2:0:0:0:
0,188,37852,2,0,L|53:199,1,39.3125000000001,2|0,3:2|2:0,2:0:0:0:
209,224,38022,1,2,2:0:0:0:
50,332,38193,1,2,3:2:0:0:
238,203,38363,1,10,2:0:0:0:
20,351,38534,1,2,2:0:0:0:
117,214,38704,6,0,P|130:265|149:334,1,117.9375,2|0,3:2|2:0,2:0:0:0:
203,380,39045,2,0,P|246:379|301:317,1,117.9375,10|0,2:0|2:0,2:0:0:0:
323,260,39386,2,0,L|315:218,1,39.3125000000001,2|0,2:0|2:0,2:0:0:0:
456,283,39557,1,2,3:2:0:0:
456,283,39642,2,0,L|438:345,1,39.3125000000001,2|8,3:2|2:0,2:0:0:0:
391,171,39897,1,2,2:0:0:0:
508,199,40068,6,0,P|490:143|469:80,1,117.9375,2|0,3:2|3:2,2:0:0:0:
427,26,40409,2,0,P|382:29|355:70,1,78.6250000000003,10|2,2:0|3:2,2:0:0:0:
320,115,40664,1,0,2:0:0:0:
320,115,40750,2,0,L|269:106,1,39.3125000000001,2|2,3:2|2:0,2:0:0:0:
142,36,40920,1,2,3:2:0:0:
142,36,41005,1,2,3:2:0:0:
142,36,41091,2,0,P|155:78|172:130,1,78.6250000000003,8|6,2:0|2:3,2:0:0:0:
274,263,41432,6,0,P|286:225|297:188,1,78.6250000000003,0|2,3:2|2:0,2:0:0:0:
320,115,41687,1,0,3:2:0:0:
320,115,41772,1,10,2:0:0:0:
383,210,41943,1,2,3:2:0:0:
203,111,42113,1,2,2:0:0:0:
406,223,42284,1,2,3:2:0:0:
377,14,42454,2,0,P|368:56|356:106,1,78.6250000000003,10|0,2:0|2:0,2:0:0:0:
462,276,42795,6,0,P|487:227|477:195,1,78.6250000000003,2|0,3:2|2:0,2:0:0:0:
454,142,43051,1,0,3:2:0:0:
454,142,43136,5,8,2:0:0:0:
232,227,43307,1,0,3:2:0:0:
428,351,43477,5,8,2:0:0:0:
354,136,43647,1,0,3:2:0:0:
158,362,43818,5,8,2:0:0:0:
413,222,43988,1,8,2:0:0:0:
413,222,44074,1,8,2:0:0:0:
413,222,44159,6,0,B|369:238|369:238|347:268|347:268|288:291,1,124.875,6|0,3:2|2:0,2:0:0:0:
243,311,44500,2,0,L|233:358,1,41.625,10|0,2:0|2:0,2:0:0:0:
291,201,44670,2,0,P|233:182|170:239,1,124.875,2|0,3:2|2:0,2:0:0:0:
140,275,45011,1,2,3:2:0:0:
81,115,45182,1,8,2:0:0:0:
0,246,45352,1,2,2:0:0:0:
0,246,45437,1,2,2:0:0:0:
0,246,45522,6,0,P|41:231|90:217,1,83.2500000000001,2|0,3:2|2:0,2:0:0:0:
155,197,45778,1,0,3:2:0:0:
155,197,45863,1,8,2:0:0:0:
71,23,46034,2,0,P|16:49|5:128,1,124.875,0|0,3:2|2:0,2:0:0:0:
25,173,46375,1,2,3:2:0:0:
168,54,46545,1,10,2:0:0:0:
212,269,46716,1,2,2:0:0:0:
81,115,46886,6,0,P|147:101|213:89,1,124.875,2|0,3:2|2:0,2:0:0:0:
275,80,47227,2,0,L|317:93,1,41.625,10|0,2:0|2:0,2:0:0:0:
439,184,47397,2,0,P|390:145|412:66,1,124.875,2|0,3:2|2:0,2:0:0:0:
429,25,47738,1,2,3:2:0:0:
309,180,47909,1,8,2:0:0:0:
476,118,48079,1,2,2:0:0:0:
476,118,48164,1,2,2:0:0:0:
476,118,48250,6,0,P|490:175|508:253,1,131.8125,2|0,3:2|2:0,2:0:0:0:
480,318,48591,2,0,L|434:307,1,43.9374999999999,8|0,2:0|2:0,2:0:0:0:
251,260,48761,2,0,P|295:218|364:240,1,131.8125,2|0,3:2|2:0,2:0:0:0:
365,305,49102,2,0,L|353:352,1,43.9374999999999,8|0,2:0|2:0,2:0:0:0:
182,334,49272,2,0,P|165:281|141:202,1,131.8125,2|0,3:2|2:0,2:0:0:0:
101,143,49613,2,0,L|150:124,1,43.9374999999999,0|0,3:2|2:0,2:0:0:0:
256,51,49784,6,0,P|199:42|120:26,1,131.8125,10|0,2:0|2:0,2:0:0:0:
54,8,50125,2,0,L|39:56,1,43.9374999999999,0|0,3:2|2:0,2:0:0:0:
0,225,50295,2,0,P|39:185|122:200,1,131.8125,10|0,2:0|2:0,2:0:0:0:
155,250,50636,1,2,3:2:0:0:
20,354,50807,1,8,2:0:0:0:
233,384,50977,5,6,3:2:0:0:
75,267,51147,1,2,2:0:0:0:
273,204,51318,1,10,3:2:0:0:
152,348,51488,5,6,3:2:0:0:
258,120,51659,1,2,2:0:0:0:
334,348,51829,1,2,3:2:0:0:
145,121,52000,5,14,3:2:0:0:
394,274,52170,1,2,2:0:0:0:
312,7,52341,1,2,3:2:0:0:
185,275,52511,5,14,3:2:0:0:
455,158,52682,1,10,3:2:0:0:
417,150,52767,1,8,3:2:0:0:
379,143,52852,1,10,3:2:0:0:
341,136,52937,1,8,3:2:0:0:
303,129,53022,2,0,L|253:119,1,46.25,10|0,3:2|2:0,2:0:0:0:
37,243,53193,5,10,3:2:0:0:
37,243,53534,1,2,2:0:0:0:
122,38,53704,5,6,3:2:0:0:
162,273,53875,1,2,2:0:0:0:
162,273,53960,1,0,3:2:0:0:
162,273,54045,1,10,2:0:0:0:
0,154,54216,2,0,P|60:169|128:190,1,101.75,2|0,3:2|2:0,2:0:0:0:
244,310,54557,1,2,3:2:0:0:
183,93,54727,1,8,2:0:0:0:
37,243,54897,1,2,3:2:0:0:
37,243,54983,1,0,3:2:0:0:
37,243,55068,6,0,P|51:282|74:341,1,101.75,0|2,3:2|2:0,2:0:0:0:
143,372,55324,1,0,3:2:0:0:
143,372,55409,1,8,2:0:0:0:
165,243,55579,2,0,P|228:226|269:215,1,101.75,2|0,3:2|2:0,2:0:0:0:
463,339,55920,1,2,3:2:0:0:
314,153,56091,1,8,2:0:0:0:
317,365,56261,2,0,L|333:308,1,50.875,2|0,2:0|2:0,2:0:0:0:
389,106,56432,5,2,3:2:0:0:
407,271,56602,1,2,3:2:0:0:
407,271,56687,1,0,3:2:0:0:
407,271,56772,1,10,2:0:0:0:
512,105,56943,2,0,P|455:91|356:66,1,152.625,2|0,3:2|2:0,2:0:0:0:
293,57,57284,2,0,L|230:75,1,50.875,2|0,3:2|2:0,2:0:0:0:
81,119,57454,1,10,2:0:0:0:
247,229,57625,1,2,2:0:0:0:
134,46,57795,6,0,P|122:105|110:165,1,101.75,2|0,3:2|2:0,2:0:0:0:
95,220,58051,1,0,3:2:0:0:
95,220,58136,1,10,2:0:0:0:
176,308,58307,1,2,3:2:0:0:
0,202,58477,1,2,2:0:0:0:
194,140,58647,1,2,3:2:0:0:
24,346,58818,1,10,2:0:0:0:
24,346,58903,1,0,2:0:0:0:
24,346,58988,1,2,2:0:0:0:
194,223,59159,6,0,B|245:238|245:238|266:279|266:279|320:294,1,152.625,6|0,3:2|2:0,2:0:0:0:
387,320,59500,1,10,2:0:0:0:
512,165,59670,1,0,3:2:0:0:
512,165,59755,1,0,3:2:0:0:
512,165,59841,1,2,3:2:0:0:
318,217,60011,1,2,3:2:0:0:
493,340,60182,2,0,P|480:290|467:239,1,101.75,10|0,2:0|2:0,2:0:0:0:
476,44,60522,6,0,P|446:95|395:95,1,101.75,0|0,3:2|2:0,2:0:0:0:
336,75,60778,1,0,3:2:0:0:
336,75,60863,1,10,2:0:0:0:
173,199,61034,2,0,L|192:138,1,50.875,0|0,3:2|3:2,2:0:0:0:
233,0,61204,2,0,P|245:49|258:98,1,101.75,2|0,3:2|3:2,2:0:0:0:
420,228,61545,1,10,2:0:0:0:
283,168,61716,1,2,2:0:0:0:
353,383,61886,6,0,B|382:302|382:302|352:259|305:274,1,166.5,2|0,3:2|2:0,2:0:0:0:
251,320,62227,2,0,L|193:310,1,55.5,2|0,3:2|2:0,2:0:0:0:
19,285,62397,2,0,P|92:288|123:204,1,166.5,14|0,2:0|2:0,2:0:0:0:
0,163,62738,2,0,P|89:137|177:111,1,166.5,2|0,3:2|2:0,2:0:0:0:
245,8,63079,6,0,B|235:68|235:68|252:105|252:105|233:172,1,166.5,14|0,2:0|2:0,2:0:0:0:
220,239,63420,1,2,3:2:0:0:
362,28,63591,1,10,2:0:0:0:
159,116,63761,1,2,3:2:0:0:
386,220,63932,1,10,2:0:0:0:
172,12,64102,5,8,2:0:0:0:
130,12,64187,1,8,2:0:0:0:
93,27,64272,1,10,2:0:0:0:
65,55,64358,1,8,2:0:0:0:
48,91,64443,1,8,2:0:0:0:
46,133,64528,1,8,2:0:0:0:
53,173,64613,6,0,P|106:193|152:213,1,101.75,6|2,3:2|2:0,2:0:0:0:
220,239,64869,1,0,3:2:0:0:
220,239,64954,1,10,2:0:0:0:
86,353,65125,2,0,B|54:308|54:308|75:263,1,101.75,2|0,3:2|2:0,2:0:0:0:
153,123,65466,1,2,3:2:0:0:
218,357,65636,1,8,2:0:0:0:
129,214,65807,1,2,2:0:0:0:
129,214,65892,1,0,3:2:0:0:
129,214,65977,6,0,P|193:197|251:183,1,101.75,0|2,3:2|2:0,2:0:0:0:
303,167,66233,1,0,3:2:0:0:
303,167,66318,1,8,2:0:0:0:
237,339,66488,2,0,P|298:322|353:308,1,101.75,2|0,3:2|2:0,2:0:0:0:
423,174,66829,1,2,3:2:0:0:
260,246,67000,1,8,2:0:0:0:
360,47,67170,2,0,L|384:102,1,50.875,2|0,2:0|2:0,2:0:0:0:
460,251,67341,5,2,3:2:0:0:
476,17,67511,1,2,3:2:0:0:
476,17,67596,1,0,3:2:0:0:
476,17,67682,1,10,2:0:0:0:
320,165,67852,2,0,P|238:151|162:141,1,152.625,2|0,3:2|2:0,2:0:0:0:
89,143,68193,2,0,L|103:204,1,50.875,2|0,3:2|2:0,2:0:0:0:
177,53,68363,1,8,2:0:0:0:
7,219,68534,1,0,3:2:0:0:
7,219,68619,1,0,3:2:0:0:
7,219,68704,6,0,P|38:269|160:265,1,166.5,2|0,3:2|3:2,2:0:0:0:
210,256,69045,2,0,P|274:263|300:314,1,111,10|0,2:0|3:2,2:0:0:0:
259,367,69301,1,0,3:2:0:0:
259,367,69386,5,2,2:0:0:0:
343,142,69557,1,0,3:2:0:0:
375,312,69727,5,10,2:0:0:0:
259,70,69897,1,2,2:0:0:0:
210,256,70068,6,0,P|296:236|378:218,1,152.625,4|0,3:2|2:0,2:0:0:0:
436,207,70409,1,8,2:0:0:0:
192,170,70579,2,0,L|254:157,1,50.875,2|0,3:2|3:2,2:0:0:0:
490,109,70750,1,2,3:2:0:0:
375,312,70920,1,2,3:2:0:0:
404,56,71091,1,10,2:0:0:0:
512,282,71261,1,2,2:0:0:0:
259,70,71432,6,0,P|205:86|142:105,1,101.75,2|2,3:2|2:0,2:0:0:0:
88,123,71687,1,0,3:2:0:0:
88,123,71772,1,10,2:0:0:0:
208,241,71943,1,2,3:2:0:0:
74,36,72113,2,0,P|59:115|40:210,1,152.625,2|0,2:0|2:0,2:0:0:0:
27,262,72454,1,10,2:0:0:0:
190,140,72625,1,2,2:0:0:0:
167,340,72795,6,0,B|141:276|141:276|165:224|219:244,1,152.625,0|0,3:2|2:0,2:0:0:0:
268,294,73136,2,0,P|313:296|354:242,1,101.75,8|2,2:0|3:2,2:0:0:0:
392,82,73477,1,2,2:0:0:0:
281,213,73647,1,2,3:2:0:0:
281,213,73733,1,0,3:2:0:0:
281,213,73818,1,10,2:0:0:0:
353,3,73988,1,2,2:0:0:0:
480,190,74159,6,0,P|422:178|357:165,1,111,4|8,3:2|2:0,2:0:0:0:
111,104,74500,1,10,2:0:0:0:
281,213,74670,2,0,L|264:143,1,55.5,10|8,2:0|2:0,2:0:0:0:
226,1,74841,1,10,2:0:0:0:
74,208,75011,1,10,3:0:0:0:
298,86,75182,1,10,3:0:0:0:
37,0,75352,1,10,3:0:0:0:
191,207,75522,5,6,3:2:0:0:
191,207,76034,5,2,2:0:0:0:
191,207,76204,2,0,L|171:274,1,55.4999999999999,2|2,2:0|2:0,2:0:0:0:
104,347,76545,2,0,L|161:336,1,55.4999999999999,2|2,2:0|2:0,2:0:0:0:
281,313,76886,5,6,3:2:0:0:
281,313,77227,6,0,L|352:330,1,55.4999999999999,2|2,2:0|2:0,2:0:0:0:
453,246,77568,2,0,L|399:258,1,55.4999999999999,2|2,2:0|2:0,2:0:0:0:
286,211,77909,2,0,P|327:208|348:166,1,83.2499999999998,2|0,3:2|2:0,2:0:0:0:
344,102,78250,5,2,2:0:0:0:
344,102,78932,6,0,P|272:87|192:75,1,138.75,6|0,3:2|2:0,2:0:0:0:
150,19,79272,2,0,B|116:54|116:54|130:103,1,92.5,10|0,2:0|3:2,2:0:0:0:
152,172,79528,1,0,3:2:0:0:
152,172,79613,1,2,2:0:0:0:
36,58,79784,1,2,3:2:0:0:
240,170,79954,1,8,2:0:0:0:
24,306,80125,1,2,3:2:0:0:
24,306,80210,1,0,3:2:0:0:
24,306,80295,6,0,P|37:252|49:206,1,92.5,0|2,3:2|2:0,2:0:0:0:
64,144,80551,1,0,3:2:0:0:
64,144,80636,1,8,2:0:0:0:
226,340,80807,2,0,P|151:340|123:277,1,138.75,2|0,3:2|2:0,2:0:0:0:
128,216,81147,1,2,3:2:0:0:
38,384,81318,1,10,2:0:0:0:
216,259,81488,1,2,3:2:0:0:
216,259,81574,1,0,3:0:0:0:
216,259,81659,6,0,P|290:269|361:283,1,138.75,2|0,3:2|2:0,2:0:0:0:
427,300,82000,1,10,2:0:0:0:
303,131,82170,1,0,3:2:0:0:
310,160,82255,1,0,3:2:0:0:
317,188,82341,1,2,3:2:0:0:
471,87,82511,1,2,3:2:0:0:
254,58,82682,1,8,2:0:0:0:
414,208,82852,1,2,3:2:0:0:
414,208,82937,1,0,3:2:0:0:
414,208,83022,6,0,P|399:141|390:99,1,92.5,0|2,3:2|2:0,2:0:0:0:
379,47,83278,1,0,3:2:0:0:
379,47,83363,1,8,2:0:0:0:
161,153,83534,1,2,3:2:0:0:
317,188,83704,1,10,2:0:0:0:
117,51,83875,5,8,2:0:0:0:
82,62,83960,1,8,2:0:0:0:
54,86,84045,1,8,2:0:0:0:
39,120,84130,1,8,2:0:0:0:
38,156,84216,1,8,2:0:0:0:
51,191,84301,1,8,2:0:0:0:
70,224,84386,6,0,P|119:243|162:265,1,92.5,6|0,3:2|2:0,2:0:0:0:
224,303,84642,1,0,3:2:0:0:
224,303,84727,1,10,2:0:0:0:
161,153,84897,6,0,P|221:138|301:117,1,138.75,4|0,2:3|2:0,2:0:0:0:
368,241,85238,1,2,3:2:0:0:
330,232,85324,1,0,3:2:0:0:
311,197,85409,1,8,2:0:0:0:
392,44,85579,2,0,L|408:99,1,46.25,2|8,3:2|2:0,2:0:0:0:
476,202,85750,6,0,P|459:265|445:316,1,92.5,0|2,3:2|2:0,2:0:0:0:
430,363,86005,1,0,3:2:0:0:
430,363,86091,1,8,2:0:0:0:
330,232,86261,2,0,P|257:249|189:269,1,138.75,2|0,3:2|2:0,2:0:0:0:
123,288,86602,1,2,3:2:0:0:
224,164,86772,1,10,2:0:0:0:
189,366,86943,1,2,3:2:0:0:
189,366,87028,1,0,3:2:0:0:
189,366,87113,6,0,P|174:302|152:215,1,138.75,2|0,3:2|2:0,2:0:0:0:
139,150,87454,1,10,2:0:0:0:
36,294,87625,1,0,3:2:0:0:
41,264,87710,1,0,3:2:0:0:
45,236,87795,1,2,3:2:0:0:
67,32,87966,1,2,3:2:0:0:
223,167,88136,1,8,2:0:0:0:
26,128,88307,5,6,3:2:0:0:
53,119,88647,5,2,3:2:0:0:
82,111,88988,5,2,3:2:0:0:
251,56,89159,1,10,2:0:0:0:
133,193,89329,1,0,3:2:0:0:
195,3,89500,2,0,P|207:55|230:145,1,138.75,8|0,2:0|2:0,2:0:0:0:
247,209,89841,5,6,3:2:0:0:
68,314,90352,1,2,3:2:0:0:
177,364,90693,1,2,3:2:0:0:
177,364,90863,2,0,P|162:316|152:292,1,60.1249999999999,2|2,2:0|2:0,2:0:0:0:
247,209,91204,6,0,P|236:237|227:268,2,60.1249999999999,2|2|2,3:2|2:0|2:0,2:0:0:0:
135,200,91716,2,0,P|118:139|99:73,1,120.25,2|2,3:2|3:2,2:0:0:0:
81,14,92227,1,2,2:0:0:0:
81,14,92568,6,0,P|108:48|195:34,1,120.25,2|2,3:2|2:0,2:0:0:0:
256,21,93079,1,2,3:2:0:0:
256,21,93250,2,0,P|291:28|312:50,1,60.1249999999999,2|2,2:0|3:2,2:0:0:0:
340,119,93591,1,2,2:0:0:0:
401,64,93761,1,2,2:0:0:0:
401,64,93932,6,0,P|392:101|372:188,1,120.25,0|2,3:2|2:0,2:0:0:0:
408,263,94443,1,2,3:2:0:0:
408,263,94784,2,0,P|446:251|482:241,2,60.1249999999999,2|2|2,3:2|2:0|2:0,2:0:0:0:
338,333,95295,6,0,P|300:321|264:311,1,60.1249999999999,2|2,3:2|2:0,2:0:0:0:
245,232,95636,1,2,2:0:0:0:
245,232,95807,2,0,P|180:250|125:265,1,120.25,2|2,3:2|3:2,2:0:0:0:
26,333,96318,2,0,P|38:296|47:264,1,60.1249999999999,2|2,2:0|2:0,2:0:0:0:
100,182,96659,6,0,P|90:153|82:124,2,60.1249999999999,2|2|2,3:2|2:0|2:0,2:0:0:0:
131,264,97170,2,0,P|169:309|240:293,1,120.25,2|2,3:2|3:2,2:0:0:0:
310,270,97852,1,2,2:0:0:0:
310,270,98022,6,0,P|344:279|386:292,1,60.1249999999999,2|2,3:2|2:0,2:0:0:0:
456,222,98363,2,0,P|427:213|397:204,1,60.1249999999999,2|2,2:0|3:2,2:0:0:0:
291,177,98704,1,2,2:0:0:0:
291,177,98875,1,2,3:2:0:0:
387,120,99045,1,2,2:0:0:0:
275,56,99216,5,2,3:2:0:0:
248,42,99573,5,2,2:0:0:0:
230,37,99913,5,2,2:0:0:0:
230,37,100084,2,0,P|202:71|141:59,1,90.1874999999999,2|0,2:0|2:0,2:0:0:0:
90,36,100425,6,0,P|79:72|67:109,1,64.7499999999997,2|0,2:0|2:0,2:0:0:0:
