osu file format v14

[General]
AudioFilename: audio.mp3
AudioLeadIn: 0
PreviewTime: 48085
Countdown: 0
SampleSet: Soft
StackLeniency: 0.7
Mode: 0
LetterboxInBreaks: 0
WidescreenStoryboard: 1

[Editor]
DistanceSpacing: 0.1
BeatDivisor: 4
GridSize: 8
TimelineZoom: 2.6

[Metadata]
Title:Kaikai Kitan (TV Size)
TitleUnicode:廻廻奇譚 (TV Size)
Artist:Eve
ArtistUnicode:Eve
Creator:banger-shayne
Version:WORSTPOLACKEU's Inhumanness
Source:呪術廻戦
Tags:jujutsu kaisen sorcery fight op opening japanese rock j-rock jrock gresiu worstpolackeu wenect hanabyte kaikaikitan utaite j-pop jpop pop
BeatmapID:3860796
BeatmapSetID:1690933

[Difficulty]
HPDrainRate:4
CircleSize:3.7
OverallDifficulty:9
ApproachRate:9.3
SliderMultiplier:1.7
SliderTickRate:1

[Events]
//Background and Video events
Video,-520,"opening.mp4"
0,0,"bg.jpg",0,0
//Break Periods
//Storyboard Layer 0 (Background)
//Storyboard Layer 1 (Fail)
//Storyboard Layer 2 (Pass)
//Storyboard Layer 3 (Foreground)
//Storyboard Layer 4 (Overlay)
//Storyboard Sound Samples

[TimingPoints]
2275,324.324324324324,4,2,1,90,1,0
2275,-40,4,2,1,90,0,0
2278,-40,4,2,1,90,0,0
3250,-40,4,2,2,90,0,0
3491,-111.111111111111,4,2,2,5,0,0
3572,-111.111111111111,4,2,2,90,0,0
3737,-111.111111111111,4,2,3,90,0,0
4220,-33.3333333333333,4,2,3,90,0,0
4223,-33.3333333333333,4,2,3,90,0,0
4302,-33.3333333333333,4,2,3,5,0,0
4382,-33.3333333333333,4,2,3,5,0,0
4386,-33.3333333333333,4,2,3,5,0,0
4464,-33.3333333333333,4,2,3,90,0,0
4467,-33.3333333333333,4,2,3,90,0,0
4545,-33.3333333333333,4,2,3,5,0,0
4626,-33.3333333333333,4,2,3,5,0,0
4629,-33.3333333333333,4,2,3,5,0,0
4707,-33.3333333333333,4,2,3,90,0,0
4710,-33.3333333333333,4,2,3,90,0,0
4788,-33.3333333333333,4,2,3,5,0,0
4869,-33.3333333333333,4,2,3,5,0,0
4872,-33.3333333333333,4,2,3,5,0,0
5518,324.324324324324,4,2,3,90,1,0
5518,-33.3333333333333,4,2,3,90,0,0
5521,-33.3333333333333,4,2,2,90,0,0
5761,-100,4,2,2,5,0,0
5842,-200,4,2,2,90,0,0
6004,-50,4,2,2,90,0,0
7058,-50,4,2,2,5,0,0
7139,-50,4,2,2,90,0,0
7301,-200,4,2,2,90,0,0
7463,-50,4,2,2,90,0,0
7585,-50,4,2,2,5,0,0
7626,-50,4,2,2,90,0,0
7747,-50,4,2,2,5,0,0
7788,-50,4,2,2,90,0,0
7950,-40,4,2,2,90,0,0
8193,-40,4,2,2,5,0,0
8274,-100,4,2,2,90,0,0
9247,-40,4,2,2,90,0,0
9490,-100,4,2,2,5,0,0
9572,-100,4,2,2,90,0,0
9734,-100,4,2,2,90,0,0
10707,-33.3333333333333,4,2,2,90,0,0
10872,-33.3333333333333,4,2,2,90,0,0
10950,-100,4,2,2,5,0,0
11031,-200,4,2,2,90,0,0
11193,-50,4,2,2,90,0,0
12247,-100,4,2,2,5,0,0
12328,-100,4,2,2,90,0,0
12490,-200,4,2,2,90,0,0
12651,-50,4,2,2,90,0,0
12774,-50,4,2,2,5,0,0
12815,-50,4,2,2,90,0,0
12936,-50,4,2,2,5,0,0
12977,-50,4,2,2,90,0,0
13139,-40,4,2,2,90,0,0
13382,-100,4,2,2,5,0,0
13463,-100,4,2,2,90,0,0
14436,-33.3333333333333,4,2,2,90,0,0
14439,-33.3333333333333,4,2,1,90,0,0
14680,-100,4,2,1,5,0,0
14761,-100,4,2,1,90,0,0
15899,-100,4,2,3,90,0,0
17680,-100,4,2,3,5,0,0
17842,324.324324324324,4,2,3,60,1,0
17845,-100,4,2,1,60,0,0
18733,-100,4,2,1,5,0,0
18814,-100,4,2,1,60,0,0
19220,-100,4,2,1,5,0,0
19301,-100,4,2,1,60,0,0
23598,-100,4,2,1,5,0,0
23679,-100,4,2,1,60,0,0
24085,-100,4,2,1,5,0,0
24166,-100,4,2,1,60,0,0
26760,-33.3333333333333,4,2,1,80,0,0
26763,-33.3333333333333,4,2,2,80,0,0
27085,-50,4,2,2,80,0,0
28220,-66.6666666666667,4,2,2,80,0,0
28223,-66.6666666666667,4,2,4,80,0,0
28953,-66.6666666666667,4,2,4,5,0,0
29031,-66.6666666666667,4,2,4,80,0,0
29034,-66.6666666666667,4,2,4,80,0,0
30247,-66.6666666666667,4,2,4,5,0,0
30250,-66.6666666666667,4,2,4,5,0,0
30328,-66.6666666666667,4,2,4,80,0,0
30331,-66.6666666666667,4,2,4,80,0,0
30409,-66.6666666666667,4,2,4,5,0,0
30412,-66.6666666666667,4,2,4,5,0,0
30490,-66.6666666666667,4,2,4,80,0,0
30493,-66.6666666666667,4,2,4,80,0,0
30652,-50,4,2,4,80,0,0
31139,-66.6666666666667,4,2,4,80,0,0
31220,-66.6666666666667,4,2,4,5,0,0
31301,-66.6666666666667,4,2,4,80,0,0
31544,-66.6666666666667,4,2,4,5,0,0
31547,-66.6666666666667,4,2,4,5,0,0
31625,-66.6666666666667,4,2,4,80,0,0
31628,-66.6666666666667,4,2,4,80,0,0
31709,-66.6666666666667,4,2,4,5,0,0
31787,-66.6666666666667,4,2,4,80,0,0
31790,-66.6666666666667,4,2,4,80,0,0
31950,-50,4,2,4,80,0,0
32436,-66.6666666666667,4,2,4,80,0,0
32841,-66.6666666666667,4,2,4,5,0,0
32923,-66.6666666666667,4,2,4,80,0,0
34139,-66.6666666666667,4,2,4,5,0,0
34220,-66.6666666666667,4,2,4,80,0,0
34301,-66.6666666666667,4,2,4,5,0,0
34382,-66.6666666666667,4,2,4,80,0,0
34628,-66.6666666666667,4,2,4,5,0,0
34706,-66.6666666666667,4,2,4,80,0,0
34709,-66.6666666666667,4,2,4,80,0,0
36088,-66.6666666666667,4,2,4,5,0,0
36166,-66.6666666666667,4,2,4,80,0,0
36169,-66.6666666666667,4,2,4,80,0,0
36736,-66.6666666666667,4,2,4,5,0,0
36814,-66.6666666666667,4,2,4,80,0,0
36817,-66.6666666666667,4,2,4,80,0,0
36977,-66.6666666666667,4,2,4,80,0,0
36980,-66.6666666666667,4,2,4,80,0,0
37058,-66.6666666666667,4,2,4,5,0,0
37139,-50,4,2,4,80,0,0
37628,-50,4,2,2,80,0,0
37787,-50,4,2,2,80,0,0
37790,-50,4,2,2,80,0,0
38193,-50,4,2,2,5,0,0
38196,-50,4,2,2,5,0,0
38274,-50,4,2,2,80,0,0
38277,-50,4,2,2,80,0,0
38358,-50,4,2,2,5,0,0
38436,-50,4,2,2,80,0,0
38439,-50,4,2,1,80,0,0
38923,-66.6666666666667,4,2,1,80,0,0
39896,-50,4,2,1,80,0,0
43790,-50,4,2,3,80,0,0
45571,-50,4,2,3,80,0,0
46382,-40,4,2,3,90,0,0
46385,-40,4,2,1,90,0,0
46872,-40,4,2,2,90,0,0
47358,-40,4,2,3,90,0,0
47517,-33.3333333333333,4,2,3,90,0,0
48166,-100,4,2,3,90,0,0
48247,-100,4,2,3,5,0,0
48328,-100,4,2,3,90,0,0
48409,-100,4,2,3,5,0,0
48490,-100,4,2,3,90,0,0
48571,-100,4,2,3,5,0,0
48652,-100,4,2,3,90,0,0
48814,-33.3333333333333,4,2,3,100,0,1
48817,-33.3333333333333,4,2,2,100,0,1
49058,-33.3333333333333,4,2,2,5,0,1
49061,-33.3333333333333,4,2,2,5,0,1
49139,-50,4,2,2,100,0,1
49142,-50,4,2,2,100,0,1
49463,-100,4,2,2,100,0,1
50112,-33.3333333333333,4,2,2,100,0,1
50355,-33.3333333333333,4,2,2,5,0,1
50395,-33.3333333333333,4,2,2,5,0,1
50436,-50,4,2,2,100,0,1
51652,-50,4,2,2,5,0,1
51655,-50,4,2,2,5,0,1
51733,-50,4,2,2,100,0,1
51736,-50,4,2,2,100,0,1
52950,-50,4,2,2,5,0,1
52953,-50,4,2,2,5,0,1
53031,-50,4,2,2,100,0,1
53034,-50,4,2,2,100,0,1
54166,-40,4,2,2,100,0,1
54169,-40,4,2,4,100,0,1
54331,-40,4,2,2,100,0,1
54490,-50,4,2,2,100,0,1
54977,-50,4,2,2,100,0,1
55058,-50,4,2,2,100,0,1
55544,-50,4,2,2,5,0,1
55547,-50,4,2,2,5,0,1
55625,-50,4,2,2,100,0,1
55628,-50,4,2,2,100,0,1
56436,-33.3333333333333,4,2,2,100,0,1
57331,-33.3333333333333,4,2,2,5,0,1
57409,-33.3333333333333,4,2,2,100,0,1
57412,-33.3333333333333,4,2,2,100,0,1
57899,-33.3333333333333,4,2,1,100,0,1
58139,-33.3333333333333,4,2,1,5,0,1
58142,-33.3333333333333,4,2,1,5,0,1
58179,-33.3333333333333,4,2,1,5,0,1
58220,-33.3333333333333,4,2,1,100,0,1
58223,-33.3333333333333,4,2,1,100,0,1
59196,-33.3333333333333,4,2,2,100,0,1
59436,-33.3333333333333,4,2,2,5,0,1
59517,-50,4,2,2,100,0,1
59841,-100,4,2,2,100,0,1
60490,-33.3333333333333,4,2,2,100,0,1
60733,-33.3333333333333,4,2,2,5,0,1
60814,-50,4,2,2,100,0,1
61787,-40,4,2,2,100,0,1
61790,-40,4,2,1,100,0,1
62031,-40,4,2,1,5,0,1
62112,-40,4,2,1,100,0,1
63250,-40,4,2,2,100,0,1
64382,-40,4,2,2,100,0,1
64385,-40,4,2,4,100,0,1
64547,-40,4,2,2,100,0,1
64625,-40,4,2,2,5,0,1
64706,-50,4,2,2,100,0,1
67139,-33.3333333333333,4,2,2,100,0,1
67142,-33.3333333333333,4,2,1,100,0,1
68277,-33.3333333333333,4,2,2,100,0,1
68517,-33.3333333333333,4,2,2,5,0,1
68598,-33.3333333333333,4,2,2,100,0,1
68923,-50,4,2,2,100,0,1
69733,-50,4,2,2,90,0,0
69736,-50,4,2,4,90,0,0
69899,-50,4,2,1,90,0,0
69977,-50,4,2,1,5,0,0
70058,-50,4,2,1,90,0,0
70220,-66.6666666666667,4,2,1,90,0,0
71196,-66.6666666666667,4,2,2,90,0,0
72331,-66.6666666666667,4,2,1,90,0,0
72571,-66.6666666666667,4,2,1,5,0,0
72652,-66.6666666666667,4,2,1,90,0,0
73463,-50,4,2,1,90,0,0
73466,-50,4,2,2,90,0,0
73706,-50,4,2,2,5,0,0
73787,-50,4,2,2,90,0,0
74601,-50,4,2,1,90,0,0
74926,-50,4,2,2,90,0,0
75412,-50,4,2,1,90,0,0
75899,-50,4,2,2,90,0,0
77355,-200,4,2,2,90,0,0
77358,-200,4,2,3,90,0,0
79950,-40,4,2,2,90,0,0
80436,-200,4,2,2,90,0,0
80598,-50,4,2,2,90,0,0
81652,-50,4,2,2,5,0,0
81733,-50,4,2,2,90,0,0
81896,-200,4,2,2,90,0,0
82058,-50,4,2,2,90,0,0
82544,-40,4,2,2,90,0,0
82787,-40,4,2,2,5,0,0
82869,-40,4,2,2,90,0,0
83844,-40,4,2,1,90,0,0
84085,-40,4,2,1,5,0,0
84166,-40,4,2,1,90,0,0
84328,-100,4,2,1,90,0,0
85142,-100,4,2,3,90,0,0
87247,-100,4,2,3,30,0,0

[Colours]
Combo1 : 252,88,88
Combo2 : 222,172,80

[HitObjects]
68,183,2275,6,0,B|85:161|137:152|137:152|142:149|142:149|142:154|142:154|160:196,1,106.25,14|0,1:2|0:0,0:0:0:0:
222,285,2437,1,2,3:2:0:0:
218,103,2599,1,2,3:2:0:0:
346,309,2761,6,1,B|334:332|334:332|295:359|260:357|260:357|234:349|234:349|197:322|197:322|207:277,2,212.5,14|0|2,1:2|3:0|3:2,0:0:0:0:
426,151,3247,6,1,B|443:120|476:109|476:109|493:114|493:114|477:95|477:95|445:88|434:96|409:133|368:121|368:121|360:125|360:125|363:132|363:132|368:133|369:153|368:186|398:205|398:205|409:204|409:204|454:222|445:276|445:276|432:302,1,425,14|0,1:2|3:0,0:0:0:0:
374,40,3734,1,14,1:2:0:0:
441,289,3896,1,2,0:0:0:0:
501,12,4058,1,2,3:2:0:0:
104,53,4220,6,1,B|133:39|133:39|137:57|137:57|144:61|144:68|146:71|155:70|166:66|179:64|198:86|212:61|212:61|276:47|276:47|276:41|276:41|282:45|282:45|276:77|246:81,1,255.000009727478,4|0,1:3|0:0,0:0:0:0:
262,221,4464,6,1,B|280:203|280:203|297:163|291:171|298:208|314:196|219:159|312:108|300:106|297:94|279:91|279:91|287:93|287:93|317:82|326:76|326:76|342:76|392:118,1,255.000009727478,4|0,1:3|0:0,0:0:0:0:
492,20,4707,6,1,B|482:48|482:48|468:65|467:69|459:53|459:53|446:63|446:63|434:67|408:65|403:65|410:71|420:90|421:90|421:90|416:121|416:120|404:148|404:148|405:142|405:142|396:115|352:109,1,255.000009727478,4|0,1:3|0:0,0:0:0:0:
456,129,5518,6,1,B|434:148|421:135|421:135|417:128|417:128|377:103|332:135|332:135|325:133|325:133|332:138|332:138|365:200|320:238|320:238|319:248|319:248|310:243|310:243|283:261|257:262|257:262|248:246|248:246|226:224|203:235,1,382.500014591218,4|0,3:1|0:0,0:0:0:0:
96,119,5842,6,0,P|101:127|115:129,1,21.25,10|0,1:2|0:0,0:0:0:0:
114,204,6004,6,1,B|141:181|141:181|161:121|147:77|147:77|127:46|127:46|96:40,1,170,2|0,0:0|3:0,0:0:0:0:
103,48,6328,6,1,B|76:71|76:71|56:131|70:175|70:175|89:205|89:205|121:212,1,170,2|8,3:2|1:2,0:0:0:0:
237,193,6653,6,1,B|264:216|264:216|284:276|270:320|270:320|250:350|250:350|219:357,1,170,2|0,3:2|0:0,0:0:0:0:
233,331,6977,6,1,B|206:308|206:308|186:248|200:204|200:204|219:173|219:173|251:167,1,170,2|8,3:2|1:2,0:0:0:0:
363,118,7301,6,0,P|352:115|346:106,1,21.25,2|0,0:0|1:0,0:0:0:0:
350,10,7463,6,0,B|371:20|371:20|395:55|393:87|393:87|386:110|386:110|366:120,1,127.5,2|0,3:2|0:0,0:0:0:0:
359,137,7626,6,0,B|337:126|337:126|313:91|315:59|315:59|322:36|322:36|342:26,1,127.5,2|0,3:2|0:0,0:0:0:0:
373,22,7788,5,8,1:2:0:0:
445,236,7950,6,1,B|429:241|423:244|423:244|421:237|421:237|367:250|339:211|339:211|331:206|331:206|335:192|335:192|306:143|296:137|276:133|276:133|271:117|262:129|262:129|218:120|210:154|178:175,1,318.75,2|0,3:2|0:0,0:0:0:0:
168,240,8274,5,2,3:2:0:0:
113,54,8436,1,10,1:2:0:0:
74,222,8599,1,2,0:0:0:0:
136,71,8761,1,2,3:2:0:0:
173,259,8923,1,0,3:0:0:0:
177,2,9085,1,10,1:2:0:0:
16,170,9247,6,1,B|34:151|34:151|32:144|32:144|41:146|41:146|82:129|123:155|123:155|134:155|134:155|127:161|127:161|152:218|209:212|209:212|215:215|215:215|219:207|219:207|257:206|264:169,1,318.75,2|0,3:2|0:0,0:0:0:0:
313,120,9572,5,2,3:2:0:0:
329,300,9734,6,0,B|314:303|314:303|295:298|295:298|290:291,1,42.5,10|0,1:2|0:0,0:0:0:0:
270,204,9896,6,0,B|285:201|285:201|304:206|304:206|308:212,1,42.5,2|0,3:2|0:0,0:0:0:0:
347,384,10058,5,14,3:2:0:0:
378,374,10139,1,0,1:0:0:0:
411,299,10220,5,2,1:2:0:0:
442,309,10301,1,0,1:0:0:0:
483,241,10382,5,12,3:0:0:0:
452,231,10463,1,0,1:0:0:0:
413,159,10544,5,2,1:2:0:0:
444,149,10625,1,0,1:0:0:0:
441,66,10707,6,1,B|430:67|479:75|479:75|490:76|490:76|484:81|484:81|491:97|489:120|489:120|496:129|496:129|491:130|491:130|486:184|422:192|422:192|415:187|415:187|419:193|419:193|380:209|349:187|349:187|340:189|340:189|341:178|341:178|314:153|319:104,1,382.500014591218,4|0,3:1|0:0,0:0:0:0:
142,52,11031,6,0,P|142:62|135:70,1,21.25,10|0,1:2|0:0,0:0:0:0:
211,98,11193,6,1,B|181:118|181:118|118:121|79:97|79:97|55:69|55:69|57:38,1,170,2|0,0:0|3:0,0:0:0:0:
63,47,11517,6,1,B|92:26|92:26|155:23|194:47|194:47|218:74|218:74|216:106,1,170,2|8,3:2|1:2,0:0:0:0:
5,250,11842,6,1,B|29:223|29:223|68:199|131:202|131:202|155:219,1,170,2|0,3:2|0:0,0:0:0:0:
192,234,12166,6,1,B|167:262|167:262|128:287|65:283|65:283|36:263,1,170,2|8,3:2|1:2,0:0:0:0:
382,193,12490,6,0,P|379:182|370:176,1,21.25,2|0,0:0|1:0,0:0:0:0:
274,180,12652,6,0,B|284:201|284:201|319:225|351:223|351:223|374:216|374:216|384:196,1,127.5,2|0,3:2|0:0,0:0:0:0:
401,189,12815,6,0,B|390:167|390:167|355:143|323:145|323:145|300:152|300:152|290:172,1,127.5,2|0,3:2|0:0,0:0:0:0:
286,203,12977,5,8,1:2:0:0:
466,312,13139,6,1,B|453:300|448:296|448:296|453:291|453:291|414:251|434:207|434:207|434:198|434:198|449:194|449:194|477:145|477:133|470:114|470:114|482:101|467:100|467:100|452:57|419:67|385:50,1,318.75,2|0,3:2|0:0,0:0:0:0:
317,45,13463,5,2,3:2:0:0:
505,87,13625,1,10,1:2:0:0:
361,112,13788,1,2,3:2:0:0:
496,281,13950,1,10,1:2:0:0:
296,176,14112,1,0,3:0:0:0:
481,11,14274,1,10,1:2:0:0:
418,328,14436,6,1,B|393:302|399:271|399:271|407:255|407:255|392:234|362:221|362:221|361:211|361:211|352:216|352:216|295:200|262:262|262:262|262:271|262:271|260:264|260:264|213:267|185:223|185:223|187:208|187:208|184:158,1,382.500014591218,6|0,3:2|0:0,0:0:0:0:
201,118,14761,1,10,1:2:0:0:
469,195,14923,1,10,1:2:0:0:
156,336,15085,1,2,1:2:0:0:
122,331,15166,1,0,1:0:0:0:
51,282,15247,6,0,B|41:276|38:257|38:257|53:249,1,42.5,2|0,1:2|0:0,0:0:0:0:
106,174,15409,2,0,B|116:168|119:149|119:149|104:141,1,42.5,8|4,3:0|3:0,0:0:0:0:
58,60,15572,1,8,3:0:0:0:
27,361,15734,1,4,3:0:0:0:
0,0,15896,5,4,3:1:0:0:
256,192,16017,12,0,17680,0:0:0:0:
317,76,18004,5,2,0:0:0:0:
190,119,18166,2,0,B|191:110|191:110|215:106|215:106|228:109|228:109|246:115|258:137|258:137|258:151,1,85,2|2,3:2|0:0,0:0:0:0:
314,204,18490,2,0,B|317:186|305:156|305:156|309:159|309:159|300:163|300:163|295:228|295:228|284:235|284:235|267:244|243:237|243:237|233:228,1,170,2|2,3:2|3:2,0:0:0:0:
177,249,18977,2,0,B|178:257|178:257|202:261|202:261|215:258|215:258|233:252|245:230|245:230|245:216,1,85,2|0,0:0|3:0,0:0:0:0:
256,135,19301,5,2,0:0:0:0:
326,307,19463,1,2,3:2:0:0:
373,236,19625,1,2,0:0:0:0:
399,360,19787,6,0,B|383:364|383:364|365:356|365:356|341:350|327:322,2,85,2|2|0,3:2|0:0|3:2,0:0:0:0:
248,318,20274,5,2,0:0:0:0:
363,226,20436,2,0,B|367:242|367:242|359:260|359:260|353:284|325:298,1,85,2|0,3:2|0:0,0:0:0:0:
396,86,20760,1,2,3:2:0:0:
351,217,20923,2,0,B|326:204|320:180|320:180|312:162|312:162|316:146,1,85,2|0,0:0|3:0,0:0:0:0:
390,74,21247,1,2,0:0:0:0:
440,188,21409,1,2,3:2:0:0:
253,103,21571,6,1,B|250:85|262:55|262:55|258:58|258:58|267:62|267:62|272:127|272:127|283:134|283:134|300:143|324:136|324:136|334:127,1,170,2|2,0:0|0:0,0:0:0:0:
500,230,22058,2,0,B|474:237|455:227|455:227|443:220|443:220|428:198|428:198|433:190,1,85,2|2,3:2|0:0,0:0:0:0:
455,48,22382,2,0,B|475:74|475:74|487:108|469:141|469:141|456:163|456:163|416:190|416:190|425:185,2,170,2|2|0,3:2|3:2|3:0,0:0:0:0:
332,178,23193,5,2,0:0:0:0:
240,63,23355,2,0,B|256:59|256:59|274:67|274:67|298:73|312:101,1,85,2|0,3:2|0:0,0:0:0:0:
100,30,23679,1,2,3:2:0:0:
231,75,23842,2,0,B|218:99|194:105|194:105|176:113|176:113|160:109,1,85,2|0,0:0|3:2,0:0:0:0:
88,47,24166,1,2,0:0:0:0:
196,215,24328,6,0,B|212:219|212:219|230:211|230:211|254:205|266:180,1,85,2|0,3:2|0:0,0:0:0:0:
358,339,24652,1,2,3:2:0:0:
277,171,24814,2,0,B|293:167|293:167|311:175|311:175|335:181|349:209,1,85,2|0,0:0|3:2,0:0:0:0:
370,347,25139,5,2,0:0:0:0:
247,302,25301,1,2,3:2:0:0:
345,222,25463,1,2,0:0:0:0:
189,352,25625,6,0,B|213:360|248:338|248:338|244:317,1,85,2|0,3:2|0:0,0:0:0:0:
155,205,25869,2,1,B|145:199|142:180|142:180|157:172,1,42.5,2|0,0:0|3:0,0:0:0:0:
168,161,26112,2,0,B|178:155|181:136|181:136|166:128,1,42.5,2|0,0:0|0:0,0:0:0:0:
103,23,26274,2,0,B|78:15|43:36|43:36|47:57,1,85,2|0,3:2|0:0,0:0:0:0:
92,304,26598,5,2,3:2:0:0:
345,170,26760,6,1,B|338:165|360:201|314:231|314:231|318:249|299:240|299:240|279:253|264:257|199:240|199:240|189:224|189:224|179:226|179:226|121:217|85:264|85:264|76:263|76:263|73:272|73:272|73:289|88:294,1,382.500014591218,6|0,1:2|0:0,0:0:0:0:
87,379,27085,6,1,B|99:368|99:368|109:339|102:319|102:319|93:304|93:304|78:301,1,85,8|0,3:0|0:0,0:0:0:0:
17,130,27247,2,1,B|15:130|15:130|6:145|6:145|0:165|9:194|9:194|22:205,1,85,2|0,3:2|0:0,0:0:0:0:
296,274,27409,1,0,3:0:0:0:
34,211,27571,1,2,1:2:0:0:
348,155,27733,5,2,1:2:0:0:
132,32,28220,6,1,B|134:43|134:43|118:92|89:114|89:114|61:124|61:124,1,127.500004863739,4|2,3:1|0:0,0:0:0:0:
37,114,28463,5,0,0:0:0:0:
37,114,28544,1,2,1:2:0:0:
152,168,28706,1,0,0:0:0:0:
176,179,28787,1,0,0:0:0:0:
116,194,28869,5,0,3:2:0:0:
232,115,29031,6,1,B|254:117|259:146|259:146|264:144|264:144|291:151|312:137|312:137|326:113,1,127.500004863739,2|0,3:2|0:0,0:0:0:0:
351,32,29355,1,2,1:2:0:0:
369,193,29517,6,1,B|392:181|392:181|419:142|417:107|417:107|409:81|409:81|382:44|382:44|337:54,2,191.250007295609,2|0|2,0:0|0:0|0:0,0:0:0:0:
350,282,30166,6,0,B|368:282|368:282|377:281|390:301|390:301|396:300|396:300|414:296,1,63.7500024318696,2|0,3:2|0:0,0:0:0:0:
473,262,30328,2,1,B|455:262|455:262|445:261|433:281|433:281|427:280|427:280|409:276,1,63.7500024318696,2|0,3:2|0:0,0:0:0:0:
443,368,30490,5,0,0:0:0:0:
198,153,30652,6,1,B|207:171|226:173|226:173|233:172|233:172|230:176|230:176|261:220|253:248|248:270|248:270|252:274|252:274|249:284|249:284|247:273|247:273|259:248|258:225|258:225|282:210|282:210|306:204|306:204|309:208|309:208|311:204|311:204|330:187|330:187|351:195|373:167,1,340,2|2,1:2|3:2,0:0:0:0:
138,316,31139,6,0,B|111:318|103:326|103:326|98:331|98:331|71:323,1,63.7500024318696,2|0,1:2|0:0,0:0:0:0:
14,211,31301,1,2,0:0:0:0:
131,331,31463,6,0,B|157:333|166:341|166:341|171:346|171:346|198:338,1,63.7500024318696,2|0,3:2|0:0,0:0:0:0:
192,168,31625,1,2,3:2:0:0:
130,347,31787,5,0,0:0:0:0:
60,116,31950,6,1,B|35:102|26:75|26:75|30:61|30:61|15:74|15:74|9:100|16:109|46:129|36:163|36:163|39:169|39:169|45:167|45:167|46:163|62:162|89:163|104:138|104:138|103:129|103:129|118:93|162:100|162:100|183:111,1,340,2|2,1:2|3:2,0:0:0:0:
207,239,32436,2,0,B|202:232|202:232|219:206|219:206|234:196|234:196|255:186|286:194|286:194|298:206,1,127.500004863739,2|0,1:2|0:0,0:0:0:0:
471,151,32679,1,0,1:0:0:0:
459,169,32760,2,0,B|449:184|420:189|420:189|407:165,1,63.7500024318696,2|0,3:2|0:0,0:0:0:0:
324,38,32923,5,0,3:0:0:0:
396,187,33085,1,2,1:2:0:0:
473,70,33247,1,0,0:0:0:0:
458,259,33409,5,0,3:0:0:0:
277,166,33571,1,2,0:0:0:0:
288,142,33652,1,0,0:0:0:0:
303,202,33734,5,2,1:2:0:0:
212,109,33896,1,0,0:0:0:0:
201,85,33977,1,0,0:0:0:0:
186,145,34058,6,0,B|182:143|184:138|196:128|186:112|186:112|189:106|189:106|171:91,1,63.7500024318696,2|0,3:2|0:0,0:0:0:0:
96,18,34220,2,1,B|92:19|94:24|106:34|96:50|96:50|99:56|99:56|82:70,1,63.7500024318696,2|0,3:2|0:0,0:0:0:0:
14,122,34382,5,0,0:0:0:0:
283,59,34544,5,2,1:2:0:0:
390,128,34706,2,1,B|360:122|360:122|328:104|304:59|304:59|306:30,1,127.500004863739,2|2,0:0|3:2,0:0:0:0:
506,354,35031,5,2,1:2:0:0:
394,143,35193,2,0,B|403:150|403:150|454:157|487:141|487:141|508:120|508:120,1,127.500004863739,2|0,0:0|3:0,0:0:0:0:
261,254,35517,5,2,3:2:0:0:
399,285,35679,2,0,B|428:290|428:290|460:308|484:353|484:353|483:365,1,127.500004863739,2|0,0:0|1:0,0:0:0:0:
512,102,36004,5,2,0:0:0:0:
379,296,36166,2,0,B|369:303|369:303|318:310|285:294|285:294|264:273|264:273,1,127.500004863739,2|0,3:2|1:0,0:0:0:0:
199,159,36490,1,2,0:0:0:0:
210,135,36571,1,0,1:0:0:0:
225,195,36653,5,2,3:2:0:0:
131,99,36815,1,2,3:2:0:0:
120,75,36896,1,0,0:0:0:0:
105,135,36977,6,0,B|101:133|103:128|115:118|105:102|105:102|108:96|108:96|90:81,1,63.7500024318696,2|0,0:0|0:0,0:0:0:0:
20,48,37139,6,1,B|27:29|60:24|60:24|65:16|65:16|71:22|71:22|105:22|126:54|126:54|120:56|120:56|128:56|128:56|171:95|147:138|147:138|150:142|150:142|140:145|140:145|130:163|116:171|116:171|118:178|118:178|109:173|109:173|69:153|76:160,1,340,2|0,1:2|3:0,0:0:0:0:
39,153,37625,5,6,1:2:0:0:
49,184,37706,1,0,1:0:0:0:
29,261,37787,5,2,1:2:0:0:
39,292,37868,1,0,1:0:0:0:
85,364,37950,6,0,B|122:344|142:349|142:349|154:350|154:350|185:317,1,85,2|0,3:2|0:0,0:0:0:0:
239,269,38112,2,0,B|262:294|262:294|274:292|274:292|296:286|339:308,1,85,8|0,3:0|0:0,0:0:0:0:
406,354,38274,1,4,3:0:0:0:
500,54,38436,6,1,B|480:72|480:72|473:71|473:71|476:75|476:75|444:120|452:148|457:171|457:171|453:175|453:175|456:185|456:185|458:174|458:174|446:148|448:126|448:126|422:110|422:110|398:103|398:103|395:108|395:108|393:103|393:103|373:86|373:86|352:94|329:66,1,340,6|0,3:2|3:0,0:0:0:0:
412,13,38923,1,0,1:0:0:0:
457,277,39085,1,0,0:0:0:0:
433,266,39166,1,8,3:0:0:0:
494,256,39248,5,0,3:0:0:0:
278,140,39409,2,0,B|269:140|269:140|250:110|250:110|246:91|246:91|247:64|250:48|250:48|259:40|267:53|263:55,2,127.500004863739,2|2|2,3:2|1:2|3:2,0:0:0:0:
351,270,39896,6,1,B|333:254|341:232|354:207|354:207|357:210|357:210|358:205|358:205|370:188|366:157|366:157|369:155|369:155|366:151|366:151|366:169|351:194|351:194|335:213|314:223|314:223|312:226|312:226|316:229|316:229|316:248,1,255,8|0,3:0|0:0,0:0:0:0:
299,365,40220,1,2,1:2:0:0:
222,249,40382,1,2,0:0:0:0:
233,225,40463,1,8,3:0:0:0:
243,286,40545,5,2,3:2:0:0:
176,128,40706,2,0,B|176:150|176:150|177:161|152:178|152:178|153:185|153:185|158:208,1,85,0|0,3:0|0:0,0:0:0:0:
121,357,40868,2,0,B|121:334|121:334|122:321|97:306|97:306|98:299|98:299|103:276,1,85,2|0,1:2|0:0,0:0:0:0:
52,67,41031,6,1,B|47:75|76:45|76:45|82:38|82:38|83:44|83:44|97:47|96:53|96:53|122:59|122:59|120:63|120:63|155:92|129:140|129:140|122:143|122:143|128:143|128:143|121:178|91:188|91:188|88:196|88:196|80:190|80:190|50:196|19:169,1,340,2|2,3:2|3:2,0:0:0:0:
141,46,41517,1,0,1:0:0:0:
345,139,41679,1,0,3:0:0:0:
362,159,41760,1,8,3:0:0:0:
356,97,41842,5,0,3:0:0:0:
488,52,42004,6,1,B|486:33|467:28|467:28|459:33|459:33|429:31|379:48|370:55|370:55|363:50|363:50|362:57|362:57|350:72,2,170,2|0|2,3:2|1:0|3:2,0:0:0:0:
262,320,42490,6,1,B|263:288|263:288|262:276|262:276|284:241|321:244|321:244|323:238|323:238|323:245|323:245|349:294|394:281|394:281|401:285|401:285|401:277|401:277|425:267|437:251|437:251|431:238|431:238|426:214|446:193,1,340,8|2,3:0|1:2,0:0:0:0:
231,21,42977,1,2,1:2:0:0:
207,33,43058,1,0,1:0:0:0:
269,44,43140,5,2,1:2:0:0:
146,83,43301,1,8,3:0:0:0:
356,27,43463,1,4,3:0:0:0:
203,5,43624,1,4,3:0:0:0:
462,181,43787,5,4,0:0:0:0:
112,207,45571,5,8,3:0:0:0:
136,193,45652,1,8,3:0:0:0:
66,173,45733,5,0,1:0:0:0:
328,126,45896,1,0,3:0:0:0:
98,68,46058,1,0,1:0:0:0:
380,34,46220,1,0,3:0:0:0:
157,329,46382,6,0,B|184:310|193:258|193:258|149:235,1,106.25,12|0,1:2|0:0,0:0:0:0:
105,52,46544,1,2,3:2:0:0:
340,134,46706,1,2,3:2:0:0:
95,179,46869,6,0,B|113:151|165:142|165:142|188:186,1,106.25,14|0,1:2|0:0,0:0:0:0:
317,259,47031,1,2,3:2:0:0:
243,7,47193,1,2,3:2:0:0:
140,337,47355,1,14,1:2:0:0:
452,131,47517,6,0,B|441:136|455:168|455:168|469:184|469:184|458:211|428:233|428:233|430:244|430:244|419:241|419:241|361:274|308:215|308:215|306:206|306:206|305:214|305:214|254:250|265:302|265:302|271:309|271:309|280:327|251:343,1,446.250017023087,2|0,3:2|0:0,0:0:0:0:
220,358,47841,6,0,B|238:358|238:358|247:357|260:377|260:377|266:376|266:376|284:372,1,63.7500024318696,0|0,1:0|0:0,0:0:0:0:
489,287,48004,2,0,B|479:289|479:289|473:290|473:290|460:270|451:271|451:271|433:271,1,63.7500024318696,0|0,1:0|0:0,0:0:0:0:
168,109,48166,6,1,B|153:122|153:122|155:139|155:139|159:139|169:137|166:130,1,42.5,2|0,0:0|0:0,0:0:0:0:
159,216,48328,2,1,B|157:207|159:217|159:221|159:221|142:223|142:223|129:208,1,42.5,2|0,0:0|0:0,0:0:0:0:
201,33,48490,2,1,B|197:40|201:30|203:27|203:27|218:34|218:34|222:53,1,42.5,2|0,0:0|0:0,0:0:0:0:
180,292,48652,1,2,0:0:0:0:
12,69,48814,6,1,B|17:63|5:103|57:121|57:121|58:139|74:125|74:125|97:133|112:133|171:99|171:99|176:81|176:81|187:81|187:81|240:57|287:93|287:93|296:90|296:90|301:98|301:98|305:114|292:123,1,382.500014591218,4|0,3:1|0:0,0:0:0:0:
306,201,49139,6,1,B|291:194|291:194|274:169|276:147|276:147|281:131|281:131|294:124,1,85,2|0,3:2|0:0,0:0:0:0:
367,27,49301,1,8,1:2:0:0:
493,241,49463,6,0,B|489:245|481:243|481:243|480:240|480:240|462:239|462:239|463:231|465:232,1,42.5,2|0,0:0|0:0,0:0:0:0:
405,101,49625,2,1,B|400:105|402:112|402:112|405:113|405:113|406:132|406:132|414:130|413:128,1,42.5,2|0,3:2|0:0,0:0:0:0:
380,336,49787,2,0,B|384:332|382:324|382:324|379:323|379:323|378:305|378:305|370:306|371:308,1,42.5,2|0,3:2|0:0,0:0:0:0:
271,140,49949,1,10,1:2:0:0:
197,369,50112,6,1,B|225:343|213:307|192:267|192:267|187:272|187:272|185:264|185:264|166:237|172:187|172:187|168:184|168:184|172:177|172:177|172:206|197:246|197:246|222:277|256:293|256:293|259:298|259:298|253:303|253:303|253:333,1,382.500014591218,2|0,3:2|0:0,0:0:0:0:
268,316,50436,6,1,B|283:309|283:309|300:284|298:262|298:262|293:246|293:246|280:239,1,85,2|0,3:2|0:0,0:0:0:0:
240,60,50598,1,8,1:2:0:0:
60,231,50760,1,2,0:0:0:0:
78,248,50841,1,2,1:2:0:0:
66,186,50923,5,2,3:2:0:0:
30,315,51085,1,2,3:2:0:0:
16,122,51247,1,10,1:2:0:0:
305,172,51409,6,1,B|329:171|329:171|334:166|334:166|337:169|337:169|351:197|376:217|376:217|409:237|432:237|432:237|427:242|427:242|424:238|424:238|384:243|361:227|361:227|354:226|354:226|358:222|358:222|325:205|297:194|274:219,1,340,2|2,3:2|3:2,0:0:0:0:
208,312,51896,5,10,1:2:0:0:
178,140,52058,1,2,0:0:0:0:
173,116,52139,1,2,1:2:0:0:
221,157,52221,5,2,3:2:0:0:
211,32,52382,1,2,3:2:0:0:
172,223,52544,1,10,1:2:0:0:
466,166,52706,6,1,B|459:147|426:142|426:142|421:134|421:134|415:140|415:140|381:140|360:172|360:172|366:174|366:174|358:174|358:174|315:213|339:256|339:256|336:260|336:260|346:263|346:263|356:281|370:289|370:289|368:296|368:296|377:291|377:291|417:271|410:278,1,340,2|2,3:2|3:2,0:0:0:0:
407,104,53193,5,10,1:2:0:0:
480,334,53355,1,0,3:0:0:0:
485,307,53436,1,0,0:0:0:0:
441,358,53517,5,14,3:2:0:0:
231,308,53679,5,0,1:0:0:0:
251,323,53760,5,2,1:2:0:0:
293,287,53841,5,12,3:0:0:0:
257,223,53923,5,0,1:0:0:0:
180,195,54004,5,2,1:2:0:0:
111,251,54085,5,0,1:0:0:0:
89,351,54166,6,0,B|45:347|44:311|44:311|41:302|41:302|51:308|51:308|53:261|59:243|59:243|64:237|64:237|60:231|60:231|68:181,1,212.5,4|2,3:1|0:0,0:0:0:0:
255,133,54490,6,0,B|244:111|244:111|209:87|176:89|176:89|153:96|153:96|150:101,1,127.5,10|0,1:2|0:0,0:0:0:0:
132,126,54652,6,0,B|142:147|142:147|177:171|210:169|210:169|233:162|233:162|243:143,1,127.5,2|0,0:0|0:0,0:0:0:0:
311,68,54814,6,1,B|333:42|333:42|390:22|433:36|433:36|461:54|461:54|463:61,1,170,2|0,3:2|3:0,0:0:0:0:
478,68,55058,6,0,B|445:98|445:98|388:118|345:104|345:104|317:86|317:86|317:86,1,170,2|0,0:0|0:0,0:0:0:0:
103,24,55301,6,1,B|59:28|58:64|58:64|55:72|55:72|65:67|65:67|67:114|73:132|73:132|78:138|78:138|74:144|74:144|82:194,1,212.5,2|0,3:2|0:0,0:0:0:0:
103,343,55625,5,2,3:2:0:0:
56,175,55787,1,10,1:2:0:0:
185,245,55950,1,2,0:0:0:0:
190,272,56031,1,0,1:0:0:0:
224,303,56112,6,1,B|222:283|222:283|215:287|215:287|213:281|213:281|232:256|228:241|230:204,1,85,2|0,3:2|0:0,0:0:0:0:
298,147,56274,2,0,B|300:153|300:168|325:187|325:187|325:194|325:194|317:192|317:192|320:211,1,85,2|0,3:2|0:0,0:0:0:0:
413,362,56436,6,1,B|385:356|385:356|379:361|379:361|376:355|376:355|349:346|342:315|342:315|347:315|347:315|341:312|341:312|319:270|350:243|350:243|348:240|348:240|357:240|357:240|369:229|383:226|383:226|383:220|383:220|389:227|389:227|411:236|398:266,2,255.000009727478,10|2|0,1:2|3:2|0:0,0:0:0:0:
423,110,56923,1,2,3:2:0:0:
316,325,57085,5,10,1:2:0:0:
260,77,57247,1,0,3:0:0:0:
434,368,57409,5,10,1:2:0:0:
474,15,57571,1,0,3:0:0:0:
306,341,57733,5,10,1:2:0:0:
184,35,57896,6,1,B|195:40|181:72|181:72|167:88|167:88|178:115|208:137|208:137|206:148|206:148|217:145|217:145|275:178|328:119|328:119|330:110|330:110|331:118|331:118|382:154|371:206|371:206|365:213|365:213|356:231|385:247,1,446.250017023087,6|0,3:2|0:0,0:0:0:0:
418,265,58220,6,0,B|400:265|400:265|391:264|378:284|378:284|372:283|372:283|354:279,1,63.7500024318696,8|0,1:2|0:0,0:0:0:0:
148,201,58383,2,0,B|158:203|158:203|164:204|164:204|177:184|186:185|186:185|204:185,1,63.7500024318696,8|0,1:2|0:0,0:0:0:0:
436,109,58544,1,2,1:2:0:0:
475,96,58625,1,0,1:0:0:0:
409,65,58706,5,2,1:2:0:0:
295,350,58869,1,2,1:2:0:0:
222,376,58950,1,0,1:0:0:0:
177,301,59031,1,8,3:0:0:0:
97,281,59112,1,4,3:0:0:0:
31,341,59193,6,1,B|44:356|80:348|80:348|89:355|89:355|92:346|92:346|128:334|137:293|137:293|130:292|130:292|138:290|138:290|168:233|127:197|127:197|129:193|129:193|117:193|117:193|100:179|83:175|83:175|82:167|82:167|75:176|75:176|40:211|45:203,1,382.500014591218,4|0,3:1|0:0,0:0:0:0:
31,224,59517,6,1,B|29:223|29:223|20:209|20:209|13:188|23:160|23:160|35:149,1,85,2|0,3:2|0:0,0:0:0:0:
107,49,59679,1,8,1:2:0:0:
369,267,59841,6,0,B|373:263|377:257|377:257|376:245|368:247|367:236|367:236|361:234,1,42.5,2|0,0:0|1:0,0:0:0:0:
342,51,60004,2,1,B|346:55|350:61|350:61|349:73|341:71|340:82|340:82|334:83,1,42.5,2|0,3:2|0:0,0:0:0:0:
218,203,60166,2,0,B|222:207|228:211|228:211|240:210|238:202|249:201|249:201|250:195,1,42.5,2|0,3:2|0:0,0:0:0:0:
455,156,60328,1,10,1:2:0:0:
206,194,60490,6,1,B|218:180|222:175|222:175|227:180|227:180|269:139|315:160|315:160|325:160|325:160|329:176|329:176|380:205|393:205|413:198|413:198|426:210|427:195|427:195|472:179|462:144|472:136|472:136|437:148,1,382.500014591218,2|0,3:2|0:0,0:0:0:0:
433,69,60814,6,1,B|431:68|431:68|419:80|419:80|406:98|408:128|408:128|418:142,1,85,2|0,3:2|0:0,0:0:0:0:
490,255,60977,1,8,1:2:0:0:
230,315,61139,1,2,0:0:0:0:
213,333,61220,1,0,1:0:0:0:
275,321,61302,5,2,3:2:0:0:
146,285,61464,1,2,3:2:0:0:
339,271,61626,1,10,1:2:0:0:
17,148,61787,6,1,B|37:165|37:165|44:164|44:164|41:168|41:168|72:212|64:240|59:262|59:262|63:266|63:266|60:276|60:276|58:265|58:265|70:240|69:217|69:217|93:202|93:202|117:196|117:196|120:200|120:200|122:196|122:196|141:179|141:179|162:187|184:159,1,318.75,6|0,3:2|0:0,0:0:0:0:
255,193,62112,6,0,B|229:207|229:207|199:209|181:196|181:196|169:184|169:184|170:169,1,106.25,2|0,3:2|0:0,0:0:0:0:
112,36,62274,1,10,1:2:0:0:
391,170,62436,1,0,0:0:0:0:
418,161,62517,1,0,1:0:0:0:
382,87,62598,5,2,3:2:0:0:
461,348,62760,1,0,3:0:0:0:
316,33,62923,5,10,1:2:0:0:
261,290,63085,1,0,3:0:0:0:
462,49,63247,5,14,1:2:0:0:
145,181,63409,1,0,3:0:0:0:
432,264,63571,1,10,1:2:0:0:
175,103,63733,5,2,3:2:0:0:
193,113,63814,1,0,1:0:0:0:
221,148,63896,5,4,1:3:0:0:
238,91,63977,1,0,1:0:0:0:
281,49,64058,5,8,3:0:0:0:
316,104,64139,1,4,3:0:0:0:
337,176,64220,5,2,1:2:0:0:
394,110,64301,1,0,1:0:0:0:
461,50,64382,6,1,B|446:37|416:49|416:49|408:44|408:44|406:52|406:52|377:69|375:105|375:105|381:104|381:104|374:108|374:108|357:161|398:185|398:185|397:190|397:190|407:188|407:188|424:198|440:198|440:198|441:205|441:205|446:196|446:196|470:160|468:170,1,318.75,4|0,3:1|0:0,0:0:0:0:
476,70,64706,1,2,3:2:0:0:
503,319,64869,1,10,1:2:0:0:
264,208,65031,1,2,0:0:0:0:
239,210,65112,1,0,1:0:0:0:
292,244,65194,5,2,3:2:0:0:
187,271,65355,1,2,3:2:0:0:
352,193,65517,1,10,1:2:0:0:
142,143,65679,1,2,0:0:0:0:
390,310,65841,5,2,3:2:0:0:
128,362,66004,6,1,B|114:351|114:351|107:350|107:350|112:343|112:343|105:334|88:284|90:254|90:254|85:246|85:246|90:227|109:225,1,170,2|8,3:2|1:2,0:0:0:0:
195,23,66328,1,2,3:2:0:0:
127,233,66490,1,2,0:0:0:0:
108,67,66652,5,2,3:2:0:0:
218,282,66814,1,10,1:2:0:0:
291,308,66895,1,0,0:0:0:0:
336,233,66976,1,2,1:2:0:0:
416,213,67057,1,0,1:0:0:0:
489,259,67139,5,6,3:2:0:0:
208,32,67300,6,0,B|202:36|202:36|195:59|195:59|193:91|217:126|217:126|239:137,1,127.5,2|0,3:2|0:0,0:0:0:0:
407,338,67463,2,0,B|388:352|388:352|346:358|318:342|318:342|301:326|301:326|301:317,1,127.5,10|0,1:2|0:0,0:0:0:0:
232,22,67625,6,0,B|253:32|253:32|277:67|275:99|275:99|268:122|268:122|261:125,1,127.500004863739,2|0,3:2|0:0,0:0:0:0:
180,351,67788,2,0,B|200:364|200:364|242:367|269:350|269:350|285:332|285:332|285:325,1,127.500004863739,10|0,1:2|0:0,0:0:0:0:
409,77,67950,6,0,B|414:84|414:84|392:92|382:78|382:78|329:68|329:68|332:61|332:61|327:59|327:59|312:62,1,127.500004863739,2|0,3:2|0:0,0:0:0:0:
17,249,68112,2,0,B|11:256|11:256|33:264|43:250|43:250|96:240|96:240|93:233|93:233|98:231|98:231|113:234,1,127.500004863739,10|0,1:2|0:0,0:0:0:0:
472,193,68274,6,1,B|493:201|499:238|499:238|508:244|508:244|501:251|501:251|501:290|465:314|465:314|462:307|462:307|462:316|462:316|416:358|369:338|369:338|364:341|364:341|361:330|361:330|340:318|331:302|331:302|323:305|323:305|329:294|329:294|351:249|343:257,1,382.500014591218,6|0,3:2|0:0,0:0:0:0:
447,188,68598,5,10,1:2:0:0:
289,379,68760,1,8,1:2:0:0:
185,101,68923,6,0,B|176:86|176:86|177:56|191:39|191:39|204:29|204:29|219:31,2,85,2|0|0,1:2|1:0|1:0,0:0:0:0:
222,332,69247,1,8,3:0:0:0:
209,371,69328,1,8,3:0:0:0:
178,305,69409,5,8,3:0:0:0:
356,252,69571,1,4,3:0:0:0:
29,173,69733,6,1,B|45:200|45:200|50:211|50:211|87:230|118:209|118:209|122:213|122:213|119:207|119:207|117:152|162:140|162:140|166:133|166:133|170:140|170:140|196:137|215:145|215:145|216:159|216:159|224:182|251:190,1,340,4|0,3:1|3:0,0:0:0:0:
324,323,70220,2,0,B|332:304|332:304|371:278|406:281|406:281|431:289|431:289|432:291,1,127.500004863739,0|2,1:0|0:0,0:0:0:0:
401,384,70544,1,2,3:2:0:0:
352,114,70706,6,0,B|348:121|348:121|340:128|340:128|352:134|352:134|350:152|373:215|373:215|383:220|383:220|366:233|392:272|392:272|392:287|392:287|413:309|441:297,1,255.000009727478,4|0,1:2|3:0,0:0:0:0:
415,44,71193,2,0,B|434:52|434:52|460:91|457:126|457:126|449:151|449:151|447:152,1,127.500004863739,4|0,1:2|0:0,0:0:0:0:
274,215,71517,1,0,3:0:0:0:
280,34,71679,5,2,1:2:0:0:
249,44,71760,1,0,1:0:0:0:
195,108,71841,5,2,1:2:0:0:
164,98,71922,1,0,1:0:0:0:
100,43,72004,5,4,1:3:0:0:
183,69,72085,1,0,1:0:0:0:
273,101,72166,1,2,1:2:0:0:
363,130,72247,1,0,1:0:0:0:
437,174,72328,6,1,B|436:173|436:173|410:165|410:165|372:162|332:190|332:190|319:215,1,127.500004863739,4|0,3:2|0:0,0:0:0:0:
161,341,72652,6,1,B|161:323|161:323|160:314|180:301|180:301|179:295|179:295|175:277,1,63.7500024318696,2|0,3:2|0:0,0:0:0:0:
244,221,72814,2,0,B|244:239|244:239|243:249|263:261|263:261|262:267|262:267|258:285,1,63.7500024318696,2|0,1:2|0:0,0:0:0:0:
295,365,72976,5,2,0:0:0:0:
360,118,73139,1,0,3:0:0:0:
419,378,73301,1,2,1:2:0:0:
195,75,73463,6,1,B|165:54|165:54|102:51|63:75|63:75|39:103|39:103|41:134,1,170,6|0,3:2|0:0,0:0:0:0:
82,296,73787,6,0,B|111:316|111:316|174:319|213:295|213:295|238:268|238:268|235:236,1,170,2|0,3:2|1:0,0:0:0:0:
148,138,74112,6,0,B|140:132|140:132|124:132|115:138|115:138|109:145|109:145|109:152,2,42.5,2|0|0,1:2|0:0|1:0,0:0:0:0:
109,224,74274,6,1,B|123:234|123:234|155:235|174:223|174:223|187:210|187:210|185:194,1,85,2|0,1:2|0:0,0:0:0:0:
110,25,74436,5,0,3:0:0:0:
170,344,74598,1,4,1:2:0:0:
255,62,74760,1,2,0:0:0:0:
280,333,74923,6,1,B|239:385|254:333|254:333|251:323|251:323|259:322|259:322|269:257|332:240|332:240|332:230|332:230|380:236,1,255,6|0,3:2|0:0,0:0:0:0:
480,299,75247,1,2,3:2:0:0:
248,49,75409,6,1,B|207:-2|222:48|222:48|218:58|218:58|227:59|227:59|237:125|299:141|299:141|300:151|300:151|347:146,1,255,6|0,1:2|0:0,0:0:0:0:
429,85,75733,1,2,3:2:0:0:
195,248,75896,6,1,B|172:257|172:257|169:263|169:263|165:261|165:261|143:240|112:229|112:229|75:222|53:230|53:230|56:223|56:223|60:226|60:226|96:208|123:215|123:215|130:214|130:214|128:219|128:219|164:223|194:224|208:193,1,340,6|0,1:2|3:0,0:0:0:0:
255,62,76382,1,2,1:2:0:0:
289,321,76544,1,2,3:2:0:0:
338,136,76706,5,2,3:2:0:0:
219,201,76869,1,0,1:0:0:0:
171,117,77031,1,2,3:2:0:0:
61,121,77193,1,0,1:0:0:0:
407,180,77355,6,0,B|368:180|368:180|355:175|349:163|337:176|338:168|322:165|322:165|321:158|321:158|317:159|291:158|275:166|275:166|267:153|261:160|240:160|215:147|215:147|216:140|216:140|202:136|180:127|165:135|155:144|132:143|120:137|110:119|110:119|106:123|90:110|84:105|54:109,1,382.5,6|0,3:2|0:0,0:0:0:0:
39,119,78977,5,2,1:2:0:0:
416,77,79139,1,2,1:2:0:0:
403,63,79463,5,2,1:2:0:0:
26,21,79625,1,2,1:2:0:0:
28,40,79950,6,1,B|32:50|62:37|62:37|77:24|77:24|102:34|123:62|123:62|133:60|133:60|130:70|130:70|161:125|106:174|106:174|98:176|98:176|105:177|105:177|139:225|189:220|189:220|195:224|195:224|218:207|283:185,1,425,4|0,3:1|3:0,0:0:0:0:
385,55,80436,6,0,P|387:65|381:74,1,21.25,10|0,1:2|0:0,0:0:0:0:
334,293,80598,6,1,B|313:300|290:331|290:331|281:331|281:331|290:339|290:339|312:334|323:341|323:341|332:311|353:294,1,170,2|0,0:0|3:0,0:0:0:0:
429,201,80923,6,1,B|436:221|467:244|467:244|467:253|467:253|475:244|475:244|470:222|477:211|477:211|447:202|430:181,1,170,2|8,3:2|1:2,0:0:0:0:
217,79,81247,6,1,B|209:58|178:35|178:35|178:26|178:26|170:35|170:35|175:57|168:68|168:68|198:77|215:98,1,170,2|0,3:2|0:0,0:0:0:0:
377,36,81571,6,1,B|397:28|420:-3|420:-3|429:-3|429:-3|420:-11|420:-11|398:-6|387:-12|387:-12|378:17|357:34,1,170,2|8,3:2|1:2,0:0:0:0:
111,357,81896,6,0,P|108:346|114:337,1,21.25,2|0,0:0|1:0,0:0:0:0:
169,210,82058,6,0,B|173:200|170:181|170:181|173:178|173:178|167:178|167:178|162:188|155:189|155:189|163:203|161:223,1,85,2|0,3:2|0:0,0:0:0:0:
206,302,82220,6,0,B|201:311|204:330|204:330|201:333|201:333|207:333|207:333|212:323|219:322|219:322|211:308|213:288,1,85,2|0,3:2|0:0,0:0:0:0:
245,126,82382,5,8,1:2:0:0:
36,258,82544,6,1,B|52:240|52:240|50:233|50:233|59:235|59:235|100:218|141:244|141:244|152:244|152:244|145:250|145:250|170:307|227:301|227:301|233:304|233:304|237:296|237:296|275:295|278:272,1,318.75,2|0,3:2|0:0,0:0:0:0:
330,170,82869,5,2,3:2:0:0:
358,364,83031,1,10,1:2:0:0:
425,207,83193,1,2,3:2:0:0:
350,384,83355,1,10,1:2:0:0:
323,157,83517,1,0,3:0:0:0:
476,311,83679,1,10,1:2:0:0:
233,60,83841,6,1,B|226:41|193:36|193:36|188:28|188:28|182:34|182:34|148:34|127:66|127:66|133:68|133:68|125:68|125:68|82:107|106:150|106:150|103:154|103:154|113:157|113:157|123:175|137:183|137:183|135:190|135:190|144:185|144:185|184:165|177:172,1,318.75,6|0,3:2|0:0,0:0:0:0:
330,170,84166,5,10,1:2:0:0:
71,100,84328,1,10,1:2:0:0:
247,310,84490,1,2,1:2:0:0:
217,327,84571,1,0,1:0:0:0:
137,308,84652,6,0,B|128:300|130:281|130:281|147:277,1,42.5,2|0,1:2|0:0,0:0:0:0:
230,150,84814,2,0,B|241:154|249:171|249:171|236:183,1,42.5,8|4,3:0|3:0,0:0:0:0:
158,384,84977,1,8,3:0:0:0:
47,12,85139,5,4,3:1:0:0:
256,192,85179,12,2,87247,0:0:0:0:
